  0
SECTION
  2
HEADER
  9
$ACADVER
  1
AC1015
  9
$ACADMAINTVER
 70
     6
  9
$DWGCODEPAGE
  3
ANSI_1252
  9
$INSBASE
 10
0.0
 20
0.0
 30
0.0
  9
$EXTMIN
 10
0.0
 20
0.0
 30
0.0
  9
$EXTMAX
 10
840.0
 20
594.0
 30
0.0
  9
$LIMMIN
 10
0.0
 20
0.0
  9
$LIMMAX
 10
840.0
 20
594.0
  9
$ORTHOMODE
 70
     0
  9
$REGENMODE
 70
     1
  9
$FILLMODE
 70
     1
  9
$QTEXTMODE
 70
     0
  9
$MIRRTEXT
 70
     1
  9
$LTSCALE
 40
2.0
  9
$ATTMODE
 70
     1
  9
$TEXTSIZE
 40
5.6444444444
  9
$TRACEWID
 40
1.0
  9
$TEXTSTYLE
  7
Standard
  9
$CLAYER
  8
0
  9
$CELTYPE
  6
ByLayer
  9
$CECOLOR
 62
   256
  9
$CELTSCALE
 40
1.0
  9
$DISPSILH
 70
     0
  9
$DIMSCALE
 40
1.0
  9
$DIMASZ
 40
4.0
  9
$DIMEXO
 40
2.0
  9
$DIMDLI
 40
3.75
  9
$DIMRND
 40
0.0
  9
$DIMDLE
 40
0.0
  9
$DIMEXE
 40
2.0
  9
$DIMTP
 40
0.0
  9
$DIMTM
 40
0.0
  9
$DIMTXT
 40
7.0555555556
  9
$DIMCEN
 40
2.5
  9
$DIMTSZ
 40
0.0
  9
$DIMTOL
 70
     0
  9
$DIMLIM
 70
     0
  9
$DIMTIH
 70
     1
  9
$DIMTOH
 70
     1
  9
$DIMSE1
 70
     0
  9
$DIMSE2
 70
     0
  9
$DIMTAD
 70
     1
  9
$DIMZIN
 70
     0
  9
$DIMBLK
  1

  9
$DIMASO
 70
     1
  9
$DIMSHO
 70
     1
  9
$DIMPOST
  1

  9
$DIMAPOST
  1

  9
$DIMALT
 70
     0
  9
$DIMALTD
 70
     3
  9
$DIMALTF
 40
0.0393700787
  9
$DIMLFAC
 40
1.0
  9
$DIMTOFL
 70
     1
  9
$DIMTVP
 40
0.0
  9
$DIMTIX
 70
     0
  9
$DIMSOXD
 70
     0
  9
$DIMSAH
 70
     0
  9
$DIMBLK1
  1

  9
$DIMBLK2
  1

  9
$DIMSTYLE
  2
ISO-25
  9
$DIMCLRD
 70
     0
  9
$DIMCLRE
 70
     0
  9
$DIMCLRT
 70
     0
  9
$DIMTFAC
 40
1.0
  9
$DIMGAP
 40
3.048
  9
$DIMJUST
 70
     0
  9
$DIMSD1
 70
     0
  9
$DIMSD2
 70
     0
  9
$DIMTOLJ
 70
     0
  9
$DIMTZIN
 70
     0
  9
$DIMALTZ
 70
     0
  9
$DIMALTTZ
 70
     0
  9
$DIMUPT
 70
     0
  9
$DIMDEC
 70
     2
  9
$DIMTDEC
 70
     2
  9
$DIMALTU
 70
     2
  9
$DIMALTTD
 70
     3
  9
$DIMTXSTY
  7
Standard
  9
$DIMAUNIT
 70
     0
  9
$DIMADEC
 70
     2
  9
$DIMALTRND
 40
0.0
  9
$DIMAZIN
 70
     0
  9
$DIMDSEP
 70
    44
  9
$DIMATFIT
 70
     3
  9
$DIMFRAC
 70
     0
  9
$DIMLDRBLK
  1

  9
$DIMLUNIT
 70
     2
  9
$DIMLWD
 70
    -2
  9
$DIMLWE
 70
    -2
  9
$DIMTMOVE
 70
     0
  9
$LUNITS
 70
     2
  9
$LUPREC
 70
     2
  9
$SKETCHINC
 40
1.0
  9
$FILLETRAD
 40
10.0
  9
$AUNITS
 70
     0
  9
$AUPREC
 70
     2
  9
$MENU
  1
.
  9
$ELEVATION
 40
0.0
  9
$PELEVATION
 40
0.0
  9
$THICKNESS
 40
0.0
  9
$LIMCHECK
 70
     0
  9
$CHAMFERA
 40
10.0
  9
$CHAMFERB
 40
10.0
  9
$CHAMFERC
 40
20.0
  9
$CHAMFERD
 40
0.0
  9
$SKPOLY
 70
     0
  9
$TDCREATE
 40
2456354.648983727
  9
$TDUCREATE
 40
2456354.60731706
  9
$TDUPDATE
 40
2456354.648986019
  9
$TDUUPDATE
 40
2456354.607319352
  9
$TDINDWG
 40
0.0000000116
  9
$TDUSRTIMER
 40
0.0000000116
  9
$USRTIMER
 70
     1
  9
$ANGBASE
 50
0.0
  9
$ANGDIR
 70
     0
  9
$PDMODE
 70
     0
  9
$PDSIZE
 40
-1.0
  9
$PLINEWID
 40
0.0
  9
$SPLFRAME
 70
     0
  9
$SPLINETYPE
 70
     6
  9
$SPLINESEGS
 70
     8
  9
$HANDSEED
  5
46A
  9
$SURFTAB1
 70
     6
  9
$SURFTAB2
 70
     6
  9
$SURFTYPE
 70
     6
  9
$SURFU
 70
     6
  9
$SURFV
 70
     6
  9
$UCSBASE
  2

  9
$UCSNAME
  2

  9
$UCSORG
 10
0.0
 20
0.0
 30
0.0
  9
$UCSXDIR
 10
1.0
 20
0.0
 30
0.0
  9
$UCSYDIR
 10
0.0
 20
1.0
 30
0.0
  9
$UCSORTHOREF
  2

  9
$UCSORTHOVIEW
 70
     0
  9
$UCSORGTOP
 10
0.0
 20
0.0
 30
0.0
  9
$UCSORGBOTTOM
 10
0.0
 20
0.0
 30
0.0
  9
$UCSORGLEFT
 10
0.0
 20
0.0
 30
0.0
  9
$UCSORGRIGHT
 10
0.0
 20
0.0
 30
0.0
  9
$UCSORGFRONT
 10
0.0
 20
0.0
 30
0.0
  9
$UCSORGBACK
 10
0.0
 20
0.0
 30
0.0
  9
$PUCSBASE
  2

  9
$PUCSNAME
  2

  9
$PUCSORG
 10
0.0
 20
0.0
 30
0.0
  9
$PUCSXDIR
 10
1.0
 20
0.0
 30
0.0
  9
$PUCSYDIR
 10
0.0
 20
1.0
 30
0.0
  9
$PUCSORTHOREF
  2

  9
$PUCSORTHOVIEW
 70
     0
  9
$PUCSORGTOP
 10
0.0
 20
0.0
 30
0.0
  9
$PUCSORGBOTTOM
 10
0.0
 20
0.0
 30
0.0
  9
$PUCSORGLEFT
 10
0.0
 20
0.0
 30
0.0
  9
$PUCSORGRIGHT
 10
0.0
 20
0.0
 30
0.0
  9
$PUCSORGFRONT
 10
0.0
 20
0.0
 30
0.0
  9
$PUCSORGBACK
 10
0.0
 20
0.0
 30
0.0
  9
$USERI1
 70
     0
  9
$USERI2
 70
     0
  9
$USERI3
 70
     0
  9
$USERI4
 70
     0
  9
$USERI5
 70
     0
  9
$USERR1
 40
0.0
  9
$USERR2
 40
0.0
  9
$USERR3
 40
0.0
  9
$USERR4
 40
0.0
  9
$USERR5
 40
0.0
  9
$WORLDVIEW
 70
     1
  9
$SHADEDGE
 70
     3
  9
$SHADEDIF
 70
    70
  9
$TILEMODE
 70
     1
  9
$MAXACTVP
 70
    64
  9
$PINSBASE
 10
0.0
 20
0.0
 30
0.0
  9
$PLIMCHECK
 70
     0
  9
$PEXTMIN
 10
1.0000000000E+20
 20
1.0000000000E+20
 30
1.0000000000E+20
  9
$PEXTMAX
 10
-1.0000000000E+20
 20
-1.0000000000E+20
 30
-1.0000000000E+20
  9
$PLIMMIN
 10
0.0
 20
0.0
  9
$PLIMMAX
 10
420.0
 20
297.0
  9
$UNITMODE
 70
     0
  9
$VISRETAIN
 70
     1
  9
$PLINEGEN
 70
     0
  9
$PSLTSCALE
 70
     1
  9
$TREEDEPTH
 70
  3020
  9
$CMLSTYLE
  2
Standard
  9
$CMLJUST
 70
     0
  9
$CMLSCALE
 40
20.0
  9
$PROXYGRAPHICS
 70
     1
  9
$MEASUREMENT
 70
     1
  9
$CELWEIGHT
370
    -1
  9
$ENDCAPS
280
     0
  9
$JOINSTYLE
280
     0
  9
$LWDISPLAY
290
     1
  9
$INSUNITS
 70
     4
  9
$HYPERLINKBASE
  1

  9
$STYLESHEET
  1

  9
$XEDIT
290
     1
  9
$CEPSNTYPE
380
     0
  9
$PSTYLEMODE
290
     1
  9
$FINGERPRINTGUID
  2
{67AEB493-6F69-4581-A6B5-957D4EF7921F}
  9
$VERSIONGUID
  2
{FAEB1C32-E019-11D5-929B-00C0DF256EC4}
  9
$EXTNAMES
290
     1
  9
$PSVPSCALE
 40
0.0
  9
$OLESTARTUP
290
     0
  0
ENDSEC
  0
SECTION
  2
CLASSES
  0
CLASS
  1
ACDBDICTIONARYWDFLT
  2
AcDbDictionaryWithDefault
  3
ObjectDBX Classes
 90
        0
280
     0
281
     0
  0
CLASS
  1
VISUALSTYLE
  2
AcDbVisualStyle
  3
ObjectDBX Classes
 90
     4095
280
     0
281
     0
  0
CLASS
  1
MATERIAL
  2
AcDbMaterial
  3
ObjectDBX Classes
 90
     1153
280
     0
281
     0
  0
CLASS
  1
ACDBPLACEHOLDER
  2
AcDbPlaceHolder
  3
ObjectDBX Classes
 90
        0
280
     0
281
     0
  0
CLASS
  1
LAYOUT
  2
AcDbLayout
  3
ObjectDBX Classes
 90
        0
280
     0
281
     0
  0
ENDSEC
  0
SECTION
  2
TABLES
  0
TABLE
  2
VPORT
  5
8
330
0
100
AcDbSymbolTable
 70
     1
  0
VPORT
  5
29
330
8
100
AcDbSymbolTableRecord
100
AcDbViewportTableRecord
  2
*Active
 70
     0
 10
0.0
 20
0.0
 11
1.0
 21
1.0
 12
420.0
 22
297.0
 13
0.0
 23
0.0
 14
10.0
 24
10.0
 15
10.0
 25
10.0
 16
0.0
 26
0.0
 36
1.0
 17
0.0
 27
0.0
 37
0.0
 40
594.0
 41
1.4141414141
 42
50.0
 43
0.0
 44
0.0
 50
0.0
 51
0.0
 71
     0
 72
  2000
 73
     1
 74
     3
 75
     0
 76
     0
 77
     0
 78
     0
281
     0
 65
     1
110
0.0
120
0.0
130
0.0
111
1.0
121
0.0
131
0.0
112
0.0
122
1.0
132
0.0
 79
     0
146
0.0
  0
ENDTAB
  0
TABLE
  2
LTYPE
  5
5
330
0
100
AcDbSymbolTable
 70
     6
  0
LTYPE
  5
14
330
5
100
AcDbSymbolTableRecord
100
AcDbLinetypeTableRecord
  2
ByBlock
 70
     0
  3

 72
    65
 73
     0
 40
0.0
  0
LTYPE
  5
15
330
5
100
AcDbSymbolTableRecord
100
AcDbLinetypeTableRecord
  2
ByLayer
 70
     0
  3

 72
    65
 73
     0
 40
0.0
  0
LTYPE
  5
16
330
5
100
AcDbSymbolTableRecord
100
AcDbLinetypeTableRecord
  2
Continuous
 70
     0
  3
Solid line
 72
    65
 73
     0
 40
0.0
  0
LTYPE
  5
3F
330
5
100
AcDbSymbolTableRecord
100
AcDbLinetypeTableRecord
  2
HIDDEN
 70
     0
  3
Hidden __ __ __ __ __ __ __ __ __ __ __ __ __ __
 72
    65
 73
     2
 40
1.905
 49
1.27
 74
     0
 49
-0.635
 74
     0
  0
LTYPE
  5
40
330
5
100
AcDbSymbolTableRecord
100
AcDbLinetypeTableRecord
  2
PHANTOM
 70
     0
  3
Phantom ______  __  __  ______  __  __  ______
 72
    65
 73
     6
 40
12.7
 49
6.35
 74
     0
 49
-1.27
 74
     0
 49
1.27
 74
     0
 49
-1.27
 74
     0
 49
1.27
 74
     0
 49
-1.27
 74
     0
  0
LTYPE
  5
41
330
5
100
AcDbSymbolTableRecord
100
AcDbLinetypeTableRecord
  2
CENTER
 70
     0
  3
Center ____ _ ____ _ ____ _ ____ _ ____ _ ____
 72
    65
 73
     4
 40
10.16
 49
6.35
 74
     0
 49
-1.27
 74
     0
 49
1.27
 74
     0
 49
-1.27
 74
     0
  0
LTYPE
  5
42
330
5
100
AcDbSymbolTableRecord
100
AcDbLinetypeTableRecord
  2
CENTERX2
 70
     0
  3
Center (2x) ________  __  ________  __  _____
 72
    65
 73
     4
 40
20.32
 49
12.7
 74
     0
 49
-2.54
 74
     0
 49
2.54
 74
     0
 49
-2.54
 74
     0
  0
LTYPE
  5
43
330
5
100
AcDbSymbolTableRecord
100
AcDbLinetypeTableRecord
  2
DOT2
 70
     0
  3
Dot (.5x) ........................................
 72
    65
 73
     2
 40
0.635
 49
0.0
 74
     0
 49
-0.635
 74
     0
  0
ENDTAB
  0
TABLE
  2
LAYER
  5
2
330
0
100
AcDbSymbolTable
 70
     8
  0
LAYER
  5
10
330
2
100
AcDbSymbolTableRecord
100
AcDbLayerTableRecord
  2
0
 70
     0
 62
     7
  6
Continuous
370
    -3
390
F
  0
LAYER
  5
44
330
2
100
AcDbSymbolTableRecord
100
AcDbLayerTableRecord
  2
SLD-0
 70
     0
 62
     7
  6
Continuous
370
    -3
390
F
  0
LAYER
  5
45
330
2
100
AcDbSymbolTableRecord
100
AcDbLayerTableRecord
  2
CONTORNO
 70
     0
 62
     7
  6
Continuous
370
    30
390
F
  0
LAYER
  5
46
330
2
100
AcDbSymbolTableRecord
100
AcDbLayerTableRecord
  2
RIQUADRO
 70
     0
 62
     5
  6
Continuous
370
    -3
390
F
  0
LAYER
  5
47
330
2
100
AcDbSymbolTableRecord
100
AcDbLayerTableRecord
  2
LOGO
 70
     0
 62
   176
  6
Continuous
370
    -3
390
F
  0
LAYER
  5
48
330
2
100
AcDbSymbolTableRecord
100
AcDbLayerTableRecord
  2
PROIEZ
 70
     0
 62
    16
  6
Continuous
370
    15
390
F
  0
LAYER
  5
49
330
2
100
AcDbSymbolTableRecord
100
AcDbLayerTableRecord
  2
CARTIGLIO
 70
     0
 62
     5
  6
Continuous
370
    -3
390
F
  0
LAYER
  5
4A
330
2
100
AcDbSymbolTableRecord
100
AcDbLayerTableRecord
  2
TABELLA_REV
 70
     0
 62
   136
  6
Continuous
370
    -3
390
F
  0
ENDTAB
  0
TABLE
  2
STYLE
  5
3
330
0
100
AcDbSymbolTable
 70
     5
  0
STYLE
  5
11
330
3
100
AcDbSymbolTableRecord
100
AcDbTextStyleTableRecord
  2
Standard
 70
     0
 40
0.0
 41
1.0
 50
0.0
 71
     0
 42
5.6444444444
  3
txt
  4

  0
STYLE
  5
B4
330
3
100
AcDbSymbolTableRecord
100
AcDbTextStyleTableRecord
  2
SLDTEXTSTYLE0
 70
     0
 40
0.0
 41
0.6375
 50
0.0
 71
     0
 42
0.2
  3
TXT
  4

  0
STYLE
  5
B9
330
3
100
AcDbSymbolTableRecord
100
AcDbTextStyleTableRecord
  2
SLDTEXTSTYLE1
 70
     0
 40
0.0
 41
0.75
 50
0.0
 71
     0
 42
0.2
  3
TXT
  4

  0
STYLE
  5
CF
330
3
100
AcDbSymbolTableRecord
100
AcDbTextStyleTableRecord
  2
SLDTEXTSTYLE2
 70
     0
 40
0.0
 41
0.7
 50
0.0
 71
     0
 42
0.2
  3
TXT
  4

  0
STYLE
  5
2D9
330
3
100
AcDbSymbolTableRecord
100
AcDbTextStyleTableRecord
  2
SLDTEXTSTYLE3
 70
     0
 40
0.0
 41
0.6666666667
 50
0.0
 71
     0
 42
0.2
  3
TXT
  4

  0
ENDTAB
  0
TABLE
  2
VIEW
  5
6
330
0
100
AcDbSymbolTable
 70
     0
  0
ENDTAB
  0
TABLE
  2
UCS
  5
7
330
0
100
AcDbSymbolTable
 70
     0
  0
ENDTAB
  0
TABLE
  2
APPID
  5
9
330
0
100
AcDbSymbolTable
 70
     1
  0
APPID
  5
12
330
9
100
AcDbSymbolTableRecord
100
AcDbRegAppTableRecord
  2
ACAD
 70
     0
  0
ENDTAB
  0
TABLE
  2
DIMSTYLE
  5
A
330
0
100
AcDbSymbolTable
 70
     8
100
AcDbDimStyleTable
  0
DIMSTYLE
105
27
330
A
100
AcDbSymbolTableRecord
100
AcDbDimStyleTableRecord
  2
ISO-25
 70
     0
 41
2.5
 42
0.625
 43
3.75
 44
1.25
 73
     0
 74
     0
 77
     1
 78
     8
140
2.5
141
2.5
143
0.0393700787
147
0.625
171
     3
172
     1
178
     0
271
     2
272
     2
274
     3
278
    44
283
     0
284
     8
340
11
  0
DIMSTYLE
105
1A1
102
{ACAD_REACTORS
330
1A0
330
1B1
330
1BA
330
1C4
330
1CE
330
2A9
330
2B3
330
320
330
32A
102
}
330
A
100
AcDbSymbolTableRecord
100
AcDbDimStyleTableRecord
  2
SLDDIMSTYLE0
 70
     0
 41
4.0
 44
0.0
 45
0.000000001
 73
     0
 74
     0
 77
     1
 78
    12
 79
     3
140
5.2916666667
147
1.3229166667
173
     1
178
     0
271
     2
272
     2
276
     2
284
    12
340
B9
341
1A2
343
1A2
344
1A2
  0
DIMSTYLE
105
258
102
{ACAD_REACTORS
330
257
102
}
330
A
100
AcDbSymbolTableRecord
100
AcDbDimStyleTableRecord
  2
SLDDIMSTYLE1
 70
     0
 41
0.4
 44
0.0
 45
0.000000001
 78
    12
 79
     3
140
5.2916666667
147
1.3229166667
173
     1
178
     0
271
     0
272
     0
276
     2
284
    12
340
B9
341
259
343
259
344
259
  0
DIMSTYLE
105
265
102
{ACAD_REACTORS
330
264
330
26D
330
277
330
281
330
289
330
291
330
299
330
2A1
102
}
330
A
100
AcDbSymbolTableRecord
100
AcDbDimStyleTableRecord
  2
SLDDIMSTYLE2
 70
     0
 41
4.0
 44
0.0
 45
0.000000001
 78
    12
 79
     3
140
5.2916666667
147
1.3229166667
173
     1
178
     0
271
     2
272
     2
276
     2
284
    12
340
B9
341
1A2
343
1A2
344
1A2
  0
DIMSTYLE
105
2BE
102
{ACAD_REACTORS
330
2BD
330
2C6
102
}
330
A
100
AcDbSymbolTableRecord
100
AcDbDimStyleTableRecord
  2
SLDDIMSTYLE3
 70
     0
 41
4.0
 44
0.0
 73
     0
 74
     0
 77
     1
 78
    12
 79
     3
140
5.2916666667
144
2.0
147
1.3229166667
173
     1
178
     0
179
     2
272
     2
276
     2
284
    12
340
B9
341
1A2
343
1A2
344
1A2
  0
DIMSTYLE
105
2CF
102
{ACAD_REACTORS
330
2CE
330
2DB
102
}
330
A
100
AcDbSymbolTableRecord
100
AcDbDimStyleTableRecord
  2
SLDDIMSTYLE4
 70
     0
  3
<>
 41
4.0
 44
0.0
 45
0.000000001
 73
     0
 74
     0
 77
     1
 78
    12
 79
     3
140
5.2916666667
141
0.0
147
1.3229166667
172
     1
173
     1
178
     0
271
     2
272
     2
276
     2
284
    12
340
B9
341
2D0
343
2D0
344
1A2
  0
DIMSTYLE
105
2E4
102
{ACAD_REACTORS
330
2E3
330
2F2
102
}
330
A
100
AcDbSymbolTableRecord
100
AcDbDimStyleTableRecord
  2
SLDDIMSTYLE5
 70
     0
 41
4.0
 44
0.0
 45
0.000000001
 47
0.2
 71
     1
 73
     0
 74
     0
 77
     1
 78
    12
 79
     3
140
5.2916666667
141
0.0
147
1.3229166667
172
     1
173
     1
178
     0
271
     2
272
     2
276
     2
284
     8
340
B9
341
2D0
343
2D0
344
1A2
  0
DIMSTYLE
105
301
102
{ACAD_REACTORS
330
300
330
30F
102
}
330
A
100
AcDbSymbolTableRecord
100
AcDbDimStyleTableRecord
  2
SLDDIMSTYLE6
 70
     0
 41
4.0
 44
0.0
 45
0.000000001
 47
0.018
 48
-0.01
 71
     1
 73
     0
 74
     0
 77
     1
 78
    12
 79
     3
140
5.2916666667
141
0.0
147
1.3229166667
172
     1
173
     1
178
     0
271
     2
272
     2
276
     2
284
     8
340
B9
341
2D0
343
2D0
344
1A2
  0
ENDTAB
  0
TABLE
  2
BLOCK_RECORD
  5
1
330
0
100
AcDbSymbolTable
 70
    40
  0
BLOCK_RECORD
  5
1F
330
1
100
AcDbSymbolTableRecord
100
AcDbBlockTableRecord
  2
*Model_Space
340
22
  0
BLOCK_RECORD
  5
1B
330
1
100
AcDbSymbolTableRecord
100
AcDbBlockTableRecord
  2
*Paper_Space
340
1E
  0
BLOCK_RECORD
  5
23
330
1
100
AcDbSymbolTableRecord
100
AcDbBlockTableRecord
  2
*Paper_Space0
340
26
  0
BLOCK_RECORD
  5
C3
330
1
100
AcDbSymbolTableRecord
100
AcDbBlockTableRecord
  2
SW_NOTE_0
340
0
102
{BLKREFS
331
C8
102
}
  0
BLOCK_RECORD
  5
C9
330
1
100
AcDbSymbolTableRecord
100
AcDbBlockTableRecord
  2
SW_NOTE_1
340
0
102
{BLKREFS
331
CE
102
}
  0
BLOCK_RECORD
  5
D4
330
1
100
AcDbSymbolTableRecord
100
AcDbBlockTableRecord
  2
SW_NOTE_2
340
0
102
{BLKREFS
331
D9
102
}
  0
BLOCK_RECORD
  5
DA
330
1
100
AcDbSymbolTableRecord
100
AcDbBlockTableRecord
  2
SW_NOTE_3
340
0
102
{BLKREFS
331
DF
102
}
  0
BLOCK_RECORD
  5
E0
330
1
100
AcDbSymbolTableRecord
100
AcDbBlockTableRecord
  2
SW_NOTE_4
340
0
102
{BLKREFS
331
E5
102
}
  0
BLOCK_RECORD
  5
E6
330
1
100
AcDbSymbolTableRecord
100
AcDbBlockTableRecord
  2
SW_NOTE_5
340
0
102
{BLKREFS
331
EB
102
}
  0
BLOCK_RECORD
  5
EC
330
1
100
AcDbSymbolTableRecord
100
AcDbBlockTableRecord
  2
SW_NOTE_6
340
0
102
{BLKREFS
331
F1
102
}
  0
BLOCK_RECORD
  5
F2
330
1
100
AcDbSymbolTableRecord
100
AcDbBlockTableRecord
  2
SW_NOTE_7
340
0
102
{BLKREFS
331
F7
102
}
  0
BLOCK_RECORD
  5
F8
330
1
100
AcDbSymbolTableRecord
100
AcDbBlockTableRecord
  2
SW_NOTE_8
340
0
102
{BLKREFS
331
FD
102
}
  0
BLOCK_RECORD
  5
FE
330
1
100
AcDbSymbolTableRecord
100
AcDbBlockTableRecord
  2
SW_NOTE_9
340
0
102
{BLKREFS
331
103
102
}
  0
BLOCK_RECORD
  5
1A2
330
1
100
AcDbSymbolTableRecord
100
AcDbBlockTableRecord
  2
_CLOSED
340
0
102
{BLKREFS
331
1AC
331
1AD
331
1B5
331
1B6
331
1BE
331
1BF
331
1C8
331
1C9
331
1D2
331
1D3
331
269
331
271
331
27B
331
285
331
28D
331
295
331
29D
331
2A5
331
2AD
331
2AE
331
2B7
331
2B8
331
2C3
331
2C4
331
2CB
331
2CC
331
2D6
331
2DF
331
2E8
331
2F6
331
305
331
313
331
324
331
325
331
32E
331
32F
102
}
  0
BLOCK_RECORD
  5
1A9
330
1
100
AcDbSymbolTableRecord
100
AcDbBlockTableRecord
  2
_D
340
0
  0
BLOCK_RECORD
  5
1B2
330
1
100
AcDbSymbolTableRecord
100
AcDbBlockTableRecord
  2
_D_1
340
0
  0
BLOCK_RECORD
  5
1BB
330
1
100
AcDbSymbolTableRecord
100
AcDbBlockTableRecord
  2
_D_2
340
0
  0
BLOCK_RECORD
  5
1C5
330
1
100
AcDbSymbolTableRecord
100
AcDbBlockTableRecord
  2
_D_3
340
0
  0
BLOCK_RECORD
  5
1CF
330
1
100
AcDbSymbolTableRecord
100
AcDbBlockTableRecord
  2
_D_4
340
0
  0
BLOCK_RECORD
  5
259
330
1
100
AcDbSymbolTableRecord
100
AcDbBlockTableRecord
  2
_ORIGIN
340
0
102
{BLKREFS
331
261
102
}
  0
BLOCK_RECORD
  5
25E
330
1
100
AcDbSymbolTableRecord
100
AcDbBlockTableRecord
  2
_D_5
340
0
  0
BLOCK_RECORD
  5
266
330
1
100
AcDbSymbolTableRecord
100
AcDbBlockTableRecord
  2
_D_6
340
0
  0
BLOCK_RECORD
  5
26E
330
1
100
AcDbSymbolTableRecord
100
AcDbBlockTableRecord
  2
_D_7
340
0
  0
BLOCK_RECORD
  5
278
330
1
100
AcDbSymbolTableRecord
100
AcDbBlockTableRecord
  2
_D_8
340
0
  0
BLOCK_RECORD
  5
282
330
1
100
AcDbSymbolTableRecord
100
AcDbBlockTableRecord
  2
_D_9
340
0
  0
BLOCK_RECORD
  5
28A
330
1
100
AcDbSymbolTableRecord
100
AcDbBlockTableRecord
  2
_D_10
340
0
  0
BLOCK_RECORD
  5
292
330
1
100
AcDbSymbolTableRecord
100
AcDbBlockTableRecord
  2
_D_11
340
0
  0
BLOCK_RECORD
  5
29A
330
1
100
AcDbSymbolTableRecord
100
AcDbBlockTableRecord
  2
_D_12
340
0
  0
BLOCK_RECORD
  5
2A2
330
1
100
AcDbSymbolTableRecord
100
AcDbBlockTableRecord
  2
_D_13
340
0
  0
BLOCK_RECORD
  5
2AA
330
1
100
AcDbSymbolTableRecord
100
AcDbBlockTableRecord
  2
_D_14
340
0
  0
BLOCK_RECORD
  5
2B4
330
1
100
AcDbSymbolTableRecord
100
AcDbBlockTableRecord
  2
_D_15
340
0
  0
BLOCK_RECORD
  5
2BF
330
1
100
AcDbSymbolTableRecord
100
AcDbBlockTableRecord
  2
_D_16
340
0
  0
BLOCK_RECORD
  5
2C7
330
1
100
AcDbSymbolTableRecord
100
AcDbBlockTableRecord
  2
_D_17
340
0
  0
BLOCK_RECORD
  5
2D0
330
1
100
AcDbSymbolTableRecord
100
AcDbBlockTableRecord
  2
_NONE
340
0
  0
BLOCK_RECORD
  5
2D3
330
1
100
AcDbSymbolTableRecord
100
AcDbBlockTableRecord
  2
_D_18
340
0
  0
BLOCK_RECORD
  5
2DC
330
1
100
AcDbSymbolTableRecord
100
AcDbBlockTableRecord
  2
_D_19
340
0
  0
BLOCK_RECORD
  5
2E5
330
1
100
AcDbSymbolTableRecord
100
AcDbBlockTableRecord
  2
_D_20
340
0
  0
BLOCK_RECORD
  5
2F3
330
1
100
AcDbSymbolTableRecord
100
AcDbBlockTableRecord
  2
_D_21
340
0
  0
BLOCK_RECORD
  5
302
330
1
100
AcDbSymbolTableRecord
100
AcDbBlockTableRecord
  2
_D_22
340
0
  0
BLOCK_RECORD
  5
310
330
1
100
AcDbSymbolTableRecord
100
AcDbBlockTableRecord
  2
_D_23
340
0
  0
BLOCK_RECORD
  5
321
330
1
100
AcDbSymbolTableRecord
100
AcDbBlockTableRecord
  2
_D_24
340
0
  0
BLOCK_RECORD
  5
32B
330
1
100
AcDbSymbolTableRecord
100
AcDbBlockTableRecord
  2
_D_25
340
0
  0
ENDTAB
  0
ENDSEC
  0
SECTION
  2
BLOCKS
  0
BLOCK
  5
20
330
1F
100
AcDbEntity
  8
0
100
AcDbBlockBegin
  2
*Model_Space
 70
     0
 10
0.0
 20
0.0
 30
0.0
  3
*Model_Space
  1

  0
ENDBLK
  5
21
330
1F
100
AcDbEntity
  8
0
100
AcDbBlockEnd
  0
BLOCK
  5
1C
330
1B
100
AcDbEntity
 67
     1
  8
0
100
AcDbBlockBegin
  2
*Paper_Space
 70
     0
 10
0.0
 20
0.0
 30
0.0
  3
*Paper_Space
  1

  0
ENDBLK
  5
1D
330
1B
100
AcDbEntity
 67
     1
  8
0
100
AcDbBlockEnd
  0
BLOCK
  5
24
330
23
100
AcDbEntity
  8
0
100
AcDbBlockBegin
  2
*Paper_Space0
 70
     0
 10
0.0
 20
0.0
 30
0.0
  3
*Paper_Space0
  1

  0
ENDBLK
  5
25
330
23
100
AcDbEntity
  8
0
100
AcDbBlockEnd
  0
BLOCK
  5
C4
330
C3
100
AcDbEntity
  8
0
100
AcDbBlockBegin
  2
SW_NOTE_0
 70
     0
 10
0.0
 20
0.0
 30
0.0
  3
SW_NOTE_0
  1

  0
MTEXT
  5
C6
330
C3
100
AcDbEntity
  8
CARTIGLIO
 62
     0
100
AcDbMText
 10
0.0
 20
5.1562709591
 30
0.0
 40
4.0
 41
0.0
 71
     1
 72
     1
  1
Undimensioned
  7
SLDTEXTSTYLE1
 73
     1
 44
1.0
  0
MTEXT
  5
C7
330
C3
100
AcDbEntity
  8
CARTIGLIO
 62
     0
100
AcDbMText
 10
0.0
 20
-0.8437290931
 30
0.0
 40
4.0
 41
0.0
 71
     1
 72
     1
  1
radii
  7
SLDTEXTSTYLE1
 73
     1
 44
1.0
  0
ENDBLK
  5
C5
330
C3
100
AcDbEntity
  8
0
100
AcDbBlockEnd
  0
BLOCK
  5
CA
330
C9
100
AcDbEntity
  8
0
100
AcDbBlockBegin
  2
SW_NOTE_1
 70
     0
 10
0.0
 20
0.0
 30
0.0
  3
SW_NOTE_1
  1

  0
MTEXT
  5
CC
330
C9
100
AcDbEntity
  8
CARTIGLIO
 62
     0
100
AcDbMText
 10
0.0
 20
5.1562709591
 30
0.0
 40
4.0
 41
0.0
 71
     1
 72
     1
  1
Undimensioned
  7
SLDTEXTSTYLE1
 73
     1
 44
1.0
  0
MTEXT
  5
CD
330
C9
100
AcDbEntity
  8
CARTIGLIO
 62
     0
100
AcDbMText
 10
0.0
 20
-0.8437290931
 30
0.0
 40
4.0
 41
0.0
 71
     1
 72
     1
  1
bevels
  7
SLDTEXTSTYLE1
 73
     1
 44
1.0
  0
ENDBLK
  5
CB
330
C9
100
AcDbEntity
  8
0
100
AcDbBlockEnd
  0
BLOCK
  5
D5
330
D4
100
AcDbEntity
  8
0
100
AcDbBlockBegin
  2
SW_NOTE_2
 70
     0
 10
0.0
 20
0.0
 30
0.0
  3
SW_NOTE_2
  1

  0
MTEXT
  5
D7
330
D4
100
AcDbEntity
  8
CARTIGLIO
 62
     0
100
AcDbMText
 10
7.125
 20
5.1562709591
 30
0.0
 40
4.0
 41
0.0
 71
     3
 72
     1
  1
0.5
  7
SLDTEXTSTYLE1
 73
     1
 44
1.0
  0
MTEXT
  5
D8
330
D4
100
AcDbEntity
  8
CARTIGLIO
 62
     0
100
AcDbMText
 10
7.0131949708
 20
-0.8437290931
 30
0.0
 40
4.0
 41
0.0
 71
     3
 72
     1
  1
÷3
  7
SLDTEXTSTYLE1
 73
     1
 44
1.0
  0
ENDBLK
  5
D6
330
D4
100
AcDbEntity
  8
0
100
AcDbBlockEnd
  0
BLOCK
  5
DB
330
DA
100
AcDbEntity
  8
0
100
AcDbBlockBegin
  2
SW_NOTE_3
 70
     0
 10
0.0
 20
0.0
 30
0.0
  3
SW_NOTE_3
  1

  0
MTEXT
  5
DD
330
DA
100
AcDbEntity
  8
CARTIGLIO
 62
     0
100
AcDbMText
 10
8.75
 20
5.1562709591
 30
0.0
 40
4.0
 41
0.0
 71
     3
 72
     1
  1
>3÷
  7
SLDTEXTSTYLE1
 73
     1
 44
1.0
  0
MTEXT
  5
DE
330
DA
100
AcDbEntity
  8
CARTIGLIO
 62
     0
100
AcDbMText
 10
8.9562497977
 20
-0.8437290931
 30
0.0
 40
4.0
 41
0.0
 71
     3
 72
     1
  1
6
  7
SLDTEXTSTYLE1
 73
     1
 44
1.0
  0
ENDBLK
  5
DC
330
DA
100
AcDbEntity
  8
0
100
AcDbBlockEnd
  0
BLOCK
  5
E1
330
E0
100
AcDbEntity
  8
0
100
AcDbBlockBegin
  2
SW_NOTE_4
 70
     0
 10
0.0
 20
0.0
 30
0.0
  3
SW_NOTE_4
  1

  0
MTEXT
  5
E3
330
E0
100
AcDbEntity
  8
CARTIGLIO
 62
     0
100
AcDbMText
 10
8.75
 20
5.1562709591
 30
0.0
 40
4.0
 41
0.0
 71
     3
 72
     1
  1
>6÷
  7
SLDTEXTSTYLE1
 73
     1
 44
1.0
  0
MTEXT
  5
E4
330
E0
100
AcDbEntity
  8
CARTIGLIO
 62
     0
100
AcDbMText
 10
8.8680558726
 20
-0.8437290931
 30
0.0
 40
4.0
 41
0.0
 71
     3
 72
     1
  1
30
  7
SLDTEXTSTYLE1
 73
     1
 44
1.0
  0
ENDBLK
  5
E2
330
E0
100
AcDbEntity
  8
0
100
AcDbBlockEnd
  0
BLOCK
  5
E7
330
E6
100
AcDbEntity
  8
0
100
AcDbBlockBegin
  2
SW_NOTE_5
 70
     0
 10
0.0
 20
0.0
 30
0.0
  3
SW_NOTE_5
  1

  0
MTEXT
  5
E9
330
E6
100
AcDbEntity
  8
CARTIGLIO
 62
     0
100
AcDbMText
 10
11.625
 20
5.1562709591
 30
0.0
 40
4.0
 41
0.0
 71
     3
 72
     1
  1
>30÷
  7
SLDTEXTSTYLE1
 73
     1
 44
1.0
  0
MTEXT
  5
EA
330
E6
100
AcDbEntity
  8
CARTIGLIO
 62
     0
100
AcDbMText
 10
11.9673611894
 20
-0.8437290931
 30
0.0
 40
4.0
 41
0.0
 71
     3
 72
     1
  1
120
  7
SLDTEXTSTYLE1
 73
     1
 44
1.0
  0
ENDBLK
  5
E8
330
E6
100
AcDbEntity
  8
0
100
AcDbBlockEnd
  0
BLOCK
  5
ED
330
EC
100
AcDbEntity
  8
0
100
AcDbBlockBegin
  2
SW_NOTE_6
 70
     0
 10
0.0
 20
0.0
 30
0.0
  3
SW_NOTE_6
  1

  0
MTEXT
  5
EF
330
EC
100
AcDbEntity
  8
CARTIGLIO
 62
     0
100
AcDbMText
 10
11.75
 20
5.1562709591
 30
0.0
 40
4.0
 41
0.0
 71
     3
 72
     1
  1
>120
  7
SLDTEXTSTYLE1
 73
     1
 44
1.0
  0
MTEXT
  5
F0
330
EC
100
AcDbEntity
  8
CARTIGLIO
 62
     0
100
AcDbMText
 10
11.4354167581
 20
-0.8437290931
 30
0.0
 40
4.0
 41
0.0
 71
     3
 72
     1
  1
÷400
  7
SLDTEXTSTYLE1
 73
     1
 44
1.0
  0
ENDBLK
  5
EE
330
EC
100
AcDbEntity
  8
0
100
AcDbBlockEnd
  0
BLOCK
  5
F3
330
F2
100
AcDbEntity
  8
0
100
AcDbBlockBegin
  2
SW_NOTE_7
 70
     0
 10
0.0
 20
0.0
 30
0.0
  3
SW_NOTE_7
  1

  0
MTEXT
  5
F5
330
F2
100
AcDbEntity
  8
CARTIGLIO
 62
     0
100
AcDbMText
 10
14.5
 20
5.1562709591
 30
0.0
 40
4.0
 41
0.0
 71
     3
 72
     1
  1
>400÷
  7
SLDTEXTSTYLE1
 73
     1
 44
1.0
  0
MTEXT
  5
F6
330
F2
100
AcDbEntity
  8
CARTIGLIO
 62
     0
100
AcDbMText
 10
14.854861401
 20
-0.8437290931
 30
0.0
 40
4.0
 41
0.0
 71
     3
 72
     1
  1
1000
  7
SLDTEXTSTYLE1
 73
     1
 44
1.0
  0
ENDBLK
  5
F4
330
F2
100
AcDbEntity
  8
0
100
AcDbBlockEnd
  0
BLOCK
  5
F9
330
F8
100
AcDbEntity
  8
0
100
AcDbBlockBegin
  2
SW_NOTE_8
 70
     0
 10
0.0
 20
0.0
 30
0.0
  3
SW_NOTE_8
  1

  0
MTEXT
  5
FB
330
F8
100
AcDbEntity
  8
CARTIGLIO
 62
     0
100
AcDbMText
 10
14.625
 20
5.1562709591
 30
0.0
 40
4.0
 41
0.0
 71
     3
 72
     1
  1
>1000
  7
SLDTEXTSTYLE1
 73
     1
 44
1.0
  0
MTEXT
  5
FC
330
F8
100
AcDbEntity
  8
CARTIGLIO
 62
     0
100
AcDbMText
 10
14.3222231343
 20
-0.8437290931
 30
0.0
 40
4.0
 41
0.0
 71
     3
 72
     1
  1
÷2000
  7
SLDTEXTSTYLE1
 73
     1
 44
1.0
  0
ENDBLK
  5
FA
330
F8
100
AcDbEntity
  8
0
100
AcDbBlockEnd
  0
BLOCK
  5
FF
330
FE
100
AcDbEntity
  8
0
100
AcDbBlockBegin
  2
SW_NOTE_9
 70
     0
 10
0.0
 20
0.0
 30
0.0
  3
SW_NOTE_9
  1

  0
MTEXT
  5
101
330
FE
100
AcDbEntity
  8
CARTIGLIO
 62
     0
100
AcDbMText
 10
14.625
 20
5.1562709591
 30
0.0
 40
4.0
 41
0.0
 71
     3
 72
     1
  1
>2000
  7
SLDTEXTSTYLE1
 73
     1
 44
1.0
  0
MTEXT
  5
102
330
FE
100
AcDbEntity
  8
CARTIGLIO
 62
     0
100
AcDbMText
 10
14.5145831555
 20
-0.8437290931
 30
0.0
 40
4.0
 41
0.0
 71
     3
 72
     1
  1
÷4000
  7
SLDTEXTSTYLE1
 73
     1
 44
1.0
  0
ENDBLK
  5
100
330
FE
100
AcDbEntity
  8
0
100
AcDbBlockEnd
  0
BLOCK
  5
1A3
330
1A2
100
AcDbEntity
  8
0
100
AcDbBlockBegin
  2
_CLOSED
 70
     0
 10
0.0
 20
0.0
 30
0.0
  3
_CLOSED
  1

  0
LINE
  5
1A5
330
1A2
100
AcDbEntity
  8
0
  6
ByBlock
 62
     0
370
    -2
100
AcDbLine
 10
-1.0
 20
0.166667
 30
0.0
 11
0.0
 21
0.0
 31
0.0
  0
LINE
  5
1A6
330
1A2
100
AcDbEntity
  8
0
  6
ByBlock
 62
     0
370
    -2
100
AcDbLine
 10
0.0
 20
0.0
 30
0.0
 11
-1.0
 21
-0.166667
 31
0.0
  0
LINE
  5
1A7
330
1A2
100
AcDbEntity
  8
0
  6
ByBlock
 62
     0
370
    -2
100
AcDbLine
 10
-1.0
 20
0.166667
 30
0.0
 11
-1.0
 21
-0.166667
 31
0.0
  0
LINE
  5
1A8
330
1A2
100
AcDbEntity
  8
0
  6
ByBlock
 62
     0
370
    -2
100
AcDbLine
 10
0.0
 20
0.0
 30
0.0
 11
-1.0
 21
0.0
 31
0.0
  0
ENDBLK
  5
1A4
330
1A2
100
AcDbEntity
  8
0
100
AcDbBlockEnd
  0
BLOCK
  5
1AA
330
1A9
100
AcDbEntity
  8
0
100
AcDbBlockBegin
  2
_D
 70
     0
 10
0.0
 20
0.0
 30
0.0
  3
_D
  1

  0
INSERT
  5
1AC
330
1A9
100
AcDbEntity
  8
RIQUADRO
100
AcDbBlockReference
  2
_CLOSED
 10
577.6391958535
 20
458.0985240683
 30
0.1
 41
4.0
 42
4.0
 50
90.0
  0
INSERT
  5
1AD
330
1A9
100
AcDbEntity
  8
RIQUADRO
100
AcDbBlockReference
  2
_CLOSED
 10
577.6391958535
 20
373.0985240683
 30
0.1
 41
4.0
 42
4.0
 50
270.0
  0
LINE
  5
1AE
330
1A9
100
AcDbEntity
  8
RIQUADRO
100
AcDbLine
 10
562.4808440125
 20
373.0985240683
 30
0.0
 11
579.6391958535
 21
373.0985240683
 31
0.0
  0
LINE
  5
1AF
330
1A9
100
AcDbEntity
  8
RIQUADRO
100
AcDbLine
 10
577.6391958535
 20
458.0985240683
 30
0.0
 11
577.6391958535
 21
373.0985240683
 31
0.0
  0
MTEXT
  5
1B0
330
1A9
100
AcDbEntity
  8
RIQUADRO
100
AcDbMText
 10
570.8178791802
 20
419.4109834353
 30
0.1
 40
5.2916666667
 41
0.0
 71
     1
 72
     1
  1
85
  7
SLDTEXTSTYLE1
 11
-7.044195017643634E-15
 21
1.0
 31
0.0
 73
     1
 44
1.0
  0
ENDBLK
  5
1AB
330
1A9
100
AcDbEntity
  8
0
100
AcDbBlockEnd
  0
BLOCK
  5
1B3
330
1B2
100
AcDbEntity
  8
0
100
AcDbBlockBegin
  2
_D_1
 70
     0
 10
0.0
 20
0.0
 30
0.0
  3
_D_1
  1

  0
INSERT
  5
1B5
330
1B2
100
AcDbEntity
  8
RIQUADRO
100
AcDbBlockReference
  2
_CLOSED
 10
397.9977359715
 20
373.0985240683
 30
0.1
 41
4.0
 42
4.0
 50
270.0
  0
INSERT
  5
1B6
330
1B2
100
AcDbEntity
  8
RIQUADRO
100
AcDbBlockReference
  2
_CLOSED
 10
397.9977359715
 20
388.0985240683
 30
0.1
 41
4.0
 42
4.0
 50
90.0
  0
LINE
  5
1B7
330
1B2
100
AcDbEntity
  8
RIQUADRO
100
AcDbLine
 10
397.9977359715
 20
373.0985240683
 30
0.0
 11
397.9977359715
 21
388.0985240683
 31
0.0
  0
LINE
  5
1B8
330
1B2
100
AcDbEntity
  8
RIQUADRO
100
AcDbLine
 10
397.9977359715
 20
388.0985240683
 30
0.0
 11
397.9977359715
 21
418.2975784619
 31
0.0
  0
MTEXT
  5
1B9
330
1B2
100
AcDbEntity
  8
RIQUADRO
100
AcDbMText
 10
391.1764192983
 20
406.1855411832
 30
0.1
 40
5.2916666667
 41
0.0
 71
     1
 72
     1
  1
15
  7
SLDTEXTSTYLE1
 11
6.123233995736766E-17
 21
1.0
 31
0.0
 73
     1
 44
1.0
  0
ENDBLK
  5
1B4
330
1B2
100
AcDbEntity
  8
0
100
AcDbBlockEnd
  0
BLOCK
  5
1BC
330
1BB
100
AcDbEntity
  8
0
100
AcDbBlockBegin
  2
_D_2
 70
     0
 10
0.0
 20
0.0
 30
0.0
  3
_D_2
  1

  0
INSERT
  5
1BE
330
1BB
100
AcDbEntity
  8
RIQUADRO
100
AcDbBlockReference
  2
_CLOSED
 10
563.4808440125
 20
353.0985240683
 30
0.1
 41
4.0
 42
4.0
 50
0.0
  0
INSERT
  5
1BF
330
1BB
100
AcDbEntity
  8
RIQUADRO
100
AcDbBlockReference
  2
_CLOSED
 10
77.4808440125
 20
353.0985240683
 30
0.1
 41
4.0
 42
4.0
 50
180.0
  0
LINE
  5
1C0
330
1BB
100
AcDbEntity
  8
RIQUADRO
100
AcDbLine
 10
563.4808440125
 20
374.0985240683
 30
0.0
 11
563.4808440125
 21
351.0985240683
 31
0.0
  0
LINE
  5
1C1
330
1BB
100
AcDbEntity
  8
RIQUADRO
100
AcDbLine
 10
77.4808440125
 20
374.0985240683
 30
0.0
 11
77.4808440125
 21
351.0985240683
 31
0.0
  0
LINE
  5
1C2
330
1BB
100
AcDbEntity
  8
RIQUADRO
100
AcDbLine
 10
563.4808440125
 20
353.0985240683
 30
0.0
 11
77.4808440125
 21
353.0985240683
 31
0.0
  0
MTEXT
  5
1C3
330
1BB
100
AcDbEntity
  8
RIQUADRO
100
AcDbMText
 10
332.2119212959
 20
359.9198407415
 30
0.1
 40
5.2916666667
 41
0.0
 71
     1
 72
     1
  1
486
  7
SLDTEXTSTYLE1
 73
     1
 44
1.0
  0
ENDBLK
  5
1BD
330
1BB
100
AcDbEntity
  8
0
100
AcDbBlockEnd
  0
BLOCK
  5
1C6
330
1C5
100
AcDbEntity
  8
0
100
AcDbBlockBegin
  2
_D_3
 70
     0
 10
0.0
 20
0.0
 30
0.0
  3
_D_3
  1

  0
INSERT
  5
1C8
330
1C5
100
AcDbEntity
  8
RIQUADRO
100
AcDbBlockReference
  2
_CLOSED
 10
57.4808440125
 20
373.0985240683
 30
0.1
 41
4.0
 42
4.0
 50
270.0
  0
INSERT
  5
1C9
330
1C5
100
AcDbEntity
  8
RIQUADRO
100
AcDbBlockReference
  2
_CLOSED
 10
57.4808440125
 20
531.0985240683
 30
0.1
 41
4.0
 42
4.0
 50
90.0
  0
LINE
  5
1CA
330
1C5
100
AcDbEntity
  8
RIQUADRO
100
AcDbLine
 10
124.9518630704
 20
373.0985240683
 30
0.0
 11
55.4808440125
 21
373.0985240683
 31
0.0
  0
LINE
  5
1CB
330
1C5
100
AcDbEntity
  8
RIQUADRO
100
AcDbLine
 10
101.9808440125
 20
531.0985240683
 30
0.0
 11
55.4808440125
 21
531.0985240683
 31
0.0
  0
LINE
  5
1CC
330
1C5
100
AcDbEntity
  8
RIQUADRO
100
AcDbLine
 10
57.4808440125
 20
373.0985240683
 30
0.0
 11
57.4808440125
 21
531.0985240683
 31
0.0
  0
MTEXT
  5
1CD
330
1C5
100
AcDbEntity
  8
RIQUADRO
100
AcDbMText
 10
50.6595273393
 20
450.6309296038
 30
0.1
 40
5.2916666667
 41
0.0
 71
     1
 72
     1
  1
158
  7
SLDTEXTSTYLE1
 11
-1.608122649676637E-16
 21
1.0
 31
0.0
 73
     1
 44
1.0
  0
ENDBLK
  5
1C7
330
1C5
100
AcDbEntity
  8
0
100
AcDbBlockEnd
  0
BLOCK
  5
1D0
330
1CF
100
AcDbEntity
  8
0
100
AcDbBlockBegin
  2
_D_4
 70
     0
 10
0.0
 20
0.0
 30
0.0
  3
_D_4
  1

  0
INSERT
  5
1D2
330
1CF
100
AcDbEntity
  8
RIQUADRO
100
AcDbBlockReference
  2
_CLOSED
 10
619.4808440125
 20
373.0985240683
 30
0.1
 41
4.0
 42
4.0
 50
270.0
  0
INSERT
  5
1D3
330
1CF
100
AcDbEntity
  8
RIQUADRO
100
AcDbBlockReference
  2
_CLOSED
 10
619.4808440125
 20
513.0985240683
 30
0.1
 41
4.0
 42
4.0
 50
90.0
  0
LINE
  5
1D4
330
1CF
100
AcDbEntity
  8
RIQUADRO
100
AcDbLine
 10
562.4808440125
 20
373.0985240683
 30
0.0
 11
621.4808440125
 21
373.0985240683
 31
0.0
  0
LINE
  5
1D5
330
1CF
100
AcDbEntity
  8
RIQUADRO
100
AcDbLine
 10
539.1808440125
 20
513.0985240683
 30
0.0
 11
621.4808440125
 21
513.0985240683
 31
0.0
  0
LINE
  5
1D6
330
1CF
100
AcDbEntity
  8
RIQUADRO
100
AcDbLine
 10
619.4808440125
 20
373.0985240683
 30
0.0
 11
619.4808440125
 21
513.0985240683
 31
0.0
  0
MTEXT
  5
1D7
330
1CF
100
AcDbEntity
  8
RIQUADRO
100
AcDbMText
 10
612.6595273393
 20
456.7560288387
 30
0.1
 40
5.2916666667
 41
0.0
 71
     1
 72
     1
  1
140
  7
SLDTEXTSTYLE1
 11
6.123233995736766E-17
 21
1.0
 31
0.0
 73
     1
 44
1.0
  0
ENDBLK
  5
1D1
330
1CF
100
AcDbEntity
  8
0
100
AcDbBlockEnd
  0
BLOCK
  5
25A
330
259
100
AcDbEntity
  8
0
100
AcDbBlockBegin
  2
_ORIGIN
 70
     0
 10
0.0
 20
0.0
 30
0.0
  3
_ORIGIN
  1

  0
CIRCLE
  5
25C
330
259
100
AcDbEntity
  8
0
  6
ByBlock
 62
     0
370
    -2
100
AcDbCircle
 10
0.0
 20
0.0
 30
0.0
 40
0.5
  0
LINE
  5
25D
330
259
100
AcDbEntity
  8
0
  6
ByBlock
 62
     0
370
    -2
100
AcDbLine
 10
0.0
 20
0.0
 30
0.0
 11
-1.0
 21
0.0
 31
0.0
  0
ENDBLK
  5
25B
330
259
100
AcDbEntity
  8
0
100
AcDbBlockEnd
  0
BLOCK
  5
25F
330
25E
100
AcDbEntity
  8
0
100
AcDbBlockBegin
  2
_D_5
 70
     0
 10
0.0
 20
0.0
 30
0.0
  3
_D_5
  1

  0
INSERT
  5
261
330
25E
100
AcDbEntity
  8
RIQUADRO
100
AcDbBlockReference
  2
_ORIGIN
 10
77.4808440125
 20
167.4371605433
 30
0.1
 41
1.2
 42
1.2
 50
0.0
  0
LINE
  5
262
330
25E
100
AcDbEntity
  8
RIQUADRO
100
AcDbLine
 10
77.4808440125
 20
171.3477016535
 30
0.0
 11
77.4808440125
 21
166.2371605433
 31
0.0
  0
MTEXT
  5
263
330
25E
100
AcDbEntity
  8
RIQUADRO
100
AcDbMText
 10
74.8634624931
 20
158.0350771345
 30
0.1
 40
5.2916666667
 41
0.0
 71
     1
 72
     1
  1
0
  7
SLDTEXTSTYLE1
 11
6.123233995736766E-17
 21
1.0
 31
0.0
 73
     1
 44
1.0
  0
ENDBLK
  5
260
330
25E
100
AcDbEntity
  8
0
100
AcDbBlockEnd
  0
BLOCK
  5
267
330
266
100
AcDbEntity
  8
0
100
AcDbBlockBegin
  2
_D_6
 70
     0
 10
0.0
 20
0.0
 30
0.0
  3
_D_6
  1

  0
INSERT
  5
269
330
266
100
AcDbEntity
  8
RIQUADRO
100
AcDbBlockReference
  2
_CLOSED
 10
127.4808440125
 20
167.4371605433
 30
0.1
 41
4.0
 42
4.0
 50
0.0
  0
LINE
  5
26A
330
266
100
AcDbEntity
  8
RIQUADRO
100
AcDbLine
 10
127.4808440125
 20
171.3477016535
 30
0.0
 11
127.4808440125
 21
166.2371605433
 31
0.0
  0
LINE
  5
26B
330
266
100
AcDbEntity
  8
RIQUADRO
100
AcDbLine
 10
77.4808440125
 20
167.4371605433
 30
0.0
 11
127.4808440125
 21
167.4371605433
 31
0.0
  0
MTEXT
  5
26C
330
266
100
AcDbEntity
  8
RIQUADRO
100
AcDbMText
 10
124.8634624931
 20
154.1251232646
 30
0.1
 40
5.2916666667
 41
0.0
 71
     1
 72
     1
  1
50
  7
SLDTEXTSTYLE1
 11
6.123233995736766E-17
 21
1.0
 31
0.0
 73
     1
 44
1.0
  0
ENDBLK
  5
268
330
266
100
AcDbEntity
  8
0
100
AcDbBlockEnd
  0
BLOCK
  5
26F
330
26E
100
AcDbEntity
  8
0
100
AcDbBlockBegin
  2
_D_7
 70
     0
 10
0.0
 20
0.0
 30
0.0
  3
_D_7
  1

  0
INSERT
  5
271
330
26E
100
AcDbEntity
  8
RIQUADRO
100
AcDbBlockReference
  2
_CLOSED
 10
198.8816098425
 20
167.4371605433
 30
0.1
 41
4.0
 42
4.0
 50
0.0
  0
LINE
  5
272
330
26E
100
AcDbEntity
  8
RIQUADRO
100
AcDbLine
 10
198.8816098425
 20
176.2371605433
 30
0.0
 11
198.8816098425
 21
166.2371605433
 31
0.0
  0
LINE
  5
273
330
26E
100
AcDbEntity
  8
RIQUADRO
100
AcDbLine
 10
127.4808440125
 20
167.4371605433
 30
0.0
 11
198.8816098425
 21
167.4371605433
 31
0.0
  0
LINE
  5
274
330
26E
100
AcDbEntity
  8
RIQUADRO
100
AcDbLine
 10
198.8816098425
 20
176.2371605433
 30
0.0
 11
213.4808440125
 21
186.2371605433
 31
0.0
  0
LINE
  5
275
330
26E
100
AcDbEntity
  8
RIQUADRO
100
AcDbLine
 10
213.4808440125
 20
186.2371605433
 30
0.0
 11
213.4808440125
 21
247.3477016535
 31
0.0
  0
MTEXT
  5
276
330
26E
100
AcDbEntity
  8
RIQUADRO
100
AcDbMText
 10
196.264228323
 20
150.2151693947
 30
0.1
 40
5.2916666667
 41
0.0
 71
     1
 72
     1
  1
136
  7
SLDTEXTSTYLE1
 11
6.123233995736766E-17
 21
1.0
 31
0.0
 73
     1
 44
1.0
  0
ENDBLK
  5
270
330
26E
100
AcDbEntity
  8
0
100
AcDbBlockEnd
  0
BLOCK
  5
279
330
278
100
AcDbEntity
  8
0
100
AcDbBlockBegin
  2
_D_8
 70
     0
 10
0.0
 20
0.0
 30
0.0
  3
_D_8
  1

  0
INSERT
  5
27B
330
278
100
AcDbEntity
  8
RIQUADRO
100
AcDbBlockReference
  2
_CLOSED
 10
220.7470652937
 20
167.4371605433
 30
0.1
 41
4.0
 42
4.0
 50
0.0
  0
LINE
  5
27C
330
278
100
AcDbEntity
  8
RIQUADRO
100
AcDbLine
 10
220.7470652937
 20
176.2371605433
 30
0.0
 11
220.7470652937
 21
166.2371605433
 31
0.0
  0
LINE
  5
27D
330
278
100
AcDbEntity
  8
RIQUADRO
100
AcDbLine
 10
198.8816098425
 20
167.4371605433
 30
0.0
 11
220.7470652937
 21
167.4371605433
 31
0.0
  0
LINE
  5
27E
330
278
100
AcDbEntity
  8
RIQUADRO
100
AcDbLine
 10
220.7470652937
 20
176.2371605433
 30
0.0
 11
219.5213375642
 21
186.2371605433
 31
0.0
  0
LINE
  5
27F
330
278
100
AcDbEntity
  8
RIQUADRO
100
AcDbLine
 10
219.5213375642
 20
186.2371605433
 30
0.0
 11
219.5213375642
 21
204.8477016535
 31
0.0
  0
MTEXT
  5
280
330
278
100
AcDbEntity
  8
RIQUADRO
100
AcDbMText
 10
218.1296837743
 20
140.4451839424
 30
0.1
 40
5.2916666667
 41
0.0
 71
     1
 72
     1
  1
142,04
  7
SLDTEXTSTYLE1
 11
6.123233995736766E-17
 21
1.0
 31
0.0
 73
     1
 44
1.0
  0
ENDBLK
  5
27A
330
278
100
AcDbEntity
  8
0
100
AcDbBlockEnd
  0
BLOCK
  5
283
330
282
100
AcDbEntity
  8
0
100
AcDbBlockBegin
  2
_D_9
 70
     0
 10
0.0
 20
0.0
 30
0.0
  3
_D_9
  1

  0
INSERT
  5
285
330
282
100
AcDbEntity
  8
RIQUADRO
100
AcDbBlockReference
  2
_CLOSED
 10
238.4808440125
 20
167.4371605433
 30
0.1
 41
4.0
 42
4.0
 50
0.0
  0
LINE
  5
286
330
282
100
AcDbEntity
  8
RIQUADRO
100
AcDbLine
 10
238.4808440125
 20
272.3477016535
 30
0.0
 11
238.4808440125
 21
166.2371605433
 31
0.0
  0
LINE
  5
287
330
282
100
AcDbEntity
  8
RIQUADRO
100
AcDbLine
 10
220.7470652937
 20
167.4371605433
 30
0.0
 11
238.4808440125
 21
167.4371605433
 31
0.0
  0
MTEXT
  5
288
330
282
100
AcDbEntity
  8
RIQUADRO
100
AcDbMText
 10
235.8634624931
 20
150.2151693947
 30
0.1
 40
5.2916666667
 41
0.0
 71
     1
 72
     1
  1
161
  7
SLDTEXTSTYLE1
 11
6.123233995736766E-17
 21
1.0
 31
0.0
 73
     1
 44
1.0
  0
ENDBLK
  5
284
330
282
100
AcDbEntity
  8
0
100
AcDbBlockEnd
  0
BLOCK
  5
28B
330
28A
100
AcDbEntity
  8
0
100
AcDbBlockBegin
  2
_D_10
 70
     0
 10
0.0
 20
0.0
 30
0.0
  3
_D_10
  1

  0
INSERT
  5
28D
330
28A
100
AcDbEntity
  8
RIQUADRO
100
AcDbBlockReference
  2
_CLOSED
 10
288.4808440125
 20
167.4371605433
 30
0.1
 41
4.0
 42
4.0
 50
0.0
  0
LINE
  5
28E
330
28A
100
AcDbEntity
  8
RIQUADRO
100
AcDbLine
 10
288.4808440125
 20
272.3477016535
 30
0.0
 11
288.4808440125
 21
166.2371605433
 31
0.0
  0
LINE
  5
28F
330
28A
100
AcDbEntity
  8
RIQUADRO
100
AcDbLine
 10
238.4808440125
 20
167.4371605433
 30
0.0
 11
288.4808440125
 21
167.4371605433
 31
0.0
  0
MTEXT
  5
290
330
28A
100
AcDbEntity
  8
RIQUADRO
100
AcDbMText
 10
285.8634624931
 20
150.2151693947
 30
0.1
 40
5.2916666667
 41
0.0
 71
     1
 72
     1
  1
211
  7
SLDTEXTSTYLE1
 11
6.123233995736766E-17
 21
1.0
 31
0.0
 73
     1
 44
1.0
  0
ENDBLK
  5
28C
330
28A
100
AcDbEntity
  8
0
100
AcDbBlockEnd
  0
BLOCK
  5
293
330
292
100
AcDbEntity
  8
0
100
AcDbBlockBegin
  2
_D_11
 70
     0
 10
0.0
 20
0.0
 30
0.0
  3
_D_11
  1

  0
INSERT
  5
295
330
292
100
AcDbEntity
  8
RIQUADRO
100
AcDbBlockReference
  2
_CLOSED
 10
338.4808440125
 20
167.4371605433
 30
0.1
 41
4.0
 42
4.0
 50
0.0
  0
LINE
  5
296
330
292
100
AcDbEntity
  8
RIQUADRO
100
AcDbLine
 10
338.4808440125
 20
272.3477016535
 30
0.0
 11
338.4808440125
 21
166.2371605433
 31
0.0
  0
LINE
  5
297
330
292
100
AcDbEntity
  8
RIQUADRO
100
AcDbLine
 10
288.4808440125
 20
167.4371605433
 30
0.0
 11
338.4808440125
 21
167.4371605433
 31
0.0
  0
MTEXT
  5
298
330
292
100
AcDbEntity
  8
RIQUADRO
100
AcDbMText
 10
335.8634624931
 20
150.2151693947
 30
0.1
 40
5.2916666667
 41
0.0
 71
     1
 72
     1
  1
261
  7
SLDTEXTSTYLE1
 11
6.123233995736766E-17
 21
1.0
 31
0.0
 73
     1
 44
1.0
  0
ENDBLK
  5
294
330
292
100
AcDbEntity
  8
0
100
AcDbBlockEnd
  0
BLOCK
  5
29B
330
29A
100
AcDbEntity
  8
0
100
AcDbBlockBegin
  2
_D_12
 70
     0
 10
0.0
 20
0.0
 30
0.0
  3
_D_12
  1

  0
INSERT
  5
29D
330
29A
100
AcDbEntity
  8
RIQUADRO
100
AcDbBlockReference
  2
_CLOSED
 10
388.4808440125
 20
167.4371605433
 30
0.1
 41
4.0
 42
4.0
 50
0.0
  0
LINE
  5
29E
330
29A
100
AcDbEntity
  8
RIQUADRO
100
AcDbLine
 10
388.4808440125
 20
272.3477016535
 30
0.0
 11
388.4808440125
 21
166.2371605433
 31
0.0
  0
LINE
  5
29F
330
29A
100
AcDbEntity
  8
RIQUADRO
100
AcDbLine
 10
338.4808440125
 20
167.4371605433
 30
0.0
 11
388.4808440125
 21
167.4371605433
 31
0.0
  0
MTEXT
  5
2A0
330
29A
100
AcDbEntity
  8
RIQUADRO
100
AcDbMText
 10
385.8634624931
 20
150.2151693947
 30
0.1
 40
5.2916666667
 41
0.0
 71
     1
 72
     1
  1
311
  7
SLDTEXTSTYLE1
 11
6.123233995736766E-17
 21
1.0
 31
0.0
 73
     1
 44
1.0
  0
ENDBLK
  5
29C
330
29A
100
AcDbEntity
  8
0
100
AcDbBlockEnd
  0
BLOCK
  5
2A3
330
2A2
100
AcDbEntity
  8
0
100
AcDbBlockBegin
  2
_D_13
 70
     0
 10
0.0
 20
0.0
 30
0.0
  3
_D_13
  1

  0
INSERT
  5
2A5
330
2A2
100
AcDbEntity
  8
RIQUADRO
100
AcDbBlockReference
  2
_CLOSED
 10
563.4808440125
 20
167.4371605433
 30
0.1
 41
4.0
 42
4.0
 50
0.0
  0
LINE
  5
2A6
330
2A2
100
AcDbEntity
  8
RIQUADRO
100
AcDbLine
 10
563.4808440125
 20
189.3477016535
 30
0.0
 11
563.4808440125
 21
166.2371605433
 31
0.0
  0
LINE
  5
2A7
330
2A2
100
AcDbEntity
  8
RIQUADRO
100
AcDbLine
 10
388.4808440125
 20
167.4371605433
 30
0.0
 11
563.4808440125
 21
167.4371605433
 31
0.0
  0
MTEXT
  5
2A8
330
2A2
100
AcDbEntity
  8
RIQUADRO
100
AcDbMText
 10
560.8634624931
 20
150.2151693947
 30
0.1
 40
5.2916666667
 41
0.0
 71
     1
 72
     1
  1
486
  7
SLDTEXTSTYLE1
 11
6.123233995736766E-17
 21
1.0
 31
0.0
 73
     1
 44
1.0
  0
ENDBLK
  5
2A4
330
2A2
100
AcDbEntity
  8
0
100
AcDbBlockEnd
  0
BLOCK
  5
2AB
330
2AA
100
AcDbEntity
  8
0
100
AcDbBlockBegin
  2
_D_14
 70
     0
 10
0.0
 20
0.0
 30
0.0
  3
_D_14
  1

  0
INSERT
  5
2AD
330
2AA
100
AcDbEntity
  8
RIQUADRO
100
AcDbBlockReference
  2
_CLOSED
 10
57.4808440125
 20
173.3477016535
 30
6.1
 41
4.0
 42
4.0
 50
270.0
  0
INSERT
  5
2AE
330
2AA
100
AcDbEntity
  8
RIQUADRO
100
AcDbBlockReference
  2
_CLOSED
 10
57.4808440125
 20
325.3477016535
 30
6.1
 41
4.0
 42
4.0
 50
90.0
  0
LINE
  5
2AF
330
2AA
100
AcDbEntity
  8
RIQUADRO
100
AcDbLine
 10
75.4808440125
 20
173.3477016535
 30
0.0
 11
55.4808440125
 21
173.3477016535
 31
0.0
  0
LINE
  5
2B0
330
2AA
100
AcDbEntity
  8
RIQUADRO
100
AcDbLine
 10
75.4808440125
 20
325.3477016535
 30
0.0
 11
55.4808440125
 21
325.3477016535
 31
0.0
  0
LINE
  5
2B1
330
2AA
100
AcDbEntity
  8
RIQUADRO
100
AcDbLine
 10
57.4808440125
 20
173.3477016535
 30
0.0
 11
57.4808440125
 21
325.3477016535
 31
0.0
  0
MTEXT
  5
2B2
330
2AA
100
AcDbEntity
  8
RIQUADRO
100
AcDbMText
 10
50.6595273393
 20
247.6286084812
 30
6.1
 40
5.2916666667
 41
0.0
 71
     1
 72
     1
  1
152
  7
SLDTEXTSTYLE1
 11
6.123233995736766E-17
 21
1.0
 31
0.0
 73
     1
 44
1.0
  0
ENDBLK
  5
2AC
330
2AA
100
AcDbEntity
  8
0
100
AcDbBlockEnd
  0
BLOCK
  5
2B5
330
2B4
100
AcDbEntity
  8
0
100
AcDbBlockBegin
  2
_D_15
 70
     0
 10
0.0
 20
0.0
 30
0.0
  3
_D_15
  1

  0
INSERT
  5
2B7
330
2B4
100
AcDbEntity
  8
RIQUADRO
100
AcDbBlockReference
  2
_CLOSED
 10
583.4808440125
 20
307.3477016535
 30
6.1
 41
4.0
 42
4.0
 50
90.0
  0
INSERT
  5
2B8
330
2B4
100
AcDbEntity
  8
RIQUADRO
100
AcDbBlockReference
  2
_CLOSED
 10
583.4808440125
 20
191.3477016535
 30
6.1
 41
4.0
 42
4.0
 50
270.0
  0
LINE
  5
2B9
330
2B4
100
AcDbEntity
  8
RIQUADRO
100
AcDbLine
 10
565.4808440125
 20
307.3477016535
 30
0.0
 11
585.4808440125
 21
307.3477016535
 31
0.0
  0
LINE
  5
2BA
330
2B4
100
AcDbEntity
  8
RIQUADRO
100
AcDbLine
 10
565.4808440125
 20
191.3477016535
 30
0.0
 11
585.4808440125
 21
191.3477016535
 31
0.0
  0
LINE
  5
2BB
330
2B4
100
AcDbEntity
  8
RIQUADRO
100
AcDbLine
 10
583.4808440125
 20
307.3477016535
 30
0.0
 11
583.4808440125
 21
191.3477016535
 31
0.0
  0
MTEXT
  5
2BC
330
2B4
100
AcDbEntity
  8
RIQUADRO
100
AcDbMText
 10
576.6595273393
 20
234.2789421615
 30
6.1
 40
5.2916666667
 41
0.0
 71
     1
 72
     1
  1
116
  7
SLDTEXTSTYLE1
 11
-7.044195017643634E-15
 21
1.0
 31
0.0
 73
     1
 44
1.0
  0
ENDBLK
  5
2B6
330
2B4
100
AcDbEntity
  8
0
100
AcDbBlockEnd
  0
BLOCK
  5
2C0
330
2BF
100
AcDbEntity
  8
0
100
AcDbBlockBegin
  2
_D_16
 70
     0
 10
0.0
 20
0.0
 30
0.0
  3
_D_16
  1

  0
ARC
  5
2C2
330
2BF
100
AcDbEntity
  8
RIQUADRO
100
AcDbCircle
 10
219.5213375642
 20
291.8477016535
 30
0.0
 40
12.64823738019444
100
AcDbArc
 50
0.0
 51
160.0
  0
INSERT
  5
2C3
330
2BF
100
AcDbEntity
  8
RIQUADRO
100
AcDbBlockReference
  2
_CLOSED
 10
232.1695749444
 20
291.8477016535
 30
6.1
 41
4.0
 42
4.0
 50
278.7747689124
  0
INSERT
  5
2C4
330
2BF
100
AcDbEntity
  8
RIQUADRO
100
AcDbBlockReference
  2
_CLOSED
 10
207.6358822321
 20
296.1736536151
 30
6.1
 41
4.0
 42
4.0
 50
241.2252310876
  0
MTEXT
  5
2C5
330
2BF
100
AcDbEntity
  8
RIQUADRO
100
AcDbMText
 10
221.2471515228
 20
313.408341609
 30
6.1
 40
5.2916666667
 41
0.0
 71
     1
 72
     1
  1
160°
  7
SLDTEXTSTYLE1
 11
0.8625076131328284
 21
-0.5060440863086054
 31
0.0
 73
     1
 44
1.0
  0
ENDBLK
  5
2C1
330
2BF
100
AcDbEntity
  8
0
100
AcDbBlockEnd
  0
BLOCK
  5
2C8
330
2C7
100
AcDbEntity
  8
0
100
AcDbBlockBegin
  2
_D_17
 70
     0
 10
0.0
 20
0.0
 30
0.0
  3
_D_17
  1

  0
ARC
  5
2CA
330
2C7
100
AcDbEntity
  8
RIQUADRO
100
AcDbCircle
 10
347.9808440125
 20
291.8477016535
 30
0.0
 40
15.67291297984479
100
AcDbArc
 50
45.0
 51
180.0
  0
INSERT
  5
2CB
330
2C7
100
AcDbEntity
  8
RIQUADRO
100
AcDbBlockReference
  2
_CLOSED
 10
359.0632670615
 20
302.9301247025
 30
6.1
 41
4.0
 42
4.0
 50
322.1586232434
  0
INSERT
  5
2CC
330
2C7
100
AcDbEntity
  8
RIQUADRO
100
AcDbBlockReference
  2
_CLOSED
 10
332.3079310327
 20
291.8477016535
 30
6.1
 41
4.0
 42
4.0
 50
262.8413767566
  0
MTEXT
  5
2CD
330
2C7
100
AcDbEntity
  8
RIQUADRO
100
AcDbMText
 10
330.9193693446
 20
309.2739044502
 30
6.1
 40
5.2916666667
 41
0.0
 71
     1
 72
     1
  1
135°
  7
SLDTEXTSTYLE1
 11
0.9293463526819974
 21
0.3692090962539636
 31
0.0
 73
     1
 44
1.0
  0
ENDBLK
  5
2C9
330
2C7
100
AcDbEntity
  8
0
100
AcDbBlockEnd
  0
BLOCK
  5
2D1
330
2D0
100
AcDbEntity
  8
0
100
AcDbBlockBegin
  2
_NONE
 70
     0
 10
0.0
 20
0.0
 30
0.0
  3
_NONE
  1

  0
ENDBLK
  5
2D2
330
2D0
100
AcDbEntity
  8
0
100
AcDbBlockEnd
  0
BLOCK
  5
2D4
330
2D3
100
AcDbEntity
  8
0
100
AcDbBlockBegin
  2
_D_18
 70
     0
 10
0.0
 20
0.0
 30
0.0
  3
_D_18
  1

  0
INSERT
  5
2D6
330
2D3
100
AcDbEntity
  8
RIQUADRO
100
AcDbBlockReference
  2
_CLOSED
 10
240.429401171
 20
273.2227016535
 30
6.1
 41
4.0
 42
4.0
 50
150.0
  0
LINE
  5
2D7
330
2D3
100
AcDbEntity
  8
RIQUADRO
100
AcDbLine
 10
240.429401171
 20
273.2227016535
 30
0.0
 11
272.0828595866
 21
254.9475689165
 31
0.0
  0
LINE
  5
2D8
330
2D3
100
AcDbEntity
  8
RIQUADRO
100
AcDbLine
 10
240.429401171
 20
273.2227016535
 30
0.0
 11
236.532286854
 21
275.4727016535
 31
0.0
  0
MTEXT
  5
2DA
330
2D3
100
AcDbEntity
  8
RIQUADRO
100
AcDbMText
 10
264.7835490102
 20
266.9992367495
 30
6.1
 40
5.2916666667
 41
0.0
 71
     1
 72
     1
  1
M 5
  7
SLDTEXTSTYLE3
 11
0.866025403784445
 21
-0.4999999999999889
 31
0.0
 73
     1
 44
1.0
  0
ENDBLK
  5
2D5
330
2D3
100
AcDbEntity
  8
0
100
AcDbBlockEnd
  0
BLOCK
  5
2DD
330
2DC
100
AcDbEntity
  8
0
100
AcDbBlockBegin
  2
_D_19
 70
     0
 10
0.0
 20
0.0
 30
0.0
  3
_D_19
  1

  0
INSERT
  5
2DF
330
2DC
100
AcDbEntity
  8
RIQUADRO
100
AcDbBlockReference
  2
_CLOSED
 10
340.429401171
 20
273.2227016535
 30
6.1
 41
4.0
 42
4.0
 50
150.0
  0
LINE
  5
2E0
330
2DC
100
AcDbEntity
  8
RIQUADRO
100
AcDbLine
 10
340.429401171
 20
273.2227016535
 30
0.0
 11
362.0051398505
 21
260.765943119
 31
0.0
  0
LINE
  5
2E1
330
2DC
100
AcDbEntity
  8
RIQUADRO
100
AcDbLine
 10
340.429401171
 20
273.2227016535
 30
0.0
 11
336.532286854
 21
275.4727016535
 31
0.0
  0
MTEXT
  5
2E2
330
2DC
100
AcDbEntity
  8
RIQUADRO
100
AcDbMText
 10
354.6833381895
 20
272.7786552508
 30
6.1
 40
5.2916666667
 41
0.0
 71
     1
 72
     1
  1
M 5
  7
SLDTEXTSTYLE3
 11
0.8660254037844424
 21
-0.4999999999999935
 31
0.0
 73
     1
 44
1.0
  0
ENDBLK
  5
2DE
330
2DC
100
AcDbEntity
  8
0
100
AcDbBlockEnd
  0
BLOCK
  5
2E6
330
2E5
100
AcDbEntity
  8
0
100
AcDbBlockBegin
  2
_D_20
 70
     0
 10
0.0
 20
0.0
 30
0.0
  3
_D_20
  1

  0
INSERT
  5
2E8
330
2E5
100
AcDbEntity
  8
RIQUADRO
100
AcDbBlockReference
  2
_CLOSED
 10
291.6979148803
 20
271.970633074
 30
6.1
 41
4.0
 42
4.0
 50
143.5395938641
  0
LINE
  5
2E9
330
2E5
100
AcDbEntity
  8
RIQUADRO
100
AcDbLine
 10
291.6979148803
 20
271.970633074
 30
0.0
 11
326.1870506569
 21
246.4868795731
 31
0.0
  0
LINE
  5
2EA
330
2E5
100
AcDbEntity
  8
RIQUADRO
100
AcDbLine
 10
291.6979148803
 20
271.970633074
 30
0.0
 11
285.2637731447
 21
276.724770233
 31
0.0
  0
MTEXT
  5
2EB
330
2E5
100
AcDbEntity
  8
RIQUADRO
100
AcDbMText
 10
301.0990613463
 20
273.2671756569
 30
6.1
 40
5.2916666667
 41
0.0
 71
     1
 72
     1
  1
%%c
  7
SLDTEXTSTYLE1
 11
0.8042677169435534
 21
-0.5942671448788029
 31
0.0
 73
     1
 44
1.0
  0
MTEXT
  5
2EC
330
2E5
100
AcDbEntity
  8
RIQUADRO
100
AcDbMText
 10
307.523131145
 20
268.5204805734
 30
6.1
 40
5.2916666667
 41
0.0
 71
     1
 72
     1
  1
8
  7
SLDTEXTSTYLE1
 11
0.8042677169435534
 21
-0.5942671448788029
 31
0.0
 73
     1
 44
1.0
  0
MTEXT
  5
2ED
330
2E5
100
AcDbEntity
  8
RIQUADRO
100
AcDbMText
 10
315.7157707932
 20
262.4670030184
 30
6.1
 40
5.2916666667
 41
0.0
 71
     1
 72
     1
  1

  7
SLDTEXTSTYLE1
 11
0.8042677169435534
 21
-0.5942671448788029
 31
0.0
 73
     1
 44
1.0
  0
MTEXT
  5
2EE
330
2E5
100
AcDbEntity
  8
RIQUADRO
100
AcDbMText
 10
319.881071397
 20
268.1619402594
 30
6.1
 40
5.2916666667
 41
0.0
 71
     1
 72
     1
  1
+
  7
SLDTEXTSTYLE1
 11
0.8042677169435534
 21
-0.5942671448788029
 31
0.0
 73
     1
 44
1.0
  0
MTEXT
  5
2EF
330
2E5
100
AcDbEntity
  8
RIQUADRO
100
AcDbMText
 10
318.2180925929
 20
260.6180569522
 30
6.1
 40
5.2916666667
 41
0.0
 71
     1
 72
     1
  1

  7
SLDTEXTSTYLE1
 11
0.8042677169435534
 21
-0.5942671448788029
 31
0.0
 73
     1
 44
1.0
  0
MTEXT
  5
2F0
330
2E5
100
AcDbEntity
  8
RIQUADRO
100
AcDbMText
 10
323.3173292294
 20
265.6229161408
 30
6.1
 40
5.2916666667
 41
0.0
 71
     1
 72
     1
  1
0,20
  7
SLDTEXTSTYLE1
 11
0.8042677169435534
 21
-0.5942671448788029
 31
0.0
 73
     1
 44
1.0
  0
MTEXT
  5
2F1
330
2E5
100
AcDbEntity
  8
RIQUADRO
100
AcDbMText
 10
319.1244444245
 20
259.9483606509
 30
6.1
 40
5.2916666667
 41
0.0
 71
     1
 72
     1
  1
0
  7
SLDTEXTSTYLE1
 11
0.8042677169435534
 21
-0.5942671448788029
 31
0.0
 73
     1
 44
1.0
  0
ENDBLK
  5
2E7
330
2E5
100
AcDbEntity
  8
0
100
AcDbBlockEnd
  0
BLOCK
  5
2F4
330
2F3
100
AcDbEntity
  8
0
100
AcDbBlockBegin
  2
_D_21
 70
     0
 10
0.0
 20
0.0
 30
0.0
  3
_D_21
  1

  0
INSERT
  5
2F6
330
2F3
100
AcDbEntity
  8
RIQUADRO
100
AcDbBlockReference
  2
_CLOSED
 10
392.4808440125
 20
274.3477016535
 30
6.1
 41
4.0
 42
4.0
 50
180.0
  0
LINE
  5
2F7
330
2F3
100
AcDbEntity
  8
RIQUADRO
100
AcDbLine
 10
392.4808440125
 20
274.3477016535
 30
0.0
 11
439.6724521282
 21
274.3477016535
 31
0.0
  0
LINE
  5
2F8
330
2F3
100
AcDbEntity
  8
RIQUADRO
100
AcDbLine
 10
392.4808440125
 20
274.3477016535
 30
0.0
 11
384.4808440125
 21
274.3477016535
 31
0.0
  0
MTEXT
  5
2F9
330
2F3
100
AcDbEntity
  8
RIQUADRO
100
AcDbMText
 10
403.58034215
 20
281.0206365226
 30
6.1
 40
5.2916666667
 41
0.0
 71
     1
 72
     1
  1
%%c
  7
SLDTEXTSTYLE1
 73
     1
 44
1.0
  0
MTEXT
  5
2FA
330
2F3
100
AcDbEntity
  8
RIQUADRO
100
AcDbMText
 10
411.5678190354
 20
281.0206365226
 30
6.1
 40
5.2916666667
 41
0.0
 71
     1
 72
     1
  1
8
  7
SLDTEXTSTYLE1
 73
     1
 44
1.0
  0
MTEXT
  5
2FB
330
2F3
100
AcDbEntity
  8
RIQUADRO
100
AcDbMText
 10
421.7542774442
 20
281.0206365226
 30
6.1
 40
5.2916666667
 41
0.0
 71
     1
 72
     1
  1

  7
SLDTEXTSTYLE1
 73
     1
 44
1.0
  0
MTEXT
  5
2FC
330
2F3
100
AcDbEntity
  8
RIQUADRO
100
AcDbMText
 10
421.7199801567
 20
288.0761919929
 30
6.1
 40
5.2916666667
 41
0.0
 71
     1
 72
     1
  1
+
  7
SLDTEXTSTYLE1
 73
     1
 44
1.0
  0
MTEXT
  5
2FD
330
2F3
100
AcDbEntity
  8
RIQUADRO
100
AcDbMText
 10
424.8655819848
 20
281.0206365226
 30
6.1
 40
5.2916666667
 41
0.0
 71
     1
 72
     1
  1

  7
SLDTEXTSTYLE1
 73
     1
 44
1.0
  0
MTEXT
  5
2FE
330
2F3
100
AcDbEntity
  8
RIQUADRO
100
AcDbMText
 10
425.9925100121
 20
288.0761919929
 30
6.1
 40
5.2916666667
 41
0.0
 71
     1
 72
     1
  1
0,20
  7
SLDTEXTSTYLE1
 73
     1
 44
1.0
  0
MTEXT
  5
2FF
330
2F3
100
AcDbEntity
  8
RIQUADRO
100
AcDbMText
 10
425.9925100121
 20
281.0206365226
 30
6.1
 40
5.2916666667
 41
0.0
 71
     1
 72
     1
  1
0
  7
SLDTEXTSTYLE1
 73
     1
 44
1.0
  0
ENDBLK
  5
2F5
330
2F3
100
AcDbEntity
  8
0
100
AcDbBlockEnd
  0
BLOCK
  5
303
330
302
100
AcDbEntity
  8
0
100
AcDbBlockBegin
  2
_D_22
 70
     0
 10
0.0
 20
0.0
 30
0.0
  3
_D_22
  1

  0
INSERT
  5
305
330
302
100
AcDbEntity
  8
RIQUADRO
100
AcDbBlockReference
  2
_CLOSED
 10
211.4846617732
 20
249.4712187277
 30
6.1
 41
4.0
 42
4.0
 50
356.4592432299
  0
LINE
  5
306
330
302
100
AcDbEntity
  8
RIQUADRO
100
AcDbLine
 10
211.4846617732
 20
249.4712187277
 30
0.0
 11
165.3178498217
 21
252.3278664937
 31
0.0
  0
LINE
  5
307
330
302
100
AcDbEntity
  8
RIQUADRO
100
AcDbLine
 10
211.4846617732
 20
249.4712187277
 30
0.0
 11
215.4770262518
 21
249.2241845794
 31
0.0
  0
MTEXT
  5
308
330
302
100
AcDbEntity
  8
RIQUADRO
100
AcDbMText
 10
165.724415728
 20
258.8984531673
 30
6.1
 40
5.2916666667
 41
0.0
 71
     1
 72
     1
  1
%%c
  7
SLDTEXTSTYLE1
 11
0.9980911196375304
 21
-0.06175853706736377
 31
0.0
 73
     1
 44
1.0
  0
MTEXT
  5
309
330
302
100
AcDbEntity
  8
RIQUADRO
100
AcDbMText
 10
173.6966454756
 20
258.40515828
 30
6.1
 40
5.2916666667
 41
0.0
 71
     1
 72
     1
  1
4
  7
SLDTEXTSTYLE1
 11
0.9980911196375304
 21
-0.06175853706736377
 31
0.0
 73
     1
 44
1.0
  0
MTEXT
  5
30A
330
302
100
AcDbEntity
  8
RIQUADRO
100
AcDbMText
 10
183.863659154
 20
257.7760575108
 30
6.1
 40
5.2916666667
 41
0.0
 71
     1
 72
     1
  1
F6
  7
SLDTEXTSTYLE1
 11
0.9980911196375304
 21
-0.06175853706736377
 31
0.0
 73
     1
 44
1.0
  0
MTEXT
  5
30B
330
302
100
AcDbEntity
  8
RIQUADRO
100
AcDbMText
 10
193.5274684652
 20
264.2471427832
 30
6.1
 40
5.2916666667
 41
0.0
 71
     1
 72
     1
  1
+
  7
SLDTEXTSTYLE1
 11
0.9980911196375304
 21
-0.06175853706736377
 31
0.0
 73
     1
 44
1.0
  0
MTEXT
  5
30C
330
302
100
AcDbEntity
  8
RIQUADRO
100
AcDbMText
 10
193.0917276811
 20
257.2050555241
 30
6.1
 40
5.2916666667
 41
0.0
 71
     1
 72
     1
  1
+
  7
SLDTEXTSTYLE1
 11
0.9980911196375304
 21
-0.06175853706736377
 31
0.0
 73
     1
 44
1.0
  0
MTEXT
  5
30D
330
302
100
AcDbEntity
  8
RIQUADRO
100
AcDbMText
 10
197.7918444313
 20
263.9832774747
 30
6.1
 40
5.2916666667
 41
0.0
 71
     1
 72
     1
  1
0,02
  7
SLDTEXTSTYLE1
 11
0.9980911196375304
 21
-0.06175853706736377
 31
0.0
 73
     1
 44
1.0
  0
MTEXT
  5
30E
330
302
100
AcDbEntity
  8
RIQUADRO
100
AcDbMText
 10
197.3561036472
 20
256.9411902157
 30
6.1
 40
5.2916666667
 41
0.0
 71
     1
 72
     1
  1
0,01
  7
SLDTEXTSTYLE1
 11
0.9980911196375304
 21
-0.06175853706736377
 31
0.0
 73
     1
 44
1.0
  0
ENDBLK
  5
304
330
302
100
AcDbEntity
  8
0
100
AcDbBlockEnd
  0
BLOCK
  5
311
330
310
100
AcDbEntity
  8
0
100
AcDbBlockBegin
  2
_D_23
 70
     0
 10
0.0
 20
0.0
 30
0.0
  3
_D_23
  1

  0
INSERT
  5
313
330
310
100
AcDbEntity
  8
RIQUADRO
100
AcDbBlockReference
  2
_CLOSED
 10
415.4126956651
 20
248.8300635633
 30
6.1
 41
4.0
 42
4.0
 50
165.0
  0
LINE
  5
314
330
310
100
AcDbEntity
  8
RIQUADRO
100
AcDbLine
 10
415.4126956651
 20
248.8300635633
 30
0.0
 11
466.3296174622
 21
235.1869154867
 31
0.0
  0
LINE
  5
315
330
310
100
AcDbEntity
  8
RIQUADRO
100
AcDbLine
 10
415.4126956651
 20
248.8300635633
 30
0.0
 11
411.5489923599
 21
249.8653397437
 31
0.0
  0
MTEXT
  5
316
330
310
100
AcDbEntity
  8
RIQUADRO
100
AcDbMText
 10
424.2280670169
 20
253.3662185499
 30
6.1
 40
5.2916666667
 41
0.0
 71
     1
 72
     1
  1
%%c
  7
SLDTEXTSTYLE1
 11
0.9659258262890718
 21
-0.2588190451025079
 31
0.0
 73
     1
 44
1.0
  0
MTEXT
  5
317
330
310
100
AcDbEntity
  8
RIQUADRO
100
AcDbMText
 10
431.9433772273
 20
251.2989074096
 30
6.1
 40
5.2916666667
 41
0.0
 71
     1
 72
     1
  1
4
  7
SLDTEXTSTYLE1
 11
0.9659258262890718
 21
-0.2588190451025079
 31
0.0
 73
     1
 44
1.0
  0
MTEXT
  5
318
330
310
100
AcDbEntity
  8
RIQUADRO
100
AcDbMText
 10
441.7827404828
 20
248.6624579713
 30
6.1
 40
5.2916666667
 41
0.0
 71
     1
 72
     1
  1

  7
SLDTEXTSTYLE1
 11
0.9659258262890718
 21
-0.2588190451025079
 31
0.0
 73
     1
 44
1.0
  0
MTEXT
  5
319
330
310
100
AcDbEntity
  8
RIQUADRO
100
AcDbMText
 10
443.5757239766
 20
255.48647801
 30
6.1
 40
5.2916666667
 41
0.0
 71
     1
 72
     1
  1
F6
  7
SLDTEXTSTYLE1
 11
0.9659258262890718
 21
-0.2588190451025079
 31
0.0
 73
     1
 44
1.0
  0
MTEXT
  5
31A
330
310
100
AcDbEntity
  8
RIQUADRO
100
AcDbMText
 10
446.2646444123
 20
247.4615354328
 30
6.1
 40
5.2916666667
 41
0.0
 71
     1
 72
     1
  1

  7
SLDTEXTSTYLE1
 11
0.9659258262890718
 21
-0.2588190451025079
 31
0.0
 73
     1
 44
1.0
  0
MTEXT
  5
31B
330
310
100
AcDbEntity
  8
RIQUADRO
100
AcDbMText
 10
450.7465464302
 20
246.2606134066
 30
6.1
 40
5.2916666667
 41
0.0
 71
     1
 72
     1
  1

  7
SLDTEXTSTYLE1
 11
0.9659258262890718
 21
-0.2588190451025079
 31
0.0
 73
     1
 44
1.0
  0
MTEXT
  5
31C
330
310
100
AcDbEntity
  8
RIQUADRO
100
AcDbMText
 10
452.539529924
 20
253.0846334453
 30
6.1
 40
5.2916666667
 41
0.0
 71
     1
 72
     1
  1
+
  7
SLDTEXTSTYLE1
 11
0.9659258262890718
 21
-0.2588190451025079
 31
0.0
 73
     1
 44
1.0
  0
MTEXT
  5
31D
330
310
100
AcDbEntity
  8
RIQUADRO
100
AcDbMText
 10
450.7134177945
 20
246.2694901978
 30
6.1
 40
5.2916666667
 41
0.0
 71
     1
 72
     1
  1
+
  7
SLDTEXTSTYLE1
 11
0.9659258262890718
 21
-0.2588190451025079
 31
0.0
 73
     1
 44
1.0
  0
MTEXT
  5
31E
330
310
100
AcDbEntity
  8
RIQUADRO
100
AcDbMText
 10
456.666478654
 20
251.9788208659
 30
6.1
 40
5.2916666667
 41
0.0
 71
     1
 72
     1
  1
0,02
  7
SLDTEXTSTYLE1
 11
0.9659258262890718
 21
-0.2588190451025079
 31
0.0
 73
     1
 44
1.0
  0
MTEXT
  5
31F
330
310
100
AcDbEntity
  8
RIQUADRO
100
AcDbMText
 10
454.8403665245
 20
245.1636776183
 30
6.1
 40
5.2916666667
 41
0.0
 71
     1
 72
     1
  1
0,01
  7
SLDTEXTSTYLE1
 11
0.9659258262890718
 21
-0.2588190451025079
 31
0.0
 73
     1
 44
1.0
  0
ENDBLK
  5
312
330
310
100
AcDbEntity
  8
0
100
AcDbBlockEnd
  0
BLOCK
  5
322
330
321
100
AcDbEntity
  8
0
100
AcDbBlockBegin
  2
_D_24
 70
     0
 10
0.0
 20
0.0
 30
0.0
  3
_D_24
  1

  0
INSERT
  5
324
330
321
100
AcDbEntity
  8
RIQUADRO
100
AcDbBlockReference
  2
_CLOSED
 10
162.862468634
 20
274.3477016535
 30
6.1
 41
4.0
 42
4.0
 50
90.0
  0
INSERT
  5
325
330
321
100
AcDbEntity
  8
RIQUADRO
100
AcDbBlockReference
  2
_CLOSED
 10
162.862468634
 20
224.3477016535
 30
6.1
 41
4.0
 42
4.0
 50
270.0
  0
LINE
  5
326
330
321
100
AcDbEntity
  8
RIQUADRO
100
AcDbLine
 10
386.4808440125
 20
274.3477016535
 30
0.0
 11
160.862468634
 21
274.3477016535
 31
0.0
  0
LINE
  5
327
330
321
100
AcDbEntity
  8
RIQUADRO
100
AcDbLine
 10
386.4808440125
 20
224.3477016535
 30
0.0
 11
160.862468634
 21
224.3477016535
 31
0.0
  0
LINE
  5
328
330
321
100
AcDbEntity
  8
RIQUADRO
100
AcDbLine
 10
162.862468634
 20
274.3477016535
 30
0.0
 11
162.862468634
 21
224.3477016535
 31
0.0
  0
MTEXT
  5
329
330
321
100
AcDbEntity
  8
RIQUADRO
100
AcDbMText
 10
156.0411519608
 20
244.9259554542
 30
6.1
 40
5.2916666667
 41
0.0
 71
     1
 72
     1
  1
50
  7
SLDTEXTSTYLE1
 11
-7.044195017643634E-15
 21
1.0
 31
0.0
 73
     1
 44
1.0
  0
ENDBLK
  5
323
330
321
100
AcDbEntity
  8
0
100
AcDbBlockEnd
  0
BLOCK
  5
32C
330
32B
100
AcDbEntity
  8
0
100
AcDbBlockBegin
  2
_D_25
 70
     0
 10
0.0
 20
0.0
 30
0.0
  3
_D_25
  1

  0
INSERT
  5
32E
330
32B
100
AcDbEntity
  8
RIQUADRO
100
AcDbBlockReference
  2
_CLOSED
 10
136.6999822747
 20
291.8477016535
 30
6.1
 41
4.0
 42
4.0
 50
90.0
  0
INSERT
  5
32F
330
32B
100
AcDbEntity
  8
RIQUADRO
100
AcDbBlockReference
  2
_CLOSED
 10
136.6999822747
 20
206.8477016535
 30
6.1
 41
4.0
 42
4.0
 50
270.0
  0
LINE
  5
330
330
32B
100
AcDbEntity
  8
RIQUADRO
100
AcDbLine
 10
217.5213375642
 20
291.8477016535
 30
0.0
 11
134.6999822747
 21
291.8477016535
 31
0.0
  0
LINE
  5
331
330
32B
100
AcDbEntity
  8
RIQUADRO
100
AcDbLine
 10
217.5213375642
 20
206.8477016535
 30
0.0
 11
134.6999822747
 21
206.8477016535
 31
0.0
  0
LINE
  5
332
330
32B
100
AcDbEntity
  8
RIQUADRO
100
AcDbLine
 10
136.6999822747
 20
291.8477016535
 30
0.0
 11
136.6999822747
 21
206.8477016535
 31
0.0
  0
MTEXT
  5
333
330
32B
100
AcDbEntity
  8
RIQUADRO
100
AcDbMText
 10
129.8786656015
 20
239.7912250439
 30
6.1
 40
5.2916666667
 41
0.0
 71
     1
 72
     1
  1
85
  7
SLDTEXTSTYLE1
 11
-7.044195017643634E-15
 21
1.0
 31
0.0
 73
     1
 44
1.0
  0
ENDBLK
  5
32D
330
32B
100
AcDbEntity
  8
0
100
AcDbBlockEnd
  0
ENDSEC
  0
SECTION
  2
ENTITIES
  0
LINE
  5
4B
330
1F
100
AcDbEntity
  8
RIQUADRO
100
AcDbLine
 10
809.2129391868
 20
296.8377978596
 30
0.0
 11
819.2129391868
 21
296.8377978596
 31
0.0
  0
LINE
  5
4C
330
1F
100
AcDbEntity
  8
RIQUADRO
100
AcDbLine
 10
552.1665590222
 20
81.8377978596
 30
0.0
 11
552.1665590222
 21
39.8377978596
 31
0.0
  0
LINE
  5
4D
330
1F
100
AcDbEntity
  8
RIQUADRO
100
AcDbLine
 10
619.3056273927
 20
72.8377978596
 30
0.0
 11
619.3056273927
 21
39.8377978596
 31
0.0
  0
LINE
  5
4E
330
1F
100
AcDbEntity
  8
RIQUADRO
  6
Continuous
 62
     7
370
    30
100
AcDbLine
 10
829.2129391868
 20
9.8377978596
 30
0.0
 11
809.2129391868
 21
9.8377978596
 31
0.0
  0
LINE
  5
4F
330
1F
100
AcDbEntity
  8
RIQUADRO
  6
Continuous
 62
     7
370
    30
100
AcDbLine
 10
829.2129391868
 20
9.8377978596
 30
0.0
 11
829.2129391868
 21
29.8377978596
 31
0.0
  0
LINE
  5
50
330
1F
100
AcDbEntity
  8
CONTORNO
  6
Continuous
 62
     7
370
    30
100
AcDbLine
 10
829.2129391868
 20
583.8377978596
 30
0.0
 11
829.2129391868
 21
563.8377978596
 31
0.0
  0
LINE
  5
51
330
1F
100
AcDbEntity
  8
CONTORNO
  6
Continuous
 62
     7
370
    30
100
AcDbLine
 10
829.2129391868
 20
583.8377978596
 30
0.0
 11
809.2129391868
 21
583.8377978596
 31
0.0
  0
LINE
  5
52
330
1F
100
AcDbEntity
  8
RIQUADRO
100
AcDbLine
 10
19.2129391868
 20
573.8377978596
 30
0.0
 11
19.2129391868
 21
19.8377978596
 31
0.0
  0
LINE
  5
53
330
1F
100
AcDbEntity
  8
RIQUADRO
100
AcDbLine
 10
19.2129391868
 20
19.8377978596
 30
0.0
 11
819.2129391868
 21
19.8377978596
 31
0.0
  0
LINE
  5
54
330
1F
100
AcDbEntity
  8
RIQUADRO
100
AcDbLine
 10
819.2129391868
 20
573.8377978596
 30
0.0
 11
819.2129391868
 21
19.8377978596
 31
0.0
  0
LINE
  5
55
330
1F
100
AcDbEntity
  8
RIQUADRO
100
AcDbLine
 10
19.2129391868
 20
573.8377978596
 30
0.0
 11
819.2129391868
 21
573.8377978596
 31
0.0
  0
LINE
  5
56
330
1F
100
AcDbEntity
  8
RIQUADRO
100
AcDbLine
 10
29.2129391868
 20
573.8377978596
 30
0.0
 11
29.2129391868
 21
19.8377978596
 31
0.0
  0
LINE
  5
57
330
1F
100
AcDbEntity
  8
CARTIGLIO
100
AcDbLine
 10
449.2129391868
 20
29.8377978596
 30
0.0
 11
819.2129391868
 21
29.8377978596
 31
0.0
  0
LINE
  5
58
330
1F
100
AcDbEntity
  8
RIQUADRO
100
AcDbLine
 10
809.2129391868
 20
573.8377978596
 30
0.0
 11
809.2129391868
 21
19.8377978596
 31
0.0
  0
LINE
  5
59
330
1F
100
AcDbEntity
  8
RIQUADRO
100
AcDbLine
 10
19.2129391868
 20
563.8377978596
 30
0.0
 11
819.2129391868
 21
563.8377978596
 31
0.0
  0
LINE
  5
5A
330
1F
100
AcDbEntity
  8
CARTIGLIO
100
AcDbLine
 10
809.2129391868
 20
149.8377978596
 30
0.0
 11
449.2129391868
 21
149.8377978596
 31
0.0
  0
LINE
  5
5B
330
1F
100
AcDbEntity
  8
CARTIGLIO
100
AcDbLine
 10
449.2129391868
 20
149.8377978596
 30
0.0
 11
449.2129391868
 21
29.8377978596
 31
0.0
  0
LINE
  5
5C
330
1F
100
AcDbEntity
  8
CARTIGLIO
100
AcDbLine
 10
809.2129391868
 20
115.8377978596
 30
0.0
 11
449.2129391868
 21
115.8377978596
 31
0.0
  0
LINE
  5
5D
330
1F
100
AcDbEntity
  8
CARTIGLIO
100
AcDbLine
 10
809.2129391868
 20
39.8377978596
 30
0.0
 11
449.2129391868
 21
39.8377978596
 31
0.0
  0
LINE
  5
5E
330
1F
100
AcDbEntity
  8
CARTIGLIO
100
AcDbLine
 10
809.2129391868
 20
50.8377978596
 30
0.0
 11
669.1613712321
 21
50.8377978596
 31
0.0
  0
LINE
  5
5F
330
1F
100
AcDbEntity
  8
CARTIGLIO
100
AcDbLine
 10
669.1613712321
 20
149.8377978596
 30
0.0
 11
669.1613712321
 21
39.8377978596
 31
0.0
  0
LINE
  5
60
330
1F
100
AcDbEntity
  8
CARTIGLIO
100
AcDbLine
 10
809.2129391868
 20
81.8377978596
 30
0.0
 11
449.2129391868
 21
81.8377978596
 31
0.0
  0
LINE
  5
61
330
1F
100
AcDbEntity
  8
CARTIGLIO
100
AcDbLine
 10
789.8122713236
 20
81.8377978596
 30
0.0
 11
789.8122713236
 21
50.8377978596
 31
0.0
  0
LINE
  5
62
330
1F
100
AcDbEntity
  8
RIQUADRO
100
AcDbLine
 10
621.6322287719
 20
149.8377978596
 30
0.0
 11
621.6322287719
 21
115.8377978596
 31
0.0
  0
LINE
  5
63
330
1F
100
AcDbEntity
  8
CARTIGLIO
100
AcDbLine
 10
809.2129391868
 20
149.8377978596
 30
0.0
 11
809.2129391868
 21
29.8377978596
 31
0.0
  0
LINE
  5
64
330
1F
100
AcDbEntity
  8
PROIEZ
  6
CENTERX2
100
AcDbLine
 10
645.4323437127
 20
132.4235365691
 30
0.0
 11
668.2008675145
 21
132.4235365691
 31
0.0
  0
LINE
  5
65
330
1F
100
AcDbEntity
  8
PROIEZ
  6
CENTERX2
100
AcDbLine
 10
656.8166056136
 20
143.8077984701
 30
0.0
 11
656.8166056136
 21
121.0392746682
 31
0.0
  0
LINE
  5
66
330
1F
100
AcDbEntity
  8
CONTORNO
  6
Continuous
 62
     7
370
    30
100
AcDbLine
 10
9.2129391868
 20
9.8377978596
 30
0.0
 11
9.2129391868
 21
29.8377978596
 31
0.0
  0
LINE
  5
67
330
1F
100
AcDbEntity
  8
CONTORNO
  6
Continuous
 62
     7
370
    30
100
AcDbLine
 10
9.2129391868
 20
9.8377978596
 30
0.0
 11
29.2129391868
 21
9.8377978596
 31
0.0
  0
LINE
  5
68
330
1F
100
AcDbEntity
  8
PROIEZ
  6
Continuous
 62
    16
370
    15
100
AcDbLine
 10
638.742612136
 20
124.030081576
 30
0.0
 11
638.742612136
 21
140.8169915622
 31
0.0
  0
LINE
  5
69
330
1F
100
AcDbEntity
  8
PROIEZ
  6
CENTERX2
100
AcDbLine
 10
641.3982922617
 20
132.4235365691
 30
0.0
 11
624.742612136
 21
132.4235365691
 31
0.0
  0
LINE
  5
6A
330
1F
100
AcDbEntity
  8
PROIEZ
  6
Continuous
 62
    16
370
    15
100
AcDbLine
 10
624.742612136
 20
128.030081576
 30
0.0
 11
624.742612136
 21
136.8169915622
 31
0.0
  0
LINE
  5
6B
330
1F
100
AcDbEntity
  8
PROIEZ
100
AcDbLine
 10
624.742612136
 20
128.030081576
 30
0.0
 11
638.742612136
 21
124.030081576
 31
0.0
  0
LINE
  5
6C
330
1F
100
AcDbEntity
  8
PROIEZ
  6
Continuous
 62
    16
370
    15
100
AcDbLine
 10
624.742612136
 20
136.8169915622
 30
0.0
 11
638.742612136
 21
140.8169915622
 31
0.0
  0
LINE
  5
6D
330
1F
100
AcDbEntity
  8
CARTIGLIO
100
AcDbLine
 10
669.1613712321
 20
134.7398159365
 30
0.0
 11
809.2129391868
 21
134.7398159365
 31
0.0
  0
LINE
  5
6E
330
1F
100
AcDbEntity
  8
CARTIGLIO
100
AcDbLine
 10
621.6322287719
 20
132.8377978596
 30
0.0
 11
449.2129391868
 21
132.8377978596
 31
0.0
  0
LINE
  5
6F
330
1F
100
AcDbEntity
  8
CARTIGLIO
100
AcDbLine
 10
601.2129391868
 20
115.8377978596
 30
0.0
 11
601.2129391868
 21
81.8377978596
 31
0.0
  0
LINE
  5
70
330
1F
100
AcDbEntity
  8
CARTIGLIO
100
AcDbLine
 10
601.2129391868
 20
98.8377978596
 30
0.0
 11
669.1613712321
 21
98.8377978596
 31
0.0
  0
LINE
  5
71
330
1F
100
AcDbEntity
  8
CARTIGLIO
100
AcDbLine
 10
643.426343532
 20
115.8377978596
 30
0.0
 11
643.426343532
 21
81.8377978596
 31
0.0
  0
LINE
  5
72
330
1F
100
AcDbEntity
  8
CARTIGLIO
100
AcDbLine
 10
601.2129391868
 20
101.8377978596
 30
0.0
 11
449.2129391868
 21
101.8377978596
 31
0.0
  0
LINE
  5
73
330
1F
100
AcDbEntity
  8
CARTIGLIO
100
AcDbLine
 10
601.2129391868
 20
89.8377978596
 30
0.0
 11
449.2129391868
 21
89.8377978596
 31
0.0
  0
LINE
  5
74
330
1F
100
AcDbEntity
  8
CARTIGLIO
100
AcDbLine
 10
468.2129391868
 20
101.8377978596
 30
0.0
 11
468.2129391868
 21
81.8377978596
 31
0.0
  0
LINE
  5
75
330
1F
100
AcDbEntity
  8
CARTIGLIO
100
AcDbLine
 10
487.2129391868
 20
101.8377978596
 30
0.0
 11
487.2129391868
 21
81.8377978596
 31
0.0
  0
LINE
  5
76
330
1F
100
AcDbEntity
  8
CARTIGLIO
100
AcDbLine
 10
506.2129391868
 20
101.8377978596
 30
0.0
 11
506.2129391868
 21
81.8377978596
 31
0.0
  0
LINE
  5
77
330
1F
100
AcDbEntity
  8
CARTIGLIO
100
AcDbLine
 10
525.2129391868
 20
101.8377978596
 30
0.0
 11
525.2129391868
 21
81.8377978596
 31
0.0
  0
LINE
  5
78
330
1F
100
AcDbEntity
  8
CARTIGLIO
100
AcDbLine
 10
544.2129391868
 20
101.8377978596
 30
0.0
 11
544.2129391868
 21
81.8377978596
 31
0.0
  0
LINE
  5
79
330
1F
100
AcDbEntity
  8
CARTIGLIO
100
AcDbLine
 10
563.2129391868
 20
101.8377978596
 30
0.0
 11
563.2129391868
 21
81.8377978596
 31
0.0
  0
LINE
  5
7A
330
1F
100
AcDbEntity
  8
CARTIGLIO
100
AcDbLine
 10
582.2129391868
 20
101.8377978596
 30
0.0
 11
582.2129391868
 21
39.8377978596
 31
0.0
  0
LINE
  5
7B
330
1F
100
AcDbEntity
  8
CARTIGLIO
100
AcDbLine
 10
449.2129391868
 20
108.8377978596
 30
0.0
 11
601.2129391868
 21
108.8377978596
 31
0.0
  0
LINE
  5
7C
330
1F
100
AcDbEntity
  8
CARTIGLIO
100
AcDbLine
 10
569.1860795461
 20
115.8377978596
 30
0.0
 11
569.1860795461
 21
101.8377978596
 31
0.0
  0
LINE
  5
7D
330
1F
100
AcDbEntity
  8
CARTIGLIO
100
AcDbLine
 10
586.7623708936
 20
115.8377978596
 30
0.0
 11
586.7623708936
 21
101.8377978596
 31
0.0
  0
LINE
  5
7E
330
1F
100
AcDbEntity
  8
CARTIGLIO
100
AcDbLine
 10
669.1613712321
 20
50.8377978596
 30
0.0
 11
552.1665590222
 21
50.8377978596
 31
0.0
  0
LINE
  5
7F
330
1F
100
AcDbEntity
  8
CARTIGLIO
100
AcDbLine
 10
669.1613712321
 20
61.8377978596
 30
0.0
 11
552.1665590222
 21
61.8377978596
 31
0.0
  0
LINE
  5
80
330
1F
100
AcDbEntity
  8
CARTIGLIO
100
AcDbLine
 10
669.1613712321
 20
72.8377978596
 30
0.0
 11
552.1665590222
 21
72.8377978596
 31
0.0
  0
LINE
  5
81
330
1F
100
AcDbEntity
  8
CARTIGLIO
100
AcDbLine
 10
752.0832460733
 20
134.7398159365
 30
0.0
 11
752.0832460733
 21
149.8377978596
 31
0.0
  0
LINE
  5
82
330
1F
100
AcDbEntity
  8
RIQUADRO
100
AcDbLine
 10
419.2129391868
 20
29.8377978596
 30
0.0
 11
419.2129391868
 21
39.8377978596
 31
0.0
  0
LINE
  5
83
330
1F
100
AcDbEntity
  8
RIQUADRO
100
AcDbLine
 10
126.7129391868
 20
573.8377978596
 30
0.0
 11
126.7129391868
 21
563.8377978596
 31
0.0
  0
LINE
  5
84
330
1F
100
AcDbEntity
  8
RIQUADRO
100
AcDbLine
 10
224.2129391868
 20
573.8377978596
 30
0.0
 11
224.2129391868
 21
563.8377978596
 31
0.0
  0
LINE
  5
85
330
1F
100
AcDbEntity
  8
RIQUADRO
100
AcDbLine
 10
321.7129391868
 20
573.8377978596
 30
0.0
 11
321.7129391868
 21
563.8377978596
 31
0.0
  0
LINE
  5
86
330
1F
100
AcDbEntity
  8
CONTORNO
  6
Continuous
 62
     7
370
    30
100
AcDbLine
 10
9.2129391868
 20
583.8377978596
 30
0.0
 11
29.2129391868
 21
583.8377978596
 31
0.0
  0
LINE
  5
87
330
1F
100
AcDbEntity
  8
RIQUADRO
100
AcDbLine
 10
29.2129391868
 20
163.3377978596
 30
0.0
 11
19.2129391868
 21
163.3377978596
 31
0.0
  0
LINE
  5
88
330
1F
100
AcDbEntity
  8
TABELLA_REV
100
AcDbLine
 10
809.2129391868
 20
521.8377978596
 30
0.0
 11
449.2129391868
 21
521.8377978596
 31
0.0
  0
LINE
  5
89
330
1F
100
AcDbEntity
  8
CONTORNO
  6
Continuous
 62
     7
370
    30
100
AcDbLine
 10
9.2129391868
 20
583.8377978596
 30
0.0
 11
9.2129391868
 21
563.8377978596
 31
0.0
  0
LINE
  5
8A
330
1F
100
AcDbEntity
  8
CONTORNO
100
AcDbLine
 10
29.2129391868
 20
563.8377978596
 30
0.0
 11
809.2129391868
 21
563.8377978596
 31
0.0
  0
LINE
  5
8B
330
1F
100
AcDbEntity
  8
RIQUADRO
100
AcDbLine
 10
29.2129391868
 20
430.3377978596
 30
0.0
 11
19.2129391868
 21
430.3377978596
 31
0.0
  0
LINE
  5
8C
330
1F
100
AcDbEntity
  8
RIQUADRO
100
AcDbLine
 10
809.2129391868
 20
163.3377978596
 30
0.0
 11
819.2129391868
 21
163.3377978596
 31
0.0
  0
LINE
  5
8D
330
1F
100
AcDbEntity
  8
RIQUADRO
100
AcDbLine
 10
19.2129391868
 20
296.8377978596
 30
0.0
 11
29.2129391868
 21
296.8377978596
 31
0.0
  0
LINE
  5
8E
330
1F
100
AcDbEntity
  8
RIQUADRO
100
AcDbLine
 10
809.2129391868
 20
430.3377978596
 30
0.0
 11
819.2129391868
 21
430.3377978596
 31
0.0
  0
LINE
  5
8F
330
1F
100
AcDbEntity
  8
CONTORNO
100
AcDbLine
 10
809.2129391868
 20
563.8377978596
 30
0.0
 11
809.2129391868
 21
29.8377978596
 31
0.0
  0
LINE
  5
90
330
1F
100
AcDbEntity
  8
CONTORNO
100
AcDbLine
 10
809.2129391868
 20
29.8377978596
 30
0.0
 11
29.2129391868
 21
29.8377978596
 31
0.0
  0
LINE
  5
91
330
1F
100
AcDbEntity
  8
CONTORNO
100
AcDbLine
 10
29.2129391868
 20
29.8377978596
 30
0.0
 11
29.2129391868
 21
563.8377978596
 31
0.0
  0
LINE
  5
92
330
1F
100
AcDbEntity
  8
RIQUADRO
100
AcDbLine
 10
419.2129391868
 20
573.8377978596
 30
0.0
 11
419.2129391868
 21
553.8377978596
 31
0.0
  0
LINE
  5
93
330
1F
100
AcDbEntity
  8
RIQUADRO
100
AcDbLine
 10
516.7129391868
 20
573.8377978596
 30
0.0
 11
516.7129391868
 21
563.8377978596
 31
0.0
  0
LINE
  5
94
330
1F
100
AcDbEntity
  8
RIQUADRO
100
AcDbLine
 10
614.2129391868
 20
573.8377978596
 30
0.0
 11
614.2129391868
 21
563.8377978596
 31
0.0
  0
LINE
  5
95
330
1F
100
AcDbEntity
  8
RIQUADRO
100
AcDbLine
 10
711.7129391868
 20
573.8377978596
 30
0.0
 11
711.7129391868
 21
563.8377978596
 31
0.0
  0
LINE
  5
96
330
1F
100
AcDbEntity
  8
RIQUADRO
100
AcDbLine
 10
126.7129391868
 20
29.8377978596
 30
0.0
 11
126.7129391868
 21
19.8377978596
 31
0.0
  0
LINE
  5
97
330
1F
100
AcDbEntity
  8
RIQUADRO
100
AcDbLine
 10
224.2129391868
 20
29.8377978596
 30
0.0
 11
224.2129391868
 21
19.8377978596
 31
0.0
  0
LINE
  5
98
330
1F
100
AcDbEntity
  8
CONTORNO
100
AcDbLine
 10
439.2129391868
 20
29.8377978596
 30
0.0
 11
439.2129391868
 21
19.8377978596
 31
0.0
  0
LINE
  5
99
330
1F
100
AcDbEntity
  8
CONTORNO
100
AcDbLine
 10
419.2129391868
 20
29.8377978596
 30
0.0
 11
419.2129391868
 21
19.8377978596
 31
0.0
  0
LINE
  5
9A
330
1F
100
AcDbEntity
  8
CONTORNO
100
AcDbLine
 10
459.2129391868
 20
29.8377978596
 30
0.0
 11
459.2129391868
 21
19.8377978596
 31
0.0
  0
LINE
  5
9B
330
1F
100
AcDbEntity
  8
CONTORNO
100
AcDbLine
 10
479.2129391868
 20
29.8377978596
 30
0.0
 11
479.2129391868
 21
19.8377978596
 31
0.0
  0
LINE
  5
9C
330
1F
100
AcDbEntity
  8
CONTORNO
100
AcDbLine
 10
499.2129391868
 20
29.8377978596
 30
0.0
 11
499.2129391868
 21
19.8377978596
 31
0.0
  0
LINE
  5
9D
330
1F
100
AcDbEntity
  8
RIQUADRO
100
AcDbLine
 10
519.2129391868
 20
29.8377978596
 30
0.0
 11
519.2129391868
 21
19.8377978596
 31
0.0
  0
LINE
  5
9E
330
1F
100
AcDbEntity
  8
CONTORNO
100
AcDbLine
 10
399.2129391868
 20
29.8377978596
 30
0.0
 11
399.2129391868
 21
19.8377978596
 31
0.0
  0
LINE
  5
9F
330
1F
100
AcDbEntity
  8
CONTORNO
100
AcDbLine
 10
379.2129391868
 20
29.8377978596
 30
0.0
 11
379.2129391868
 21
19.8377978596
 31
0.0
  0
LINE
  5
A0
330
1F
100
AcDbEntity
  8
TABELLA_REV
100
AcDbLine
 10
449.2129391868
 20
521.8377978596
 30
0.0
 11
449.2129391868
 21
563.8377978596
 31
0.0
  0
LINE
  5
A1
330
1F
100
AcDbEntity
  8
TABELLA_REV
100
AcDbLine
 10
809.2129391868
 20
532.8377978596
 30
0.0
 11
449.2129391868
 21
532.8377978596
 31
0.0
  0
LINE
  5
A2
330
1F
100
AcDbEntity
  8
TABELLA_REV
100
AcDbLine
 10
809.2129391868
 20
543.8377978596
 30
0.0
 11
449.2129391868
 21
543.8377978596
 31
0.0
  0
LINE
  5
A3
330
1F
100
AcDbEntity
  8
TABELLA_REV
100
AcDbLine
 10
809.2129391868
 20
554.8377978596
 30
0.0
 11
449.2129391868
 21
554.8377978596
 31
0.0
  0
LINE
  5
A4
330
1F
100
AcDbEntity
  8
TABELLA_REV
100
AcDbLine
 10
481.2129391868
 20
563.8377978596
 30
0.0
 11
481.2129391868
 21
521.8377978596
 31
0.0
  0
LINE
  5
A5
330
1F
100
AcDbEntity
  8
TABELLA_REV
100
AcDbLine
 10
703.2129391868
 20
563.8377978596
 30
0.0
 11
703.2129391868
 21
521.8377978596
 31
0.0
  0
LINE
  5
A6
330
1F
100
AcDbEntity
  8
TABELLA_REV
100
AcDbLine
 10
749.2129391868
 20
563.8377978596
 30
0.0
 11
749.2129391868
 21
521.8377978596
 31
0.0
  0
LINE
  5
A7
330
1F
100
AcDbEntity
  8
RIQUADRO
100
AcDbLine
 10
614.2129391868
 20
29.8377978596
 30
0.0
 11
614.2129391868
 21
19.8377978596
 31
0.0
  0
LINE
  5
A8
330
1F
100
AcDbEntity
  8
RIQUADRO
100
AcDbLine
 10
711.7129391868
 20
29.8377978596
 30
0.0
 11
711.7129391868
 21
19.8377978596
 31
0.0
  0
LINE
  5
A9
330
1F
100
AcDbEntity
  8
CONTORNO
100
AcDbLine
 10
359.2129391868
 20
29.8377978596
 30
0.0
 11
359.2129391868
 21
19.8377978596
 31
0.0
  0
LINE
  5
AA
330
1F
100
AcDbEntity
  8
CONTORNO
100
AcDbLine
 10
339.2129391868
 20
29.8377978596
 30
0.0
 11
339.2129391868
 21
19.8377978596
 31
0.0
  0
LINE
  5
AB
330
1F
100
AcDbEntity
  8
RIQUADRO
100
AcDbLine
 10
319.2129391868
 20
29.8377978596
 30
0.0
 11
319.2129391868
 21
19.8377978596
 31
0.0
  0
LINE
  5
AC
330
1F
100
AcDbEntity
  8
RIQUADRO
100
AcDbLine
 10
19.2129391868
 20
29.8377978596
 30
0.0
 11
809.2129391868
 21
29.8377978596
 31
0.0
  0
LINE
  5
AD
330
1F
100
AcDbEntity
  8
RIQUADRO
100
AcDbLine
 10
419.2129391868
 20
39.8377978596
 30
0.0
 11
419.2129391868
 21
19.8377978596
 31
0.0
  0
LINE
  5
AE
330
1F
100
AcDbEntity
  8
CONTORNO
100
AcDbLine
 10
319.2129391868
 20
29.8377978596
 30
0.0
 11
519.2129391868
 21
29.8377978596
 31
0.0
  0
LINE
  5
AF
330
1F
100
AcDbEntity
  8
CONTORNO
100
AcDbLine
 10
319.2129391868
 20
29.8377978596
 30
0.0
 11
319.2129391868
 21
19.8377978596
 31
0.0
  0
LINE
  5
B0
330
1F
100
AcDbEntity
  8
CONTORNO
100
AcDbLine
 10
319.2129391868
 20
19.8377978596
 30
0.0
 11
519.2129391868
 21
19.8377978596
 31
0.0
  0
LINE
  5
B1
330
1F
100
AcDbEntity
  8
CONTORNO
100
AcDbLine
 10
519.2129391868
 20
29.8377978596
 30
0.0
 11
519.2129391868
 21
19.8377978596
 31
0.0
  0
CIRCLE
  5
B2
330
1F
100
AcDbEntity
  8
PROIEZ
100
AcDbCircle
 10
656.8166056136
 20
132.4235365691
 30
0.0
 40
7.99999999999998
  0
CIRCLE
  5
B3
330
1F
100
AcDbEntity
  8
PROIEZ
100
AcDbCircle
 10
656.8166056136
 20
132.4235365691
 30
0.0
 40
3.99999999999999
  0
MTEXT
  5
B5
330
1F
100
AcDbEntity
  8
CARTIGLIO
100
AcDbMText
 10
675.5417420516
 20
149.8328027752
 30
0.0
 40
4.0
 41
0.0
 71
     1
 72
     1
  1
Mass
  7
SLDTEXTSTYLE0
 73
     1
 44
1.0
  0
MTEXT
  5
B6
330
1F
100
AcDbEntity
  8
CARTIGLIO
100
AcDbMText
 10
672.8770494324
 20
80.0980897825
 30
0.0
 40
4.0
 41
0.0
 71
     1
 72
     1
  1
Drawing No.
  7
SLDTEXTSTYLE0
 73
     1
 44
1.0
  0
MTEXT
  5
B7
330
1F
100
AcDbEntity
  8
CARTIGLIO
100
AcDbMText
 10
759.6691753508
 20
147.8406429285
 30
0.0
 40
4.0
 41
0.0
 71
     1
 72
     1
  1
Scale
  7
SLDTEXTSTYLE0
 73
     1
 44
1.0
  0
MTEXT
  5
B8
330
1F
100
AcDbEntity
  8
CARTIGLIO
100
AcDbMText
 10
793.0750769468
 20
79.4558693149
 30
0.0
 40
4.0
 41
0.0
 71
     1
 72
     1
  1
Sheet
  7
SLDTEXTSTYLE0
 73
     1
 44
1.0
  0
MTEXT
  5
BA
330
1F
100
AcDbEntity
  8
CARTIGLIO
100
AcDbMText
 10
777.1340309744
 20
145.5243800288
 30
0.0
 40
7.0
 41
0.0
 71
     1
 72
     1
  1
1:2
  7
SLDTEXTSTYLE1
 73
     1
 44
1.0
  0
MTEXT
  5
BB
330
1F
100
AcDbEntity
  8
CARTIGLIO
100
AcDbMText
 10
698.2256275317
 20
67.8157436183
 30
0.0
 40
9.0
 41
0.0
 71
     1
 72
     1
  1
20159-0-A
  7
SLDTEXTSTYLE1
 73
     1
 44
1.0
  0
MTEXT
  5
BC
330
1F
100
AcDbEntity
  8
CARTIGLIO
100
AcDbMText
 10
793.233798418
 20
64.5607504627
 30
0.0
 40
7.0
 41
0.0
 71
     1
 72
     1
  1
1/1
  7
SLDTEXTSTYLE1
 73
     1
 44
1.0
  0
MTEXT
  5
BD
330
1F
100
AcDbEntity
  8
CARTIGLIO
100
AcDbMText
 10
672.5981860439
 20
46.9069809682
 30
0.0
 40
3.8
 41
0.0
 71
     1
 72
     1
  1
Reproduction forbidden without specific authorization
  7
SLDTEXTSTYLE1
 73
     1
 44
1.0
  0
MTEXT
  5
BE
330
1F
100
AcDbEntity
  8
CARTIGLIO
100
AcDbMText
 10
671.35910951
 20
111.8527069905
 30
0.0
 40
4.0
 41
0.0
 71
     1
 72
     1
  1
Description
  7
SLDTEXTSTYLE1
 73
     1
 44
1.0
  0
MTEXT
  5
BF
330
1F
100
AcDbEntity
  8
CARTIGLIO
100
AcDbMText
 10
685.6268524233
 20
102.9026765129
 30
0.0
 40
6.35
 41
0.0
 71
     1
 72
     1
  1
Layout CMHO12K080
  7
SLDTEXTSTYLE1
 73
     1
 44
1.0
  0
MTEXT
  5
C0
330
1F
100
AcDbEntity
  8
CARTIGLIO
100
AcDbMText
 10
691.1040585225
 20
127.1011053542
 30
0.0
 40
6.35
 41
0.0
 71
     1
 72
     1
  1
CMHO12K080
  7
SLDTEXTSTYLE1
 73
     1
 44
1.0
  0
MTEXT
  5
C1
330
1F
100
AcDbEntity
  8
CARTIGLIO
100
AcDbMText
 10
450.3960819803
 20
148.2323886938
 30
0.0
 40
4.0
 41
0.0
 71
     1
 72
     1
  1
Material
  7
SLDTEXTSTYLE1
 73
     1
 44
1.0
  0
MTEXT
  5
C2
330
1F
100
AcDbEntity
  8
CARTIGLIO
100
AcDbMText
 10
451.4261079318
 20
130.8876600274
 30
0.0
 40
4.0
 41
0.0
 71
     1
 72
     1
  1
Surface treatment
  7
SLDTEXTSTYLE1
 73
     1
 44
1.0
  0
INSERT
  5
C8
330
1F
100
AcDbEntity
  8
CARTIGLIO
100
AcDbBlockReference
  2
SW_NOTE_0
 10
602.5183513614
 20
90.5273092558
 30
0.0
  0
INSERT
  5
CE
330
1F
100
AcDbEntity
  8
CARTIGLIO
100
AcDbBlockReference
  2
SW_NOTE_1
 10
602.3081346192
 20
105.9590514586
 30
0.0
  0
MTEXT
  5
D0
330
1F
100
AcDbEntity
  8
CARTIGLIO
100
AcDbMText
 10
646.2040607771
 20
94.0855137084
 30
0.0
 40
6.0
 41
0.0
 71
     1
 72
     1
  1
R 0.5
  7
SLDTEXTSTYLE2
 73
     1
 44
1.0
  0
MTEXT
  5
D1
330
1F
100
AcDbEntity
  8
CARTIGLIO
100
AcDbMText
 10
645.2473912868
 20
109.3435195443
 30
0.0
 40
6.0
 41
0.0
 71
     1
 72
     1
  1
1x45°
  7
SLDTEXTSTYLE1
 73
     1
 44
1.0
  0
MTEXT
  5
D2
330
1F
100
AcDbEntity
  8
CARTIGLIO
100
AcDbMText
 10
452.3327984654
 20
113.2629006043
 30
0.0
 40
3.0
 41
0.0
 71
     1
 72
     1
  1
Geometrical tolerance (ISO 2768-2)
  7
SLDTEXTSTYLE1
 73
     1
 44
1.0
  0
MTEXT
  5
D3
330
1F
100
AcDbEntity
  8
CARTIGLIO
100
AcDbMText
 10
452.6840808056
 20
107.0934229134
 30
0.0
 40
3.0
 41
0.0
 71
     1
 72
     1
  1
Linear tolerance (ISO 2768-2)
  7
SLDTEXTSTYLE1
 73
     1
 44
1.0
  0
INSERT
  5
D9
330
1F
100
AcDbEntity
  8
CARTIGLIO
100
AcDbBlockReference
  2
SW_NOTE_2
 10
454.3697957021
 20
95.9907582281
 30
0.0
  0
INSERT
  5
DF
330
1F
100
AcDbEntity
  8
CARTIGLIO
100
AcDbBlockReference
  2
SW_NOTE_3
 10
472.3663180778
 20
95.312478459
 30
0.0
  0
INSERT
  5
E5
330
1F
100
AcDbEntity
  8
CARTIGLIO
100
AcDbBlockReference
  2
SW_NOTE_4
 10
492.0022034344
 20
96.1287930093
 30
0.0
  0
INSERT
  5
EB
330
1F
100
AcDbEntity
  8
CARTIGLIO
100
AcDbBlockReference
  2
SW_NOTE_5
 10
509.666106572
 20
95.691948402
 30
0.0
  0
INSERT
  5
F1
330
1F
100
AcDbEntity
  8
CARTIGLIO
100
AcDbBlockReference
  2
SW_NOTE_6
 10
528.4176563488
 20
95.4804842663
 30
0.0
  0
INSERT
  5
F7
330
1F
100
AcDbEntity
  8
CARTIGLIO
100
AcDbBlockReference
  2
SW_NOTE_7
 10
545.8874555103
 20
95.38121123
 30
0.0
  0
INSERT
  5
FD
330
1F
100
AcDbEntity
  8
CARTIGLIO
100
AcDbBlockReference
  2
SW_NOTE_8
 10
565.6844504233
 20
95.7518560376
 30
0.0
  0
INSERT
  5
103
330
1F
100
AcDbEntity
  8
CARTIGLIO
100
AcDbBlockReference
  2
SW_NOTE_9
 10
584.0830364199
 20
95.608232471
 30
0.0
  0
MTEXT
  5
104
330
1F
100
AcDbEntity
  8
CARTIGLIO
100
AcDbMText
 10
452.4566743804
 20
87.7086140083
 30
0.0
 40
4.0
 41
0.0
 71
     1
 72
     1
  1
±0.1
  7
SLDTEXTSTYLE1
 73
     1
 44
1.0
  0
MTEXT
  5
105
330
1F
100
AcDbEntity
  8
CARTIGLIO
100
AcDbMText
 10
472.2453134739
 20
87.4572156416
 30
0.0
 40
4.0
 41
0.0
 71
     1
 72
     1
  1
±0.1
  7
SLDTEXTSTYLE1
 73
     1
 44
1.0
  0
MTEXT
  5
106
330
1F
100
AcDbEntity
  8
CARTIGLIO
100
AcDbMText
 10
492.6431699899
 20
87.7774833435
 30
0.0
 40
4.0
 41
0.0
 71
     1
 72
     1
  1
±0.2
  7
SLDTEXTSTYLE1
 73
     1
 44
1.0
  0
MTEXT
  5
107
330
1F
100
AcDbEntity
  8
CARTIGLIO
100
AcDbMText
 10
510.7229177998
 20
87.5543342282
 30
0.0
 40
4.0
 41
0.0
 71
     1
 72
     1
  1
±0.3
  7
SLDTEXTSTYLE1
 73
     1
 44
1.0
  0
MTEXT
  5
108
330
1F
100
AcDbEntity
  8
CARTIGLIO
100
AcDbMText
 10
529.7518487138
 20
87.7783795334
 30
0.0
 40
4.0
 41
0.0
 71
     1
 72
     1
  1
±0.5
  7
SLDTEXTSTYLE1
 73
     1
 44
1.0
  0
MTEXT
  5
109
330
1F
100
AcDbEntity
  8
CARTIGLIO
100
AcDbMText
 10
548.4547601707
 20
88.0917542257
 30
0.0
 40
4.0
 41
0.0
 71
     1
 72
     1
  1
±0.8
  7
SLDTEXTSTYLE1
 73
     1
 44
1.0
  0
MTEXT
  5
10A
330
1F
100
AcDbEntity
  8
CARTIGLIO
100
AcDbMText
 10
568.0888394403
 20
87.9126555369
 30
0.0
 40
4.0
 41
0.0
 71
     1
 72
     1
  1
±1.2
  7
SLDTEXTSTYLE1
 73
     1
 44
1.0
  0
MTEXT
  5
10B
330
1F
100
AcDbEntity
  8
CARTIGLIO
100
AcDbMText
 10
588.8089158896
 20
87.8386363785
 30
0.0
 40
4.0
 41
0.0
 71
     1
 72
     1
  1
±2
  7
SLDTEXTSTYLE1
 73
     1
 44
1.0
  0
MTEXT
  5
10C
330
1F
100
AcDbEntity
  8
CARTIGLIO
100
AcDbMText
 10
570.8679410985
 20
113.6307988662
 30
0.0
 40
3.0
 41
0.0
 71
     1
 72
     1
  1
Class
  7
SLDTEXTSTYLE1
 73
     1
 44
1.0
  0
MTEXT
  5
10D
330
1F
100
AcDbEntity
  8
CARTIGLIO
100
AcDbMText
 10
570.4819591598
 20
106.3250441834
 30
0.0
 40
3.0
 41
0.0
 71
     1
 72
     1
  1
Class
  7
SLDTEXTSTYLE1
 73
     1
 44
1.0
  0
MTEXT
  5
10E
330
1F
100
AcDbEntity
  8
CARTIGLIO
100
AcDbMText
 10
590.4624218552
 20
106.8441659993
 30
0.0
 40
4.0
 41
0.0
 71
     1
 72
     1
  1
m
  7
SLDTEXTSTYLE1
 73
     1
 44
1.0
  0
MTEXT
  5
10F
330
1F
100
AcDbEntity
  8
CARTIGLIO
100
AcDbMText
 10
591.0158667743
 20
114.4846415142
 30
0.0
 40
4.0
 41
0.0
 71
     1
 72
     1
  1
K
  7
SLDTEXTSTYLE1
 73
     1
 44
1.0
  0
MTEXT
  5
110
330
1F
100
AcDbEntity
  8
CARTIGLIO
100
AcDbMText
 10
555.424075624
 20
70.2467235293
 30
0.0
 40
4.0
 41
0.0
 71
     1
 72
     1
  1
Designed
  7
SLDTEXTSTYLE1
 73
     1
 44
1.0
  0
MTEXT
  5
111
330
1F
100
AcDbEntity
  8
CARTIGLIO
100
AcDbMText
 10
555.4099019663
 20
59.3753766622
 30
0.0
 40
4.0
 41
0.0
 71
     1
 72
     1
  1
Draw
  7
SLDTEXTSTYLE1
 73
     1
 44
1.0
  0
MTEXT
  5
112
330
1F
100
AcDbEntity
  8
CARTIGLIO
100
AcDbMText
 10
555.0233746255
 20
48.0945446703
 30
0.0
 40
4.0
 41
0.0
 71
     1
 72
     1
  1
Checked
  7
SLDTEXTSTYLE1
 73
     1
 44
1.0
  0
MTEXT
  5
113
330
1F
100
AcDbEntity
  8
CARTIGLIO
100
AcDbMText
 10
625.2375538194
 20
70.9683181272
 30
0.0
 40
6.0
 41
0.0
 71
     1
 72
     1
  1
A. Bnà
  7
SLDTEXTSTYLE1
 73
     1
 44
1.0
  0
MTEXT
  5
114
330
1F
100
AcDbEntity
  8
CARTIGLIO
100
AcDbMText
 10
625.3933481994
 20
60.2808225444
 30
0.0
 40
6.0
 41
0.0
 71
     1
 72
     1
  1
A. Bnà
  7
SLDTEXTSTYLE1
 73
     1
 44
1.0
  0
MTEXT
  5
115
330
1F
100
AcDbEntity
  8
CARTIGLIO
100
AcDbMText
 10
582.5475655856
 20
59.9685205235
 30
0.0
 40
6.0
 41
0.0
 71
     1
 72
     1
  1
26/01/13
  7
SLDTEXTSTYLE1
 73
     1
 44
1.0
  0
MTEXT
  5
116
330
1F
100
AcDbEntity
  8
CARTIGLIO
100
AcDbMText
 10
598.1651282433
 20
49.8411289349
 30
0.0
 40
6.0
 41
0.0
 71
     1
 72
     1
  1
x
  7
SLDTEXTSTYLE1
 73
     1
 44
1.0
  0
MTEXT
  5
117
330
1F
100
AcDbEntity
  8
CARTIGLIO
100
AcDbMText
 10
636.3835847153
 20
80.3727498153
 30
0.0
 40
4.0
 41
0.0
 71
     1
 72
     1
  1
Name
  7
SLDTEXTSTYLE1
 73
     1
 44
1.0
  0
MTEXT
  5
118
330
1F
100
AcDbEntity
  8
CARTIGLIO
100
AcDbMText
 10
587.8680667538
 20
79.8874648383
 30
0.0
 40
4.0
 41
0.0
 71
     1
 72
     1
  1
Date
  7
SLDTEXTSTYLE1
 73
     1
 44
1.0
  0
MTEXT
  5
119
330
1F
100
AcDbEntity
  8
RIQUADRO
100
AcDbMText
 10
74.4667934989
 20
572.7078861928
 30
0.0
 40
4.2333333333
 41
0.0
 71
     1
 72
     1
  1
1
  7
SLDTEXTSTYLE1
 73
     1
 44
1.0
  0
MTEXT
  5
11A
330
1F
100
AcDbEntity
  8
RIQUADRO
100
AcDbMText
 10
171.2575214217
 20
572.8803720333
 30
0.0
 40
4.2333333333
 41
0.0
 71
     1
 72
     1
  1
2
  7
SLDTEXTSTYLE1
 73
     1
 44
1.0
  0
MTEXT
  5
11B
330
1F
100
AcDbEntity
  8
RIQUADRO
100
AcDbMText
 10
269.6556118771
 20
572.7890081248
 30
0.0
 40
4.2333333333
 41
0.0
 71
     1
 72
     1
  1
3
  7
SLDTEXTSTYLE1
 73
     1
 44
1.0
  0
MTEXT
  5
11C
330
1F
100
AcDbEntity
  8
RIQUADRO
100
AcDbMText
 10
369.1015351445
 20
572.9681538058
 30
0.0
 40
4.2333333333
 41
0.0
 71
     1
 72
     1
  1
4
  7
SLDTEXTSTYLE1
 73
     1
 44
1.0
  0
MTEXT
  5
11D
330
1F
100
AcDbEntity
  8
RIQUADRO
100
AcDbMText
 10
21.2194596573
 20
85.8889580981
 30
0.0
 40
7.0
 41
0.0
 71
     1
 72
     1
  1
A
  7
SLDTEXTSTYLE1
 73
     1
 44
1.0
  0
MTEXT
  5
11E
330
1F
100
AcDbEntity
  8
RIQUADRO
100
AcDbMText
 10
21.4062526645
 20
235.0866323761
 30
0.0
 40
7.0
 41
0.0
 71
     1
 72
     1
  1
B
  7
SLDTEXTSTYLE1
 73
     1
 44
1.0
  0
MTEXT
  5
11F
330
1F
100
AcDbEntity
  8
RIQUADRO
100
AcDbMText
 10
21.1765875232
 20
374.5937716075
 30
0.0
 40
7.0
 41
0.0
 71
     1
 72
     1
  1
C
  7
SLDTEXTSTYLE1
 73
     1
 44
1.0
  0
MTEXT
  5
120
330
1F
100
AcDbEntity
  8
RIQUADRO
100
AcDbMText
 10
20.2622196861
 20
509.1996690195
 30
0.0
 40
7.0
 41
0.0
 71
     1
 72
     1
  1
D
  7
SLDTEXTSTYLE1
 73
     1
 44
1.0
  0
MTEXT
  5
121
330
1F
100
AcDbEntity
  8
RIQUADRO
100
AcDbMText
 10
810.8118214071
 20
505.8512012831
 30
0.0
 40
7.0
 41
0.0
 71
     1
 72
     1
  1
D
  7
SLDTEXTSTYLE1
 73
     1
 44
1.0
  0
MTEXT
  5
122
330
1F
100
AcDbEntity
  8
RIQUADRO
100
AcDbMText
 10
810.7548237027
 20
369.6624768437
 30
0.0
 40
7.0
 41
0.0
 71
     1
 72
     1
  1
C
  7
SLDTEXTSTYLE1
 73
     1
 44
1.0
  0
MTEXT
  5
123
330
1F
100
AcDbEntity
  8
RIQUADRO
100
AcDbMText
 10
810.8680988898
 20
236.627474331
 30
0.0
 40
7.0
 41
0.0
 71
     1
 72
     1
  1
B
  7
SLDTEXTSTYLE1
 73
     1
 44
1.0
  0
MTEXT
  5
124
330
1F
100
AcDbEntity
  8
RIQUADRO
100
AcDbMText
 10
811.6905451408
 20
103.9211323072
 30
0.0
 40
7.0
 41
0.0
 71
     1
 72
     1
  1
A
  7
SLDTEXTSTYLE1
 73
     1
 44
1.0
  0
MTEXT
  5
125
330
1F
100
AcDbEntity
  8
TABELLA_REV
100
AcDbMText
 10
575.1196602158
 20
560.9260534699
 30
0.0
 40
4.0
 41
0.0
 71
     1
 72
     1
  1
Description
  7
SLDTEXTSTYLE1
 73
     1
 44
1.0
  0
MTEXT
  5
126
330
1F
100
AcDbEntity
  8
TABELLA_REV
100
AcDbMText
 10
718.8292904602
 20
561.5222542149
 30
0.0
 40
4.0
 41
0.0
 71
     1
 72
     1
  1
Date
  7
SLDTEXTSTYLE1
 73
     1
 44
1.0
  0
MTEXT
  5
127
330
1F
100
AcDbEntity
  8
TABELLA_REV
100
AcDbMText
 10
769.8639331714
 20
561.5492324345
 30
0.0
 40
4.0
 41
0.0
 71
     1
 72
     1
  1
Name
  7
SLDTEXTSTYLE1
 73
     1
 44
1.0
  0
MTEXT
  5
128
330
1F
100
AcDbEntity
  8
TABELLA_REV
100
AcDbMText
 10
453.5525445203
 20
561.4667621065
 30
0.0
 40
4.0
 41
0.0
 71
     1
 72
     1
  1
Rev No.
  7
SLDTEXTSTYLE1
 73
     1
 44
1.0
  0
MTEXT
  5
129
330
1F
100
AcDbEntity
  8
TABELLA_REV
100
AcDbMText
 10
483.0898129194
 20
553.1020226216
 30
0.0
 40
6.0
 41
0.0
 71
     1
 72
     1
  1
Layout CMHO12K080
  7
SLDTEXTSTYLE1
 73
     1
 44
1.0
  0
MTEXT
  5
12A
330
1F
100
AcDbEntity
  8
TABELLA_REV
100
AcDbMText
 10
459.2956970992
 20
552.3996548056
 30
0.0
 40
6.0
 41
0.0
 71
     1
 72
     1
  1
A
  7
SLDTEXTSTYLE1
 73
     1
 44
1.0
  0
MTEXT
  5
12B
330
1F
100
AcDbEntity
  8
TABELLA_REV
100
AcDbMText
 10
752.5696171743
 20
553.1782062716
 30
0.0
 40
6.0
 41
0.0
 71
     1
 72
     1
  1
A. Bnà
  7
SLDTEXTSTYLE1
 73
     1
 44
1.0
  0
MTEXT
  5
12C
330
1F
100
AcDbEntity
  8
RIQUADRO
100
AcDbMText
 10
515.39685534
 20
18.2078662014
 30
0.0
 40
5.0
 41
0.0
 71
     1
 72
     1
  1
10
  7
SLDTEXTSTYLE1
 73
     1
 44
1.0
  0
MTEXT
  5
12D
330
1F
100
AcDbEntity
  8
RIQUADRO
100
AcDbMText
 10
495.5602561908
 20
18.2078662014
 30
0.0
 40
5.0
 41
0.0
 71
     1
 72
     1
  1
9
  7
SLDTEXTSTYLE1
 73
     1
 44
1.0
  0
MTEXT
  5
12E
330
1F
100
AcDbEntity
  8
RIQUADRO
100
AcDbMText
 10
475.2595255854
 20
18.0528927705
 30
0.0
 40
5.0
 41
0.0
 71
     1
 72
     1
  1
8
  7
SLDTEXTSTYLE1
 73
     1
 44
1.0
  0
MTEXT
  5
12F
330
1F
100
AcDbEntity
  8
RIQUADRO
100
AcDbMText
 10
455.5771110309
 20
18.0528927705
 30
0.0
 40
5.0
 41
0.0
 71
     1
 72
     1
  1
7
  7
SLDTEXTSTYLE1
 73
     1
 44
1.0
  0
MTEXT
  5
130
330
1F
100
AcDbEntity
  8
RIQUADRO
100
AcDbMText
 10
435.6491111493
 20
18.1303794859
 30
0.0
 40
5.0
 41
0.0
 71
     1
 72
     1
  1
6
  7
SLDTEXTSTYLE1
 73
     1
 44
1.0
  0
MTEXT
  5
131
330
1F
100
AcDbEntity
  8
RIQUADRO
100
AcDbMText
 10
415.5164791555
 20
18.2078662014
 30
0.0
 40
5.0
 41
0.0
 71
     1
 72
     1
  1
5
  7
SLDTEXTSTYLE1
 73
     1
 44
1.0
  0
MTEXT
  5
132
330
1F
100
AcDbEntity
  8
RIQUADRO
100
AcDbMText
 10
395.2958186649
 20
18.1442687002
 30
0.0
 40
5.0
 41
0.0
 71
     1
 72
     1
  1
4
  7
SLDTEXTSTYLE1
 73
     1
 44
1.0
  0
MTEXT
  5
133
330
1F
100
AcDbEntity
  8
RIQUADRO
100
AcDbMText
 10
375.3448231611
 20
17.9940696657
 30
0.0
 40
5.0
 41
0.0
 71
     1
 72
     1
  1
3
  7
SLDTEXTSTYLE1
 73
     1
 44
1.0
  0
MTEXT
  5
134
330
1F
100
AcDbEntity
  8
RIQUADRO
100
AcDbMText
 10
355.094563164
 20
17.8555189826
 30
0.0
 40
5.0
 41
0.0
 71
     1
 72
     1
  1
2
  7
SLDTEXTSTYLE1
 73
     1
 44
1.0
  0
MTEXT
  5
135
330
1F
100
AcDbEntity
  8
RIQUADRO
100
AcDbMText
 10
335.6849823633
 20
17.7835121277
 30
0.0
 40
5.0
 41
0.0
 71
     1
 72
     1
  1
1
  7
SLDTEXTSTYLE1
 73
     1
 44
1.0
  0
MTEXT
  5
136
330
1F
100
AcDbEntity
  8
RIQUADRO
100
AcDbMText
 10
316.1659635281
 20
17.8585153089
 30
0.0
 40
5.0
 41
0.0
 71
     1
 72
     1
  1
0
  7
SLDTEXTSTYLE1
 73
     1
 44
1.0
  0
MTEXT
  5
137
330
1F
100
AcDbEntity
  8
RIQUADRO
100
AcDbMText
 10
463.3958461937
 20
572.7512337436
 30
0.0
 40
4.2333333333
 41
0.0
 71
     1
 72
     1
  1
5
  7
SLDTEXTSTYLE1
 73
     1
 44
1.0
  0
MTEXT
  5
138
330
1F
100
AcDbEntity
  8
RIQUADRO
100
AcDbMText
 10
566.861492699
 20
572.4074535202
 30
0.0
 40
4.2333333333
 41
0.0
 71
     1
 72
     1
  1
6
  7
SLDTEXTSTYLE1
 73
     1
 44
1.0
  0
MTEXT
  5
139
330
1F
100
AcDbEntity
  8
RIQUADRO
100
AcDbMText
 10
663.2554087412
 20
572.6466286547
 30
0.0
 40
4.2333333333
 41
0.0
 71
     1
 72
     1
  1
7
  7
SLDTEXTSTYLE1
 73
     1
 44
1.0
  0
MTEXT
  5
13A
330
1F
100
AcDbEntity
  8
RIQUADRO
100
AcDbMText
 10
759.9429721596
 20
571.8375787931
 30
0.0
 40
4.2333333333
 41
0.0
 71
     1
 72
     1
  1
8
  7
SLDTEXTSTYLE1
 73
     1
 44
1.0
  0
MTEXT
  5
13B
330
1F
100
AcDbEntity
  8
RIQUADRO
100
AcDbMText
 10
268.8343221567
 20
29.3180278411
 30
0.0
 40
4.2333333333
 41
0.0
 71
     1
 72
     1
  1
3
  7
SLDTEXTSTYLE1
 73
     1
 44
1.0
  0
MTEXT
  5
13C
330
1F
100
AcDbEntity
  8
RIQUADRO
100
AcDbMText
 10
170.4362317013
 20
29.4093917497
 30
0.0
 40
4.2333333333
 41
0.0
 71
     1
 72
     1
  1
2
  7
SLDTEXTSTYLE1
 73
     1
 44
1.0
  0
MTEXT
  5
13D
330
1F
100
AcDbEntity
  8
RIQUADRO
100
AcDbMText
 10
73.6455037785
 20
29.2369059091
 30
0.0
 40
4.2333333333
 41
0.0
 71
     1
 72
     1
  1
1
  7
SLDTEXTSTYLE1
 73
     1
 44
1.0
  0
MTEXT
  5
13E
330
1F
100
AcDbEntity
  8
RIQUADRO
100
AcDbMText
 10
757.512534657
 20
28.474706399
 30
0.0
 40
4.2333333333
 41
0.0
 71
     1
 72
     1
  1
8
  7
SLDTEXTSTYLE1
 73
     1
 44
1.0
  0
MTEXT
  5
13F
330
1F
100
AcDbEntity
  8
RIQUADRO
100
AcDbMText
 10
660.8249712386
 20
29.2837562606
 30
0.0
 40
4.2333333333
 41
0.0
 71
     1
 72
     1
  1
7
  7
SLDTEXTSTYLE1
 73
     1
 44
1.0
  0
MTEXT
  5
140
330
1F
100
AcDbEntity
  8
RIQUADRO
100
AcDbMText
 10
564.4310551964
 20
29.0445811261
 30
0.0
 40
4.2333333333
 41
0.0
 71
     1
 72
     1
  1
6
  7
SLDTEXTSTYLE1
 73
     1
 44
1.0
  0
MTEXT
  5
141
330
1F
100
AcDbEntity
  8
CARTIGLIO
100
AcDbMText
 10
622.1188641
 20
48.7080950291
 30
0.0
 40
6.0
 41
0.0
 71
     1
 72
     1
  1
A.Bnà
  7
SLDTEXTSTYLE1
 73
     1
 44
1.0
  0
MTEXT
  5
142
330
1F
100
AcDbEntity
  8
TABELLA_REV
100
AcDbMText
 10
710.0843684719
 20
552.8676647681
 30
0.0
 40
6.0
 41
0.0
 71
     1
 72
     1
  1
26/01/13
  7
SLDTEXTSTYLE1
 73
     1
 44
1.0
  0
MTEXT
  5
143
330
1F
100
AcDbEntity
  8
CARTIGLIO
100
AcDbMText
 10
454.4505469242
 20
37.2057396959
 30
0.0
 40
4.0
 41
0.0
 71
     1
 72
     1
  1
OPTO  ENGINEERING S.r.l.    -   46100 Mantova Italy   -   Via Cremona, 29/2 -   Tel.    +39 0376 263565    - e-mai: info@opto-engineering.com  -   http://www.opto-engineering.com
  7
SLDTEXTSTYLE2
 73
     1
 44
1.0
  0
MTEXT
  5
144
330
1F
100
AcDbEntity
  8
CARTIGLIO
100
AcDbMText
 10
583.1859756048
 20
70.9834905203
 30
0.0
 40
6.0
 41
0.0
 71
     1
 72
     1
  1
26/01/13
  7
SLDTEXTSTYLE1
 73
     1
 44
1.0
  0
MTEXT
  5
145
330
1F
100
AcDbEntity
  8
CARTIGLIO
100
AcDbMText
 10
543.4349157939
 20
126.9466450431
 30
0.0
 40
4.2333333333
 41
0.0
 71
     2
 72
     1
  1
N. A.
  7
SLDTEXTSTYLE2
 73
     1
 44
1.0
  0
MTEXT
  5
146
330
1F
100
AcDbEntity
  8
RIQUADRO
100
AcDbMText
 10
539.5743873205
 20
142.820469425
 30
0.0
 40
7.0
 41
0.0
 71
     2
 72
     1
  1
N. A.
  7
SLDTEXTSTYLE2
 73
     1
 44
1.0
  0
MTEXT
  5
147
330
1F
100
AcDbEntity
  8
CARTIGLIO
100
AcDbMText
 10
670.233672529
 20
133.0761203166
 30
0.0
 40
4.0
 41
0.0
 71
     1
 72
     1
  1
Project-Prod.item/Instrument
  7
SLDTEXTSTYLE1
 73
     1
 44
1.0
  0
MTEXT
  5
148
330
1F
100
AcDbEntity
  8
CARTIGLIO
100
AcDbMText
 10
688.3849723782
 20
145.5243800288
 30
0.0
 40
7.0
 41
0.0
 71
     1
 72
     1
  1
2.5 Kg
  7
SLDTEXTSTYLE1
 73
     1
 44
1.0
  0
LINE
  5
149
330
1F
100
AcDbEntity
  8
0
  6
Continuous
 62
     7
370
    15
100
AcDbLine
 10
103.9808440125
 20
531.0985240683
 30
0.0
 11
102.9808440125
 21
530.0985240683
 31
0.0
  0
LINE
  5
14A
330
1F
100
AcDbEntity
  8
0
  6
Continuous
 62
     7
370
    15
100
AcDbLine
 10
112.9808440125
 20
530.0985240683
 30
0.0
 11
111.9808440125
 21
531.0985240683
 31
0.0
  0
LINE
  5
14B
330
1F
100
AcDbEntity
  8
0
  6
Continuous
 62
     7
370
    15
100
AcDbLine
 10
111.9808440125
 20
531.0985240683
 30
0.0
 11
103.9808440125
 21
531.0985240683
 31
0.0
  0
LINE
  5
14C
330
1F
100
AcDbEntity
  8
0
  6
Continuous
 62
     7
370
    15
100
AcDbLine
 10
537.1808440125
 20
513.0985240683
 30
0.0
 11
528.7808440125
 21
513.0985240683
 31
0.0
  0
LINE
  5
14D
330
1F
100
AcDbEntity
  8
0
  6
Continuous
 62
     7
370
    15
100
AcDbLine
 10
528.7808440125
 20
513.0985240683
 30
0.0
 11
527.9808440125
 21
512.2985240683
 31
0.0
  0
LINE
  5
14E
330
1F
100
AcDbEntity
  8
0
  6
Continuous
 62
     7
370
    15
100
AcDbLine
 10
537.9808440125
 20
512.2985240683
 30
0.0
 11
537.1808440125
 21
513.0985240683
 31
0.0
  0
LINE
  5
14F
330
1F
100
AcDbEntity
  8
0
  6
Continuous
 62
     7
370
    15
100
AcDbLine
 10
112.9808440125
 20
457.0985240683
 30
0.0
 11
111.9808440125
 21
457.0985240683
 31
0.0
  0
LINE
  5
150
330
1F
100
AcDbEntity
  8
0
  6
Continuous
 62
     7
370
    15
100
AcDbLine
 10
102.9808440125
 20
457.098524068
 30
0.0
 11
103.9808440125
 21
457.098524068
 31
0.0
  0
LINE
  5
151
330
1F
100
AcDbEntity
  8
0
  6
Continuous
 62
     7
370
    15
100
AcDbLine
 10
103.9808440125
 20
457.0985240683
 30
0.0
 11
111.9808440125
 21
457.0985240683
 31
0.0
  0
LINE
  5
152
330
1F
100
AcDbEntity
  8
0
  6
Continuous
 62
     7
370
    15
100
AcDbLine
 10
111.9808440125
 20
457.0985240683
 30
0.0
 11
111.9808440125
 21
388.0985240683
 31
0.0
  0
LINE
  5
153
330
1F
100
AcDbEntity
  8
0
  6
Continuous
 62
     7
370
    15
100
AcDbLine
 10
103.9808440125
 20
457.0985240677
 30
0.0
 11
103.9808440125
 21
388.098524068
 31
0.0
  0
LINE
  5
154
330
1F
100
AcDbEntity
  8
0
  6
Continuous
 62
     7
370
    15
100
AcDbLine
 10
111.9808440125
 20
388.0985240683
 30
0.0
 11
103.9808440125
 21
388.0985240683
 31
0.0
  0
LINE
  5
155
330
1F
100
AcDbEntity
  8
0
  6
Continuous
 62
     7
370
    15
100
AcDbLine
 10
102.9808440125
 20
457.0985240683
 30
0.0
 11
102.9808440125
 21
389.0985240683
 31
0.0
  0
LINE
  5
156
330
1F
100
AcDbEntity
  8
0
  6
Continuous
 62
     7
370
    15
100
AcDbLine
 10
103.9808440125
 20
388.0985240683
 30
0.0
 11
102.9808440125
 21
389.0985240683
 31
0.0
  0
LINE
  5
157
330
1F
100
AcDbEntity
  8
0
  6
Continuous
 62
     7
370
    15
100
AcDbLine
 10
112.9808440125
 20
457.0985240683
 30
0.0
 11
112.9808440125
 21
389.0985240683
 31
0.0
  0
LINE
  5
158
330
1F
100
AcDbEntity
  8
0
  6
Continuous
 62
     7
370
    15
100
AcDbLine
 10
111.9808440125
 20
388.0985240683
 30
0.0
 11
112.9808440125
 21
389.0985240683
 31
0.0
  0
LINE
  5
159
330
1F
100
AcDbEntity
  8
0
  6
Continuous
 62
     7
370
    15
100
AcDbLine
 10
103.9808440125
 20
459.0985240683
 30
0.0
 11
103.9808440125
 21
531.0985240683
 31
0.0
  0
LINE
  5
15A
330
1F
100
AcDbEntity
  8
0
  6
Continuous
 62
     7
370
    15
100
AcDbLine
 10
102.9808440125
 20
459.0985240683
 30
0.0
 11
103.9808440125
 21
459.0985240683
 31
0.0
  0
LINE
  5
15B
330
1F
100
AcDbEntity
  8
0
  6
Continuous
 62
     7
370
    15
100
AcDbLine
 10
102.9808440125
 20
530.0985240683
 30
0.0
 11
102.9808440125
 21
459.0985240683
 31
0.0
  0
LINE
  5
15C
330
1F
100
AcDbEntity
  8
0
  6
Continuous
 62
     7
370
    15
100
AcDbLine
 10
111.9808440125
 20
459.0985240683
 30
0.0
 11
111.9808440125
 21
531.0985240683
 31
0.0
  0
LINE
  5
15D
330
1F
100
AcDbEntity
  8
0
  6
Continuous
 62
     7
370
    15
100
AcDbLine
 10
112.9808440125
 20
530.0985240683
 30
0.0
 11
112.9808440125
 21
459.0985240683
 31
0.0
  0
LINE
  5
15E
330
1F
100
AcDbEntity
  8
0
  6
Continuous
 62
     7
370
    15
100
AcDbLine
 10
111.9808440125
 20
459.0985240683
 30
0.0
 11
112.9808440125
 21
459.0985240683
 31
0.0
  0
LINE
  5
15F
330
1F
100
AcDbEntity
  8
0
  6
Continuous
 62
     7
370
    15
100
AcDbLine
 10
111.4808440125
 20
465.0985240683
 30
0.0
 11
104.4808440125
 21
465.0985240683
 31
0.0
  0
LINE
  5
160
330
1F
100
AcDbEntity
  8
0
  6
Continuous
 62
     7
370
    15
100
AcDbLine
 10
111.4808440125
 20
484.6603626185
 30
0.0
 11
111.4808440125
 21
465.0985240683
 31
0.0
  0
SPLINE
  5
161
330
1F
100
AcDbEntity
  8
0
  6
Continuous
 62
     7
370
    15
100
AcDbSpline
210
0.0
220
0.0
230
1.0
 70
     8
 71
     3
 72
    21
 73
    17
 74
     0
 42
0.00000001
 43
0.00000001
 12
1.0
 22
0.0
 32
0.0
 13
1.0
 23
0.0
 33
0.0
 40
0.0
 40
0.0
 40
0.0
 40
0.0
 40
0.1177180357500485
 40
0.2352163965484561
 40
0.3129827501833233
 40
0.4142467530712222
 40
0.4511557179735297
 40
0.4884158596152426
 40
0.4999588660679924
 40
0.5301652883194407
 40
0.5671069509736572
 40
0.6243049903823794
 40
0.7324376790607594
 40
0.8501838393274499
 40
0.9682420229941524
 40
1.0
 40
1.0
 40
1.0
 40
1.0
 10
104.4808440125102
 20
484.6603626184768
 30
0.0
 10
104.49836802173
 20
485.3732775494011
 30
0.0
 10
104.5333833384184
 20
486.7977770326718
 30
0.0
 10
104.8708209519339
 20
488.6470468984653
 30
0.0
 10
105.4508548534842
 20
490.310794179935
 30
0.0
 10
106.1563863506978
 20
491.4422556019392
 30
0.0
 10
107.0477435385206
 20
492.0948731036661
 30
0.0
 10
107.587083742505
 20
492.2735084989522
 30
0.0
 10
108.1024605673098
 20
492.3050486922813
 30
0.0
 10
108.6188246101042
 20
492.2201016129595
 30
0.0
 10
109.3263328893804
 20
491.8429991487019
 30
0.0
 10
110.1881918675784
 20
490.9308745841917
 30
0.0
 10
110.902073095135
 20
489.3782448899353
 30
0.0
 10
111.3520225243226
 20
487.3723265415226
 30
0.0
 10
111.4716925713822
 20
485.7624705280507
 30
0.0
 10
111.4792433921761
 20
484.8531252998681
 30
0.0
 10
111.4808440125102
 20
484.6603626184768
 30
0.0
  0
LINE
  5
162
330
1F
100
AcDbEntity
  8
0
  6
Continuous
 62
     7
370
    15
100
AcDbLine
 10
104.4808440125
 20
465.0985240683
 30
0.0
 11
104.4808440125
 21
484.6603626185
 31
0.0
  0
LINE
  5
163
330
1F
100
AcDbEntity
  8
0
  6
Continuous
 62
     7
370
    15
100
AcDbLine
 10
103.9808440125
 20
459.0985240683
 30
0.0
 11
111.9808440125
 21
459.0985240683
 31
0.0
  0
LINE
  5
164
330
1F
100
AcDbEntity
  8
0
  6
Continuous
 62
     7
370
    15
100
AcDbLine
 10
219.5213375642
 20
385.0985240683
 30
0.0
 11
127.4808440125
 21
385.0985240683
 31
0.0
  0
LINE
  5
165
330
1F
100
AcDbEntity
  8
0
  6
Continuous
 62
     7
370
    15
100
AcDbLine
 10
127.4808440125
 20
385.0985240683
 30
0.0
 11
126.9518630704
 21
388.0985240683
 31
0.0
  0
LINE
  5
166
330
1F
100
AcDbEntity
  8
0
  6
Continuous
 62
     7
370
    15
100
AcDbLine
 10
126.9518630704
 20
388.0985240683
 30
0.0
 11
218.9923566221
 21
388.0985240683
 31
0.0
  0
LINE
  5
167
330
1F
100
AcDbEntity
  8
0
  6
Continuous
 62
     7
370
    15
100
AcDbLine
 10
219.5213375642
 20
385.0985240683
 30
0.0
 11
218.9923566221
 21
388.0985240683
 31
0.0
  0
LINE
  5
168
330
1F
100
AcDbEntity
  8
0
  6
Continuous
 62
     7
370
    15
100
AcDbLine
 10
218.9923566221
 20
373.0985240683
 30
0.0
 11
126.9518630704
 21
373.0985240683
 31
0.0
  0
LINE
  5
169
330
1F
100
AcDbEntity
  8
0
  6
Continuous
 62
     7
370
    15
100
AcDbLine
 10
126.9518630704
 20
373.0985240683
 30
0.0
 11
127.4808440125
 21
376.0985240683
 31
0.0
  0
LINE
  5
16A
330
1F
100
AcDbEntity
  8
0
  6
Continuous
 62
     7
370
    15
100
AcDbLine
 10
127.4808440125
 20
376.0985240683
 30
0.0
 11
219.5213375642
 21
376.0985240683
 31
0.0
  0
LINE
  5
16B
330
1F
100
AcDbEntity
  8
0
  6
Continuous
 62
     7
370
    15
100
AcDbLine
 10
218.9923566221
 20
373.0985240683
 30
0.0
 11
219.5213375642
 21
376.0985240683
 31
0.0
  0
LINE
  5
16C
330
1F
100
AcDbEntity
  8
0
  6
Continuous
 62
     7
370
    15
100
AcDbLine
 10
127.4808440125
 20
385.0985240683
 30
0.0
 11
77.4808440125
 21
385.0985240683
 31
0.0
  0
LINE
  5
16D
330
1F
100
AcDbEntity
  8
0
  6
Continuous
 62
     7
370
    15
100
AcDbLine
 10
77.4808440125
 20
385.0985240683
 30
0.0
 11
80.4808440125
 21
388.0985240683
 31
0.0
  0
LINE
  5
16E
330
1F
100
AcDbEntity
  8
0
  6
Continuous
 62
     7
370
    15
100
AcDbLine
 10
80.4808440125
 20
388.0985240683
 30
0.0
 11
126.9518630704
 21
388.0985240683
 31
0.0
  0
LINE
  5
16F
330
1F
100
AcDbEntity
  8
0
  6
Continuous
 62
     7
370
    15
100
AcDbLine
 10
77.4808440125
 20
376.0985240683
 30
0.0
 11
127.4808440125
 21
376.0985240683
 31
0.0
  0
LINE
  5
170
330
1F
100
AcDbEntity
  8
0
  6
Continuous
 62
     7
370
    15
100
AcDbLine
 10
126.9518630704
 20
373.0985240683
 30
0.0
 11
80.4808440125
 21
373.0985240683
 31
0.0
  0
LINE
  5
171
330
1F
100
AcDbEntity
  8
0
  6
Continuous
 62
     7
370
    15
100
AcDbLine
 10
77.4808440125
 20
376.0985240683
 30
0.0
 11
80.4808440125
 21
373.0985240683
 31
0.0
  0
LINE
  5
172
330
1F
100
AcDbEntity
  8
0
  6
Continuous
 62
     7
370
    15
100
AcDbLine
 10
127.4808440125
 20
376.0985240683
 30
0.0
 11
127.4808440125
 21
385.0985240683
 31
0.0
  0
LINE
  5
173
330
1F
100
AcDbEntity
  8
0
  6
Continuous
 62
     7
370
    15
100
AcDbLine
 10
219.5213375642
 20
376.0985240683
 30
0.0
 11
219.5213375642
 21
385.0985240683
 31
0.0
  0
LINE
  5
174
330
1F
100
AcDbEntity
  8
0
  6
Continuous
 62
     7
370
    15
100
AcDbLine
 10
77.4808440125
 20
376.0985240683
 30
0.0
 11
77.4808440125
 21
385.0985240683
 31
0.0
  0
LINE
  5
175
330
1F
100
AcDbEntity
  8
0
  6
Continuous
 62
     7
370
    15
100
AcDbLine
 10
363.4808440125
 20
385.0985240683
 30
0.0
 11
347.9808440125
 21
385.0985240683
 31
0.0
  0
LINE
  5
176
330
1F
100
AcDbEntity
  8
0
  6
Continuous
 62
     7
370
    15
100
AcDbLine
 10
347.9808440125
 20
385.0985240683
 30
0.0
 11
349.2234846996
 21
388.0985240683
 31
0.0
  0
LINE
  5
177
330
1F
100
AcDbEntity
  8
0
  6
Continuous
 62
     7
370
    15
100
AcDbLine
 10
363.4808440125
 20
385.0985240683
 30
0.0
 11
364.7234846996
 21
388.0985240683
 31
0.0
  0
LINE
  5
178
330
1F
100
AcDbEntity
  8
0
  6
Continuous
 62
     7
370
    15
100
AcDbLine
 10
349.2234846996
 20
388.0985240683
 30
0.0
 11
364.7234846996
 21
388.0985240683
 31
0.0
  0
LINE
  5
179
330
1F
100
AcDbEntity
  8
0
  6
Continuous
 62
     7
370
    15
100
AcDbLine
 10
363.4808440125
 20
376.0985240683
 30
0.0
 11
563.4808440125
 21
376.0985240683
 31
0.0
  0
LINE
  5
17A
330
1F
100
AcDbEntity
  8
0
  6
Continuous
 62
     7
370
    15
100
AcDbLine
 10
363.4808440125
 20
376.0985240683
 30
0.0
 11
363.4808440125
 21
385.0985240683
 31
0.0
  0
LINE
  5
17B
330
1F
100
AcDbEntity
  8
0
  6
Continuous
 62
     7
370
    15
100
AcDbLine
 10
563.4808440125
 20
385.0985240683
 30
0.0
 11
363.4808440125
 21
385.0985240683
 31
0.0
  0
LINE
  5
17C
330
1F
100
AcDbEntity
  8
0
  6
Continuous
 62
     7
370
    15
100
AcDbLine
 10
563.4808440125
 20
376.0985240683
 30
0.0
 11
563.4808440125
 21
385.0985240683
 31
0.0
  0
LINE
  5
17D
330
1F
100
AcDbEntity
  8
0
  6
Continuous
 62
     7
370
    15
100
AcDbLine
 10
347.9808440125
 20
376.0985240683
 30
0.0
 11
363.4808440125
 21
376.0985240683
 31
0.0
  0
LINE
  5
17E
330
1F
100
AcDbEntity
  8
0
  6
Continuous
 62
     7
370
    15
100
AcDbLine
 10
347.9808440125
 20
376.0985240683
 30
0.0
 11
347.9808440125
 21
385.0985240683
 31
0.0
  0
LINE
  5
17F
330
1F
100
AcDbEntity
  8
0
  6
Continuous
 62
     7
370
    15
100
AcDbLine
 10
364.7234846996
 20
373.0985240683
 30
0.0
 11
363.4808440125
 21
376.0985240683
 31
0.0
  0
LINE
  5
180
330
1F
100
AcDbEntity
  8
0
  6
Continuous
 62
     7
370
    15
100
AcDbLine
 10
560.4808440125
 20
373.0985240683
 30
0.0
 11
563.4808440125
 21
376.0985240683
 31
0.0
  0
LINE
  5
181
330
1F
100
AcDbEntity
  8
0
  6
Continuous
 62
     7
370
    15
100
AcDbLine
 10
560.4808440125
 20
373.0985240683
 30
0.0
 11
364.7234846996
 21
373.0985240683
 31
0.0
  0
LINE
  5
182
330
1F
100
AcDbEntity
  8
0
  6
Continuous
 62
     7
370
    15
100
AcDbLine
 10
349.2234846996
 20
373.0985240683
 30
0.0
 11
347.9808440125
 21
376.0985240683
 31
0.0
  0
LINE
  5
183
330
1F
100
AcDbEntity
  8
0
  6
Continuous
 62
     7
370
    15
100
AcDbLine
 10
364.7234846996
 20
373.0985240683
 30
0.0
 11
349.2234846996
 21
373.0985240683
 31
0.0
  0
LINE
  5
184
330
1F
100
AcDbEntity
  8
0
  6
Continuous
 62
     7
370
    15
100
AcDbLine
 10
560.4808440125
 20
388.0985240683
 30
0.0
 11
563.4808440125
 21
385.0985240683
 31
0.0
  0
LINE
  5
185
330
1F
100
AcDbEntity
  8
0
  6
Continuous
 62
     7
370
    15
100
AcDbLine
 10
364.7234846996
 20
388.0985240683
 30
0.0
 11
560.4808440125
 21
388.0985240683
 31
0.0
  0
LINE
  5
186
330
1F
100
AcDbEntity
  8
0
  6
Continuous
 62
     7
370
    15
100
AcDbLine
 10
219.5213375642
 20
376.0985240683
 30
0.0
 11
347.9808440125
 21
376.0985240683
 31
0.0
  0
LINE
  5
187
330
1F
100
AcDbEntity
  8
0
  6
Continuous
 62
     7
370
    15
100
AcDbLine
 10
349.2234846996
 20
373.0985240683
 30
0.0
 11
218.9923566221
 21
373.0985240683
 31
0.0
  0
LINE
  5
188
330
1F
100
AcDbEntity
  8
0
  6
Continuous
 62
     7
370
    15
100
AcDbLine
 10
347.9808440125
 20
385.0985240683
 30
0.0
 11
219.5213375642
 21
385.0985240683
 31
0.0
  0
LINE
  5
189
330
1F
100
AcDbEntity
  8
0
  6
Continuous
 62
     7
370
    15
100
AcDbLine
 10
218.9923566221
 20
388.0985240683
 30
0.0
 11
349.2234846996
 21
388.0985240683
 31
0.0
  0
LINE
  5
18A
330
1F
100
AcDbEntity
  8
0
  6
Continuous
 62
     7
370
    15
100
AcDbLine
 10
537.1808440125
 20
388.0985240683
 30
0.0
 11
537.9808440125
 21
388.8985240683
 31
0.0
  0
LINE
  5
18B
330
1F
100
AcDbEntity
  8
0
  6
Continuous
 62
     7
370
    15
100
AcDbLine
 10
537.9808440125
 20
457.0985240683
 30
0.0
 11
537.9808440125
 21
388.8985240683
 31
0.0
  0
LINE
  5
18C
330
1F
100
AcDbEntity
  8
0
  6
Continuous
 62
     7
370
    15
100
AcDbLine
 10
537.9808440125
 20
457.0985240683
 30
0.0
 11
537.1808440125
 21
457.0985240683
 31
0.0
  0
LINE
  5
18D
330
1F
100
AcDbEntity
  8
0
  6
Continuous
 62
     7
370
    15
100
AcDbLine
 10
537.1808440125
 20
457.0985240682
 30
0.0
 11
537.1808440125
 21
388.0985240682
 31
0.0
  0
LINE
  5
18E
330
1F
100
AcDbEntity
  8
0
  6
Continuous
 62
     7
370
    15
100
AcDbLine
 10
528.7808440125
 20
457.0985240683
 30
0.0
 11
537.1808440125
 21
457.0985240683
 31
0.0
  0
LINE
  5
18F
330
1F
100
AcDbEntity
  8
0
  6
Continuous
 62
     7
370
    15
100
AcDbLine
 10
528.7808440125
 20
457.0985240682
 30
0.0
 11
528.7808440125
 21
388.0985240682
 31
0.0
  0
LINE
  5
190
330
1F
100
AcDbEntity
  8
0
  6
Continuous
 62
     7
370
    15
100
AcDbLine
 10
537.1808440125
 20
388.0985240682
 30
0.0
 11
528.7808440125
 21
388.0985240682
 31
0.0
  0
LINE
  5
191
330
1F
100
AcDbEntity
  8
0
  6
Continuous
 62
     7
370
    15
100
AcDbLine
 10
527.9808440125
 20
457.0985240683
 30
0.0
 11
527.9808440125
 21
388.8985240683
 31
0.0
  0
LINE
  5
192
330
1F
100
AcDbEntity
  8
0
  6
Continuous
 62
     7
370
    15
100
AcDbLine
 10
528.7808440125
 20
388.0985240683
 30
0.0
 11
527.9808440125
 21
388.8985240683
 31
0.0
  0
LINE
  5
193
330
1F
100
AcDbEntity
  8
0
  6
Continuous
 62
     7
370
    15
100
AcDbLine
 10
527.9808440125
 20
457.0985240682
 30
0.0
 11
528.7808440125
 21
457.0985240682
 31
0.0
  0
LINE
  5
194
330
1F
100
AcDbEntity
  8
0
  6
Continuous
 62
     7
370
    15
100
AcDbLine
 10
536.4808440125
 20
465.0985240683
 30
0.0
 11
529.4808440125
 21
465.0985240683
 31
0.0
  0
LINE
  5
195
330
1F
100
AcDbEntity
  8
0
  6
Continuous
 62
     7
370
    15
100
AcDbLine
 10
536.4808440125
 20
481.0233116746
 30
0.0
 11
536.4808440125
 21
465.0985240683
 31
0.0
  0
SPLINE
  5
196
330
1F
100
AcDbEntity
  8
0
  6
Continuous
 62
     7
370
    15
100
AcDbSpline
210
0.0
220
0.0
230
1.0
 70
     8
 71
     3
 72
    20
 73
    16
 74
     0
 42
0.00000001
 43
0.00000001
 12
1.0
 22
0.0
 32
0.0
 13
1.0
 23
0.0
 33
0.0
 40
0.0
 40
0.0
 40
0.0
 40
0.0
 40
0.1409296696826406
 40
0.2810227121936014
 40
0.348325961046319
 40
0.4160482144409871
 40
0.4580362164540765
 40
0.499969569758401
 40
0.5375541003874045
 40
0.5749610342068621
 40
0.6373237421805543
 40
0.7436664884028436
 40
0.846798052667326
 40
0.9501848502349783
 40
1.0
 40
1.0
 40
1.0
 40
1.0
 10
529.4808440125103
 20
481.0233116746141
 30
0.0
 10
529.506218617711
 20
481.7732429740106
 30
0.0
 10
529.5568171920951
 20
483.2686536152889
 30
0.0
 10
530.0625529202784
 20
485.0377291238882
 30
0.0
 10
530.7859815989826
 20
486.2944144778401
 30
0.0
 10
531.4664281802011
 20
486.9890075663773
 30
0.0
 10
532.23637065002
 20
487.3928300831511
 30
0.0
 10
532.9552645358871
 20
487.5185521850422
 30
0.0
 10
533.6462586653552
 20
487.4106855390478
 30
0.0
 10
534.3641423204095
 20
487.0768389724569
 30
0.0
 10
535.2072466653389
 20
486.3081536280606
 30
0.0
 10
535.8911302004477
 20
485.035879083458
 30
0.0
 10
536.3179611217837
 20
483.454250797143
 30
0.0
 10
536.4646004302546
 20
482.1071266691875
 30
0.0
 10
536.476858257151
 20
481.2892518690317
 30
0.0
 10
536.4808440125104
 20
481.0233116746141
 30
0.0
  0
LINE
  5
197
330
1F
100
AcDbEntity
  8
0
  6
Continuous
 62
     7
370
    15
100
AcDbLine
 10
529.4808440125
 20
465.0985240683
 30
0.0
 11
529.4808440125
 21
481.0233116746
 31
0.0
  0
LINE
  5
198
330
1F
100
AcDbEntity
  8
0
  6
Continuous
 62
     7
370
    15
100
AcDbLine
 10
537.1808440125
 20
459.0985240683
 30
0.0
 11
537.1808440125
 21
513.0985240683
 31
0.0
  0
LINE
  5
199
330
1F
100
AcDbEntity
  8
0
  6
Continuous
 62
     7
370
    15
100
AcDbLine
 10
528.7808440125
 20
459.0985240683
 30
0.0
 11
528.7808440125
 21
513.0985240683
 31
0.0
  0
LINE
  5
19A
330
1F
100
AcDbEntity
  8
0
  6
Continuous
 62
     7
370
    15
100
AcDbLine
 10
528.7808440125
 20
459.0985240683
 30
0.0
 11
537.1808440125
 21
459.0985240683
 31
0.0
  0
LINE
  5
19B
330
1F
100
AcDbEntity
  8
0
  6
Continuous
 62
     7
370
    15
100
AcDbLine
 10
527.9808440125
 20
512.2985240683
 30
0.0
 11
527.9808440125
 21
459.0985240683
 31
0.0
  0
LINE
  5
19C
330
1F
100
AcDbEntity
  8
0
  6
Continuous
 62
     7
370
    15
100
AcDbLine
 10
527.9808440125
 20
459.0985240683
 30
0.0
 11
528.7808440125
 21
459.0985240683
 31
0.0
  0
LINE
  5
19D
330
1F
100
AcDbEntity
  8
0
  6
Continuous
 62
     7
370
    15
100
AcDbLine
 10
537.9808440125
 20
512.2985240683
 30
0.0
 11
537.9808440125
 21
459.0985240683
 31
0.0
  0
LINE
  5
19E
330
1F
100
AcDbEntity
  8
0
  6
Continuous
 62
     7
370
    15
100
AcDbLine
 10
537.1808440125
 20
459.0985240683
 30
0.0
 11
537.9808440125
 21
459.0985240683
 31
0.0
  0
LINE
  5
19F
330
1F
100
AcDbEntity
  8
RIQUADRO
  6
CENTERX2
100
AcDbLine
 10
306.3578845913
 20
458.0985240683
 30
0.0
 11
579.6182276956
 21
458.0985240683
 31
0.0
  0
DIMENSION
  5
1A0
330
1F
100
AcDbEntity
  8
RIQUADRO
100
AcDbDimension
  2
_D
 10
577.6391958535
 20
373.0985240683
 30
0.0
 11
577.6391958535
 21
425.4670020747
 31
0.0
 70
   160
  1
<>
 71
     2
 42
-1.0
  3
SLDDIMSTYLE0
100
AcDbAlignedDimension
 13
579.6182276956
 23
458.0985240683
 33
0.0
 14
560.4808440125
 24
373.0985240683
 34
0.0
 50
90.0
100
AcDbRotatedDimension
  0
DIMENSION
  5
1B1
330
1F
100
AcDbEntity
  8
RIQUADRO
100
AcDbDimension
  2
_D_1
 10
397.9977359715
 20
388.0985240683
 30
0.0
 11
397.9977359715
 21
412.2415598225
 31
0.0
 70
   160
  1
<>
 71
     2
 42
-1.0
  3
SLDDIMSTYLE0
100
AcDbAlignedDimension
 13
560.4808440125
 23
373.0985240683
 33
0.0
 14
560.4808440125
 24
388.0985240683
 34
0.0
 50
90.0
100
AcDbRotatedDimension
  0
DIMENSION
  5
1BA
330
1F
100
AcDbEntity
  8
RIQUADRO
100
AcDbDimension
  2
_D_2
 10
77.4808440125
 20
353.0985240683
 30
0.0
 11
340.2229168702
 21
353.0985240683
 31
0.0
 70
   160
  1
<>
 71
     2
 42
-1.0
  3
SLDDIMSTYLE0
100
AcDbAlignedDimension
 13
563.4808440125
 23
376.0985240683
 33
0.0
 14
77.4808440125
 24
376.0985240683
 34
0.0
100
AcDbRotatedDimension
  0
DIMENSION
  5
1C4
330
1F
100
AcDbEntity
  8
RIQUADRO
100
AcDbDimension
  2
_D_3
 10
57.4808440125
 20
531.0985240683
 30
0.0
 11
57.4808440125
 21
458.6419251781
 31
0.0
 70
   160
  1
<>
 71
     2
 42
-1.0
  3
SLDDIMSTYLE0
100
AcDbAlignedDimension
 13
126.9518630704
 23
373.0985240683
 33
0.0
 14
103.9808440125
 24
531.0985240683
 34
0.0
 50
90.0
100
AcDbRotatedDimension
  0
DIMENSION
  5
1CE
330
1F
100
AcDbEntity
  8
RIQUADRO
100
AcDbDimension
  2
_D_4
 10
619.4808440125
 20
513.0985240683
 30
0.0
 11
619.4808440125
 21
464.767024413
 31
0.0
 70
   160
  1
<>
 71
     2
 42
-1.0
  3
SLDDIMSTYLE0
100
AcDbAlignedDimension
 13
560.4808440125
 23
373.0985240683
 33
0.0
 14
537.1808440125
 24
513.0985240683
 34
0.0
 50
90.0
100
AcDbRotatedDimension
  0
MTEXT
  5
1D8
330
1F
100
AcDbEntity
  8
RIQUADRO
100
AcDbMText
 10
382.5356758486
 20
470.7946895127
 30
0.0
 40
4.2333333333
 41
0.0
 71
     1
 72
     1
  1
OPTICAL AXIS
  7
SLDTEXTSTYLE1
 73
     1
 44
1.0
  0
LINE
  5
1D9
330
1F
100
AcDbEntity
  8
0
  6
Continuous
 62
     7
370
    15
100
AcDbLine
 10
112.9808440125
 20
177.3477016535
 30
0.0
 11
111.9808440125
 21
176.3477016535
 31
0.0
  0
LINE
  5
1DA
330
1F
100
AcDbEntity
  8
0
  6
Continuous
 62
     7
370
    15
100
AcDbLine
 10
112.9808440125
 20
177.3477016535
 30
0.0
 11
112.9808440125
 21
177.3546464329
 31
0.0
  0
LINE
  5
1DB
330
1F
100
AcDbEntity
  8
0
  6
Continuous
 62
     7
370
    15
100
AcDbLine
 10
102.9808440125
 20
177.3546464329
 30
0.0
 11
102.9808440125
 21
177.3477016535
 31
0.0
  0
LINE
  5
1DC
330
1F
100
AcDbEntity
  8
0
  6
Continuous
 62
     7
370
    15
100
AcDbLine
 10
102.9808440125
 20
177.3477016535
 30
0.0
 11
103.9808440125
 21
176.3477016535
 31
0.0
  0
LINE
  5
1DD
330
1F
100
AcDbEntity
  8
0
  6
Continuous
 62
     7
370
    15
100
AcDbLine
 10
103.9808440125
 20
176.3477016535
 30
0.0
 11
111.9808440125
 21
176.3477016535
 31
0.0
  0
SPLINE
  5
1DE
330
1F
100
AcDbEntity
  8
0
  6
Continuous
 62
     7
370
    15
100
AcDbSpline
210
0.0
220
0.0
230
1.0
 70
     8
 71
     3
 72
    19
 73
    15
 74
     0
 42
0.00000001
 43
0.00000001
 12
1.0
 22
0.0
 32
0.0
 13
1.0
 23
0.0
 33
0.0
 40
0.0
 40
0.0
 40
0.0
 40
0.0
 40
0.119721473622837
 40
0.1848088471337284
 40
0.2499999532893902
 40
0.3150873734720596
 40
0.3802785263771074
 40
0.4999999999999402
 40
0.6197214736227677
 40
0.6848088471291094
 40
0.7499999532893487
 40
0.8150873734702831
 40
0.880278526377164
 40
1.0
 40
1.0
 40
1.0
 40
1.0
 10
107.9808440125103
 20
183.0016081419729
 30
0.0
 10
108.1883224184865
 20
182.9794475525787
 30
0.0
 10
108.5085978365323
 20
182.9452392117206
 30
0.0
 10
108.8932440682463
 20
182.7398310023486
 30
0.0
 10
109.1553742863474
 20
182.526678926954
 30
0.0
 10
109.3700476590609
 20
182.2640902292285
 30
0.0
 10
109.5689893299152
 20
181.8795773663408
 30
0.0
 10
109.6708917037339
 20
181.3516090119431
 30
0.0
 10
109.5690242115632
 20
180.823816094193
 30
0.0
 10
109.3701468369007
 20
180.4392835885806
 30
0.0
 10
109.1556262584423
 20
180.1767889108318
 30
0.0
 10
108.8934016236148
 20
179.9634834909863
 30
0.0
 10
108.5087752371774
 20
179.7580015486289
 30
0.0
 10
108.1883214556363
 20
179.7237708011896
 30
0.0
 10
107.9808440125103
 20
179.7016081419729
 30
0.0
  0
SPLINE
  5
1DF
330
1F
100
AcDbEntity
  8
0
  6
Continuous
 62
     7
370
    15
100
AcDbSpline
210
0.0
220
0.0
230
1.0
 70
     8
 71
     3
 72
    19
 73
    15
 74
     0
 42
0.00000001
 43
0.00000001
 12
1.0
 22
0.0
 32
0.0
 13
1.0
 23
0.0
 33
0.0
 40
0.0
 40
0.0
 40
0.0
 40
0.0
 40
0.1197214736228337
 40
0.1848088471295724
 40
0.249999953289392
 40
0.3150873734701651
 40
0.3802785263771936
 40
0.5000000000000179
 40
0.6197214736228526
 40
0.6848088471300777
 40
0.7499999532894996
 40
0.8150873734696641
 40
0.8802785263771672
 40
1.0
 40
1.0
 40
1.0
 40
1.0
 10
107.9808440125103
 20
179.7016081419729
 30
0.0
 10
107.7733656065341
 20
179.723768731367
 30
0.0
 10
107.4530901884954
 20
179.7579770722245
 30
0.0
 10
107.0684439567803
 20
179.9633852815925
 30
0.0
 10
106.8063137386809
 20
180.1765373569847
 30
0.0
 10
106.5916403659587
 20
180.4391260547124
 30
0.0
 10
106.3926986951078
 20
180.8236389176024
 30
0.0
 10
106.2907963212855
 20
181.3516072720024
 30
0.0
 10
106.3926638134589
 20
181.8794001897536
 30
0.0
 10
106.5915411881181
 20
182.2639326953678
 30
0.0
 10
106.8060617665781
 20
182.5264273731146
 30
0.0
 10
107.0682864014079
 20
182.7397327929537
 30
0.0
 10
107.452912787841
 20
182.9452147353193
 30
0.0
 10
107.7733665693837
 20
182.9794454827572
 30
0.0
 10
107.9808440125102
 20
183.0016081419729
 30
0.0
  0
LINE
  5
1E0
330
1F
100
AcDbEntity
  8
0
  6
Continuous
 62
     7
370
    15
100
AcDbLine
 10
111.9808440125
 20
322.3477016535
 30
0.0
 11
103.9808440125
 21
322.3477016535
 31
0.0
  0
LINE
  5
1E1
330
1F
100
AcDbEntity
  8
0
  6
Continuous
 62
     7
370
    15
100
AcDbLine
 10
111.9808440125
 20
322.3477016535
 30
0.0
 11
112.9808440125
 21
321.3477016535
 31
0.0
  0
LINE
  5
1E2
330
1F
100
AcDbEntity
  8
0
  6
Continuous
 62
     7
370
    15
100
AcDbLine
 10
103.9808440125
 20
322.3477016535
 30
0.0
 11
102.9808440125
 21
321.3477016535
 31
0.0
  0
LINE
  5
1E3
330
1F
100
AcDbEntity
  8
0
  6
Continuous
 62
     7
370
    15
100
AcDbLine
 10
102.9808440125
 20
321.3477016535
 30
0.0
 11
102.9808440125
 21
321.3407568742
 31
0.0
  0
LINE
  5
1E4
330
1F
100
AcDbEntity
  8
0
  6
Continuous
 62
     7
370
    15
100
AcDbLine
 10
112.9808440125
 20
321.3407568742
 30
0.0
 11
112.9808440125
 21
321.3477016535
 31
0.0
  0
SPLINE
  5
1E5
330
1F
100
AcDbEntity
  8
0
  6
Continuous
 62
     7
370
    15
100
AcDbSpline
210
0.0
220
0.0
230
1.0
 70
     8
 71
     3
 72
    19
 73
    15
 74
     0
 42
0.00000001
 43
0.00000001
 12
1.0
 22
0.0
 32
0.0
 13
1.0
 23
0.0
 33
0.0
 40
0.0
 40
0.0
 40
0.0
 40
0.0
 40
0.1197214736228297
 40
0.1848088471292401
 40
0.2499999532894428
 40
0.3150873734702606
 40
0.380278526377203
 40
0.5000000000000263
 40
0.6197214736228497
 40
0.6848088471303275
 40
0.7499999532894372
 40
0.8150873734700643
 40
0.8802785263771707
 40
1.0
 40
1.0
 40
1.0
 40
1.0
 10
107.9808440125103
 20
318.9937951650776
 30
0.0
 10
108.1883224184863
 20
318.9716345756831
 30
0.0
 10
108.508597836524
 20
318.937426234825
 30
0.0
 10
108.893244068241
 20
318.7320180254603
 30
0.0
 10
109.1553742863393
 20
318.5188659500658
 30
0.0
 10
109.3700476590609
 20
318.2562772523373
 30
0.0
 10
109.5689893299135
 20
317.8717643894482
 30
0.0
 10
109.6708917037346
 20
317.3437960350481
 30
0.0
 10
109.5690242115627
 20
316.8160031172958
 30
0.0
 10
109.3701468369002
 20
316.4314706116835
 30
0.0
 10
109.1556262584414
 20
316.1689759339351
 30
0.0
 10
108.8934016236138
 20
315.955670514094
 30
0.0
 10
108.5087752371784
 20
315.7501885717323
 30
0.0
 10
108.1883214556365
 20
315.7159578242938
 30
0.0
 10
107.9808440125103
 20
315.6937951650776
 30
0.0
  0
SPLINE
  5
1E6
330
1F
100
AcDbEntity
  8
0
  6
Continuous
 62
     7
370
    15
100
AcDbSpline
210
0.0
220
0.0
230
1.0
 70
     8
 71
     3
 72
    19
 73
    15
 74
     0
 42
0.00000001
 43
0.00000001
 12
1.0
 22
0.0
 32
0.0
 13
1.0
 23
0.0
 33
0.0
 40
0.0
 40
0.0
 40
0.0
 40
0.0
 40
0.1197214736228312
 40
0.1848088471303059
 40
0.2499999532894235
 40
0.3150873734705164
 40
0.3802785263771719
 40
0.4999999999999998
 40
0.6197214736228251
 40
0.684808847129699
 40
0.7499999532894291
 40
0.8150873734698948
 40
0.8802785263771693
 40
1.0
 40
1.0
 40
1.0
 40
1.0
 10
107.9808440125103
 20
315.6937951650776
 30
0.0
 10
107.7733656065342
 20
315.715955754472
 30
0.0
 10
107.4530901884945
 20
315.75016409533
 30
0.0
 10
107.0684439567785
 20
315.9555723046968
 30
0.0
 10
106.8063137386797
 20
316.1687243800908
 30
0.0
 10
106.5916403659599
 20
316.4313130778187
 30
0.0
 10
106.3926986951067
 20
316.8158259407073
 30
0.0
 10
106.290796321286
 20
317.3437942951072
 30
0.0
 10
106.392663813458
 20
317.8715872128582
 30
0.0
 10
106.5915411881194
 20
318.2561197184711
 30
0.0
 10
106.8060617665783
 20
318.5186143962191
 30
0.0
 10
107.0682864014063
 20
318.7319198160613
 30
0.0
 10
107.4529127878422
 20
318.9374017584227
 30
0.0
 10
107.7733665693841
 20
318.9716325058614
 30
0.0
 10
107.9808440125102
 20
318.9937951650776
 30
0.0
  0
LINE
  5
1E7
330
1F
100
AcDbEntity
  8
0
  6
Continuous
 62
     7
370
    15
100
AcDbLine
 10
111.9808440125
 20
176.3545512899
 30
0.0
 11
111.9808440125
 21
322.3408520171
 31
0.0
  0
LINE
  5
1E8
330
1F
100
AcDbEntity
  8
0
  6
Continuous
 62
     7
370
    15
100
AcDbLine
 10
112.9808440125
 20
321.3407568742
 30
0.0
 11
111.9808440125
 21
322.3408520171
 31
0.0
  0
LINE
  5
1E9
330
1F
100
AcDbEntity
  8
0
  6
Continuous
 62
     7
370
    15
100
AcDbLine
 10
112.9808440125
 20
321.3407568742
 30
0.0
 11
112.9808440125
 21
177.3546464329
 31
0.0
  0
LINE
  5
1EA
330
1F
100
AcDbEntity
  8
0
  6
Continuous
 62
     7
370
    15
100
AcDbLine
 10
111.9808440125
 20
176.3545512899
 30
0.0
 11
112.9808440125
 21
177.3546464329
 31
0.0
  0
LINE
  5
1EB
330
1F
100
AcDbEntity
  8
0
  6
Continuous
 62
     7
370
    15
100
AcDbLine
 10
103.9808440125
 20
176.3545512899
 30
0.0
 11
103.9808440125
 21
322.3408520171
 31
0.0
  0
LINE
  5
1EC
330
1F
100
AcDbEntity
  8
0
  6
Continuous
 62
     7
370
    15
100
AcDbLine
 10
102.9808440125
 20
177.3546464329
 30
0.0
 11
103.9808440125
 21
176.3545512899
 31
0.0
  0
LINE
  5
1ED
330
1F
100
AcDbEntity
  8
0
  6
Continuous
 62
     7
370
    15
100
AcDbLine
 10
102.9808440125
 20
321.3407568742
 30
0.0
 11
102.9808440125
 21
177.3546464329
 31
0.0
  0
LINE
  5
1EE
330
1F
100
AcDbEntity
  8
0
  6
Continuous
 62
     7
370
    15
100
AcDbLine
 10
103.9808440125
 20
322.3408520171
 30
0.0
 11
102.9808440125
 21
321.3407568742
 31
0.0
  0
LINE
  5
1EF
330
1F
100
AcDbEntity
  8
0
  6
Continuous
 62
     7
370
    15
100
AcDbLine
 10
111.4808440125
 20
176.6840931552
 30
0.0
 11
104.4808440125
 21
176.6840931552
 31
0.0
  0
LINE
  5
1F0
330
1F
100
AcDbEntity
  8
0
  6
Continuous
 62
     7
370
    15
100
AcDbLine
 10
111.4808440125
 20
181.351608142
 30
0.0
 11
111.4808440125
 21
176.6840931552
 31
0.0
  0
SPLINE
  5
1F1
330
1F
100
AcDbEntity
  8
0
  6
Continuous
 62
     7
370
    15
100
AcDbSpline
210
0.0
220
0.0
230
1.0
 70
     8
 71
     3
 72
    21
 73
    17
 74
     0
 42
0.00000001
 43
0.00000001
 12
1.0
 22
0.0
 32
0.0
 13
1.0
 23
0.0
 33
0.0
 40
0.0
 40
0.0
 40
0.0
 40
0.0
 40
0.1177180357500482
 40
0.2352163965484561
 40
0.3129827501833233
 40
0.4142467530712222
 40
0.4511557179735297
 40
0.4884158596152426
 40
0.4999588660679924
 40
0.5301652883194407
 40
0.5671069509736572
 40
0.6243049903823794
 40
0.7324376790607594
 40
0.8501838393274499
 40
0.9682420229941524
 40
1.0
 40
1.0
 40
1.0
 40
1.0
 10
104.4808440125101
 20
181.3516081419729
 30
0.0
 10
104.49836802173
 20
181.6377831302694
 30
0.0
 10
104.5333833384183
 20
182.2095990724951
 30
0.0
 10
104.8708209519341
 20
183.038813109712
 30
0.0
 10
105.4508548534842
 20
183.8318534247098
 30
0.0
 10
106.1563863506978
 20
184.4052080257375
 30
0.0
 10
107.0477435385206
 20
184.7466786701646
 30
0.0
 10
107.587083742505
 20
184.8413360517997
 30
0.0
 10
108.1024605673098
 20
184.8580647065487
 30
0.0
 10
108.6188246101042
 20
184.8129611854989
 30
0.0
 10
109.3263328893804
 20
184.6142092188803
 30
0.0
 10
110.1881918675784
 20
184.1428320300042
 30
0.0
 10
110.902073095135
 20
183.3767552859357
 30
0.0
 10
111.3520225243226
 20
182.4625792571885
 30
0.0
 10
111.4716925713822
 20
181.785468716724
 30
0.0
 10
111.4792433921761
 20
181.4274919343063
 30
0.0
 10
111.4808440125102
 20
181.3516081419729
 30
0.0
  0
LINE
  5
1F2
330
1F
100
AcDbEntity
  8
0
  6
Continuous
 62
     7
370
    15
100
AcDbLine
 10
104.4808440125
 20
176.6840931552
 30
0.0
 11
104.4808440125
 21
181.351608142
 31
0.0
  0
LINE
  5
1F3
330
1F
100
AcDbEntity
  8
0
  6
Continuous
 62
     7
370
    15
100
AcDbLine
 10
111.9808440125
 20
322.3408520171
 30
0.0
 11
103.9808440125
 21
322.3408520171
 31
0.0
  0
LINE
  5
1F4
330
1F
100
AcDbEntity
  8
0
  6
Continuous
 62
     7
370
    15
100
AcDbLine
 10
103.9808440125
 20
176.3545512899
 30
0.0
 11
111.9808440125
 21
176.3545512899
 31
0.0
  0
LINE
  5
1F5
330
1F
100
AcDbEntity
  8
0
  6
Continuous
 62
     7
370
    15
100
AcDbLine
 10
104.4808440125
 20
317.3437951651
 30
0.0
 11
104.4808440125
 21
322.0113101519
 31
0.0
  0
SPLINE
  5
1F6
330
1F
100
AcDbEntity
  8
0
  6
Continuous
 62
     7
370
    15
100
AcDbSpline
210
0.0
220
0.0
230
1.0
 70
     8
 71
     3
 72
    19
 73
    15
 74
     0
 42
0.00000001
 43
0.00000001
 12
1.0
 22
0.0
 32
0.0
 13
1.0
 23
0.0
 33
0.0
 40
0.0
 40
0.0
 40
0.0
 40
0.0
 40
0.117740892247434
 40
0.2352620668904603
 40
0.3527072903482841
 40
0.4064765144403533
 40
0.4524025832533052
 40
0.4836776696430647
 40
0.5151270210809198
 40
0.5435642426589861
 40
0.586318062546495
 40
0.6582109629516011
 40
0.803278713709626
 40
1.0
 40
1.0
 40
1.0
 40
1.0
 10
111.4808440125102
 20
317.3437951650776
 30
0.0
 10
111.4633200513891
 20
317.0573497189993
 30
0.0
 10
111.4283048308079
 20
316.4849933659142
 30
0.0
 10
111.0481119054214
 20
315.5547612584099
 30
0.0
 10
110.431962000097
 20
314.768660544292
 30
0.0
 10
109.6363087451477
 20
314.2310703264577
 30
0.0
 10
108.9813549974897
 20
313.9660272127742
 30
0.0
 10
108.3112399551352
 20
313.8411202853808
 30
0.0
 10
107.7014163638952
 20
313.8382798536069
 30
0.0
 10
107.0617409066097
 20
313.9457859287194
 30
0.0
 10
106.3189701761338
 20
314.2209706913112
 30
0.0
 10
105.3872445087496
 20
314.8757923321721
 30
0.0
 10
104.6186359570655
 20
316.0148772635536
 30
0.0
 10
104.5311802965119
 20
316.8583329044077
 30
0.0
 10
104.4808440125102
 20
317.3437951650776
 30
0.0
  0
LINE
  5
1F7
330
1F
100
AcDbEntity
  8
0
  6
Continuous
 62
     7
370
    15
100
AcDbLine
 10
111.4808440125
 20
322.0113101519
 30
0.0
 11
111.4808440125
 21
317.3437951651
 31
0.0
  0
LINE
  5
1F8
330
1F
100
AcDbEntity
  8
0
  6
Continuous
 62
     7
370
    15
100
AcDbLine
 10
104.4808440125
 20
322.0113101519
 30
0.0
 11
111.4808440125
 21
322.0113101519
 31
0.0
  0
CIRCLE
  5
1F9
330
1F
100
AcDbEntity
  8
0
  6
Continuous
 62
     7
370
    15
100
AcDbCircle
 10
107.9808440125
 20
317.3437951651
 30
0.0
 40
2.25
  0
CIRCLE
  5
1FA
330
1F
100
AcDbEntity
  8
0
  6
Continuous
 62
     7
370
    15
100
AcDbCircle
 10
107.9808440125
 20
181.351608142
 30
0.0
 40
2.249999999999972
  0
LINE
  5
1FB
330
1F
100
AcDbEntity
  8
0
  6
Continuous
 62
     7
370
    15
100
AcDbLine
 10
126.9518630704
 20
322.3477016535
 30
0.0
 11
111.9808646282
 21
322.3477016535
 31
0.0
  0
LINE
  5
1FC
330
1F
100
AcDbEntity
  8
0
  6
Continuous
 62
     7
370
    15
100
AcDbLine
 10
103.9808233969
 20
322.3477016535
 30
0.0
 11
80.4808440125
 21
322.3477016535
 31
0.0
  0
LINE
  5
1FD
330
1F
100
AcDbEntity
  8
0
  6
Continuous
 62
     7
370
    15
100
AcDbLine
 10
77.4808440125
 20
325.3477016535
 30
0.0
 11
80.4808440125
 21
322.3477016535
 31
0.0
  0
LINE
  5
1FE
330
1F
100
AcDbEntity
  8
0
  6
Continuous
 62
     7
370
    15
100
AcDbLine
 10
77.4808440125
 20
325.3477016535
 30
0.0
 11
127.4808440125
 21
325.3477016535
 31
0.0
  0
LINE
  5
1FF
330
1F
100
AcDbEntity
  8
0
  6
Continuous
 62
     7
370
    15
100
AcDbLine
 10
126.9518630704
 20
322.3477016535
 30
0.0
 11
127.4808440125
 21
325.3477016535
 31
0.0
  0
LINE
  5
200
330
1F
100
AcDbEntity
  8
0
  6
Continuous
 62
     7
370
    15
100
AcDbLine
 10
218.9923566221
 20
288.8477016535
 30
0.0
 11
126.9518630704
 21
322.3477016535
 31
0.0
  0
LINE
  5
201
330
1F
100
AcDbEntity
  8
0
  6
Continuous
 62
     7
370
    15
100
AcDbLine
 10
127.4808440125
 20
325.3477016535
 30
0.0
 11
219.5213375642
 21
291.8477016535
 31
0.0
  0
LINE
  5
202
330
1F
100
AcDbEntity
  8
0
  6
Continuous
 62
     7
370
    15
100
AcDbLine
 10
218.9923566221
 20
288.8477016535
 30
0.0
 11
219.5213375642
 21
291.8477016535
 31
0.0
  0
LINE
  5
203
330
1F
100
AcDbEntity
  8
0
  6
Continuous
 62
     7
370
    15
100
AcDbLine
 10
77.4808440125
 20
173.3477016535
 30
0.0
 11
77.4808440125
 21
325.3477016535
 31
0.0
  0
LINE
  5
204
330
1F
100
AcDbEntity
  8
0
  6
Continuous
 62
     7
370
    15
100
AcDbLine
 10
80.4808440125
 20
322.3477016535
 30
0.0
 11
80.4808440125
 21
176.3477016535
 31
0.0
  0
LINE
  5
205
330
1F
100
AcDbEntity
  8
0
  6
Continuous
 62
     7
370
    15
100
AcDbLine
 10
77.4808440125
 20
173.3477016535
 30
0.0
 11
80.4808440125
 21
176.3477016535
 31
0.0
  0
LINE
  5
206
330
1F
100
AcDbEntity
  8
0
  6
Continuous
 62
     7
370
    15
100
AcDbLine
 10
349.2234846996
 20
288.8477016535
 30
0.0
 11
218.9923566221
 21
288.8477016535
 31
0.0
  0
LINE
  5
207
330
1F
100
AcDbEntity
  8
0
  6
Continuous
 62
     7
370
    15
100
AcDbLine
 10
364.7234846996
 20
304.3477016535
 30
0.0
 11
349.2234846996
 21
288.8477016535
 31
0.0
  0
LINE
  5
208
330
1F
100
AcDbEntity
  8
0
  6
Continuous
 62
     7
370
    15
100
AcDbLine
 10
560.4808440125
 20
304.3477016535
 30
0.0
 11
537.1808646281
 21
304.3477016535
 31
0.0
  0
LINE
  5
209
330
1F
100
AcDbEntity
  8
0
  6
Continuous
 62
     7
370
    15
100
AcDbLine
 10
528.780823397
 20
304.3477016535
 30
0.0
 11
364.7234846996
 21
304.3477016535
 31
0.0
  0
LINE
  5
20A
330
1F
100
AcDbEntity
  8
0
  6
Continuous
 62
     7
370
    15
100
AcDbLine
 10
560.4808440125
 20
194.3477016535
 30
0.0
 11
560.4808440125
 21
304.3477016535
 31
0.0
  0
LINE
  5
20B
330
1F
100
AcDbEntity
  8
0
  6
Continuous
 62
     7
370
    15
100
AcDbLine
 10
364.7234846996
 20
194.3477016535
 30
0.0
 11
528.780823397
 21
194.3477016535
 31
0.0
  0
LINE
  5
20C
330
1F
100
AcDbEntity
  8
0
  6
Continuous
 62
     7
370
    15
100
AcDbLine
 10
537.1808646281
 20
194.3477016535
 30
0.0
 11
560.4808440125
 21
194.3477016535
 31
0.0
  0
LINE
  5
20D
330
1F
100
AcDbEntity
  8
0
  6
Continuous
 62
     7
370
    15
100
AcDbLine
 10
349.2234846996
 20
209.8477016535
 30
0.0
 11
364.7234846996
 21
194.3477016535
 31
0.0
  0
LINE
  5
20E
330
1F
100
AcDbEntity
  8
0
  6
Continuous
 62
     7
370
    15
100
AcDbLine
 10
218.9923566221
 20
209.8477016535
 30
0.0
 11
349.2234846996
 21
209.8477016535
 31
0.0
  0
LINE
  5
20F
330
1F
100
AcDbEntity
  8
0
  6
Continuous
 62
     7
370
    15
100
AcDbLine
 10
126.9518630704
 20
176.3477016535
 30
0.0
 11
218.9923566221
 21
209.8477016535
 31
0.0
  0
LINE
  5
210
330
1F
100
AcDbEntity
  8
0
  6
Continuous
 62
     7
370
    15
100
AcDbLine
 10
80.4808440125
 20
176.3477016535
 30
0.0
 11
103.9808233968
 21
176.3477016535
 31
0.0
  0
LINE
  5
211
330
1F
100
AcDbEntity
  8
0
  6
Continuous
 62
     7
370
    15
100
AcDbLine
 10
111.9808646282
 20
176.3477016535
 30
0.0
 11
126.9518630704
 21
176.3477016535
 31
0.0
  0
CIRCLE
  5
212
330
1F
100
AcDbEntity
  8
0
  6
Continuous
 62
     7
370
    15
100
AcDbCircle
 10
555.4808440125
 20
289.3477016535
 30
0.0
 40
2.25
  0
CIRCLE
  5
213
330
1F
100
AcDbEntity
  8
0
  6
Continuous
 62
     7
370
    15
100
AcDbCircle
 10
555.4808440125
 20
269.3477016535
 30
0.0
 40
2.0
  0
CIRCLE
  5
214
330
1F
100
AcDbEntity
  8
0
  6
Continuous
 62
     7
370
    15
100
AcDbCircle
 10
555.4808440125
 20
209.3477016535
 30
0.0
 40
2.25
  0
CIRCLE
  5
215
330
1F
100
AcDbEntity
  8
0
  6
Continuous
 62
     7
370
    15
100
AcDbCircle
 10
555.4808440125
 20
229.3477016535
 30
0.0
 40
2.0
  0
CIRCLE
  5
216
330
1F
100
AcDbEntity
  8
0
  6
Continuous
 62
     7
370
    15
100
AcDbCircle
 10
85.4808440125
 20
299.3477016535
 30
0.0
 40
2.249999999999972
  0
CIRCLE
  5
217
330
1F
100
AcDbEntity
  8
0
  6
Continuous
 62
     7
370
    15
100
AcDbCircle
 10
85.4808440125
 20
274.3477016535
 30
0.0
 40
2.0
  0
CIRCLE
  5
218
330
1F
100
AcDbEntity
  8
0
  6
Continuous
 62
     7
370
    15
100
AcDbCircle
 10
85.4808440125
 20
224.3477016535
 30
0.0
 40
2.000000000000014
  0
CIRCLE
  5
219
330
1F
100
AcDbEntity
  8
0
  6
Continuous
 62
     7
370
    15
100
AcDbCircle
 10
85.4808440125
 20
199.3477016535
 30
0.0
 40
2.249999999999986
  0
CIRCLE
  5
21A
330
1F
100
AcDbEntity
  8
0
  6
Continuous
 62
     7
370
    15
100
AcDbCircle
 10
213.4808440125
 20
249.3477016535
 30
0.0
 40
2.0
  0
CIRCLE
  5
21B
330
1F
100
AcDbEntity
  8
0
  6
Continuous
 62
     7
370
    15
100
AcDbCircle
 10
413.4808440125
 20
249.3477016535
 30
0.0
 40
2.0
  0
CIRCLE
  5
21C
330
1F
100
AcDbEntity
  8
0
  6
Continuous
 62
     7
370
    15
100
AcDbCircle
 10
388.4808440125
 20
274.3477016535
 30
0.0
 40
3.999999999999943
  0
CIRCLE
  5
21D
330
1F
100
AcDbEntity
  8
0
  6
Continuous
 62
     7
370
    15
100
AcDbCircle
 10
338.4808440125
 20
274.3477016535
 30
0.0
 40
2.249999999999943
  0
CIRCLE
  5
21E
330
1F
100
AcDbEntity
  8
0
  6
Continuous
 62
     7
370
    15
100
AcDbCircle
 10
288.4808440125
 20
274.3477016535
 30
0.0
 40
4.0
  0
CIRCLE
  5
21F
330
1F
100
AcDbEntity
  8
0
  6
Continuous
 62
     7
370
    15
100
AcDbCircle
 10
238.4808440125
 20
274.3477016535
 30
0.0
 40
2.249999999999972
  0
CIRCLE
  5
220
330
1F
100
AcDbEntity
  8
0
  6
Continuous
 62
     7
370
    15
100
AcDbCircle
 10
238.4808440125
 20
224.3477016535
 30
0.0
 40
2.249999999999972
  0
CIRCLE
  5
221
330
1F
100
AcDbEntity
  8
0
  6
Continuous
 62
     7
370
    15
100
AcDbCircle
 10
288.4808440125
 20
224.3477016535
 30
0.0
 40
4.0
  0
CIRCLE
  5
222
330
1F
100
AcDbEntity
  8
0
  6
Continuous
 62
     7
370
    15
100
AcDbCircle
 10
338.4808440125
 20
224.3477016535
 30
0.0
 40
2.249999999999943
  0
CIRCLE
  5
223
330
1F
100
AcDbEntity
  8
0
  6
Continuous
 62
     7
370
    15
100
AcDbCircle
 10
388.4808440125
 20
224.3477016535
 30
0.0
 40
3.999999999999943
  0
LINE
  5
224
330
1F
100
AcDbEntity
  8
0
  6
Continuous
 62
     7
370
    15
100
AcDbLine
 10
560.4808440125
 20
304.3477016535
 30
0.0
 11
563.4808440125
 21
307.3477016535
 31
0.0
  0
LINE
  5
225
330
1F
100
AcDbEntity
  8
0
  6
Continuous
 62
     7
370
    15
100
AcDbLine
 10
563.4808440125
 20
307.3477016535
 30
0.0
 11
563.4808440125
 21
191.3477016535
 31
0.0
  0
LINE
  5
226
330
1F
100
AcDbEntity
  8
0
  6
Continuous
 62
     7
370
    15
100
AcDbLine
 10
560.4808440125
 20
194.3477016535
 30
0.0
 11
563.4808440125
 21
191.3477016535
 31
0.0
  0
LINE
  5
227
330
1F
100
AcDbEntity
  8
0
  6
Continuous
 62
     7
370
    15
100
AcDbLine
 10
364.7234846996
 20
304.3477016535
 30
0.0
 11
363.4808440125
 21
307.3477016535
 31
0.0
  0
LINE
  5
228
330
1F
100
AcDbEntity
  8
0
  6
Continuous
 62
     7
370
    15
100
AcDbLine
 10
363.4808440125
 20
307.3477016535
 30
0.0
 11
563.4808440125
 21
307.3477016535
 31
0.0
  0
LINE
  5
229
330
1F
100
AcDbEntity
  8
0
  6
Continuous
 62
     7
370
    15
100
AcDbLine
 10
349.2234846996
 20
288.8477016535
 30
0.0
 11
347.9808440125
 21
291.8477016535
 31
0.0
  0
LINE
  5
22A
330
1F
100
AcDbEntity
  8
0
  6
Continuous
 62
     7
370
    15
100
AcDbLine
 10
347.9808440125
 20
291.8477016535
 30
0.0
 11
363.4808440125
 21
307.3477016535
 31
0.0
  0
LINE
  5
22B
330
1F
100
AcDbEntity
  8
0
  6
Continuous
 62
     7
370
    15
100
AcDbLine
 10
219.5213375642
 20
291.8477016535
 30
0.0
 11
347.9808440125
 21
291.8477016535
 31
0.0
  0
LINE
  5
22C
330
1F
100
AcDbEntity
  8
0
  6
Continuous
 62
     7
370
    15
100
AcDbLine
 10
363.4808440125
 20
191.3477016535
 30
0.0
 11
347.9808440125
 21
206.8477016535
 31
0.0
  0
LINE
  5
22D
330
1F
100
AcDbEntity
  8
0
  6
Continuous
 62
     7
370
    15
100
AcDbLine
 10
347.9808440125
 20
206.8477016535
 30
0.0
 11
349.2234846996
 21
209.8477016535
 31
0.0
  0
LINE
  5
22E
330
1F
100
AcDbEntity
  8
0
  6
Continuous
 62
     7
370
    15
100
AcDbLine
 10
363.4808440125
 20
191.3477016535
 30
0.0
 11
364.7234846996
 21
194.3477016535
 31
0.0
  0
LINE
  5
22F
330
1F
100
AcDbEntity
  8
0
  6
Continuous
 62
     7
370
    15
100
AcDbLine
 10
219.5213375642
 20
206.8477016535
 30
0.0
 11
127.4808440125
 21
173.3477016535
 31
0.0
  0
LINE
  5
230
330
1F
100
AcDbEntity
  8
0
  6
Continuous
 62
     7
370
    15
100
AcDbLine
 10
127.4808440125
 20
173.3477016535
 30
0.0
 11
126.9518630704
 21
176.3477016535
 31
0.0
  0
LINE
  5
231
330
1F
100
AcDbEntity
  8
0
  6
Continuous
 62
     7
370
    15
100
AcDbLine
 10
219.5213375642
 20
206.8477016535
 30
0.0
 11
218.9923566221
 21
209.8477016535
 31
0.0
  0
LINE
  5
232
330
1F
100
AcDbEntity
  8
0
  6
Continuous
 62
     7
370
    15
100
AcDbLine
 10
347.9808440125
 20
206.8477016535
 30
0.0
 11
219.5213375642
 21
206.8477016535
 31
0.0
  0
LINE
  5
233
330
1F
100
AcDbEntity
  8
0
  6
Continuous
 62
     7
370
    15
100
AcDbLine
 10
563.4808440125
 20
191.3477016535
 30
0.0
 11
363.4808440125
 21
191.3477016535
 31
0.0
  0
LINE
  5
234
330
1F
100
AcDbEntity
  8
0
  6
Continuous
 62
     7
370
    15
100
AcDbLine
 10
127.4808440125
 20
173.3477016535
 30
0.0
 11
77.4808440125
 21
173.3477016535
 31
0.0
  0
LINE
  5
235
330
1F
100
AcDbEntity
  8
0
  6
Continuous
 62
     7
370
    15
100
AcDbLine
 10
537.1808440125
 20
304.3477016535
 30
0.0
 11
537.9808440125
 21
303.5477016535
 31
0.0
  0
LINE
  5
236
330
1F
100
AcDbEntity
  8
0
  6
Continuous
 62
     7
370
    15
100
AcDbLine
 10
528.7808440125
 20
304.3477016535
 30
0.0
 11
527.9808440125
 21
303.5477016535
 31
0.0
  0
LINE
  5
237
330
1F
100
AcDbEntity
  8
0
  6
Continuous
 62
     7
370
    15
100
AcDbLine
 10
527.9808440125
 20
303.5477016535
 30
0.0
 11
527.9808440125
 21
303.5384757761
 31
0.0
  0
LINE
  5
238
330
1F
100
AcDbEntity
  8
0
  6
Continuous
 62
     7
370
    15
100
AcDbLine
 10
537.9808440125
 20
303.5384757761
 30
0.0
 11
537.9808440125
 21
303.5477016535
 31
0.0
  0
LINE
  5
239
330
1F
100
AcDbEntity
  8
0
  6
Continuous
 62
     7
370
    15
100
AcDbLine
 10
537.1808440125
 20
304.3477016535
 30
0.0
 11
528.7808440125
 21
304.3477016535
 31
0.0
  0
SPLINE
  5
23A
330
1F
100
AcDbEntity
  8
0
  6
Continuous
 62
     7
370
    15
100
AcDbSpline
210
0.0
220
0.0
230
1.0
 70
     8
 71
     3
 72
    19
 73
    15
 74
     0
 42
0.00000001
 43
0.00000001
 12
1.0
 22
0.0
 32
0.0
 13
1.0
 23
0.0
 33
0.0
 40
0.0
 40
0.0
 40
0.0
 40
0.0
 40
0.1197214736228072
 40
0.18480884712894
 40
0.2499999532894424
 40
0.3150873734710273
 40
0.3802785263772057
 40
0.5000000000000159
 40
0.6197214736228263
 40
0.6848088471294793
 40
0.7499999532894018
 40
0.8150873734709299
 40
0.880278526377193
 40
1.0
 40
1.0
 40
1.0
 40
1.0
 10
532.9808440125101
 20
300.9922424875321
 30
0.0
 10
533.188322418486
 20
300.9700818981373
 30
0.0
 10
533.508597836523
 20
300.9358735572789
 30
0.0
 10
533.8932440682413
 20
300.7304653479163
 30
0.0
 10
534.1553742863393
 20
300.5173132725195
 30
0.0
 10
534.3700476590618
 20
300.2547245747909
 30
0.0
 10
534.5689893299135
 20
299.8702117119013
 30
0.0
 10
534.6708917037344
 20
299.3422433575026
 30
0.0
 10
534.5690242115627
 20
298.8144504397517
 30
0.0
 10
534.3701468369007
 20
298.429917934139
 30
0.0
 10
534.1556262584409
 20
298.1674232563899
 30
0.0
 10
533.8934016236138
 20
297.954117836545
 30
0.0
 10
533.508775237176
 20
297.7486358941879
 30
0.0
 10
533.1883214556361
 20
297.7144051467487
 30
0.0
 10
532.9808440125101
 20
297.692242487532
 30
0.0
  0
SPLINE
  5
23B
330
1F
100
AcDbEntity
  8
0
  6
Continuous
 62
     7
370
    15
100
AcDbSpline
210
0.0
220
0.0
230
1.0
 70
     8
 71
     3
 72
    19
 73
    15
 74
     0
 42
0.00000001
 43
0.00000001
 12
1.0
 22
0.0
 32
0.0
 13
1.0
 23
0.0
 33
0.0
 40
0.0
 40
0.0
 40
0.0
 40
0.0
 40
0.1197214736228125
 40
0.1848088471312837
 40
0.2499999532894484
 40
0.3150873734734558
 40
0.3802785263772207
 40
0.5000000000000369
 40
0.6197214736228531
 40
0.6848088471315246
 40
0.7499999532894798
 40
0.8150873734718369
 40
0.8802785263771847
 40
1.0
 40
1.0
 40
1.0
 40
1.0
 10
532.9808440125101
 20
297.692242487532
 30
0.0
 10
532.7733656065343
 20
297.7144030769269
 30
0.0
 10
532.4530901884932
 20
297.7486114177856
 30
0.0
 10
532.0684439567756
 20
297.9540196271502
 30
0.0
 10
531.8063137386753
 20
298.1671717025504
 30
0.0
 10
531.5916403659558
 20
298.4297604002767
 30
0.0
 10
531.3926986951063
 20
298.8142732631671
 30
0.0
 10
531.2907963212855
 20
299.3422416175617
 30
0.0
 10
531.392663813459
 20
299.8700345353155
 30
0.0
 10
531.5915411881201
 20
300.2545670409289
 30
0.0
 10
531.8060617665826
 20
300.517061718678
 30
0.0
 10
532.0682864014096
 20
300.7303671385169
 30
0.0
 10
532.4529127878449
 20
300.935849080878
 30
0.0
 10
532.7733665693838
 20
300.970079828316
 30
0.0
 10
532.9808440125101
 20
300.9922424875321
 30
0.0
  0
LINE
  5
23C
330
1F
100
AcDbEntity
  8
0
  6
Continuous
 62
     7
370
    15
100
AcDbLine
 10
537.9808440125
 20
195.1477016535
 30
0.0
 11
537.9808440125
 21
195.156927531
 31
0.0
  0
LINE
  5
23D
330
1F
100
AcDbEntity
  8
0
  6
Continuous
 62
     7
370
    15
100
AcDbLine
 10
527.9808440125
 20
195.156927531
 30
0.0
 11
527.9808440125
 21
195.1477016535
 31
0.0
  0
LINE
  5
23E
330
1F
100
AcDbEntity
  8
0
  6
Continuous
 62
     7
370
    15
100
AcDbLine
 10
527.9808440125
 20
195.1477016535
 30
0.0
 11
528.7808440125
 21
194.3477016535
 31
0.0
  0
LINE
  5
23F
330
1F
100
AcDbEntity
  8
0
  6
Continuous
 62
     7
370
    15
100
AcDbLine
 10
528.7808440125
 20
194.3477016535
 30
0.0
 11
537.1808440125
 21
194.3477016535
 31
0.0
  0
LINE
  5
240
330
1F
100
AcDbEntity
  8
0
  6
Continuous
 62
     7
370
    15
100
AcDbLine
 10
537.9808440125
 20
195.1477016535
 30
0.0
 11
537.1808440125
 21
194.3477016535
 31
0.0
  0
SPLINE
  5
241
330
1F
100
AcDbEntity
  8
0
  6
Continuous
 62
     7
370
    15
100
AcDbSpline
210
0.0
220
0.0
230
1.0
 70
     8
 71
     3
 72
    19
 73
    15
 74
     0
 42
0.00000001
 43
0.00000001
 12
1.0
 22
0.0
 32
0.0
 13
1.0
 23
0.0
 33
0.0
 40
0.0
 40
0.0
 40
0.0
 40
0.0
 40
0.1197214736228197
 40
0.1848088471296702
 40
0.2499999532894164
 40
0.3150873734716446
 40
0.3802785263772257
 40
0.500000000000046
 40
0.6197214736228636
 40
0.6848088471307148
 40
0.7499999532893977
 40
0.8150873734705152
 40
0.8802785263771802
 40
1.0
 40
1.0
 40
1.0
 40
1.0
 10
532.9808440125101
 20
201.0031608195185
 30
0.0
 10
533.1883224184861
 20
200.981000230124
 30
0.0
 10
533.5085978365247
 20
200.946791889266
 30
0.0
 10
533.8932440682414
 20
200.7413836799004
 30
0.0
 10
534.1553742863409
 20
200.5282316045044
 30
0.0
 10
534.3700476590639
 20
200.2656429067773
 30
0.0
 10
534.5689893299129
 20
199.8811300438862
 30
0.0
 10
534.6708917037344
 20
199.3531616894894
 30
0.0
 10
534.5690242115633
 20
198.8253687717356
 30
0.0
 10
534.3701468368978
 20
198.4408362661249
 30
0.0
 10
534.1556262584404
 20
198.178341588375
 30
0.0
 10
533.8934016236141
 20
197.9650361685325
 30
0.0
 10
533.508775237177
 20
197.7595542261741
 30
0.0
 10
533.1883214556362
 20
197.725323478735
 30
0.0
 10
532.9808440125101
 20
197.7031608195185
 30
0.0
  0
SPLINE
  5
242
330
1F
100
AcDbEntity
  8
0
  6
Continuous
 62
     7
370
    15
100
AcDbSpline
210
0.0
220
0.0
230
1.0
 70
     8
 71
     3
 72
    19
 73
    15
 74
     0
 42
0.00000001
 43
0.00000001
 12
1.0
 22
0.0
 32
0.0
 13
1.0
 23
0.0
 33
0.0
 40
0.0
 40
0.0
 40
0.0
 40
0.0
 40
0.1197214736228206
 40
0.1848088471303015
 40
0.2499999532894265
 40
0.3150873734719145
 40
0.3802785263772211
 40
0.5000000000000447
 40
0.6197214736228659
 40
0.684808847131282
 40
0.7499999532894457
 40
0.8150873734707693
 40
0.8802785263771794
 40
1.0
 40
1.0
 40
1.0
 40
1.0
 10
532.9808440125101
 20
197.7031608195185
 30
0.0
 10
532.7733656065341
 20
197.725321408913
 30
0.0
 10
532.4530901884946
 20
197.7595297497712
 30
0.0
 10
532.0684439567779
 20
197.964937959137
 30
0.0
 10
531.8063137386781
 20
198.1780900345337
 30
0.0
 10
531.5916403659569
 20
198.4406787322606
 30
0.0
 10
531.392698695107
 20
198.825191595151
 30
0.0
 10
531.2907963212858
 20
199.3531599495478
 30
0.0
 10
531.3926638134578
 20
199.880952867302
 30
0.0
 10
531.5915411881218
 20
200.2654853729137
 30
0.0
 10
531.8060617665809
 20
200.527980050663
 30
0.0
 10
532.0682864014078
 20
200.7412854705029
 30
0.0
 10
532.4529127878433
 20
200.9467674128639
 30
0.0
 10
532.7733665693839
 20
200.9809981603023
 30
0.0
 10
532.9808440125101
 20
201.0031608195185
 30
0.0
  0
LINE
  5
243
330
1F
100
AcDbEntity
  8
0
  6
Continuous
 62
     7
370
    15
100
AcDbLine
 10
528.7808440125
 20
194.3567933141
 30
0.0
 11
528.7808440125
 21
304.338609993
 31
0.0
  0
LINE
  5
244
330
1F
100
AcDbEntity
  8
0
  6
Continuous
 62
     7
370
    15
100
AcDbLine
 10
527.9808440125
 20
195.156927531
 30
0.0
 11
528.7808440125
 21
194.3567933141
 31
0.0
  0
LINE
  5
245
330
1F
100
AcDbEntity
  8
0
  6
Continuous
 62
     7
370
    15
100
AcDbLine
 10
527.9808440125
 20
303.5384757761
 30
0.0
 11
527.9808440125
 21
195.156927531
 31
0.0
  0
LINE
  5
246
330
1F
100
AcDbEntity
  8
0
  6
Continuous
 62
     7
370
    15
100
AcDbLine
 10
528.7808440125
 20
304.338609993
 30
0.0
 11
527.9808440125
 21
303.5384757761
 31
0.0
  0
LINE
  5
247
330
1F
100
AcDbEntity
  8
0
  6
Continuous
 62
     7
370
    15
100
AcDbLine
 10
536.4808440125
 20
194.7949748656
 30
0.0
 11
529.4808440125
 21
194.7949748656
 31
0.0
  0
LINE
  5
248
330
1F
100
AcDbEntity
  8
0
  6
Continuous
 62
     7
370
    15
100
AcDbLine
 10
536.4808440125
 20
199.3531608195
 30
0.0
 11
536.4808440125
 21
194.7949748656
 31
0.0
  0
SPLINE
  5
249
330
1F
100
AcDbEntity
  8
0
  6
Continuous
 62
     7
370
    15
100
AcDbSpline
210
0.0
220
0.0
230
1.0
 70
     8
 71
     3
 72
    20
 73
    16
 74
     0
 42
0.00000001
 43
0.00000001
 12
1.0
 22
0.0
 32
0.0
 13
1.0
 23
0.0
 33
0.0
 40
0.0
 40
0.0
 40
0.0
 40
0.0
 40
0.1409296696826406
 40
0.2810227121936014
 40
0.348325961046319
 40
0.4160482144409871
 40
0.4580362164540765
 40
0.499969569758401
 40
0.5375541003874045
 40
0.5749610342068621
 40
0.6373237421805543
 40
0.7436664884028436
 40
0.846798052667326
 40
0.9501848502349783
 40
1.0
 40
1.0
 40
1.0
 40
1.0
 10
529.4808440125103
 20
199.3531608195185
 30
0.0
 10
529.506218617711
 20
199.7097189322691
 30
0.0
 10
529.5568171920951
 20
200.4207184551193
 30
0.0
 10
530.0625529202784
 20
201.3868506768673
 30
0.0
 10
530.7859815989826
 20
202.1211638064465
 30
0.0
 10
531.4664281802011
 20
202.5452743825878
 30
0.0
 10
532.23637065002
 20
202.798075192333
 30
0.0
 10
532.9552645358871
 20
202.877727207547
 30
0.0
 10
533.6462586653552
 20
202.8094069624289
 30
0.0
 10
534.3641423204095
 20
202.6000083675505
 30
0.0
 10
535.2072466653389
 20
202.1277643829224
 30
0.0
 10
535.8911302004477
 20
201.3844323951377
 30
0.0
 10
536.3179611217837
 20
200.5312950823952
 30
0.0
 10
536.4646004302546
 20
199.8564228389582
 30
0.0
 10
536.476858257151
 20
199.4766483150439
 30
0.0
 10
536.4808440125104
 20
199.3531608195185
 30
0.0
  0
LINE
  5
24A
330
1F
100
AcDbEntity
  8
0
  6
Continuous
 62
     7
370
    15
100
AcDbLine
 10
529.4808440125
 20
194.7949748656
 30
0.0
 11
529.4808440125
 21
199.3531608195
 31
0.0
  0
LINE
  5
24B
330
1F
100
AcDbEntity
  8
0
  6
Continuous
 62
     7
370
    15
100
AcDbLine
 10
537.1808440125
 20
304.338609993
 30
0.0
 11
528.7808440125
 21
304.338609993
 31
0.0
  0
LINE
  5
24C
330
1F
100
AcDbEntity
  8
0
  6
Continuous
 62
     7
370
    15
100
AcDbLine
 10
537.1808440125
 20
194.3567933141
 30
0.0
 11
537.1808440125
 21
304.338609993
 31
0.0
  0
LINE
  5
24D
330
1F
100
AcDbEntity
  8
0
  6
Continuous
 62
     7
370
    15
100
AcDbLine
 10
528.7808440125
 20
194.3567933141
 30
0.0
 11
537.1808440125
 21
194.3567933141
 31
0.0
  0
LINE
  5
24E
330
1F
100
AcDbEntity
  8
0
  6
Continuous
 62
     7
370
    15
100
AcDbLine
 10
529.4808440125
 20
299.3422424875
 30
0.0
 11
529.4808440125
 21
303.9004284415
 31
0.0
  0
SPLINE
  5
24F
330
1F
100
AcDbEntity
  8
0
  6
Continuous
 62
     7
370
    15
100
AcDbSpline
210
0.0
220
0.0
230
1.0
 70
     8
 71
     3
 72
    18
 73
    14
 74
     0
 42
0.00000001
 43
0.00000001
 12
1.0
 22
0.0
 32
0.0
 13
1.0
 23
0.0
 33
0.0
 40
0.0
 40
0.0
 40
0.0
 40
0.0
 40
0.141014102239166
 40
0.2811910760738651
 40
0.3769389485435171
 40
0.4281935801823771
 40
0.4705396688372133
 40
0.5131962481210104
 40
0.5494195392198946
 40
0.5990193158284063
 40
0.6761393175477919
 40
0.8165355524222624
 40
1.0
 40
1.0
 40
1.0
 40
1.0
 10
536.4808440125101
 20
299.3422424875321
 30
0.0
 10
536.4552810754412
 20
298.98541524005
 30
0.0
 10
536.4043069553508
 20
298.2738790454517
 30
0.0
 10
535.85986375626
 20
297.2325948263907
 30
0.0
 10
535.0530990092715
 20
296.4623506234576
 30
0.0
 10
534.2426748711417
 20
296.050354522938
 30
0.0
 10
533.5126817215697
 20
295.856007320163
 30
0.0
 10
532.7810721775177
 20
295.8239874651139
 30
0.0
 10
532.0459554754466
 20
295.9438293142226
 30
0.0
 10
531.257953643697
 20
296.2490625119845
 30
0.0
 10
530.3455632336372
 20
296.9245656909481
 30
0.0
 10
529.6110419099865
 20
298.0500476737845
 30
0.0
 10
529.5279275964338
 20
298.8749449033319
 30
0.0
 10
529.4808440125101
 20
299.3422424875321
 30
0.0
  0
LINE
  5
250
330
1F
100
AcDbEntity
  8
0
  6
Continuous
 62
     7
370
    15
100
AcDbLine
 10
536.4808440125
 20
303.9004284415
 30
0.0
 11
536.4808440125
 21
299.3422424875
 31
0.0
  0
LINE
  5
251
330
1F
100
AcDbEntity
  8
0
  6
Continuous
 62
     7
370
    15
100
AcDbLine
 10
529.4808440125
 20
303.9004284415
 30
0.0
 11
536.4808440125
 21
303.9004284415
 31
0.0
  0
LINE
  5
252
330
1F
100
AcDbEntity
  8
0
  6
Continuous
 62
     7
370
    15
100
AcDbLine
 10
537.9808440125
 20
303.5384757761
 30
0.0
 11
537.1808440125
 21
304.338609993
 31
0.0
  0
LINE
  5
253
330
1F
100
AcDbEntity
  8
0
  6
Continuous
 62
     7
370
    15
100
AcDbLine
 10
537.9808440125
 20
303.5384757761
 30
0.0
 11
537.9808440125
 21
195.156927531
 31
0.0
  0
LINE
  5
254
330
1F
100
AcDbEntity
  8
0
  6
Continuous
 62
     7
370
    15
100
AcDbLine
 10
537.1808440125
 20
194.3567933141
 30
0.0
 11
537.9808440125
 21
195.156927531
 31
0.0
  0
CIRCLE
  5
255
330
1F
100
AcDbEntity
  8
0
  6
Continuous
 62
     7
370
    15
100
AcDbCircle
 10
532.9808440125
 20
299.3422424875
 30
0.0
 40
2.25
  0
CIRCLE
  5
256
330
1F
100
AcDbEntity
  8
0
  6
Continuous
 62
     7
370
    15
100
AcDbCircle
 10
532.9808440125
 20
199.3531608195
 30
0.0
 40
2.25
  0
DIMENSION
  5
257
330
1F
100
AcDbEntity
  8
RIQUADRO
100
AcDbDimension
  2
_D_5
 10
77.4808440125
 20
173.3477016535
 30
0.1
 11
77.4808440125
 21
162.1361188389
 31
0.0
 70
   102
  1
<>
 71
     5
 42
-1.0
  3
SLDDIMSTYLE1
100
AcDbOrdinateDimension
 13
77.4808440125
 23
173.3477016535
 33
0.1
 14
77.4808440125
 24
166.2371605433
 34
0.1
  0
DIMENSION
  5
264
330
1F
100
AcDbEntity
  8
RIQUADRO
100
AcDbDimension
  2
_D_6
 10
77.4808440125
 20
173.3477016535
 30
0.1
 11
127.4808440125
 21
160.1811419039
 31
0.0
 70
   102
  1
<>
 71
     5
 42
-1.0
  3
SLDDIMSTYLE2
100
AcDbOrdinateDimension
 13
127.4808440125
 23
173.3477016535
 33
0.1
 14
127.4808440125
 24
166.2371605433
 34
0.1
  0
DIMENSION
  5
26D
330
1F
100
AcDbEntity
  8
RIQUADRO
100
AcDbDimension
  2
_D_7
 10
77.4808440125
 20
173.3477016535
 30
0.1
 11
198.8816098425
 21
158.226164969
 31
0.0
 70
   102
  1
<>
 71
     5
 42
-1.0
  3
SLDDIMSTYLE2
100
AcDbOrdinateDimension
 13
213.4808440125
 23
249.3477016535
 33
0.1
 14
198.8816098425
 24
166.2371605433
 34
0.1
  0
DIMENSION
  5
277
330
1F
100
AcDbEntity
  8
RIQUADRO
100
AcDbDimension
  2
_D_8
 10
77.4808440125
 20
173.3477016535
 30
0.1
 11
220.7470652937
 21
153.3411722428
 31
0.0
 70
   102
  1
<>
 71
     5
 42
-1.0
  3
SLDDIMSTYLE2
100
AcDbOrdinateDimension
 13
219.5213375642
 23
206.8477016535
 33
0.1
 14
220.7470652937
 24
166.2371605433
 34
0.1
  0
DIMENSION
  5
281
330
1F
100
AcDbEntity
  8
RIQUADRO
100
AcDbDimension
  2
_D_9
 10
77.4808440125
 20
173.3477016535
 30
0.1
 11
238.4808440125
 21
158.226164969
 31
0.0
 70
   102
  1
<>
 71
     5
 42
-1.0
  3
SLDDIMSTYLE2
100
AcDbOrdinateDimension
 13
238.4808440125
 23
274.3477016535
 33
0.1
 14
238.4808440125
 24
166.2371605433
 34
0.1
  0
DIMENSION
  5
289
330
1F
100
AcDbEntity
  8
RIQUADRO
100
AcDbDimension
  2
_D_10
 10
77.4808440125
 20
173.3477016535
 30
0.1
 11
288.4808440125
 21
158.226164969
 31
0.0
 70
   102
  1
<>
 71
     5
 42
-1.0
  3
SLDDIMSTYLE2
100
AcDbOrdinateDimension
 13
288.4808440125
 23
274.3477016535
 33
0.1
 14
288.4808440125
 24
166.2371605433
 34
0.1
  0
DIMENSION
  5
291
330
1F
100
AcDbEntity
  8
RIQUADRO
100
AcDbDimension
  2
_D_11
 10
77.4808440125
 20
173.3477016535
 30
0.1
 11
338.4808440125
 21
158.226164969
 31
0.0
 70
   102
  1
<>
 71
     5
 42
-1.0
  3
SLDDIMSTYLE2
100
AcDbOrdinateDimension
 13
338.4808440125
 23
274.3477016535
 33
0.1
 14
338.4808440125
 24
166.2371605433
 34
0.1
  0
DIMENSION
  5
299
330
1F
100
AcDbEntity
  8
RIQUADRO
100
AcDbDimension
  2
_D_12
 10
77.4808440125
 20
173.3477016535
 30
0.1
 11
388.4808440125
 21
158.226164969
 31
0.0
 70
   102
  1
<>
 71
     5
 42
-1.0
  3
SLDDIMSTYLE2
100
AcDbOrdinateDimension
 13
388.4808440125
 23
274.3477016535
 33
0.1
 14
388.4808440125
 24
166.2371605433
 34
0.1
  0
DIMENSION
  5
2A1
330
1F
100
AcDbEntity
  8
RIQUADRO
100
AcDbDimension
  2
_D_13
 10
77.4808440125
 20
173.3477016535
 30
0.1
 11
563.4808440125
 21
158.226164969
 31
0.0
 70
   102
  1
<>
 71
     5
 42
-1.0
  3
SLDDIMSTYLE2
100
AcDbOrdinateDimension
 13
563.4808440125
 23
191.3477016535
 33
0.1
 14
563.4808440125
 24
166.2371605433
 34
0.1
  0
DIMENSION
  5
2A9
330
1F
100
AcDbEntity
  8
RIQUADRO
100
AcDbDimension
  2
_D_14
 10
57.4808440125
 20
325.3477016535
 30
0.0
 11
57.4808440125
 21
255.6396040554
 31
0.0
 70
   160
  1
<>
 71
     2
 42
-1.0
  3
SLDDIMSTYLE0
100
AcDbAlignedDimension
 13
77.4808440125
 23
173.3477016535
 33
0.0
 14
77.4808440125
 24
325.3477016535
 34
0.0
 50
90.0
100
AcDbRotatedDimension
  0
DIMENSION
  5
2B3
330
1F
100
AcDbEntity
  8
RIQUADRO
100
AcDbDimension
  2
_D_15
 10
583.4808440125
 20
191.3477016535
 30
0.0
 11
583.4808440125
 21
242.2899377358
 31
0.0
 70
   160
  1
<>
 71
     2
 42
-1.0
  3
SLDDIMSTYLE0
100
AcDbAlignedDimension
 13
563.4808440125
 23
307.3477016535
 33
0.0
 14
563.4808440125
 24
191.3477016535
 34
0.0
 50
90.0
100
AcDbRotatedDimension
  0
DIMENSION
  5
2BD
330
1F
100
AcDbEntity
  8
RIQUADRO
100
AcDbDimension
  2
_D_16
 10
219.5213375642
 20
291.8477016535
 30
0.0
 11
225.9219032927
 21
302.7569026867
 31
0.0
 70
   162
  1
<>
 71
     1
 42
-1.0
  3
SLDDIMSTYLE3
100
AcDb2LineAngularDimension
 13
219.5213375642
 23
291.8477016535
 33
0.0
 14
347.9808440125
 24
291.8477016535
 34
0.0
 15
127.4808440125
 25
325.3477016535
 35
0.0
 16
221.717680936
 26
304.3037838875
 36
0.0
  0
DIMENSION
  5
2C6
330
1F
100
AcDbEntity
  8
RIQUADRO
100
AcDbDimension
  2
_D_17
 10
363.4808440125
 20
307.3477016535
 30
0.0
 11
342.1942619756
 21
306.4132661672
 31
0.0
 70
   162
  1
<>
 71
     1
 42
-1.0
  3
SLDDIMSTYLE3
100
AcDb2LineAngularDimension
 13
219.5213375642
 23
291.8477016535
 33
0.0
 14
347.9808440125
 24
291.8477016535
 34
0.0
 15
347.9808440125
 25
291.8477016535
 35
0.0
 16
341.9830798782
 26
306.3275851704
 36
0.0
  0
DIMENSION
  5
2CE
330
1F
100
AcDbEntity
  8
RIQUADRO
100
AcDbDimension
  2
_D_18
 10
236.532286854
 20
275.4727016535
 30
0.0
 11
266.9662232309
 21
257.9016918409
 31
0.0
 70
   163
  1
M 5
 71
     1
 42
-1.0
  3
SLDDIMSTYLE4
100
AcDbDiametricDimension
 15
240.429401171
 25
273.2227016535
 35
0.0
 40
0.0
  0
DIMENSION
  5
2DB
330
1F
100
AcDbEntity
  8
RIQUADRO
100
AcDbDimension
  2
_D_19
 10
336.532286854
 20
275.4727016535
 30
0.0
 11
357.0063606749
 21
263.6520211686
 31
0.0
 70
   163
  1
M 5
 71
     1
 42
-1.0
  3
SLDDIMSTYLE4
100
AcDbDiametricDimension
 15
340.429401171
 25
273.2227016535
 35
0.0
 40
0.0
  0
DIMENSION
  5
2E3
330
1F
100
AcDbEntity
  8
RIQUADRO
100
AcDbDimension
  2
_D_20
 10
285.2637731447
 20
276.724770233
 30
0.0
 11
312.3211456794
 21
256.7323234213
 31
0.0
 70
   163
  1
<>
 71
     1
 42
-1.0
  3
SLDDIMSTYLE5
100
AcDbDiametricDimension
 15
291.6979148803
 25
271.970633074
 35
0.0
 40
0.0
  0
DIMENSION
  5
2F2
330
1F
100
AcDbEntity
  8
RIQUADRO
100
AcDbDimension
  2
_D_21
 10
384.4808440125
 20
274.3477016535
 30
0.0
 11
422.3384590264
 21
274.3477216535
 31
0.0
 70
   163
  1
<>
 71
     1
 42
-1.0
  3
SLDDIMSTYLE5
100
AcDbDiametricDimension
 15
392.4808440125
 25
274.3477016535
 35
0.0
 40
0.0
  0
DIMENSION
  5
300
330
1F
100
AcDbEntity
  8
RIQUADRO
100
AcDbDimension
  2
_D_22
 10
215.4770262518
 20
249.2241845794
 30
0.0
 11
187.069085384
 21
250.9819940935
 31
0.0
 70
   163
  1
<>F6
 71
     1
 42
-1.0
  3
SLDDIMSTYLE6
100
AcDbDiametricDimension
 15
211.4846617732
 25
249.4712187277
 35
0.0
 40
0.0
  0
DIMENSION
  5
30F
330
1F
100
AcDbEntity
  8
RIQUADRO
100
AcDbDimension
  2
_D_23
 10
411.5489923599
 20
249.8653397437
 30
0.0
 11
445.1258669518
 21
240.8684686715
 31
0.0
 70
   163
  1
<>\SF6^ ;
 71
     1
 42
-1.0
  3
SLDDIMSTYLE6
100
AcDbDiametricDimension
 15
415.4126956651
 25
248.8300635633
 35
0.0
 40
0.0
  0
DIMENSION
  5
320
330
1F
100
AcDbEntity
  8
RIQUADRO
100
AcDbDimension
  2
_D_24
 10
162.862468634
 20
224.3477016535
 30
0.0
 11
162.862468634
 21
250.9819740935
 31
0.0
 70
   160
  1
<>
 71
     2
 42
-1.0
  3
SLDDIMSTYLE0
100
AcDbAlignedDimension
 13
388.4808440125
 23
274.3477016535
 33
0.0
 14
388.4808440125
 24
224.3477016535
 34
0.0
 50
90.0
100
AcDbRotatedDimension
  0
DIMENSION
  5
32A
330
1F
100
AcDbEntity
  8
RIQUADRO
100
AcDbDimension
  2
_D_25
 10
136.6999822747
 20
206.8477016535
 30
0.0
 11
136.6999822747
 21
245.8472436833
 31
0.0
 70
   160
  1
<>
 71
     2
 42
-1.0
  3
SLDDIMSTYLE0
100
AcDbAlignedDimension
 13
219.5213375642
 23
291.8477016535
 33
0.0
 14
219.5213375642
 24
206.8477016535
 34
0.0
 50
90.0
100
AcDbRotatedDimension
  0
LINE
  5
334
330
1F
100
AcDbEntity
  8
0
  6
Continuous
 62
     7
370
    15
100
AcDbLine
 10
647.1678856315
 20
245.9246330868
 30
0.0
 11
646.8850888889
 21
246.087941247
 31
0.0
  0
LINE
  5
335
330
1F
100
AcDbEntity
  8
0
  6
Continuous
 62
     7
370
    15
100
AcDbLine
 10
632.28291959
 20
247.5355138998
 30
0.0
 11
630.0201778902
 21
246.2292609209
 31
0.0
  0
LINE
  5
336
330
1F
100
AcDbEntity
  8
0
  6
Continuous
 62
     7
370
    15
100
AcDbLine
 10
767.375220169
 20
309.5060244617
 30
0.0
 11
767.148982775
 21
309.6366709899
 31
0.0
  0
LINE
  5
337
330
1F
100
AcDbEntity
  8
0
  6
Continuous
 62
     7
370
    15
100
AcDbLine
 10
756.1473483717
 20
310.7273079201
 30
0.0
 11
753.7714695869
 21
309.3557422922
 31
0.0
  0
LINE
  5
338
330
1F
100
AcDbEntity
  8
0
  6
Continuous
 62
     7
370
    15
100
AcDbLine
 10
626.7999005008
 20
233.8398292262
 30
0.0
 11
626.7999005008
 21
211.6299191429
 31
0.0
  0
LINE
  5
339
330
1F
100
AcDbEntity
  8
0
  6
Continuous
 62
     7
370
    15
100
AcDbLine
 10
626.7999005008
 20
233.8398292262
 30
0.0
 11
626.2342150759
 21
233.8398292262
 31
0.0
  0
LINE
  5
33A
330
1F
100
AcDbEntity
  8
0
  6
Continuous
 62
     7
370
    15
100
AcDbLine
 10
626.2342150759
 20
233.8398292262
 30
0.0
 11
626.2342150759
 21
211.3033028181
 31
0.0
  0
LINE
  5
33B
330
1F
100
AcDbEntity
  8
0
  6
Continuous
 62
     7
370
    15
100
AcDbLine
 10
626.2342150759
 20
211.3033028181
 30
0.0
 11
626.7999005008
 21
211.6299191429
 31
0.0
  0
LINE
  5
33C
330
1F
100
AcDbEntity
  8
0
  6
Continuous
 62
     7
370
    15
100
AcDbLine
 10
623.9714733761
 20
232.5335762473
 30
0.0
 11
626.2342150759
 21
233.8398292262
 31
0.0
  0
LINE
  5
33D
330
1F
100
AcDbEntity
  8
0
  6
Continuous
 62
     7
370
    15
100
AcDbLine
 10
623.9714733761
 20
232.5335762471
 30
0.0
 11
623.9714733761
 21
209.9970498391
 31
0.0
  0
LINE
  5
33E
330
1F
100
AcDbEntity
  8
0
  6
Continuous
 62
     7
370
    15
100
AcDbLine
 10
626.2342150759
 20
211.3033028181
 30
0.0
 11
623.9714733761
 21
209.9970498392
 31
0.0
  0
LWPOLYLINE
  5
33F
330
1F
100
AcDbEntity
  8
0
  6
Continuous
 62
     7
370
    15
100
AcDbPolyline
 90
       22
 70
   128
 43
0.0
 10
632.1293143465
 20
220.3115017083
 10
632.079050714
 20
219.9554308786
 10
631.9327259609
 20
219.6890316595
 10
631.7033416837
 20
219.5359747907
 10
631.4112796819
 20
219.5098600467
 10
631.0824909461
 20
219.613007837
 10
630.7461897985
 20
219.8362530279
 10
630.4322580717
 20
220.1597593044
 10
630.1685899774
 20
220.5547817142
 10
629.9786135828
 20
220.9862207826
 10
629.8792091243
 20
221.4157412551
 10
629.8792091243
 20
221.8051783528
 10
629.9786135828
 20
222.1199288805
 10
630.1685899774
 20
222.3320258726
 10
630.4322580717
 20
222.4226235806
 10
630.7461897985
 20
222.3836720005
 10
631.0824909461
 20
222.2186321511
 10
631.4112796819
 20
221.9421685474
 10
631.7033416837
 20
221.5788461938
 10
631.9327259609
 20
221.1609478757
 10
632.079050714
 20
220.7256056928
 10
632.1293143465
 20
220.3115017083
  0
LWPOLYLINE
  5
340
330
1F
100
AcDbEntity
  8
0
  6
Continuous
 62
     7
370
    15
100
AcDbPolyline
 90
        3
 70
   128
 43
0.0
 10
634.4760282166
 20
214.8265536461
 10
634.2945917334
 20
215.1401441475
 10
633.3731681832
 20
216.8321102036
  0
ARC
  5
341
330
1F
100
AcDbEntity
  8
0
  6
Continuous
 62
     7
370
    15
100
AcDbCircle
 10
635.5741701461
 20
218.2059962164
 30
0.0
 40
2.594604481720948
100
AcDbArc
 50
160.5219073783
 51
211.97279585
  0
LINE
  5
342
330
1F
100
AcDbEntity
  8
0
  6
Continuous
 62
     7
370
    15
100
AcDbLine
 10
633.1280573302
 20
219.071157767
 30
0.0
 11
633.3460737995
 21
219.4851949643
 31
0.0
  0
LINE
  5
343
330
1F
100
AcDbEntity
  8
0
  6
Continuous
 62
     7
370
    15
100
AcDbLine
 10
633.3460737995
 20
219.4851949643
 30
0.0
 11
632.0790988337
 21
222.7506912433
 31
0.0
  0
LINE
  5
344
330
1F
100
AcDbEntity
  8
0
  6
Continuous
 62
     7
370
    15
100
AcDbLine
 10
632.0790988337
 20
222.7506912433
 30
0.0
 11
631.5651909636
 21
223.0992833754
 31
0.0
  0
ARC
  5
345
330
1F
100
AcDbEntity
  8
0
  6
Continuous
 62
     7
370
    15
100
AcDbCircle
 10
633.8301557671
 20
226.2000366474
 30
0.0
 40
3.839887552427804
100
AcDbArc
 50
194.6242015779
 51
233.8535037704
  0
ARC
  5
346
330
1F
100
AcDbEntity
  8
0
  6
Continuous
 62
     7
370
    15
100
AcDbCircle
 10
659.6765372201
 20
233.2071889566
 30
0.0
 40
30.61912382313974
100
AcDbArc
 50
181.2629816023
 51
195.1004263779
  0
LINE
  5
347
330
1F
100
AcDbEntity
  8
0
  6
Continuous
 62
     7
370
    15
100
AcDbLine
 10
626.7999005008
 20
233.8398292262
 30
0.0
 11
629.0648520442
 21
232.5323005317
 31
0.0
  0
LINE
  5
348
330
1F
100
AcDbEntity
  8
0
  6
Continuous
 62
     7
370
    15
100
AcDbLine
 10
626.7999005008
 20
211.6299191429
 30
0.0
 11
626.7999464744
 21
211.6298926029
 31
0.0
  0
ARC
  5
349
330
1F
100
AcDbEntity
  8
0
  6
Continuous
 62
     7
370
    15
100
AcDbCircle
 10
628.3467149909
 20
219.4341065595
 30
0.0
 40
2.520456871777453
100
AcDbArc
 50
7.3709147769
 51
52.6237086904
  0
LINE
  5
34A
330
1F
100
AcDbEntity
  8
0
  6
Continuous
 62
     7
370
    15
100
AcDbLine
 10
633.1015571706
 20
218.6218587154
 30
0.0
 11
633.1280573302
 21
219.071157767
 31
0.0
  0
ARC
  5
34B
330
1F
100
AcDbEntity
  8
0
  6
Continuous
 62
     7
370
    15
100
AcDbCircle
 10
634.2197886146
 20
218.0684915925
 30
0.0
 40
1.247660504760086
100
AcDbArc
 50
153.671069737
 51
175.7808784637
  0
LINE
  5
34C
330
1F
100
AcDbEntity
  8
0
  6
Continuous
 62
     7
370
    15
100
AcDbLine
 10
633.3817993596
 20
219.1540693823
 30
0.0
 11
633.3460737995
 21
219.4851949643
 31
0.0
  0
LINE
  5
34D
330
1F
100
AcDbEntity
  8
0
  6
Continuous
 62
     7
370
    15
100
AcDbLine
 10
633.3817993596
 20
219.1540693823
 30
0.0
 11
633.1015571706
 21
218.6218587154
 31
0.0
  0
LINE
  5
34E
330
1F
100
AcDbEntity
  8
0
  6
Continuous
 62
     7
370
    15
100
AcDbLine
 10
626.2361524456
 20
234.4919434559
 30
0.0
 11
626.8018647811
 21
234.4919279208
 31
0.0
  0
LINE
  5
34F
330
1F
100
AcDbEntity
  8
0
  6
Continuous
 62
     7
370
    15
100
AcDbLine
 10
626.8018647811
 20
234.4919279208
 30
0.0
 11
629.0648520442
 21
233.1855331812
 31
0.0
  0
LINE
  5
350
330
1F
100
AcDbEntity
  8
0
  6
Continuous
 62
     7
370
    15
100
AcDbLine
 10
629.0648871255
 20
232.8589496845
 30
0.0
 11
629.0648520442
 21
233.1855331812
 31
0.0
  0
LINE
  5
351
330
1F
100
AcDbEntity
  8
0
  6
Continuous
 62
     7
370
    15
100
AcDbLine
 10
629.0648871255
 20
232.8589496845
 30
0.0
 11
628.7819524657
 21
232.6956149821
 31
0.0
  0
LINE
  5
352
330
1F
100
AcDbEntity
  8
0
  6
Continuous
 62
     7
370
    15
100
AcDbLine
 10
623.9734376563
 20
232.8591116972
 30
0.0
 11
624.2544080358
 21
232.6969109497
 31
0.0
  0
LINE
  5
353
330
1F
100
AcDbEntity
  8
0
  6
Continuous
 62
     7
370
    15
100
AcDbLine
 10
623.9734376563
 20
232.8591116972
 30
0.0
 11
623.9734107458
 21
233.185690477
 31
0.0
  0
LINE
  5
354
330
1F
100
AcDbEntity
  8
0
  6
Continuous
 62
     7
370
    15
100
AcDbLine
 10
623.9734107458
 20
233.185690477
 30
0.0
 11
626.2361524456
 21
234.4919434559
 31
0.0
  0
LWPOLYLINE
  5
355
330
1F
100
AcDbEntity
  8
0
  6
Continuous
 62
     7
370
    15
100
AcDbPolyline
 90
       24
 70
   128
 43
0.0
 10
626.2361524456
 20
234.4919434559
 10
626.3078439885
 20
236.1357112545
 10
626.4825554529
 20
237.7099333505
 10
626.7594120035
 20
239.2067271197
 10
627.1370273328
 20
240.6185976459
 10
627.6135106022
 20
241.93847525
 10
628.1864759105
 20
243.1597508907
 10
628.8530542404
 20
244.2763092572
 10
629.609907825
 20
245.2825593915
 10
630.4532468608
 20
246.1734626831
 10
631.3788484845
 20
246.9445580996
 10
632.3820779182
 20
247.5919845242
 10
633.4579116772
 20
248.1125000896
 10
634.6009627241
 20
248.5034984109
 10
635.8055074435
 20
248.7630216367
 10
637.0655143019
 20
248.8897702528
 10
638.3746740493
 20
248.8831095891
 10
639.7264313119
 20
248.7430729976
 10
641.1140174167
 20
248.4703616855
 10
642.5304842845
 20
248.0663412039
 10
643.9687392211
 20
247.5330346103
 10
645.4215804325
 20
246.8731123381
 10
646.8817330865
 20
246.0898788254
 10
646.8850888889
 20
246.087941247
  0
LWPOLYLINE
  5
356
330
1F
100
AcDbEntity
  8
0
  6
Continuous
 62
     7
370
    15
100
AcDbPolyline
 90
       39
 70
   128
 43
0.0
 10
665.1414321087
 20
223.0814866024
 10
664.9449985157
 20
223.6108991919
 10
664.1984494108
 20
225.4649937702
 10
663.3666271892
 20
227.3037956173
 10
662.4536960283
 20
229.1180995242
 10
661.4642261444
 20
230.8988229211
 10
660.4031709134
 20
232.6370513449
 10
659.2758420742
 20
234.3240830665
 10
658.0878831371
 20
235.9514726521
 10
656.8452411325
 20
237.5110732417
 10
655.5541368388
 20
238.9950773333
 10
654.2210336414
 20
240.3960558677
 10
652.8526051759
 20
241.7069954194
 10
651.4557019192
 20
242.9213333058
 10
650.0373168958
 20
244.0329904415
 10
648.6045506698
 20
245.03640177
 10
647.164575799
 20
245.926544123
 10
645.7246009282
 20
246.6989613672
 10
644.2918347022
 20
247.3497867119
 10
642.8734496788
 20
247.8757620662
 10
641.4765464221
 20
248.2742543499
 10
640.1081179566
 20
248.5432686743
 10
638.7750147592
 20
248.6814583295
 10
637.4839104655
 20
248.6881315254
 10
636.2412684609
 20
248.5632548554
 10
635.0533095238
 20
248.3074534635
 10
633.9259806846
 20
247.9220079146
 10
632.8649254536
 20
247.4088477841
 10
631.8754555697
 20
246.7705419982
 10
630.9625244088
 20
246.0102859736
 10
630.1307021871
 20
245.1318856209
 10
629.3841530823
 20
244.139738292
 10
628.7266143868
 20
243.0388107663
 10
628.1613777989
 20
241.8346143871
 10
627.6912729444
 20
240.5331774706
 10
627.3186532108
 20
239.1410151281
 10
627.0453839663
 20
237.6650966507
 10
626.8728332215
 20
236.11281062
 10
626.8018647811
 20
234.4919279208
  0
LINE
  5
357
330
1F
100
AcDbEntity
  8
0
  6
Continuous
 62
     7
370
    15
100
AcDbLine
 10
646.0332049491
 20
244.1300481768
 30
0.0
 11
646.0332049491
 21
245.1098971511
 31
0.0
  0
LWPOLYLINE
  5
358
330
1F
100
AcDbEntity
  8
0
  6
Continuous
 62
     7
370
    15
100
AcDbPolyline
 90
       11
 70
   128
 43
0.0
 10
648.2959466489
 20
242.8237951979
 10
648.2405734181
 20
242.4520415036
 10
648.0798740435
 20
242.1806102225
 10
647.8295788994
 20
242.0360709395
 10
647.5141886185
 20
242.0325721667
 10
647.164575799
 20
242.1704563883
 10
646.8149629794
 20
242.4362265361
 10
646.4995726985
 20
242.8038671763
 10
646.2492775545
 20
243.2373910814
 10
646.0885781798
 20
243.6943619111
 10
646.0332049491
 20
244.1300481768
  0
LINE
  5
359
330
1F
100
AcDbEntity
  8
0
  6
Continuous
 62
     7
370
    15
100
AcDbLine
 10
648.2959466489
 20
243.8036441721
 30
0.0
 11
648.2959466489
 21
242.8237951979
 31
0.0
  0
LWPOLYLINE
  5
35A
330
1F
100
AcDbEntity
  8
0
  6
Continuous
 62
     7
370
    15
100
AcDbPolyline
 90
       11
 70
   128
 43
0.0
 10
646.0332049491
 20
245.1098971511
 10
646.0885781798
 20
245.4816508453
 10
646.2492775545
 20
245.7530821264
 10
646.4995726985
 20
245.8976214095
 10
646.8149629794
 20
245.9011201823
 10
647.164575799
 20
245.7632359606
 10
647.5141886185
 20
245.4974658128
 10
647.8295788994
 20
245.1298251727
 10
648.0798740435
 20
244.6963012675
 10
648.2405734181
 20
244.2393304378
 10
648.2959466489
 20
243.8036441721
  0
LINE
  5
35B
330
1F
100
AcDbEntity
  8
0
  6
Continuous
 62
     7
370
    15
100
AcDbLine
 10
648.4315507648
 20
240.9491228219
 30
0.0
 11
648.7274421656
 21
241.2662843447
 31
0.0
  0
LINE
  5
35C
330
1F
100
AcDbEntity
  8
0
  6
Continuous
 62
     7
370
    15
100
AcDbLine
 10
645.8976008332
 20
242.4119409804
 30
0.0
 11
648.4315507648
 21
240.9491228219
 31
0.0
  0
LINE
  5
35D
330
1F
100
AcDbEntity
  8
0
  6
Continuous
 62
     7
370
    15
100
AcDbLine
 10
645.6017094324
 20
243.0707314428
 30
0.0
 11
645.8976008332
 21
242.4119409804
 31
0.0
  0
ARC
  5
35E
330
1F
100
AcDbEntity
  8
0
  6
Continuous
 62
     7
370
    15
100
AcDbCircle
 10
642.4987748182
 20
241.8167928746
 30
0.0
 40
3.346724540891639
100
AcDbArc
 50
22.0043113123
 51
65.133734326
  0
LWPOLYLINE
  5
35F
330
1F
100
AcDbEntity
  8
0
  6
Continuous
 62
     7
370
    15
100
AcDbPolyline
 90
       19
 70
   128
 43
0.0
 10
629.0648520442
 20
233.1855331812
 10
629.1391435843
 20
234.7357837336
 10
629.3184411815
 20
236.2142321669
 10
629.6017003485
 20
237.6122658698
 10
629.9872709763
 20
238.9217406821
 10
630.4729069467
 20
240.1350283381
 10
631.0557792171
 20
241.2450609045
 10
631.7324923003
 20
242.2453719543
 10
632.4991040458
 20
243.1301342363
 10
633.3511486033
 20
243.8941936218
 10
634.2836624393
 20
244.5330991293
 10
635.2912132513
 20
245.0431288539
 10
636.3679316133
 20
245.4213116484
 10
637.5075451681
 20
245.6654444319
 10
638.7034151666
 20
245.7741050238
 10
639.9485751407
 20
245.7466604286
 10
641.235771487
 20
245.5832705228
 10
642.5575057215
 20
245.2848871246
 10
643.9060781621
 20
244.8532484483
  0
ARC
  5
360
330
1F
100
AcDbEntity
  8
0
  6
Continuous
 62
     7
370
    15
100
AcDbCircle
 10
623.8375186099
 20
208.8699488483
 30
0.0
 40
41.77310367291287
100
AcDbArc
 50
19.166231484
 51
50.474054802
  0
LWPOLYLINE
  5
361
330
1F
100
AcDbEntity
  8
0
  6
Continuous
 62
     7
370
    15
100
AcDbPolyline
 90
        9
 70
   128
 43
0.0
 10
648.7274421656
 20
241.2662843447
 10
648.8799063378
 20
241.395021403
 10
649.0575014143
 20
241.4820262407
 10
649.2566213625
 20
241.5255322419
 10
649.4732230919
 20
241.5246560261
 10
649.7029085476
 20
241.4794153845
 10
649.9410140126
 20
241.3907289195
 10
650.182704803
 20
241.2603973918
 10
650.4230734359
 20
241.091067157
  0
LINE
  5
362
330
1F
100
AcDbEntity
  8
0
  6
Continuous
 62
     7
370
    15
100
AcDbLine
 10
626.1879396044
 20
236.3161924629
 30
0.0
 11
624.2080406171
 21
235.1732211063
 31
0.0
  0
ARC
  5
363
330
1F
100
AcDbEntity
  8
0
  6
Continuous
 62
     7
370
    15
100
AcDbCircle
 10
644.894307292
 20
234.8959041399
 30
0.0
 40
18.76020818069457
100
AcDbArc
 50
157.9351367179
 51
175.6581257727
  0
SPLINE
  5
364
330
1F
100
AcDbEntity
  8
0
  6
Continuous
 62
     7
370
    15
100
AcDbSpline
210
0.0
220
0.0
230
1.0
 70
     8
 71
     3
 72
    21
 73
    17
 74
     0
 42
0.00000001
 43
0.00000001
 12
1.0
 22
0.0
 32
0.0
 13
1.0
 23
0.0
 33
0.0
 40
0.0
 40
0.0
 40
0.0
 40
0.0
 40
0.1177180357500482
 40
0.2352163965484561
 40
0.3129827501833233
 40
0.4142467530712222
 40
0.4511557179735297
 40
0.4884158596152426
 40
0.4999588660679924
 40
0.5301652883194407
 40
0.5671069509736572
 40
0.6243049903823794
 40
0.7324376790607594
 40
0.8501838393274499
 40
0.9682420229941524
 40
1.0
 40
1.0
 40
1.0
 40
1.0
 10
625.5282132164712
 20
240.8003174995955
 30
0.0
 10
625.6141122647044
 20
240.9893013864829
 30
0.0
 10
625.78575006399
 20
241.3669164952992
 30
0.0
 10
626.1157289813964
 20
241.890620170041
 30
0.0
 10
626.5040930172337
 20
242.3992471596728
 30
0.0
 10
626.8658166302064
 20
242.7903829889774
 30
0.0
 10
627.2145129982941
 20
243.0933248857839
 30
0.0
 10
627.3938345951132
 20
243.2242786547341
 30
0.0
 10
627.5443367522726
 20
243.3160002789571
 30
0.0
 10
627.6776293565251
 20
243.37993251084
 30
0.0
 10
627.8215273719858
 20
243.4047403331426
 30
0.0
 10
627.9319723004495
 20
243.324518524519
 30
0.0
 10
627.9172091789803
 20
243.0590542587149
 30
0.0
 10
627.7859060683579
 20
242.6266251978795
 30
0.0
 10
627.6282380871602
 20
242.2309195703752
 30
0.0
 10
627.5291226576529
 20
241.9935965140848
 30
0.0
 10
627.5081122037934
 20
241.9432888561472
 30
0.0
  0
ARC
  5
365
330
1F
100
AcDbEntity
  8
0
  6
Continuous
 62
     7
370
    15
100
AcDbCircle
 10
642.9144083047
 20
233.7529327834
 30
0.0
 40
18.76020818068951
100
AcDbArc
 50
157.9351367179
 51
175.6581257727
  0
LWPOLYLINE
  5
366
330
1F
100
AcDbEntity
  8
0
  6
Continuous
 62
     7
370
    15
100
AcDbPolyline
 90
       12
 70
   128
 43
0.0
 10
623.9734107458
 20
233.185690477
 10
624.0451022887
 20
234.8294582756
 10
624.2198137531
 20
236.4036803716
 10
624.4966703037
 20
237.9004741408
 10
624.874285633
 20
239.312344667
 10
625.3507689024
 20
240.6322222711
 10
625.9237342107
 20
241.8534979117
 10
626.5903125406
 20
242.9700562783
 10
627.3471661252
 20
243.9763064126
 10
628.190505161
 20
244.8672097042
 10
629.1161067847
 20
245.6383051207
 10
630.0201778902
 20
246.2292609209
  0
LINE
  5
367
330
1F
100
AcDbEntity
  8
0
  6
Continuous
 62
     7
370
    15
100
AcDbLine
 10
643.6741494752
 20
244.3392937054
 30
0.0
 11
643.9060781621
 21
244.8532484483
 31
0.0
  0
LWPOLYLINE
  5
368
330
1F
100
AcDbEntity
  8
0
  6
Continuous
 62
     7
370
    15
100
AcDbPolyline
 90
       19
 70
   128
 43
0.0
 10
629.0648871255
 20
232.8589496845
 10
629.1383321115
 20
234.3844928116
 10
629.315102905
 20
235.8393545675
 10
629.59417011
 20
237.2150628017
 10
629.9739086242
 20
238.5036063011
 10
630.452107102
 20
239.6974814426
 10
631.0259808324
 20
240.7897358884
 10
631.6921879553
 20
241.7740090726
 10
632.4468489219
 20
242.6445692405
 10
633.2855690868
 20
243.3963468268
 10
634.2034642997
 20
244.0249639769
 10
635.1951893472
 20
244.5267600413
 10
636.25496908
 20
244.8988128922
 10
637.3766320433
 20
245.1389559404
 10
638.5536464153
 20
245.245790752
 10
639.7791580445
 20
245.2186951918
 10
641.0460303634
 20
245.0578270464
 10
642.3468859472
 20
244.7641231052
 10
643.6741494752
 20
244.3392937055
  0
LINE
  5
369
330
1F
100
AcDbEntity
  8
0
  6
Continuous
 62
     7
370
    15
100
AcDbLine
 10
641.4114077754
 20
243.0330407266
 30
0.0
 11
643.6741494752
 21
244.3392937055
 31
0.0
  0
LWPOLYLINE
  5
36A
330
1F
100
AcDbEntity
  8
0
  6
Continuous
 62
     7
370
    15
100
AcDbPolyline
 90
        8
 70
   128
 43
0.0
 10
633.2022702288
 20
243.3300486968
 10
633.9922273802
 20
243.5925599132
 10
635.1138903435
 20
243.8327029615
 10
636.2909047155
 20
243.939537773
 10
637.5164163448
 20
243.9124422128
 10
638.7832886636
 20
243.7515740674
 10
640.0841442474
 20
243.4578701263
 10
641.4114077754
 20
243.0330407266
  0
ARC
  5
36B
330
1F
100
AcDbEntity
  8
0
  6
Continuous
 62
     7
370
    15
100
AcDbCircle
 10
623.9195542412
 20
208.9186767619
 30
0.0
 40
41.11980659923566
100
AcDbArc
 50
19.1955366467
 51
50.4740838874
  0
LINE
  5
36C
330
1F
100
AcDbEntity
  8
0
  6
Continuous
 62
     7
370
    15
100
AcDbLine
 10
650.0893166978
 20
240.6358964969
 30
0.0
 11
650.4230734359
 21
241.091067157
 31
0.0
  0
ARC
  5
36D
330
1F
100
AcDbEntity
  8
0
  6
Continuous
 62
     7
370
    15
100
AcDbCircle
 10
621.7591694534
 20
207.690938404
 30
0.0
 40
40.99411290806285
100
AcDbArc
 50
20.0831086797
 51
50.514591973
  0
LINE
  5
36E
330
1F
100
AcDbEntity
  8
0
  6
Continuous
 62
     7
370
    15
100
AcDbLine
 10
647.826574998
 20
239.329643518
 30
0.0
 11
650.0893166978
 21
240.6358964969
 31
0.0
  0
LINE
  5
36F
330
1F
100
AcDbEntity
  8
0
  6
Continuous
 62
     7
370
    15
100
AcDbLine
 10
647.5946463111
 20
239.4582509334
 30
0.0
 11
647.826574998
 21
239.329643518
 31
0.0
  0
ARC
  5
370
330
1F
100
AcDbEntity
  8
0
  6
Continuous
 62
     7
370
    15
100
AcDbCircle
 10
621.1180258245
 20
207.3221908407
 30
0.0
 40
41.63817708150706
100
AcDbArc
 50
20.266980429
 51
50.5151868784
  0
LINE
  5
371
330
1F
100
AcDbEntity
  8
0
  6
Continuous
 62
     7
370
    15
100
AcDbLine
 10
645.0871755338
 20
242.8538628676
 30
0.0
 11
645.6017094324
 21
243.0707314428
 31
0.0
  0
ARC
  5
372
330
1F
100
AcDbEntity
  8
0
  6
Continuous
 62
     7
370
    15
100
AcDbCircle
 10
642.5013966886
 20
241.8089140607
 30
0.0
 40
2.788937117469081
100
AcDbArc
 50
22.0043113131
 51
65.1337343257
  0
LINE
  5
373
330
1F
100
AcDbEntity
  8
0
  6
Continuous
 62
     7
370
    15
100
AcDbLine
 10
645.0871755338
 20
242.8538628676
 30
0.0
 11
642.824433834
 21
241.5476098887
 31
0.0
  0
ARC
  5
374
330
1F
100
AcDbEntity
  8
0
  6
Continuous
 62
     7
370
    15
100
AcDbCircle
 10
640.2386549888
 20
240.5026610818
 30
0.0
 40
2.78893711744918
100
AcDbArc
 50
22.0043113131
 51
65.1337343258
  0
LINE
  5
375
330
1F
100
AcDbEntity
  8
0
  6
Continuous
 62
     7
370
    15
100
AcDbLine
 10
645.4675195241
 20
242.0070420659
 30
0.0
 11
645.8976008332
 21
242.4119409804
 31
0.0
  0
LINE
  5
376
330
1F
100
AcDbEntity
  8
0
  6
Continuous
 62
     7
370
    15
100
AcDbLine
 10
645.4675195241
 20
242.0070420659
 30
0.0
 11
645.0871755338
 21
242.8538628676
 31
0.0
  0
LINE
  5
377
330
1F
100
AcDbEntity
  8
0
  6
Continuous
 62
     7
370
    15
100
AcDbLine
 10
645.4675195241
 20
242.0070420659
 30
0.0
 11
643.2047778243
 21
240.700789087
 31
0.0
  0
LINE
  5
378
330
1F
100
AcDbEntity
  8
0
  6
Continuous
 62
     7
370
    15
100
AcDbLine
 10
643.2047778243
 20
240.700789087
 30
0.0
 11
642.824433834
 21
241.5476098887
 31
0.0
  0
LINE
  5
379
330
1F
100
AcDbEntity
  8
0
  6
Continuous
 62
     7
370
    15
100
AcDbLine
 10
648.2959466489
 20
240.3742258422
 30
0.0
 11
648.4315507648
 21
240.9491228219
 31
0.0
  0
LINE
  5
37A
330
1F
100
AcDbEntity
  8
0
  6
Continuous
 62
     7
370
    15
100
AcDbLine
 10
648.2959466489
 20
240.3742258422
 30
0.0
 11
645.4675195241
 21
242.0070420659
 31
0.0
  0
LINE
  5
37B
330
1F
100
AcDbEntity
  8
0
  6
Continuous
 62
     7
370
    15
100
AcDbLine
 10
648.2959466489
 20
240.3742258422
 30
0.0
 11
646.0332049491
 21
239.0679728633
 31
0.0
  0
LINE
  5
37C
330
1F
100
AcDbEntity
  8
0
  6
Continuous
 62
     7
370
    15
100
AcDbLine
 10
646.0332049491
 20
239.0679728633
 30
0.0
 11
643.2047778243
 21
240.700789087
 31
0.0
  0
LINE
  5
37D
330
1F
100
AcDbEntity
  8
0
  6
Continuous
 62
     7
370
    15
100
AcDbLine
 10
642.824433834
 20
241.5476098887
 30
0.0
 11
642.7732823076
 21
241.4379152192
 31
0.0
  0
ARC
  5
37E
330
1F
100
AcDbEntity
  8
0
  6
Continuous
 62
     7
370
    15
100
AcDbCircle
 10
639.34512129
 20
239.9541189888
 30
0.0
 40
3.73549718455876
100
AcDbArc
 50
23.4042017
 51
54.1804549595
  0
LINE
  5
37F
330
1F
100
AcDbEntity
  8
0
  6
Continuous
 62
     7
370
    15
100
AcDbLine
 10
643.2047778243
 20
240.700789087
 30
0.0
 11
643.0691737085
 21
240.7791247568
 31
0.0
  0
LINE
  5
380
330
1F
100
AcDbEntity
  8
0
  6
Continuous
 62
     7
370
    15
100
AcDbLine
 10
642.7732823076
 20
241.4379152192
 30
0.0
 11
643.0691737085
 21
240.7791247568
 31
0.0
  0
LINE
  5
381
330
1F
100
AcDbEntity
  8
0
  6
Continuous
 62
     7
370
    15
100
AcDbLine
 10
646.5281796959
 20
243.3546197106
 30
0.0
 11
646.5281796959
 21
242.7641233759
 31
0.0
  0
ARC
  5
382
330
1F
100
AcDbEntity
  8
0
  6
Continuous
 62
     7
370
    15
100
AcDbCircle
 10
645.1177250616
 20
243.2814023881
 30
0.0
 40
1.412353727586263
100
AcDbArc
 50
2.9715819478
 51
49.594388813
  0
LINE
  5
383
330
1F
100
AcDbEntity
  8
0
  6
Continuous
 62
     7
370
    15
100
AcDbLine
 10
647.0231544428
 20
242.2623441444
 30
0.0
 11
647.0231544428
 21
243.0688768715
 31
0.0
  0
ARC
  5
384
330
1F
100
AcDbEntity
  8
0
  6
Continuous
 62
     7
370
    15
100
AcDbCircle
 10
644.5518514963
 20
242.9552047262
 30
0.0
 40
2.473915845318148
100
AcDbArc
 50
2.6335690025
 51
53.2167888111
  0
LINE
  5
385
330
1F
100
AcDbEntity
  8
0
  6
Continuous
 62
     7
370
    15
100
AcDbLine
 10
648.6762906393
 20
240.7819108199
 30
0.0
 11
648.7274421656
 21
241.2662843447
 31
0.0
  0
LINE
  5
386
330
1F
100
AcDbEntity
  8
0
  6
Continuous
 62
     7
370
    15
100
AcDbLine
 10
648.6762906393
 20
240.7819108199
 30
0.0
 11
648.2959466489
 21
240.3742258422
 31
0.0
  0
LINE
  5
387
330
1F
100
AcDbEntity
  8
0
  6
Continuous
 62
     7
370
    15
100
AcDbLine
 10
647.0231544428
 20
243.0688768715
 30
0.0
 11
648.2959466489
 21
243.8036441721
 31
0.0
  0
LWPOLYLINE
  5
388
330
1F
100
AcDbEntity
  8
0
  6
Continuous
 62
     7
370
    15
100
AcDbPolyline
 90
        9
 70
   128
 43
0.0
 10
648.6762906393
 20
240.7819108199
 10
648.8033441161
 20
240.8891917019
 10
648.9513400132
 20
240.9616957333
 10
649.1172733034
 20
240.9979507343
 10
649.2977747445
 20
240.9972205544
 10
649.4891792909
 20
240.9595200198
 10
649.6876005117
 20
240.8856146323
 10
649.8890095038
 20
240.7770050259
 10
650.0893166978
 20
240.6358964969
  0
ARC
  5
389
330
1F
100
AcDbEntity
  8
0
  6
Continuous
 62
     7
370
    15
100
AcDbCircle
 10
646.772884138
 20
238.0823448931
 30
0.0
 40
1.632794625180426
100
AcDbArc
 50
49.8096005147
 51
78.5248912593
  0
LINE
  5
38A
330
1F
100
AcDbEntity
  8
0
  6
Continuous
 62
     7
370
    15
100
AcDbLine
 10
647.4372891091
 20
239.5736234275
 30
0.0
 11
647.5946463111
 21
239.4582509334
 31
0.0
  0
LINE
  5
38B
330
1F
100
AcDbEntity
  8
0
  6
Continuous
 62
     7
370
    15
100
AcDbLine
 10
702.8117979504
 20
239.671486863
 30
0.0
 11
665.9768724363
 21
218.4071369882
 31
0.0
  0
LINE
  5
38C
330
1F
100
AcDbEntity
  8
0
  6
Continuous
 62
     7
370
    15
100
AcDbLine
 10
702.8117979504
 20
244.7332171563
 30
0.0
 11
702.8117979504
 21
239.671486863
 31
0.0
  0
LINE
  5
38D
330
1F
100
AcDbEntity
  8
0
  6
Continuous
 62
     7
370
    15
100
AcDbLine
 10
758.1803404453
 20
276.6967963748
 30
0.0
 11
702.8117979504
 21
244.7332171563
 31
0.0
  0
LINE
  5
38E
330
1F
100
AcDbEntity
  8
0
  6
Continuous
 62
     7
370
    15
100
AcDbLine
 10
789.2930388175
 20
258.7358179147
 30
0.0
 11
758.1803404453
 21
276.6967963748
 31
0.0
  0
LINE
  5
38F
330
1F
100
AcDbEntity
  8
0
  6
Continuous
 62
     7
370
    15
100
AcDbLine
 10
733.9244963226
 20
226.7722386962
 30
0.0
 11
789.2930388175
 21
258.7358179147
 31
0.0
  0
LINE
  5
390
330
1F
100
AcDbEntity
  8
0
  6
Continuous
 62
     7
370
    15
100
AcDbLine
 10
725.1563722358
 20
226.7722386962
 30
0.0
 11
733.9244963226
 21
226.7722386962
 31
0.0
  0
LINE
  5
391
330
1F
100
AcDbEntity
  8
0
  6
Continuous
 62
     7
370
    15
100
AcDbLine
 10
688.3214467218
 20
205.5078888214
 30
0.0
 11
725.1563722358
 21
226.7722386962
 31
0.0
  0
LINE
  5
392
330
1F
100
AcDbEntity
  8
0
  6
Continuous
 62
     7
370
    15
100
AcDbLine
 10
671.763694736
 20
185.0094333618
 30
0.0
 11
688.3214467218
 21
205.5078888214
 31
0.0
  0
LINE
  5
393
330
1F
100
AcDbEntity
  8
0
  6
Continuous
 62
     7
370
    15
100
AcDbLine
 10
658.6197056542
 20
177.4215699771
 30
0.0
 11
671.763694736
 21
185.0094333618
 31
0.0
  0
LINE
  5
394
330
1F
100
AcDbEntity
  8
0
  6
Continuous
 62
     7
370
    15
100
AcDbLine
 10
617.3246696329
 20
201.2606868423
 30
0.0
 11
658.6197056542
 21
177.4215699771
 31
0.0
  0
LINE
  5
395
330
1F
100
AcDbEntity
  8
0
  6
Continuous
 62
     7
370
    15
100
AcDbLine
 10
630.4686587147
 20
208.848550227
 30
0.0
 11
617.3246696329
 21
201.2606868423
 31
0.0
  0
LINE
  5
396
330
1F
100
AcDbEntity
  8
0
  6
Continuous
 62
     7
370
    15
100
AcDbLine
 10
665.9768724363
 20
218.4071369882
 30
0.0
 11
630.4686587147
 21
208.848550227
 31
0.0
  0
LWPOLYLINE
  5
397
330
1F
100
AcDbEntity
  8
0
  6
Continuous
 62
     7
370
    15
100
AcDbPolyline
 90
       17
 70
   128
 43
0.0
 10
777.4136448936
 20
263.3077033409
 10
777.2402266925
 20
263.4575318311
 10
777.1793303185
 20
263.6342665856
 10
777.2402266925
 20
263.8110013401
 10
777.4136448936
 20
263.9608298303
 10
777.6731835726
 20
264.0609420268
 10
777.9793303185
 20
264.0960967553
 10
778.2854770644
 20
264.0609420268
 10
778.5450157435
 20
263.9608298303
 10
778.7184339445
 20
263.8110013401
 10
778.7793303185
 20
263.6342665856
 10
778.7184339445
 20
263.4575318311
 10
778.5450157435
 20
263.3077033409
 10
778.2854770644
 20
263.2075911443
 10
777.9793303185
 20
263.1724364159
 10
777.6731835726
 20
263.2075911443
 10
777.4136448936
 20
263.3077033409
  0
LWPOLYLINE
  5
398
330
1F
100
AcDbEntity
  8
0
  6
Continuous
 62
     7
370
    15
100
AcDbPolyline
 90
       17
 70
   128
 43
0.0
 10
766.0999363946
 20
269.8389682354
 10
765.9265181935
 20
269.9887967257
 10
765.8656218195
 20
270.1655314802
 10
765.9265181935
 20
270.3422662347
 10
766.0999363946
 20
270.4920947249
 10
766.3594750736
 20
270.5922069214
 10
766.6656218195
 20
270.6273616498
 10
766.9717685654
 20
270.5922069214
 10
767.2313072445
 20
270.4920947249
 10
767.4047254455
 20
270.3422662347
 10
767.4656218195
 20
270.1655314802
 10
767.4047254455
 20
269.9887967257
 10
767.2313072445
 20
269.8389682354
 10
766.9717685654
 20
269.7388560389
 10
766.6656218195
 20
269.7037013105
 10
766.3594750736
 20
269.7388560389
 10
766.0999363946
 20
269.8389682354
  0
LWPOLYLINE
  5
399
330
1F
100
AcDbEntity
  8
0
  6
Continuous
 62
     7
370
    15
100
AcDbPolyline
 90
       17
 70
   128
 43
0.0
 10
771.0496838629
 20
259.6338668377
 10
770.8762656618
 20
259.7836953279
 10
770.8153692878
 20
259.9604300824
 10
770.8762656618
 20
260.1371648369
 10
771.0496838629
 20
260.2869933271
 10
771.3092225419
 20
260.3871055236
 10
771.6153692878
 20
260.4222602521
 10
771.9215160337
 20
260.3871055236
 10
772.1810547128
 20
260.2869933271
 10
772.3544729138
 20
260.1371648369
 10
772.4153692878
 20
259.9604300824
 10
772.3544729138
 20
259.7836953279
 10
772.1810547128
 20
259.6338668377
 10
771.9215160337
 20
259.5337546411
 10
771.6153692878
 20
259.4985999127
 10
771.3092225419
 20
259.5337546411
 10
771.0496838629
 20
259.6338668377
  0
LWPOLYLINE
  5
39A
330
1F
100
AcDbEntity
  8
0
  6
Continuous
 62
     7
370
    15
100
AcDbPolyline
 90
       17
 70
   128
 43
0.0
 10
759.7359753639
 20
266.1651317322
 10
759.5625571628
 20
266.3149602225
 10
759.5016607888
 20
266.491694977
 10
759.5625571628
 20
266.6684297315
 10
759.7359753639
 20
266.8182582217
 10
759.9955140429
 20
266.9183704182
 10
760.3016607888
 20
266.9535251466
 10
760.6078075347
 20
266.9183704182
 10
760.8673462138
 20
266.8182582217
 10
761.0407644148
 20
266.6684297315
 10
761.1016607888
 20
266.491694977
 10
761.0407644148
 20
266.3149602225
 10
760.8673462138
 20
266.1651317322
 10
760.6078075347
 20
266.0650195357
 10
760.3016607888
 20
266.0298648073
 10
759.9955140429
 20
266.0650195357
 10
759.7359753639
 20
266.1651317322
  0
LWPOLYLINE
  5
39B
330
1F
100
AcDbEntity
  8
0
  6
Continuous
 62
     7
370
    15
100
AcDbPolyline
 90
       17
 70
   128
 43
0.0
 10
645.8917835929
 20
185.7489327177
 10
645.7183653918
 20
185.8987612079
 10
645.6574690178
 20
186.0754959624
 10
645.7183653918
 20
186.2522307169
 10
645.8917835929
 20
186.4020592072
 10
646.1513222719
 20
186.5021714037
 10
646.4574690178
 20
186.5373261321
 10
646.7636157637
 20
186.5021714037
 10
647.0231544428
 20
186.4020592072
 10
647.1965726438
 20
186.2522307169
 10
647.2574690178
 20
186.0754959624
 10
647.1965726438
 20
185.8987612079
 10
647.0231544428
 20
185.7489327177
 10
646.7636157637
 20
185.6488205212
 10
646.4574690178
 20
185.6136657928
 10
646.1513222719
 20
185.6488205212
 10
645.8917835929
 20
185.7489327177
  0
LWPOLYLINE
  5
39C
330
1F
100
AcDbEntity
  8
0
  6
Continuous
 62
     7
370
    15
100
AcDbPolyline
 90
       17
 70
   128
 43
0.0
 10
631.7496479691
 20
193.9130138359
 10
631.5762297681
 20
194.0628423262
 10
631.5153333941
 20
194.2395770807
 10
631.5762297681
 20
194.4163118352
 10
631.7496479691
 20
194.5661403254
 10
632.0091866482
 20
194.6662525219
 10
632.3153333941
 20
194.7014072503
 10
632.62148014
 20
194.6662525219
 10
632.881018819
 20
194.5661403254
 10
633.0544370201
 20
194.4163118352
 10
633.1153333941
 20
194.2395770807
 10
633.0544370201
 20
194.0628423262
 10
632.881018819
 20
193.9130138359
 10
632.62148014
 20
193.8129016394
 10
632.3153333941
 20
193.777746911
 10
632.0091866482
 20
193.8129016394
 10
631.7496479691
 20
193.9130138359
  0
LWPOLYLINE
  5
39D
330
1F
100
AcDbEntity
  8
0
  6
Continuous
 62
     7
370
    15
100
AcDbPolyline
 90
       17
 70
   128
 43
0.0
 10
653.6699581859
 20
188.6063611091
 10
653.4965399848
 20
188.7561895993
 10
653.4356436109
 20
188.9329243538
 10
653.4965399848
 20
189.1096591083
 10
653.6699581859
 20
189.2594875985
 10
653.929496865
 20
189.3595997951
 10
654.2356436109
 20
189.3947545235
 10
654.5417903567
 20
189.3595997951
 10
654.8013290358
 20
189.2594875985
 10
654.9747472369
 20
189.1096591083
 10
655.0356436109
 20
188.9329243538
 10
654.9747472369
 20
188.7561895993
 10
654.8013290358
 20
188.6063611091
 10
654.5417903567
 20
188.5062489126
 10
654.2356436109
 20
188.4710941841
 10
653.929496865
 20
188.5062489126
 10
653.6699581859
 20
188.6063611091
  0
LWPOLYLINE
  5
39E
330
1F
100
AcDbEntity
  8
0
  6
Continuous
 62
     7
370
    15
100
AcDbPolyline
 90
       17
 70
   128
 43
0.0
 10
636.6993954374
 20
198.403258451
 10
636.5259772364
 20
198.5530869412
 10
636.4650808624
 20
198.7298216957
 10
636.5259772364
 20
198.9065564502
 10
636.6993954374
 20
199.0563849404
 10
636.9589341165
 20
199.1564971369
 10
637.2650808624
 20
199.1916518654
 10
637.5712276083
 20
199.1564971369
 10
637.8307662873
 20
199.0563849404
 10
638.0041844884
 20
198.9065564502
 10
638.0650808624
 20
198.7298216957
 10
638.0041844884
 20
198.5530869412
 10
637.8307662873
 20
198.403258451
 10
637.5712276083
 20
198.3031462544
 10
637.2650808624
 20
198.267991526
 10
636.9589341165
 20
198.3031462544
 10
636.6993954374
 20
198.403258451
  0
LWPOLYLINE
  5
39F
330
1F
100
AcDbEntity
  8
0
  6
Continuous
 62
     7
370
    15
100
AcDbPolyline
 90
       22
 70
   128
 43
0.0
 10
624.1128947323
 20
197.6684911503
 10
624.496635777
 20
197.5049953154
 10
624.9468070107
 20
197.4140599577
 10
625.423408744
 20
197.4037650828
 10
625.8840928211
 20
197.4750254355
 10
626.2879254403
 20
197.6215092208
 10
626.599024301
 20
197.8302007114
 10
626.7897469043
 20
198.0825567527
 10
626.8431467099
 20
198.356154403
 10
626.7544789107
 20
198.6266833102
 10
626.5316220298
 20
198.8701057939
 10
626.1943778791
 20
199.0647926981
 10
625.7727120813
 20
199.1934452369
 10
625.304091493
 20
199.2446320679
 10
624.83015511
 20
199.2138050163
 10
624.3930142598
 20
199.103703201
 10
624.0315108252
 20
198.9241096514
 10
623.7777659728
 20
198.6909820427
 10
623.6543260464
 20
198.4250347858
 10
623.672159225
 20
198.1498984616
 10
623.8296809526
 20
197.89002014
 10
624.1128947323
 20
197.6684911503
  0
LWPOLYLINE
  5
3A0
330
1F
100
AcDbEntity
  8
0
  6
Continuous
 62
     7
370
    15
100
AcDbPolyline
 90
       22
 70
   128
 43
0.0
 10
652.3971659798
 20
181.3403289139
 10
652.7809070244
 20
181.1768330789
 10
653.2310782582
 20
181.0858977212
 10
653.7076799914
 20
181.0756028463
 10
654.1683640686
 20
181.146863199
 10
654.5721966877
 20
181.2933469843
 10
654.8832955484
 20
181.502038475
 10
655.0740181517
 20
181.7543945163
 10
655.1274179573
 20
182.0279921665
 10
655.0387501582
 20
182.2985210738
 10
654.8158932773
 20
182.5419435574
 10
654.4786491266
 20
182.7366304616
 10
654.0569833288
 20
182.8652830005
 10
653.5883627405
 20
182.9164698314
 10
653.1144263575
 20
182.8856427798
 10
652.6772855072
 20
182.7755409645
 10
652.3157820726
 20
182.595947415
 10
652.0620372203
 20
182.3628198062
 10
651.9385972938
 20
182.0968725493
 10
651.9564304725
 20
181.8217362252
 10
652.1139522001
 20
181.5618579036
 10
652.3971659798
 20
181.3403289139
  0
LWPOLYLINE
  5
3A1
330
1F
100
AcDbEntity
  8
0
  6
Continuous
 62
     7
370
    15
100
AcDbPolyline
 90
       22
 70
   128
 43
0.0
 10
759.8773967201
 20
272.778037438
 10
760.2611377648
 20
272.6145416031
 10
760.7113089986
 20
272.5236062454
 10
761.1879107318
 20
272.5133113705
 10
761.6485948089
 20
272.5845717232
 10
762.0524274281
 20
272.7310555085
 10
762.3635262888
 20
272.9397469991
 10
762.5542488921
 20
273.1921030404
 10
762.6076486977
 20
273.4657006907
 10
762.5189808985
 20
273.7362295979
 10
762.2961240177
 20
273.9796520816
 10
761.9588798669
 20
274.1743389858
 10
761.5372140692
 20
274.3029915246
 10
761.0685934809
 20
274.3541783555
 10
760.5946570979
 20
274.3233513039
 10
760.1575162476
 20
274.2132494886
 10
759.796012813
 20
274.0336559391
 10
759.5422679606
 20
273.8005283303
 10
759.4188280342
 20
273.5345810735
 10
759.4366612129
 20
273.2594447493
 10
759.5941829404
 20
272.9995664277
 10
759.8773967201
 20
272.778037438
  0
LWPOLYLINE
  5
3A2
330
1F
100
AcDbEntity
  8
0
  6
Continuous
 62
     7
370
    15
100
AcDbPolyline
 90
       22
 70
   128
 43
0.0
 10
782.5048137181
 20
259.7155076488
 10
782.8885547628
 20
259.5520118139
 10
783.3387259965
 20
259.4610764562
 10
783.8153277298
 20
259.4507815813
 10
784.2760118069
 20
259.522041934
 10
784.679844426
 20
259.6685257193
 10
784.9909432868
 20
259.87721721
 10
785.1816658901
 20
260.1295732513
 10
785.2350656957
 20
260.4031709015
 10
785.1463978965
 20
260.6736998087
 10
784.9235410156
 20
260.9171222924
 10
784.5862968649
 20
261.1118091966
 10
784.1646310671
 20
261.2404617355
 10
783.6960104788
 20
261.2916485664
 10
783.2220740958
 20
261.2608215148
 10
782.7849332456
 20
261.1507196995
 10
782.423429811
 20
260.9711261499
 10
782.1696849586
 20
260.7379985412
 10
782.0462450322
 20
260.4720512843
 10
782.0640782108
 20
260.1969149601
 10
782.2215999384
 20
259.9370366385
 10
782.5048137181
 20
259.7155076488
  0
LWPOLYLINE
  5
3A3
330
1F
100
AcDbEntity
  8
0
  6
Continuous
 62
     7
370
    15
100
AcDbPolyline
 90
       22
 70
   128
 43
0.0
 10
776.1408526874
 20
256.0416711456
 10
776.5245937321
 20
255.8781753107
 10
776.9747649659
 20
255.787239953
 10
777.4513666991
 20
255.7769450781
 10
777.9120507762
 20
255.8482054308
 10
778.3158833954
 20
255.9946892161
 10
778.6269822561
 20
256.2033807068
 10
778.8177048594
 20
256.4557367481
 10
778.871104665
 20
256.7293343983
 10
778.7824368658
 20
256.9998633055
 10
778.5595799849
 20
257.2432857892
 10
778.2223358342
 20
257.4379726934
 10
777.8006700364
 20
257.5666252323
 10
777.3320494482
 20
257.6178120632
 10
776.8581130652
 20
257.5869850116
 10
776.4209722149
 20
257.4768831963
 10
776.0594687803
 20
257.2972896467
 10
775.8057239279
 20
257.064162038
 10
775.6822840015
 20
256.7982147811
 10
775.7001171801
 20
256.5230784569
 10
775.8576389077
 20
256.2632001353
 10
776.1408526874
 20
256.0416711456
  0
LWPOLYLINE
  5
3A4
330
1F
100
AcDbEntity
  8
0
  6
Continuous
 62
     7
370
    15
100
AcDbPolyline
 90
       22
 70
   128
 43
0.0
 10
753.5134356894
 20
269.1042009348
 10
753.8971767341
 20
268.9407050999
 10
754.3473479679
 20
268.8497697422
 10
754.8239497011
 20
268.8394748673
 10
755.2846337783
 20
268.91073522
 10
755.6884663974
 20
269.0572190053
 10
755.9995652581
 20
269.2659104959
 10
756.1902878614
 20
269.5182665372
 10
756.243687667
 20
269.7918641875
 10
756.1550198678
 20
270.0623930947
 10
755.932162987
 20
270.3058155784
 10
755.5949188363
 20
270.5005024825
 10
755.1732530385
 20
270.6291550214
 10
754.7046324502
 20
270.6803418523
 10
754.2306960672
 20
270.6495148007
 10
753.7935552169
 20
270.5394129854
 10
753.4320517823
 20
270.3598194359
 10
753.17830693
 20
270.1266918271
 10
753.0548670035
 20
269.8607445703
 10
753.0727001822
 20
269.5856082461
 10
753.2302219097
 20
269.3257299245
 10
753.5134356894
 20
269.1042009348
  0
LWPOLYLINE
  5
3A5
330
1F
100
AcDbEntity
  8
0
  6
Continuous
 62
     7
370
    15
100
AcDbPolyline
 90
       22
 70
   128
 43
0.0
 10
661.0238687102
 20
183.7079124381
 10
661.4076097549
 20
183.5444166032
 10
661.8577809887
 20
183.4534812455
 10
662.3343827219
 20
183.4431863706
 10
662.7950667991
 20
183.5144467233
 10
663.1988994182
 20
183.6609305086
 10
663.5099982789
 20
183.8696219993
 10
663.7007208822
 20
184.1219780406
 10
663.7541206878
 20
184.3955756908
 10
663.6654528886
 20
184.666104598
 10
663.4425960078
 20
184.9095270817
 10
663.1053518571
 20
185.1042139859
 10
662.6836860593
 20
185.2328665248
 10
662.215065471
 20
185.2840533557
 10
661.741129088
 20
185.2532263041
 10
661.3039882377
 20
185.1431244888
 10
660.9424848031
 20
184.9635309392
 10
660.6887399508
 20
184.7304033305
 10
660.5653000243
 20
184.4644560736
 10
660.583133203
 20
184.1893197494
 10
660.7406549305
 20
183.9294414279
 10
661.0238687102
 20
183.7079124381
  0
LWPOLYLINE
  5
3A6
330
1F
100
AcDbEntity
  8
0
  6
Continuous
 62
     7
370
    15
100
AcDbPolyline
 90
       22
 70
   128
 43
0.0
 10
628.2141140632
 20
202.6485806324
 10
628.5978551079
 20
202.4850847975
 10
629.0480263416
 20
202.3941494398
 10
629.5246280749
 20
202.3838545649
 10
629.985312152
 20
202.4551149176
 10
630.3891447711
 20
202.6015987029
 10
630.7002436319
 20
202.8102901936
 10
630.8909662352
 20
203.0626462349
 10
630.9443660408
 20
203.3362438851
 10
630.8556982416
 20
203.6067727923
 10
630.6328413607
 20
203.850195276
 10
630.29559721
 20
204.0448821802
 10
629.8739314122
 20
204.1735347191
 10
629.4053108239
 20
204.22472155
 10
628.9313744409
 20
204.1938944984
 10
628.4942335907
 20
204.0837926831
 10
628.1327301561
 20
203.9041991335
 10
627.8789853037
 20
203.6710715248
 10
627.7555453773
 20
203.4051242679
 10
627.7733785559
 20
203.1299879437
 10
627.9309002835
 20
202.8701096221
 10
628.2141140632
 20
202.6485806324
  0
LWPOLYLINE
  5
3A7
330
1F
100
AcDbEntity
  8
0
  6
Continuous
 62
     7
370
    15
100
AcDbPolyline
 90
       17
 70
   128
 43
0.0
 10
675.0245829777
 20
210.7310209395
 10
675.2841216568
 20
210.630908743
 10
675.5902684027
 20
210.5957540145
 10
675.8964151486
 20
210.630908743
 10
676.1559538276
 20
210.7310209395
 10
676.3293720287
 20
210.8808494297
 10
676.3902684027
 20
211.0575841842
 10
676.3293720287
 20
211.2343189387
 10
676.1559538276
 20
211.3841474289
 10
675.8964151486
 20
211.4842596255
 10
675.5902684027
 20
211.5194143539
 10
675.2841216568
 20
211.4842596255
 10
675.0245829777
 20
211.3841474289
 10
674.8511647767
 20
211.2343189387
 10
674.7902684027
 20
211.0575841842
 10
674.8511647767
 20
210.8808494297
 10
675.0245829777
 20
210.7310209395
  0
LWPOLYLINE
  5
3A8
330
1F
100
AcDbEntity
  8
0
  6
Continuous
 62
     7
370
    15
100
AcDbPolyline
 90
       17
 70
   128
 43
0.0
 10
731.5931254727
 20
243.3873454124
 10
731.8526641517
 20
243.2872332159
 10
732.1588108976
 20
243.2520784874
 10
732.4649576435
 20
243.2872332159
 10
732.7244963226
 20
243.3873454124
 10
732.8979145236
 20
243.5371739026
 10
732.9588108976
 20
243.7139086571
 10
732.8979145236
 20
243.8906434116
 10
732.7244963226
 20
244.0404719018
 10
732.4649576435
 20
244.1405840984
 10
732.1588108976
 20
244.1757388268
 10
731.8526641517
 20
244.1405840984
 10
731.5931254727
 20
244.0404719018
 10
731.4197072716
 20
243.8906434116
 10
731.3588108976
 20
243.7139086571
 10
731.4197072716
 20
243.5371739026
 10
731.5931254727
 20
243.3873454124
  0
LWPOLYLINE
  5
3A9
330
1F
100
AcDbEntity
  8
0
  6
Continuous
 62
     7
370
    15
100
AcDbPolyline
 90
       22
 70
   128
 43
0.0
 10
731.0274400477
 20
234.8967010494
 10
731.4111810924
 20
234.7332052145
 10
731.8613523262
 20
234.6422698568
 10
732.3379540594
 20
234.6319749819
 10
732.7986381365
 20
234.7032353346
 10
733.2024707557
 20
234.8497191199
 10
733.5135696164
 20
235.0584106106
 10
733.7042922197
 20
235.3107666519
 10
733.7576920253
 20
235.5843643021
 10
733.6690242261
 20
235.8548932093
 10
733.4461673452
 20
236.098315693
 10
733.1089231945
 20
236.2930025972
 10
732.6872573967
 20
236.4216551361
 10
732.2186368085
 20
236.472841967
 10
731.7447004254
 20
236.4420149154
 10
731.3075595752
 20
236.3319131001
 10
730.9460561406
 20
236.1523195505
 10
730.6923112882
 20
235.9191919418
 10
730.5688713618
 20
235.6532446849
 10
730.5867045404
 20
235.3781083607
 10
730.744226268
 20
235.1182300391
 10
731.0274400477
 20
234.8967010494
  0
LWPOLYLINE
  5
3AA
330
1F
100
AcDbEntity
  8
0
  6
Continuous
 62
     7
370
    15
100
AcDbPolyline
 90
       17
 70
   128
 43
0.0
 10
717.3802791708
 20
227.0183627703
 10
717.6722601848
 20
226.9057365493
 10
718.0166752739
 20
226.8661874798
 10
718.361090363
 20
226.9057365493
 10
718.653071377
 20
227.0183627703
 10
718.8481668531
 20
227.1869198218
 10
718.9166752739
 20
227.3857464207
 10
718.8481668531
 20
227.5845730195
 10
718.653071377
 20
227.753130071
 10
718.361090363
 20
227.8657562921
 10
718.0166752739
 20
227.9053053615
 10
717.6722601848
 20
227.8657562921
 10
717.3802791708
 20
227.753130071
 10
717.1851836946
 20
227.5845730195
 10
717.1166752739
 20
227.3857464207
 10
717.1851836946
 20
227.1869198218
 10
717.3802791708
 20
227.0183627703
  0
LWPOLYLINE
  5
3AB
330
1F
100
AcDbEntity
  8
0
  6
Continuous
 62
     7
370
    15
100
AcDbPolyline
 90
       22
 70
   128
 43
0.0
 10
702.7431688003
 20
218.568538813
 10
703.1269098449
 20
218.4050429781
 10
703.5770810787
 20
218.3141076203
 10
704.0536828119
 20
218.3038127454
 10
704.5143668891
 20
218.3750730982
 10
704.9181995082
 20
218.5215568834
 10
705.2292983689
 20
218.7302483741
 10
705.4200209722
 20
218.9826044154
 10
705.4734207778
 20
219.2562020656
 10
705.3847529786
 20
219.5267309729
 10
705.1618960978
 20
219.7701534565
 10
704.8246519471
 20
219.9648403607
 10
704.4029861493
 20
220.0934928996
 10
703.934365561
 20
220.1446797305
 10
703.460429178
 20
220.1138526789
 10
703.0232883277
 20
220.0037508636
 10
702.6617848931
 20
219.8241573141
 10
702.4080400408
 20
219.5910297053
 10
702.2846001143
 20
219.3250824484
 10
702.302433293
 20
219.0499461243
 10
702.4599550205
 20
218.7900678027
 10
702.7431688003
 20
218.568538813
  0
LWPOLYLINE
  5
3AC
330
1F
100
AcDbEntity
  8
0
  6
Continuous
 62
     7
370
    15
100
AcDbPolyline
 90
       17
 70
   128
 43
0.0
 10
689.0960079234
 20
210.6902005339
 10
689.3879889373
 20
210.5775743128
 10
689.7324040264
 20
210.5380252433
 10
690.0768191155
 20
210.5775743128
 10
690.3688001295
 20
210.6902005339
 10
690.5638956057
 20
210.8587575854
 10
690.6324040264
 20
211.0575841842
 10
690.5638956057
 20
211.256410783
 10
690.3688001295
 20
211.4249678345
 10
690.0768191155
 20
211.5375940556
 10
689.7324040264
 20
211.5771431251
 10
689.3879889373
 20
211.5375940556
 10
689.0960079234
 20
211.4249678345
 10
688.9009124472
 20
211.256410783
 10
688.8324040264
 20
211.0575841842
 10
688.9009124472
 20
210.8587575854
 10
689.0960079234
 20
210.6902005339
  0
LWPOLYLINE
  5
3AD
330
1F
100
AcDbEntity
  8
0
  6
Continuous
 62
     7
370
    15
100
AcDbPolyline
 90
       17
 70
   128
 43
0.0
 10
676.2266645058
 20
219.5890489528
 10
675.9346834918
 20
219.7016751738
 10
675.5902684027
 20
219.7412242433
 10
675.2458533136
 20
219.7016751738
 10
674.9538722996
 20
219.5890489528
 10
674.7587768234
 20
219.4204919012
 10
674.6902684027
 20
219.2216653024
 10
674.7587768234
 20
219.0228387036
 10
674.9538722996
 20
218.8542816521
 10
675.2458533136
 20
218.741655431
 10
675.5902684027
 20
218.7021063616
 10
675.9346834918
 20
218.741655431
 10
676.2266645058
 20
218.8542816521
 10
676.421759982
 20
219.0228387036
 10
676.4902684027
 20
219.2216653024
 10
676.421759982
 20
219.4204919012
 10
676.2266645058
 20
219.5890489528
  0
LWPOLYLINE
  5
3AE
330
1F
100
AcDbEntity
  8
0
  6
Continuous
 62
     7
370
    15
100
AcDbPolyline
 90
       22
 70
   128
 43
0.0
 10
690.8637748763
 20
228.0388729101
 10
690.4800338317
 20
228.202368745
 10
690.0298625979
 20
228.2933041027
 10
689.5532608647
 20
228.3035989777
 10
689.0925767875
 20
228.2323386249
 10
688.6887441684
 20
228.0858548397
 10
688.3776453077
 20
227.877163349
 10
688.1869227044
 20
227.6248073077
 10
688.1335228988
 20
227.3512096575
 10
688.2221906979
 20
227.0806807502
 10
688.4450475788
 20
226.8372582665
 10
688.7822917295
 20
226.6425713624
 10
689.2039575273
 20
226.5139188235
 10
689.6725781156
 20
226.4627319926
 10
690.1465144986
 20
226.4935590442
 10
690.5836553488
 20
226.6036608595
 10
690.9451587835
 20
226.783254409
 10
691.1989036358
 20
227.0163820178
 10
691.3223435623
 20
227.2823292747
 10
691.3045103836
 20
227.5574655988
 10
691.146988656
 20
227.8173439204
 10
690.8637748763
 20
228.0388729101
  0
LWPOLYLINE
  5
3AF
330
1F
100
AcDbEntity
  8
0
  6
Continuous
 62
     7
370
    15
100
AcDbPolyline
 90
       17
 70
   128
 43
0.0
 10
704.5109357532
 20
235.9172111892
 10
704.2189547393
 20
236.0298374103
 10
703.8745396502
 20
236.0693864798
 10
703.530124561
 20
236.0298374103
 10
703.2381435471
 20
235.9172111892
 10
703.0430480709
 20
235.7486541377
 10
702.9745396502
 20
235.5498275389
 10
703.0430480709
 20
235.3510009401
 10
703.2381435471
 20
235.1824438886
 10
703.530124561
 20
235.0698176675
 10
703.8745396502
 20
235.030268598
 10
704.2189547393
 20
235.0698176675
 10
704.5109357532
 20
235.1824438886
 10
704.7060312294
 20
235.3510009401
 10
704.7745396502
 20
235.5498275389
 10
704.7060312294
 20
235.7486541377
 10
704.5109357532
 20
235.9172111892
  0
LWPOLYLINE
  5
3B0
330
1F
100
AcDbEntity
  8
0
  6
Continuous
 62
     7
370
    15
100
AcDbPolyline
 90
       22
 70
   128
 43
0.0
 10
719.1480461238
 20
244.3670351466
 10
718.7643050791
 20
244.5305309815
 10
718.3141338453
 20
244.6214663392
 10
717.8375321121
 20
244.6317612141
 10
717.376848035
 20
244.5605008614
 10
716.9730154158
 20
244.4140170761
 10
716.6619165551
 20
244.2053255854
 10
716.4711939518
 20
243.9529695441
 10
716.4177941462
 20
243.6793718939
 10
716.5064619454
 20
243.4088429867
 10
716.7293188263
 20
243.165420503
 10
717.066562977
 20
242.9707335988
 10
717.4882287748
 20
242.8420810599
 10
717.956849363
 20
242.790894229
 10
718.430785746
 20
242.8217212806
 10
718.8679265963
 20
242.9318230959
 10
719.2294300309
 20
243.1114166455
 10
719.4831748833
 20
243.3445442542
 10
719.6066148097
 20
243.6104915111
 10
719.5887816311
 20
243.8856278353
 10
719.4312599035
 20
244.1455061569
 10
719.1480461238
 20
244.3670351466
  0
LINE
  5
3B1
330
1F
100
AcDbEntity
  8
0
  6
Continuous
 62
     7
370
    15
100
AcDbLine
 10
702.8117979504
 20
244.7332171563
 30
0.0
 11
701.6117979504
 21
246.0000106103
 31
0.0
  0
LINE
  5
3B2
330
1F
100
AcDbEntity
  8
0
  6
Continuous
 62
     7
370
    15
100
AcDbLine
 10
701.6117979504
 20
246.0000106103
 30
0.0
 11
758.1803404453
 21
278.6563350832
 31
0.0
  0
LINE
  5
3B3
330
1F
100
AcDbEntity
  8
0
  6
Continuous
 62
     7
370
    15
100
AcDbLine
 10
758.1803404453
 20
276.6967963748
 30
0.0
 11
758.1803404453
 21
278.6563350832
 31
0.0
  0
LINE
  5
3B4
330
1F
100
AcDbEntity
  8
0
  6
Continuous
 62
     7
370
    15
100
AcDbLine
 10
758.1803404453
 20
278.6563350832
 30
0.0
 11
790.9900950923
 21
259.7156668889
 31
0.0
  0
LINE
  5
3B5
330
1F
100
AcDbEntity
  8
0
  6
Continuous
 62
     7
370
    15
100
AcDbLine
 10
789.2930388175
 20
258.7358179147
 30
0.0
 11
790.9900950923
 21
259.7156668889
 31
0.0
  0
LINE
  5
3B6
330
1F
100
AcDbEntity
  8
0
  6
Continuous
 62
     7
370
    15
100
AcDbLine
 10
758.1803404453
 20
278.6563350832
 30
0.0
 11
758.1803404453
 21
281.595882006
 31
0.0
  0
LINE
  5
3B7
330
1F
100
AcDbEntity
  8
0
  6
Continuous
 62
     7
370
    15
100
AcDbLine
 10
790.9900950923
 20
262.6552138117
 30
0.0
 11
758.1803404453
 21
281.595882006
 31
0.0
  0
LINE
  5
3B8
330
1F
100
AcDbEntity
  8
0
  6
Continuous
 62
     7
370
    15
100
AcDbLine
 10
790.9900950923
 20
259.7156668889
 30
0.0
 11
790.9900950923
 21
262.6552138117
 31
0.0
  0
LINE
  5
3B9
330
1F
100
AcDbEntity
  8
0
  6
Continuous
 62
     7
370
    15
100
AcDbLine
 10
701.6117979504
 20
246.0000106103
 30
0.0
 11
701.6117979504
 21
248.9395575331
 31
0.0
  0
LINE
  5
3BA
330
1F
100
AcDbEntity
  8
0
  6
Continuous
 62
     7
370
    15
100
AcDbLine
 10
758.1803404453
 20
281.595882006
 30
0.0
 11
701.6117979504
 21
248.9395575331
 31
0.0
  0
LINE
  5
3BB
330
1F
100
AcDbEntity
  8
0
  6
Continuous
 62
     7
370
    15
100
AcDbLine
 10
789.2930388175
 20
263.635062786
 30
0.0
 11
790.9900950923
 21
262.6552138117
 31
0.0
  0
LINE
  5
3BC
330
1F
100
AcDbEntity
  8
0
  6
Continuous
 62
     7
370
    15
100
AcDbLine
 10
758.1803404453
 20
281.5960412461
 30
0.0
 11
758.1803404453
 21
281.595882006
 31
0.0
  0
LINE
  5
3BD
330
1F
100
AcDbEntity
  8
0
  6
Continuous
 62
     7
370
    15
100
AcDbLine
 10
758.1803404453
 20
281.5960412461
 30
0.0
 11
789.2930388175
 21
263.635062786
 31
0.0
  0
LINE
  5
3BE
330
1F
100
AcDbEntity
  8
0
  6
Continuous
 62
     7
370
    15
100
AcDbLine
 10
701.6117979504
 20
248.9395575331
 30
0.0
 11
702.8117979504
 21
249.6324620277
 31
0.0
  0
LINE
  5
3BF
330
1F
100
AcDbEntity
  8
0
  6
Continuous
 62
     7
370
    15
100
AcDbLine
 10
702.8117979504
 20
249.6324620277
 30
0.0
 11
758.1803404453
 21
281.5960412461
 31
0.0
  0
ARC
  5
3C0
330
1F
100
AcDbEntity
  8
0
  6
Continuous
 62
     7
370
    15
100
AcDbCircle
 10
761.00876757
 20
276.4966984426
 30
0.0
 40
2.524161725858937
100
AcDbArc
 50
247.4186657514
 51
292.5813342486
  0
ARC
  5
3C1
330
1F
100
AcDbEntity
  8
0
  6
Continuous
 62
     7
370
    15
100
AcDbCircle
 10
754.6448065393
 20
272.8228619394
 30
0.0
 40
2.524161725859138
100
AcDbArc
 50
247.4186657515
 51
292.5813342486
  0
ARC
  5
3C2
330
1F
100
AcDbEntity
  8
0
  6
Continuous
 62
     7
370
    15
100
AcDbCircle
 10
783.636184568
 20
263.4341686534
 30
0.0
 40
2.524161725859401
100
AcDbArc
 50
247.4186657514
 51
292.5813342486
  0
ARC
  5
3C3
330
1F
100
AcDbEntity
  8
0
  6
Continuous
 62
     7
370
    15
100
AcDbCircle
 10
777.2722235373
 20
259.7603321502
 30
0.0
 40
2.524161725861002
100
AcDbArc
 50
247.4186657515
 51
292.5813342485
  0
LINE
  5
3C4
330
1F
100
AcDbEntity
  8
0
  6
Continuous
 62
     7
370
    15
100
AcDbLine
 10
702.8117979504
 20
239.671486863
 30
0.0
 11
701.6117979504
 21
240.938280317
 31
0.0
  0
LINE
  5
3C5
330
1F
100
AcDbEntity
  8
0
  6
Continuous
 62
     7
370
    15
100
AcDbLine
 10
701.6117979504
 20
240.938280317
 30
0.0
 11
701.6117979504
 21
246.0000106103
 31
0.0
  0
LINE
  5
3C6
330
1F
100
AcDbEntity
  8
0
  6
Continuous
 62
     7
370
    15
100
AcDbLine
 10
665.9768724363
 20
218.4071369882
 30
0.0
 11
665.2779627034
 21
219.963203696
 31
0.0
  0
LINE
  5
3C7
330
1F
100
AcDbEntity
  8
0
  6
Continuous
 62
     7
370
    15
100
AcDbLine
 10
665.2779627034
 20
219.963203696
 30
0.0
 11
701.6117979504
 21
240.938280317
 31
0.0
  0
LINE
  5
3C8
330
1F
100
AcDbEntity
  8
0
  6
Continuous
 62
     7
370
    15
100
AcDbLine
 10
665.2779627034
 20
219.963203696
 30
0.0
 11
665.2779627034
 21
222.9027506188
 31
0.0
  0
LINE
  5
3C9
330
1F
100
AcDbEntity
  8
0
  6
Continuous
 62
     7
370
    15
100
AcDbLine
 10
701.6117979504
 20
243.8778272398
 30
0.0
 11
665.2779627034
 21
222.9027506188
 31
0.0
  0
LINE
  5
3CA
330
1F
100
AcDbEntity
  8
0
  6
Continuous
 62
     7
370
    15
100
AcDbLine
 10
665.2779627034
 20
222.9027506188
 30
0.0
 11
665.9768724363
 21
223.3063818595
 31
0.0
  0
LINE
  5
3CB
330
1F
100
AcDbEntity
  8
0
  6
Continuous
 62
     7
370
    15
100
AcDbLine
 10
665.9768724363
 20
223.3063818595
 30
0.0
 11
701.6117979504
 21
243.8779864799
 31
0.0
  0
LINE
  5
3CC
330
1F
100
AcDbEntity
  8
0
  6
Continuous
 62
     7
370
    15
100
AcDbLine
 10
630.4686587147
 20
208.848550227
 30
0.0
 11
629.7697489818
 21
210.4046169348
 31
0.0
  0
LINE
  5
3CD
330
1F
100
AcDbEntity
  8
0
  6
Continuous
 62
     7
370
    15
100
AcDbLine
 10
629.7697489818
 20
210.4046169348
 30
0.0
 11
665.2779627034
 21
219.963203696
 31
0.0
  0
LINE
  5
3CE
330
1F
100
AcDbEntity
  8
0
  6
Continuous
 62
     7
370
    15
100
AcDbLine
 10
629.7697489818
 20
210.4046169348
 30
0.0
 11
629.7697489818
 21
213.3441638576
 31
0.0
  0
LINE
  5
3CF
330
1F
100
AcDbEntity
  8
0
  6
Continuous
 62
     7
370
    15
100
AcDbLine
 10
665.2779627034
 20
222.9027506188
 30
0.0
 11
629.7697489818
 21
213.3441638576
 31
0.0
  0
LINE
  5
3D0
330
1F
100
AcDbEntity
  8
0
  6
Continuous
 62
     7
370
    15
100
AcDbLine
 10
629.7697489818
 20
213.3441638576
 30
0.0
 11
630.4686587147
 21
213.7477950984
 31
0.0
  0
LINE
  5
3D1
330
1F
100
AcDbEntity
  8
0
  6
Continuous
 62
     7
370
    15
100
AcDbLine
 10
630.4686587147
 20
213.7477950984
 30
0.0
 11
665.9768724363
 21
223.3063818595
 31
0.0
  0
LINE
  5
3D2
330
1F
100
AcDbEntity
  8
0
  6
Continuous
 62
     7
370
    15
100
AcDbLine
 10
615.6276133581
 20
202.2405358166
 30
0.0
 11
629.7697489818
 21
210.4046169348
 31
0.0
  0
LINE
  5
3D3
330
1F
100
AcDbEntity
  8
0
  6
Continuous
 62
     7
370
    15
100
AcDbLine
 10
615.6276133581
 20
202.2405358166
 30
0.0
 11
617.3246696329
 21
201.2606868423
 31
0.0
  0
LINE
  5
3D4
330
1F
100
AcDbEntity
  8
0
  6
Continuous
 62
     7
370
    15
100
AcDbLine
 10
615.6276133581
 20
202.2405358166
 30
0.0
 11
615.6276133581
 21
205.1800827394
 31
0.0
  0
LINE
  5
3D5
330
1F
100
AcDbEntity
  8
0
  6
Continuous
 62
     7
370
    15
100
AcDbLine
 10
629.7697489818
 20
213.3441638576
 30
0.0
 11
615.6276133581
 21
205.1800827394
 31
0.0
  0
LINE
  5
3D6
330
1F
100
AcDbEntity
  8
0
  6
Continuous
 62
     7
370
    15
100
AcDbLine
 10
615.6276133581
 20
205.1800827394
 30
0.0
 11
617.3246696329
 21
206.1599317136
 31
0.0
  0
LINE
  5
3D7
330
1F
100
AcDbEntity
  8
0
  6
Continuous
 62
     7
370
    15
100
AcDbLine
 10
617.3246696329
 20
206.1599317136
 30
0.0
 11
630.4686587147
 21
213.7477950984
 31
0.0
  0
LINE
  5
3D8
330
1F
100
AcDbEntity
  8
0
  6
Continuous
 62
     7
370
    15
100
AcDbLine
 10
689.3193522501
 20
206.0839674207
 30
0.0
 11
672.7618412779
 21
185.5858103354
 31
0.0
  0
LINE
  5
3D9
330
1F
100
AcDbEntity
  8
0
  6
Continuous
 62
     7
370
    15
100
AcDbLine
 10
672.7618412779
 20
185.5858103354
 30
0.0
 11
671.763694736
 21
185.0094333618
 31
0.0
  0
ARC
  5
3DA
330
1F
100
AcDbEntity
  8
0
  6
Continuous
 62
     7
370
    15
100
AcDbCircle
 10
629.3454849131
 20
206.367241637
 30
0.0
 40
2.524161725860363
100
AcDbArc
 50
247.4186657515
 51
292.5813342485
  0
ARC
  5
3DB
330
1F
100
AcDbEntity
  8
0
  6
Continuous
 62
     7
370
    15
100
AcDbCircle
 10
625.2442655822
 20
201.3871521549
 30
0.0
 40
2.524161725859933
100
AcDbArc
 50
247.4186657514
 51
292.5813342486
  0
ARC
  5
3DC
330
1F
100
AcDbEntity
  8
0
  6
Continuous
 62
     7
370
    15
100
AcDbCircle
 10
662.1552395601
 20
187.4265734427
 30
0.0
 40
2.52416172585947
100
AcDbArc
 50
247.4186657514
 51
292.5813342486
  0
ARC
  5
3DD
330
1F
100
AcDbEntity
  8
0
  6
Continuous
 62
     7
370
    15
100
AcDbCircle
 10
653.5285368297
 20
185.0589899184
 30
0.0
 40
2.524161725859829
100
AcDbArc
 50
247.4186657514
 51
292.5813342486
  0
LINE
  5
3DE
330
1F
100
AcDbEntity
  8
0
  6
Continuous
 62
     7
370
    15
100
AcDbLine
 10
752.0426535846
 20
300.328105853
 30
0.0
 11
752.0426535846
 21
278.0528725048
 31
0.0
  0
LINE
  5
3DF
330
1F
100
AcDbEntity
  8
0
  6
Continuous
 62
     7
370
    15
100
AcDbLine
 10
752.0426535846
 20
300.328105853
 30
0.0
 11
751.5901052446
 21
300.328105853
 31
0.0
  0
LINE
  5
3E0
330
1F
100
AcDbEntity
  8
0
  6
Continuous
 62
     7
370
    15
100
AcDbLine
 10
751.5901052446
 20
300.328105853
 30
0.0
 11
751.5901052446
 21
277.791579445
 31
0.0
  0
LINE
  5
3E1
330
1F
100
AcDbEntity
  8
0
  6
Continuous
 62
     7
370
    15
100
AcDbLine
 10
751.5901052446
 20
277.791579445
 30
0.0
 11
752.0426535846
 21
278.0528725048
 31
0.0
  0
LINE
  5
3E2
330
1F
100
AcDbEntity
  8
0
  6
Continuous
 62
     7
370
    15
100
AcDbLine
 10
749.2142264598
 20
298.9565402252
 30
0.0
 11
751.5901052446
 21
300.328105853
 31
0.0
  0
LINE
  5
3E3
330
1F
100
AcDbEntity
  8
0
  6
Continuous
 62
     7
370
    15
100
AcDbLine
 10
749.2142264598
 20
298.9565402252
 30
0.0
 11
749.2142264598
 21
276.4200138171
 31
0.0
  0
LINE
  5
3E4
330
1F
100
AcDbEntity
  8
0
  6
Continuous
 62
     7
370
    15
100
AcDbLine
 10
751.5901052446
 20
277.791579445
 30
0.0
 11
749.2142264598
 21
276.4200138171
 31
0.0
  0
LWPOLYLINE
  5
3E5
330
1F
100
AcDbEntity
  8
0
  6
Continuous
 62
     7
370
    15
100
AcDbPolyline
 90
       22
 70
   128
 43
0.0
 10
779.1302793661
 20
278.4850421695
 10
779.4637567782
 20
278.2344871696
 10
779.7676032589
 20
277.8901099058
 10
780.0148207149
 20
277.4825098094
 10
780.1834427902
 20
277.0479039375
 10
780.2584866736
 20
276.6249089292
 10
780.2332843867
 20
276.2511097472
 10
780.1100752632
 20
275.9597200892
 10
779.8998069745
 20
275.7766312051
 10
779.6211627807
 20
275.7181113457
 10
779.2989014414
 20
275.7893602573
 10
778.9616572907
 20
275.9840471615
 10
778.6393959514
 20
276.2848732724
 10
778.3607517577
 20
276.66510887
 10
778.1504834689
 20
277.0909683527
 10
778.0272743455
 20
277.5246122367
 10
778.0020720585
 20
277.9275093598
 10
778.0771159419
 20
278.2638605447
 10
778.2457380173
 20
278.5037795124
 10
778.4929554732
 20
278.6259484098
 10
778.7968019539
 20
278.6195119942
 10
779.1302793661
 20
278.4850421695
  0
LWPOLYLINE
  5
3E6
330
1F
100
AcDbEntity
  8
0
  6
Continuous
 62
     7
370
    15
100
AcDbPolyline
 90
       22
 70
   128
 43
0.0
 10
755.6151778353
 20
292.0600213316
 10
755.9486552475
 20
291.8094663317
 10
756.2525017282
 20
291.465089068
 10
756.4997191841
 20
291.0574889715
 10
756.6683412595
 20
290.6228830996
 10
756.7433851429
 20
290.1998880913
 10
756.7181828559
 20
289.8260889093
 10
756.5949737325
 20
289.5346992513
 10
756.3847054438
 20
289.3516103672
 10
756.10606125
 20
289.2930905078
 10
755.7837999107
 20
289.3643394194
 10
755.44655576
 20
289.5590263236
 10
755.1242944207
 20
289.8598524345
 10
754.8456502269
 20
290.2400880321
 10
754.6353819382
 20
290.6659475148
 10
754.5121728147
 20
291.0995913988
 10
754.4869705278
 20
291.502488522
 10
754.5620144112
 20
291.8388397068
 10
754.7306364865
 20
292.0787586745
 10
754.9778539425
 20
292.2009275719
 10
755.2817004232
 20
292.1944911563
 10
755.6151778353
 20
292.0600213316
  0
LINE
  5
3E7
330
1F
100
AcDbEntity
  8
0
  6
Continuous
 62
     7
370
    15
100
AcDbLine
 10
782.7028036168
 20
267.4395245871
 30
0.0
 11
782.7028036168
 21
282.6283779887
 31
0.0
  0
LINE
  5
3E8
330
1F
100
AcDbEntity
  8
0
  6
Continuous
 62
     7
370
    15
100
AcDbLine
 10
780.3238366614
 20
284.0017263795
 30
0.0
 11
782.7028036168
 21
282.6283779887
 31
0.0
  0
ARC
  5
3E9
330
1F
100
AcDbEntity
  8
0
  6
Continuous
 62
     7
370
    15
100
AcDbCircle
 10
766.6088829056
 20
284.1546023622
 30
0.0
 40
13.71580575795503
100
AcDbArc
 50
345.214573607
 51
359.3613696402
  0
ARC
  5
3EA
330
1F
100
AcDbEntity
  8
0
  6
Continuous
 62
     7
370
    15
100
AcDbCircle
 10
778.9572626018
 20
280.8748860536
 30
0.0
 40
0.9395274415462809
100
AcDbArc
 50
235.9217083368
 51
346.423054712
  0
LINE
  5
3EB
330
1F
100
AcDbEntity
  8
0
  6
Continuous
 62
     7
370
    15
100
AcDbLine
 10
778.430821684
 20
280.0967011312
 30
0.0
 11
778.0148580938
 21
280.2948075483
 31
0.0
  0
LINE
  5
3EC
330
1F
100
AcDbEntity
  8
0
  6
Continuous
 62
     7
370
    15
100
AcDbLine
 10
778.0148580938
 20
280.2948075483
 30
0.0
 11
776.7184354087
 21
278.4502306052
 31
0.0
  0
LINE
  5
3ED
330
1F
100
AcDbEntity
  8
0
  6
Continuous
 62
     7
370
    15
100
AcDbLine
 10
776.7184354087
 20
278.4502306052
 30
0.0
 11
776.894900722
 21
277.9113610985
 31
0.0
  0
LWPOLYLINE
  5
3EE
330
1F
100
AcDbEntity
  8
0
  6
Continuous
 62
     7
370
    15
100
AcDbPolyline
 90
        9
 70
   128
 43
0.0
 10
776.894900722
 20
277.9113610985
 10
776.9828093077
 20
277.5911239197
 10
777.0343287431
 20
277.279620523
 10
777.0482684816
 20
276.9840493442
 10
777.024306394
 20
276.7112406467
 10
776.9629962128
 20
276.4674986824
 10
776.865754736
 20
276.2584560092
 10
776.734829087
 20
276.0889433299
 10
776.5732447862
 20
275.9628778607
  0
LWPOLYLINE
  5
3EF
330
1F
100
AcDbEntity
  8
0
  6
Continuous
 62
     7
370
    15
100
AcDbPolyline
 90
       19
 70
   128
 43
0.0
 10
776.5732447862
 20
275.9628778607
 10
775.7385636869
 20
275.5540625868
 10
774.8394932339
 20
275.2703248717
 10
773.882953306
 20
275.1138485605
 10
772.8763061077
 20
275.085838005
 10
771.8272995041
 20
275.1865087941
 10
770.7440073882
 20
275.4150860946
 10
769.6347675385
 20
275.7698106148
 10
768.5081174453
 20
276.2479521451
 10
767.3727286007
 20
276.8458305719
 10
766.2373397561
 20
277.558844202
 10
765.1106896629
 20
278.3815051809
 10
764.0014498132
 20
279.3074817307
 10
762.9181576973
 20
280.3296468844
 10
761.8691510937
 20
281.4401333395
 10
760.8625038954
 20
282.6303940111
 10
759.9059639675
 20
283.8912678152
 10
759.0068935145
 20
285.21305018
 10
758.1722124152
 20
286.5855677382
  0
ARC
  5
3F0
330
1F
100
AcDbEntity
  8
0
  6
Continuous
 62
     7
370
    15
100
AcDbCircle
 10
760.3169308237
 20
288.0651687825
 30
0.0
 40
2.605577920994778
100
AcDbArc
 50
161.1867624259
 51
214.6010664388
  0
LINE
  5
3F1
330
1F
100
AcDbEntity
  8
0
  6
Continuous
 62
     7
370
    15
100
AcDbLine
 10
757.8505564795
 20
288.9054270144
 30
0.0
 11
758.0270217927
 21
289.2405540072
 31
0.0
  0
LINE
  5
3F2
330
1F
100
AcDbEntity
  8
0
  6
Continuous
 62
     7
370
    15
100
AcDbLine
 10
758.0270217927
 20
289.2405540072
 30
0.0
 11
756.7305991076
 21
292.5819487219
 31
0.0
  0
LINE
  5
3F3
330
1F
100
AcDbEntity
  8
0
  6
Continuous
 62
     7
370
    15
100
AcDbLine
 10
756.7305991076
 20
292.5819487219
 30
0.0
 11
756.3146355174
 21
292.8641036434
 31
0.0
  0
ARC
  5
3F4
330
1F
100
AcDbEntity
  8
0
  6
Continuous
 62
     7
370
    15
100
AcDbCircle
 10
758.5027447821
 20
295.8600161549
 30
0.0
 40
3.709894059234358
100
AcDbArc
 50
192.0741258298
 51
233.8569201841
  0
ARC
  5
3F5
330
1F
100
AcDbEntity
  8
0
  6
Continuous
 62
     7
370
    15
100
AcDbCircle
 10
775.4470908194
 20
299.4551019375
 30
0.0
 40
21.03142280172231
100
AcDbArc
 50
181.3632140779
 51
191.9956316886
  0
LINE
  5
3F6
330
1F
100
AcDbEntity
  8
0
  6
Continuous
 62
     7
370
    15
100
AcDbLine
 10
752.0426535846
 20
300.328105853
 30
0.0
 11
754.42162054
 21
298.9547574622
 31
0.0
  0
LINE
  5
3F7
330
1F
100
AcDbEntity
  8
0
  6
Continuous
 62
     7
370
    15
100
AcDbLine
 10
752.0426535846
 20
278.0528725048
 30
0.0
 11
752.0426903635
 21
278.0528512728
 31
0.0
  0
ARC
  5
3F8
330
1F
100
AcDbEntity
  8
0
  6
Continuous
 62
     7
370
    15
100
AcDbCircle
 10
771.2572214101
 20
275.329043078
 30
0.0
 40
2.965375442199638
100
AcDbArc
 50
3.8300013104
 51
18.6747875546
  0
LINE
  5
3F9
330
1F
100
AcDbEntity
  8
0
  6
Continuous
 62
     7
370
    15
100
AcDbLine
 10
773.890008284
 20
276.8174143815
 30
0.0
 11
774.0664735972
 21
276.2785448748
 31
0.0
  0
LINE
  5
3FA
330
1F
100
AcDbEntity
  8
0
  6
Continuous
 62
     7
370
    15
100
AcDbLine
 10
776.18626291
 20
276.1089683774
 30
0.0
 11
776.5732447862
 21
275.9628778607
 31
0.0
  0
LWPOLYLINE
  5
3FB
330
1F
100
AcDbEntity
  8
0
  6
Continuous
 62
     7
370
    15
100
AcDbPolyline
 90
       10
 70
   128
 43
0.0
 10
776.18626291
 20
276.1089683774
 10
775.3158857317
 20
275.6874676999
 10
774.3750213959
 20
275.4039033856
 10
773.3717878301
 20
275.2607220726
 10
772.3148410937
 20
275.259159152
 10
771.2133006921
 20
275.3992281091
 10
770.0766708915
 20
275.6797204065
 10
768.9147587155
 20
276.0982159118
 10
767.7375893277
 20
276.6511037791
 10
767.2570062268
 20
276.9132325684
  0
ARC
  5
3FC
330
1F
100
AcDbEntity
  8
0
  6
Continuous
 62
     7
370
    15
100
AcDbCircle
 10
752.960981897
 20
289.2213213319
 30
0.0
 40
2.523619899604062
100
AcDbArc
 50
7.4008431182
 51
52.5937803491
  0
LINE
  5
3FD
330
1F
100
AcDbEntity
  8
0
  6
Continuous
 62
     7
370
    15
100
AcDbLine
 10
757.8293563517
 20
288.5459877731
 30
0.0
 11
757.8505564795
 21
288.9054270144
 31
0.0
  0
ARC
  5
3FE
330
1F
100
AcDbEntity
  8
0
  6
Continuous
 62
     7
370
    15
100
AcDbCircle
 10
758.9702830113
 20
287.9855008937
 30
0.0
 40
1.271164499384746
100
AcDbArc
 50
153.8371519859
 51
176.8361758407
  0
LINE
  5
3FF
330
1F
100
AcDbEntity
  8
0
  6
Continuous
 62
     7
370
    15
100
AcDbLine
 10
758.0270217927
 20
289.2405540072
 30
0.0
 11
758.0556022408
 21
288.9756535416
 31
0.0
  0
LINE
  5
400
330
1F
100
AcDbEntity
  8
0
  6
Continuous
 62
     7
370
    15
100
AcDbLine
 10
758.0556022408
 20
288.9756535416
 30
0.0
 11
757.8293563517
 21
288.5459877731
 31
0.0
  0
LINE
  5
401
330
1F
100
AcDbEntity
  8
0
  6
Continuous
 62
     7
370
    15
100
AcDbLine
 10
776.894900722
 20
277.9113610985
 30
0.0
 11
776.4635525097
 21
277.7886953065
 31
0.0
  0
ARC
  5
402
330
1F
100
AcDbEntity
  8
0
  6
Continuous
 62
     7
370
    15
100
AcDbCircle
 10
775.2109764382
 20
277.1327198008
 30
0.0
 40
1.413948612541353
100
AcDbArc
 50
313.6111852453
 51
27.6411018358
  0
LINE
  5
403
330
1F
100
AcDbEntity
  8
0
  6
Continuous
 62
     7
370
    15
100
AcDbLine
 10
774.0876737249
 20
276.4171296786
 30
0.0
 11
776.4635525097
 21
277.7886953065
 31
0.0
  0
ARC
  5
404
330
1F
100
AcDbEntity
  8
0
  6
Continuous
 62
     7
370
    15
100
AcDbCircle
 10
772.0941301564
 20
275.6796638725
 30
0.0
 40
2.125575633730012
100
AcDbArc
 50
351.5496084592
 51
20.3008001008
  0
LINE
  5
405
330
1F
100
AcDbEntity
  8
0
  6
Continuous
 62
     7
370
    15
100
AcDbLine
 10
776.2373066207
 20
278.4795790184
 30
0.0
 11
776.7184354087
 21
278.4502306052
 31
0.0
  0
LINE
  5
406
330
1F
100
AcDbEntity
  8
0
  6
Continuous
 62
     7
370
    15
100
AcDbLine
 10
776.4635525097
 20
277.7886953065
 30
0.0
 11
776.2373066207
 21
278.4795790184
 31
0.0
  0
LINE
  5
407
330
1F
100
AcDbEntity
  8
0
  6
Continuous
 62
     7
370
    15
100
AcDbLine
 10
773.8614278359
 20
277.1080133905
 30
0.0
 11
774.0876737249
 21
276.4171296786
 31
0.0
  0
LINE
  5
408
330
1F
100
AcDbEntity
  8
0
  6
Continuous
 62
     7
370
    15
100
AcDbLine
 10
773.8614278359
 20
277.1080133905
 30
0.0
 11
776.2373066207
 21
278.4795790184
 31
0.0
  0
LINE
  5
409
330
1F
100
AcDbEntity
  8
0
  6
Continuous
 62
     7
370
    15
100
AcDbLine
 10
778.0148580938
 20
280.2948075483
 30
0.0
 11
777.651520183
 21
280.4917512518
 31
0.0
  0
LINE
  5
40A
330
1F
100
AcDbEntity
  8
0
  6
Continuous
 62
     7
370
    15
100
AcDbLine
 10
776.2373066207
 20
278.4795790184
 30
0.0
 11
777.651520183
 21
280.4917512518
 31
0.0
  0
LINE
  5
40B
330
1F
100
AcDbEntity
  8
0
  6
Continuous
 62
     7
370
    15
100
AcDbLine
 10
773.8614278359
 20
277.1080133905
 30
0.0
 11
775.2756413983
 21
279.120185624
 31
0.0
  0
LINE
  5
40C
330
1F
100
AcDbEntity
  8
0
  6
Continuous
 62
     7
370
    15
100
AcDbLine
 10
777.651520183
 20
280.4917512518
 30
0.0
 11
775.2756413983
 21
279.120185624
 31
0.0
  0
LINE
  5
40D
330
1F
100
AcDbEntity
  8
0
  6
Continuous
 62
     7
370
    15
100
AcDbLine
 10
774.0664735972
 20
276.2785448748
 30
0.0
 11
774.0876737249
 21
276.4171296786
 31
0.0
  0
ARC
  5
40E
330
1F
100
AcDbEntity
  8
0
  6
Continuous
 62
     7
370
    15
100
AcDbCircle
 10
776.4760834277
 20
275.6463421698
 30
0.0
 40
2.523619899604534
100
AcDbArc
 50
7.4008431182
 51
52.5937803491
  0
LINE
  5
40F
330
1F
100
AcDbEntity
  8
0
  6
Continuous
 62
     7
370
    15
100
AcDbLine
 10
773.8614278359
 20
277.1080133905
 30
0.0
 11
773.890008284
 21
276.8174143815
 31
0.0
  0
LINE
  5
410
330
1F
100
AcDbEntity
  8
0
  6
Continuous
 62
     7
370
    15
100
AcDbLine
 10
778.1848264207
 20
280.237759339
 30
0.0
 11
778.430821684
 21
280.0967011312
 31
0.0
  0
LINE
  5
411
330
1F
100
AcDbEntity
  8
0
  6
Continuous
 62
     7
370
    15
100
AcDbLine
 10
777.651520183
 20
280.4917512518
 30
0.0
 11
778.1848264207
 21
280.237759339
 31
0.0
  0
LINE
  5
412
330
1F
100
AcDbEntity
  8
0
  6
Continuous
 62
     7
370
    15
100
AcDbLine
 10
779.4259589818
 20
280.7184747872
 30
0.0
 11
779.8705354549
 21
280.6543310512
 31
0.0
  0
ARC
  5
413
330
1F
100
AcDbEntity
  8
0
  6
Continuous
 62
     7
370
    15
100
AcDbCircle
 10
778.6386547981
 20
280.90860841
 30
0.0
 40
0.8099374496055262
100
AcDbArc
 50
235.9217083362
 51
346.4230547124
  0
ARC
  5
414
330
1F
100
AcDbEntity
  8
0
  6
Continuous
 62
     7
370
    15
100
AcDbCircle
 10
766.4002214757
 20
284.1568430374
 30
0.0
 40
13.47190460925529
100
AcDbArc
 50
345.213075996
 51
359.3404117681
  0
LINE
  5
415
330
1F
100
AcDbEntity
  8
0
  6
Continuous
 62
     7
370
    15
100
AcDbLine
 10
779.8712334072
 20
284.0017580808
 30
0.0
 11
780.3238366614
 21
284.0017263795
 31
0.0
  0
ARC
  5
416
330
1F
100
AcDbEntity
  8
0
  6
Continuous
 62
     7
370
    15
100
AcDbCircle
 10
763.2274370295
 20
282.8508514119
 30
0.0
 40
14.26962377973653
100
AcDbArc
 50
349.5650133193
 51
359.1139688638
  0
LINE
  5
417
330
1F
100
AcDbEntity
  8
0
  6
Continuous
 62
     7
370
    15
100
AcDbLine
 10
777.4953546224
 20
282.630192453
 30
0.0
 11
779.8712334072
 21
284.0017580808
 31
0.0
  0
LINE
  5
418
330
1F
100
AcDbEntity
  8
0
  6
Continuous
 62
     7
370
    15
100
AcDbLine
 10
749.216835932
 20
299.3470158626
 30
0.0
 11
749.2167979698
 21
299.6082883736
 31
0.0
  0
LINE
  5
419
330
1F
100
AcDbEntity
  8
0
  6
Continuous
 62
     7
370
    15
100
AcDbLine
 10
749.2167979698
 20
299.6082883736
 30
0.0
 11
751.5926767545
 21
300.9798540014
 31
0.0
  0
LINE
  5
41A
330
1F
100
AcDbEntity
  8
0
  6
Continuous
 62
     7
370
    15
100
AcDbLine
 10
751.5926767545
 20
300.9798540014
 30
0.0
 11
752.0452630568
 21
300.9798320863
 31
0.0
  0
LINE
  5
41B
330
1F
100
AcDbEntity
  8
0
  6
Continuous
 62
     7
370
    15
100
AcDbLine
 10
752.0452630568
 20
300.9798320863
 30
0.0
 11
754.42162054
 21
299.6079901117
 31
0.0
  0
LINE
  5
41C
330
1F
100
AcDbEntity
  8
0
  6
Continuous
 62
     7
370
    15
100
AcDbLine
 10
754.4216754543
 20
299.3467078146
 30
0.0
 11
754.42162054
 21
299.6079901117
 31
0.0
  0
LINE
  5
41D
330
1F
100
AcDbEntity
  8
0
  6
Continuous
 62
     7
370
    15
100
AcDbLine
 10
754.4216754543
 20
299.3467078146
 30
0.0
 11
754.082172252
 21
299.1507167877
 31
0.0
  0
LINE
  5
41E
330
1F
100
AcDbEntity
  8
0
  6
Continuous
 62
     7
370
    15
100
AcDbLine
 10
749.216835932
 20
299.3470158626
 30
0.0
 11
749.5537296621
 21
299.152531252
 31
0.0
  0
LWPOLYLINE
  5
41F
330
1F
100
AcDbEntity
  8
0
  6
Continuous
 62
     7
370
    15
100
AcDbPolyline
 90
       21
 70
   128
 43
0.0
 10
751.5926767545
 20
300.9798540014
 10
751.6676659127
 20
302.4015450859
 10
751.8459585151
 20
303.7516434686
 10
752.1263646597
 20
305.0211387665
 10
752.507012952
 20
306.2015585312
 10
752.9853629943
 20
307.2850247931
 10
753.5582223398
 20
308.2643066376
 10
754.221767799
 20
309.1328684635
 10
754.9715709548
 20
309.8849136011
 10
755.8026277173
 20
310.5154229977
 10
756.7093917207
 20
311.0201887146
 10
757.6858113384
 20
311.3958420105
 10
758.7253700716
 20
311.6398758235
 10
759.821130039
 20
311.7506615033
 10
760.9657782794
 20
311.7274596805
 10
762.1516755577
 20
311.5704252012
 10
763.3709073478
 20
311.2806060932
 10
764.6153366538
 20
310.859936572
 10
765.8766583142
 20
310.3112241319
 10
767.1464544307
 20
309.6381308092
 10
767.148982775
 20
309.6366709899
  0
LINE
  5
420
330
1F
100
AcDbEntity
  8
0
  6
Continuous
 62
     7
370
    15
100
AcDbLine
 10
782.7001941446
 20
283.2831170545
 30
0.0
 11
782.7002321069
 21
283.0218445435
 31
0.0
  0
LWPOLYLINE
  5
421
330
1F
100
AcDbEntity
  8
0
  6
Continuous
 62
     7
370
    15
100
AcDbPolyline
 90
       39
 70
   128
 43
0.0
 10
782.7001941446
 20
283.2831170545
 10
782.6259818307
 20
284.7693597083
 10
782.4500064406
 20
286.3025401506
 10
782.1734420058
 20
287.8724296677
 10
781.7981336439
 20
289.4685546392
 10
781.3265852493
 20
291.080266413
 10
780.7619427877
 20
292.6968123485
 10
780.1079733085
 20
294.3074075539
 10
779.3690398116
 20
295.901306838
 10
778.5500721402
 20
297.4678763975
 10
777.6565340906
 20
298.9966647612
 10
776.6943869605
 20
300.4774725176
 10
775.6700497772
 20
301.9004203609
 10
774.5903564733
 20
303.2560150015
 10
773.4625102931
 20
304.5352125013
 10
772.2940357363
 20
305.7294786104
 10
771.0927283572
 20
306.8308457044
 10
769.8666027565
 20
307.8319659408
 10
768.6238391114
 20
308.7261602804
 10
767.3727286007
 20
309.5074630473
 10
766.12161809
 20
310.170661729
 10
764.8788544449
 20
310.7113317521
 10
763.6527288442
 20
311.1258660011
 10
762.4514214651
 20
311.4114988839
 10
761.2829469083
 20
311.5663247819
 10
760.1551007282
 20
311.589310764
 10
759.0754074242
 20
311.4803034777
 10
758.0510702409
 20
311.2400301723
 10
757.0889231108
 20
310.8700938468
 10
756.1953850612
 20
310.3729625557
 10
755.3764173899
 20
309.7519529427
 10
754.637483893
 20
309.0112081143
 10
753.9835144137
 20
308.1556699978
 10
753.4188719521
 20
307.1910463718
 10
752.9473235575
 20
306.1237727859
 10
752.5720151956
 20
304.9609696255
 10
752.2954507608
 20
303.710394608
 10
752.1194753707
 20
302.3803910263
 10
752.0452630568
 20
300.9798320863
  0
LINE
  5
422
330
1F
100
AcDbEntity
  8
0
  6
Continuous
 62
     7
370
    15
100
AcDbLine
 10
751.5186233144
 20
302.7537078197
 30
0.0
 11
749.5387243271
 21
301.6107364631
 31
0.0
  0
ARC
  5
423
330
1F
100
AcDbEntity
  8
0
  6
Continuous
 62
     7
370
    15
100
AcDbCircle
 10
764.5458276295
 20
301.4004092478
 30
0.0
 40
13.09730771154588
100
AcDbArc
 50
153.6644385438
 51
174.069244113
  0
SPLINE
  5
424
330
1F
100
AcDbEntity
  8
0
  6
Continuous
 62
     7
370
    15
100
AcDbSpline
210
0.0
220
0.0
230
1.0
 70
     8
 71
     3
 72
    20
 73
    16
 74
     0
 42
0.00000001
 43
0.00000001
 12
1.0
 22
0.0
 32
0.0
 13
1.0
 23
0.0
 33
0.0
 40
0.0
 40
0.0
 40
0.0
 40
0.0
 40
0.1409296696826406
 40
0.2810227121936014
 40
0.348325961046319
 40
0.4160482144409871
 40
0.4580362164540765
 40
0.499969569758401
 40
0.5375541003874045
 40
0.5749610342068621
 40
0.6373237421805543
 40
0.7436664884028436
 40
0.846798052667326
 40
0.9501848502349783
 40
1.0
 40
1.0
 40
1.0
 40
1.0
 10
750.8279740062558
 20
306.0677640660269
 30
0.0
 10
750.936000892184
 20
306.2586276904409
 30
0.0
 10
751.1514133638212
 20
306.639221879817
 30
0.0
 10
751.5677204871843
 20
307.1418565342484
 30
0.0
 10
751.9800321343267
 20
307.5505332551313
 30
0.0
 10
752.2924480767977
 20
307.8192536556884
 30
0.0
 10
752.5817235601547
 20
308.0355884112193
 30
0.0
 10
752.8075864488519
 20
308.181027751803
 30
0.0
 10
752.9837052192887
 20
308.2697788272918
 30
0.0
 10
753.1275265129617
 20
308.3121472388389
 30
0.0
 10
753.2324216632186
 20
308.2758542659843
 30
0.0
 10
753.2156071016113
 20
308.0933466961897
 30
0.0
 10
753.0950294455206
 20
307.7857563680215
 30
0.0
 10
752.9456226093764
 20
307.4799013753475
 30
0.0
 10
752.8416731899122
 20
307.2767817922713
 30
0.0
 10
752.8078729935781
 20
307.2107354225787
 30
0.0
  0
ARC
  5
425
330
1F
100
AcDbEntity
  8
0
  6
Continuous
 62
     7
370
    15
100
AcDbCircle
 10
762.5659286421
 20
300.2574378913
 30
0.0
 40
13.09730771154739
100
AcDbArc
 50
153.6644385438
 51
174.069244113
  0
LINE
  5
426
330
1F
100
AcDbEntity
  8
0
  6
Continuous
 62
     7
370
    15
100
AcDbLine
 10
782.7002321069
 20
283.0218445435
 30
0.0
 11
782.3607289047
 21
282.8258535166
 31
0.0
  0
LWPOLYLINE
  5
427
330
1F
100
AcDbEntity
  8
0
  6
Continuous
 62
     7
370
    15
100
AcDbPolyline
 90
       11
 70
   128
 43
0.0
 10
749.2167979698
 20
299.6082883736
 10
749.291787128
 20
301.0299794581
 10
749.4700797303
 20
302.3800778407
 10
749.7504858749
 20
303.6495731386
 10
750.1311341672
 20
304.8299929034
 10
750.6094842095
 20
305.9134591652
 10
751.182343555
 20
306.8927410097
 10
751.8458890142
 20
307.7613028357
 10
752.59569217
 20
308.5133479732
 10
753.4267489325
 20
309.1438573698
 10
753.7714695869
 20
309.3557422922
  0
LINE
  5
428
330
1F
100
AcDbEntity
  8
0
  6
Continuous
 62
     7
370
    15
100
AcDbLine
 10
766.2413577508
 20
307.6456438361
 30
0.0
 11
766.2413577508
 21
308.6254928104
 31
0.0
  0
LWPOLYLINE
  5
429
330
1F
100
AcDbEntity
  8
0
  6
Continuous
 62
     7
370
    15
100
AcDbPolyline
 90
       11
 70
   128
 43
0.0
 10
768.5040994506
 20
306.3393908572
 10
768.4487262198
 20
305.967637163
 10
768.2880268452
 20
305.6962058818
 10
768.0377317011
 20
305.5516665988
 10
767.7223414203
 20
305.548167826
 10
767.3727286007
 20
305.6860520477
 10
767.0231157811
 20
305.9518221955
 10
766.7077255003
 20
306.3194628356
 10
766.4574303562
 20
306.7529867407
 10
766.2967309816
 20
307.2099575705
 10
766.2413577508
 20
307.6456438361
  0
LINE
  5
42A
330
1F
100
AcDbEntity
  8
0
  6
Continuous
 62
     7
370
    15
100
AcDbLine
 10
768.5040994506
 20
307.3192398315
 30
0.0
 11
768.5040994506
 21
306.3393908572
 31
0.0
  0
LWPOLYLINE
  5
42B
330
1F
100
AcDbEntity
  8
0
  6
Continuous
 62
     7
370
    15
100
AcDbPolyline
 90
       11
 70
   128
 43
0.0
 10
766.2413577508
 20
308.6254928104
 10
766.2967309816
 20
308.9972465047
 10
766.4574303562
 20
309.2686777858
 10
766.7077255003
 20
309.4132170688
 10
767.0231157811
 20
309.4167158416
 10
767.3727286007
 20
309.27883162
 10
767.7223414203
 20
309.0130614722
 10
768.0377317011
 20
308.645420832
 10
768.2880268452
 20
308.2118969269
 10
768.4487262198
 20
307.7549260971
 10
768.5040994506
 20
307.3192398315
  0
LINE
  5
42C
330
1F
100
AcDbEntity
  8
0
  6
Continuous
 62
     7
370
    15
100
AcDbLine
 10
768.6691512858
 20
304.3823954098
 30
0.0
 11
768.9086495628
 21
304.639109995
 31
0.0
  0
LINE
  5
42D
330
1F
100
AcDbEntity
  8
0
  6
Continuous
 62
     7
370
    15
100
AcDbLine
 10
766.0763059156
 20
305.8792131814
 30
0.0
 11
768.6691512858
 21
304.3823954098
 31
0.0
  0
LINE
  5
42E
330
1F
100
AcDbEntity
  8
0
  6
Continuous
 62
     7
370
    15
100
AcDbLine
 10
765.8368076386
 20
306.4124465913
 30
0.0
 11
766.0763059156
 21
305.8792131814
 31
0.0
  0
ARC
  5
42F
330
1F
100
AcDbEntity
  8
0
  6
Continuous
 62
     7
370
    15
100
AcDbCircle
 10
762.939110137
 20
305.2775325588
 30
0.0
 40
3.112021958814239
100
AcDbArc
 50
21.388323011
 51
68.5837201802
  0
LWPOLYLINE
  5
430
330
1F
100
AcDbEntity
  8
0
  6
Continuous
 62
     7
370
    15
100
AcDbPolyline
 90
       15
 70
   128
 43
0.0
 10
754.42162054
 20
299.6079901117
 10
754.5027540055
 20
300.9375492807
 10
754.6933500557
 20
302.1894324638
 10
754.9917876201
 20
303.3529920587
 10
755.3955284073
 20
304.4183316792
 10
755.9011384935
 20
305.3763903261
 10
756.5043175294
 20
306.2190194538
 10
757.1999353156
 20
306.9390522755
 10
757.9820754363
 20
307.5303647192
 10
758.8440855801
 20
307.9879275138
 10
759.7786341195
 20
308.3078489652
 10
760.7777724686
 20
308.4874080556
 10
761.833002688
 20
308.5250775868
 10
762.9353497616
 20
308.4205371693
 10
764.075437932
 20
308.1746759475
  0
LINE
  5
431
330
1F
100
AcDbEntity
  8
0
  6
Continuous
 62
     7
370
    15
100
AcDbLine
 10
780.3238366614
 20
284.654959029
 30
0.0
 11
782.7001941446
 21
283.2831170545
 31
0.0
  0
LWPOLYLINE
  5
432
330
1F
100
AcDbEntity
  8
0
  6
Continuous
 62
     7
370
    15
100
AcDbPolyline
 90
       15
 70
   128
 43
0.0
 10
770.6700192694
 20
304.3677051751
 10
771.8101074398
 20
303.2972486139
 10
772.9124545134
 20
302.1290461913
 10
773.9676847328
 20
300.873033782
 10
774.966823082
 20
299.5398941083
 10
775.9013716214
 20
298.1409658806
 10
776.7633817651
 20
296.6881473586
 10
777.5455218858
 20
295.1937951534
 10
778.241139672
 20
293.6706191311
 10
778.844318708
 20
292.1315743122
 10
779.3499287942
 20
290.5897506855
 10
779.7536695813
 20
289.0582618745
 10
780.0521071457
 20
287.550133602
 10
780.2427031959
 20
286.0781929034
 10
780.3238366614
 20
284.654959029
  0
LWPOLYLINE
  5
433
330
1F
100
AcDbEntity
  8
0
  6
Continuous
 62
     7
370
    15
100
AcDbPolyline
 90
        9
 70
   128
 43
0.0
 10
768.9086495628
 20
304.639109995
 10
769.0668007959
 20
304.7704688956
 10
769.2523510259
 20
304.855756184
 10
769.4610124298
 20
304.8930009827
 10
769.6879631156
 20
304.881342613
 10
769.9279585498
 20
304.8210504846
 10
770.175452752
 20
304.7135178698
 10
770.4247264549
 20
304.5612297066
 10
770.6700192694
 20
304.3677051751
  0
LINE
  5
434
330
1F
100
AcDbEntity
  8
0
  6
Continuous
 62
     7
370
    15
100
AcDbLine
 10
763.9067583588
 20
307.7581149692
 30
0.0
 11
764.075437932
 21
308.1746759475
 31
0.0
  0
LWPOLYLINE
  5
435
330
1F
100
AcDbEntity
  8
0
  6
Continuous
 62
     7
370
    15
100
AcDbPolyline
 90
       15
 70
   128
 43
0.0
 10
754.4216754543
 20
299.3467078146
 10
754.5018061089
 20
300.6523632534
 10
754.6894182864
 20
301.881703156
 10
754.9829172533
 20
303.0242779375
 10
755.3798082218
 20
304.0703755305
 10
755.8767175555
 20
305.011103939
 10
756.4694214459
 20
305.8384668219
 10
757.1528818156
 20
306.5454314629
 10
757.9212891429
 20
307.1259885501
 10
758.768111843
 20
307.575203256
 10
759.6861517883
 20
307.8892571839
 10
760.6676054933
 20
308.0654808256
 10
761.7041304451
 20
308.1023762521
 10
762.7869160169
 20
307.9996298464
 10
763.9067583589
 20
307.7581149692
  0
LINE
  5
436
330
1F
100
AcDbEntity
  8
0
  6
Continuous
 62
     7
370
    15
100
AcDbLine
 10
761.5308795741
 20
306.3865493414
 30
0.0
 11
763.9067583589
 21
307.7581149692
 31
0.0
  0
ARC
  5
437
330
1F
100
AcDbEntity
  8
0
  6
Continuous
 62
     7
370
    15
100
AcDbCircle
 10
759.1912243448
 20
298.7175750582
 30
0.0
 40
8.017926985687339
100
AcDbArc
 50
73.0340695173
 51
105.5782863026
  0
LINE
  5
438
330
1F
100
AcDbEntity
  8
0
  6
Continuous
 62
     7
370
    15
100
AcDbLine
 10
780.3238366614
 20
284.654959029
 30
0.0
 11
779.8712334072
 21
284.6549907304
 31
0.0
  0
LWPOLYLINE
  5
439
330
1F
100
AcDbEntity
  8
0
  6
Continuous
 62
     7
370
    15
100
AcDbPolyline
 90
       15
 70
   128
 43
0.0
 10
770.3861505026
 20
304.0176415029
 10
771.5059928446
 20
302.966213933
 10
772.5887784163
 20
301.818802728
 10
773.6253033682
 20
300.5851610656
 10
774.6067570731
 20
299.2757750961
 10
775.5247970184
 20
297.9017748089
 10
776.3716197186
 20
296.4748394248
 10
777.1400270458
 20
295.0070981218
 10
777.8234874156
 20
293.5110269345
 10
778.416191306
 20
291.999342706
 10
778.9131006396
 20
290.4848949928
 10
779.3099916081
 20
288.9805568415
 10
779.6034905751
 20
287.4991153657
 10
779.7911027525
 20
286.0531630538
 10
779.8712334072
 20
284.6549907304
  0
LINE
  5
43A
330
1F
100
AcDbEntity
  8
0
  6
Continuous
 62
     7
370
    15
100
AcDbLine
 10
770.3861505026
 20
304.0176415029
 30
0.0
 11
770.6700192694
 21
304.3677051751
 31
0.0
  0
LINE
  5
43B
330
1F
100
AcDbEntity
  8
0
  6
Continuous
 62
     7
370
    15
100
AcDbLine
 10
777.4953546224
 20
283.2834251025
 30
0.0
 11
779.8712334072
 21
284.6549907304
 31
0.0
  0
LWPOLYLINE
  5
43C
330
1F
100
AcDbEntity
  8
0
  6
Continuous
 62
     7
370
    15
100
AcDbPolyline
 90
       15
 70
   128
 43
0.0
 10
768.0102717178
 20
302.646075875
 10
769.1301140598
 20
301.5946483052
 10
770.2128996315
 20
300.4472371001
 10
771.2494245834
 20
299.2135954377
 10
772.2308782883
 20
297.9042094683
 10
773.1489182337
 20
296.530209181
 10
773.9957409338
 20
295.103273797
 10
774.764148261
 20
293.635532494
 10
775.4476086308
 20
292.1394613066
 10
776.0403125212
 20
290.6277770781
 10
776.5372218548
 20
289.1133293649
 10
776.9341128233
 20
287.6089912136
 10
777.2276117903
 20
286.1275497379
 10
777.4152239678
 20
284.6815974259
 10
777.4953546224
 20
283.2834251025
  0
LINE
  5
43D
330
1F
100
AcDbEntity
  8
0
  6
Continuous
 62
     7
370
    15
100
AcDbLine
 10
768.0102717178
 20
302.646075875
 30
0.0
 11
770.3861505026
 21
304.0176415029
 31
0.0
  0
LINE
  5
43E
330
1F
100
AcDbEntity
  8
0
  6
Continuous
 62
     7
370
    15
100
AcDbLine
 10
777.4954095367
 20
283.0221428054
 30
0.0
 11
777.4953546224
 21
283.2834251025
 31
0.0
  0
LINE
  5
43F
330
1F
100
AcDbEntity
  8
0
  6
Continuous
 62
     7
370
    15
100
AcDbLine
 10
767.8415921447
 20
302.7348889514
 30
0.0
 11
768.0102717178
 21
302.646075875
 31
0.0
  0
LWPOLYLINE
  5
440
330
1F
100
AcDbEntity
  8
0
  6
Continuous
 62
     7
370
    15
100
AcDbPolyline
 90
       15
 70
   128
 43
0.0
 10
767.8415921447
 20
302.7348889514
 10
768.9816803151
 20
301.6644323903
 10
770.0840273887
 20
300.4962299677
 10
771.139257608
 20
299.2402175583
 10
772.1383959572
 20
297.9070778846
 10
773.0729444966
 20
296.508149657
 10
773.9349546404
 20
295.055331135
 10
774.7170947611
 20
293.5609789297
 10
775.4127125473
 20
292.0378029074
 10
776.0158915832
 20
290.4987580885
 10
776.5215016694
 20
288.9569344619
 10
776.9252424565
 20
287.4254456508
 10
777.223680021
 20
285.9173173783
 10
777.4142760712
 20
284.4453766797
 10
777.4954095367
 20
283.0221428054
  0
LINE
  5
441
330
1F
100
AcDbEntity
  8
0
  6
Continuous
 62
     7
370
    15
100
AcDbLine
 10
765.4251805197
 20
306.2389517311
 30
0.0
 11
765.8368076386
 21
306.4124465913
 31
0.0
  0
ARC
  5
442
330
1F
100
AcDbEntity
  8
0
  6
Continuous
 62
     7
370
    15
100
AcDbCircle
 10
762.9271654321
 20
305.2605775652
 30
0.0
 40
2.682777550678487
100
AcDbArc
 50
21.3883230106
 51
68.5837201804
  0
LINE
  5
443
330
1F
100
AcDbEntity
  8
0
  6
Continuous
 62
     7
370
    15
100
AcDbLine
 10
765.4251805197
 20
306.2389517311
 30
0.0
 11
763.049301735
 21
304.8673861032
 31
0.0
  0
ARC
  5
444
330
1F
100
AcDbEntity
  8
0
  6
Continuous
 62
     7
370
    15
100
AcDbCircle
 10
760.5512866474
 20
303.8890119374
 30
0.0
 40
2.682777550662861
100
AcDbArc
 50
21.3883230106
 51
68.5837201804
  0
LINE
  5
445
330
1F
100
AcDbEntity
  8
0
  6
Continuous
 62
     7
370
    15
100
AcDbLine
 10
766.0763059156
 20
305.8792131814
 30
0.0
 11
765.7322408684
 21
305.5552940497
 31
0.0
  0
LINE
  5
446
330
1F
100
AcDbEntity
  8
0
  6
Continuous
 62
     7
370
    15
100
AcDbLine
 10
765.7322408684
 20
305.5552940497
 30
0.0
 11
765.4251805197
 21
306.2389517311
 31
0.0
  0
LINE
  5
447
330
1F
100
AcDbEntity
  8
0
  6
Continuous
 62
     7
370
    15
100
AcDbLine
 10
765.7322408684
 20
305.5552940497
 30
0.0
 11
763.3563620836
 21
304.1837284219
 31
0.0
  0
LINE
  5
448
330
1F
100
AcDbEntity
  8
0
  6
Continuous
 62
     7
370
    15
100
AcDbLine
 10
763.049301735
 20
304.8673861032
 30
0.0
 11
763.3563620836
 21
304.1837284219
 31
0.0
  0
LINE
  5
449
330
1F
100
AcDbEntity
  8
0
  6
Continuous
 62
     7
370
    15
100
AcDbLine
 10
768.5606679931
 20
303.9224778261
 30
0.0
 11
768.6691512858
 21
304.3823954098
 31
0.0
  0
LINE
  5
44A
330
1F
100
AcDbEntity
  8
0
  6
Continuous
 62
     7
370
    15
100
AcDbLine
 10
768.5606679931
 20
303.9224778261
 30
0.0
 11
765.7322408684
 21
305.5552940497
 31
0.0
  0
LINE
  5
44B
330
1F
100
AcDbEntity
  8
0
  6
Continuous
 62
     7
370
    15
100
AcDbLine
 10
766.1847892083
 20
302.5509121982
 30
0.0
 11
768.5606679931
 21
303.9224778261
 31
0.0
  0
LINE
  5
44C
330
1F
100
AcDbEntity
  8
0
  6
Continuous
 62
     7
370
    15
100
AcDbLine
 10
766.1847892083
 20
302.5509121982
 30
0.0
 11
763.3563620836
 21
304.1837284219
 31
0.0
  0
LINE
  5
44D
330
1F
100
AcDbEntity
  8
0
  6
Continuous
 62
     7
370
    15
100
AcDbLine
 10
763.049301735
 20
304.8673861032
 30
0.0
 11
763.0083805139
 21
304.7796303676
 31
0.0
  0
ARC
  5
44E
330
1F
100
AcDbEntity
  8
0
  6
Continuous
 62
     7
370
    15
100
AcDbCircle
 10
759.7240817875
 20
303.3670254393
 30
0.0
 40
3.575202205116538
100
AcDbArc
 50
23.2729530236
 51
54.8546299068
  0
LINE
  5
44F
330
1F
100
AcDbEntity
  8
0
  6
Continuous
 62
     7
370
    15
100
AcDbLine
 10
766.7363324976
 20
306.87021537
 30
0.0
 11
766.7363324976
 21
306.2797190352
 31
0.0
  0
ARC
  5
450
330
1F
100
AcDbEntity
  8
0
  6
Continuous
 62
     7
370
    15
100
AcDbCircle
 10
765.3258778633
 20
306.7969980475
 30
0.0
 40
1.412353727587658
100
AcDbArc
 50
2.9715819478
 51
49.594388813
  0
LINE
  5
451
330
1F
100
AcDbEntity
  8
0
  6
Continuous
 62
     7
370
    15
100
AcDbLine
 10
767.2313072445
 20
305.7779398037
 30
0.0
 11
767.2313072445
 21
306.5844725309
 31
0.0
  0
ARC
  5
452
330
1F
100
AcDbEntity
  8
0
  6
Continuous
 62
     7
370
    15
100
AcDbCircle
 10
764.760004298
 20
306.4708003856
 30
0.0
 40
2.473915845317807
100
AcDbArc
 50
2.6335690025
 51
53.2167888111
  0
LINE
  5
453
330
1F
100
AcDbEntity
  8
0
  6
Continuous
 62
     7
370
    15
100
AcDbLine
 10
763.2478787909
 20
304.2463969577
 30
0.0
 11
763.3563620836
 21
304.1837284219
 31
0.0
  0
LINE
  5
454
330
1F
100
AcDbEntity
  8
0
  6
Continuous
 62
     7
370
    15
100
AcDbLine
 10
763.0083805139
 20
304.7796303676
 30
0.0
 11
763.2478787909
 21
304.2463969577
 31
0.0
  0
LINE
  5
455
330
1F
100
AcDbEntity
  8
0
  6
Continuous
 62
     7
370
    15
100
AcDbLine
 10
768.9086495628
 20
304.639109995
 30
0.0
 11
768.8677283417
 21
304.2516111752
 31
0.0
  0
LINE
  5
456
330
1F
100
AcDbEntity
  8
0
  6
Continuous
 62
     7
370
    15
100
AcDbLine
 10
768.8677283417
 20
304.2516111752
 30
0.0
 11
768.5606679931
 21
303.9224778261
 31
0.0
  0
LINE
  5
457
330
1F
100
AcDbEntity
  8
0
  6
Continuous
 62
     7
370
    15
100
AcDbLine
 10
767.2313072445
 20
306.5844725309
 30
0.0
 11
768.5040994506
 21
307.3192398315
 31
0.0
  0
LINE
  5
458
330
1F
100
AcDbEntity
  8
0
  6
Continuous
 62
     7
370
    15
100
AcDbLine
 10
777.4954095367
 20
283.0221428054
 30
0.0
 11
777.8348578246
 21
282.8261834798
 31
0.0
  0
LWPOLYLINE
  5
459
330
1F
100
AcDbEntity
  8
0
  6
Continuous
 62
     7
370
    15
100
AcDbPolyline
 90
        9
 70
   128
 43
0.0
 10
768.8677283417
 20
304.2516111752
 10
769.0040656116
 20
304.3648516067
 10
769.1640227065
 20
304.4383751312
 10
769.3439032271
 20
304.4704827163
 10
769.53955037
 20
304.4604323976
 10
769.7464429857
 20
304.4084564249
 10
769.9598000565
 20
304.3157558949
 10
770.1746911797
 20
304.1844729955
 10
770.3861505026
 20
304.0176415029
  0
ARC
  5
45A
330
1F
100
AcDbEntity
  8
0
  6
Continuous
 62
     7
370
    15
100
AcDbCircle
 10
766.848325862
 20
301.4488062853
 30
0.0
 40
1.668404220289148
100
AcDbArc
 50
45.8578062059
 51
80.4345755591
  0
LWPOLYLINE
  5
45B
330
1F
100
AcDbEntity
  8
0
  6
Continuous
 62
     7
370
    15
100
AcDbPolyline
 90
        3
 70
   128
 43
0.0
 10
767.5416170944
 20
302.9655820238
 10
767.5962993301
 20
302.9284134829
 10
767.8415921447
 20
302.7348889514
  0
LINE
  5
45C
330
1F
100
AcDbEntity
  8
0
  6
Continuous
 62
     8
370
    15
100
AcDbLine
 10
625.5282132165
 20
235.9353405258
 30
0.0
 11
625.5282132165
 21
240.8003174996
 31
0.0
  0
LINE
  5
45D
330
1F
100
AcDbEntity
  8
0
  6
Continuous
 62
     8
370
    15
100
AcDbLine
 10
648.2959466489
 20
242.8237951979
 30
0.0
 11
647.1643919194
 21
242.170562557
 31
0.0
  0
LINE
  5
45E
330
1F
100
AcDbEntity
  8
0
  6
Continuous
 62
     8
370
    15
100
AcDbLine
 10
646.2654641338
 20
243.2029572449
 30
0.0
 11
646.5281796959
 21
243.3546197106
 31
0.0
  0
LINE
  5
45F
330
1F
100
AcDbEntity
  8
0
  6
Continuous
 62
     8
370
    15
100
AcDbLine
 10
776.1049997466
 20
276.0620561517
 30
0.0
 11
776.18626291
 21
276.1089683774
 31
0.0
  0
LINE
  5
460
330
1F
100
AcDbEntity
  8
0
  6
Continuous
 62
     8
370
    15
100
AcDbLine
 10
779.4259589818
 20
280.7184747872
 30
0.0
 11
778.4334252151
 21
280.1454972399
 31
0.0
  0
LINE
  5
461
330
1F
100
AcDbEntity
  8
0
  6
Continuous
 62
     8
370
    15
100
AcDbLine
 10
750.8279740063
 20
302.3550044607
 30
0.0
 11
750.8279740063
 21
306.067764066
 31
0.0
  0
LINE
  5
462
330
1F
100
AcDbEntity
  8
0
  6
Continuous
 62
     8
370
    15
100
AcDbLine
 10
768.5040994506
 20
306.3393908572
 30
0.0
 11
767.3725447211
 21
305.6861582164
 31
0.0
  0
LINE
  5
463
330
1F
100
AcDbEntity
  8
0
  6
Continuous
 62
     8
370
    15
100
AcDbLine
 10
766.4736169356
 20
306.7185529042
 30
0.0
 11
766.7363324976
 21
306.87021537
 31
0.0
  0
LINE
  5
464
330
1F
100
AcDbEntity
  8
RIQUADRO
100
AcDbLine
 10
608.3956368229
 20
322.9393000233
 30
0.0
 11
798.0470183383
 21
322.9393000233
 31
0.0
  0
LINE
  5
465
330
1F
100
AcDbEntity
  8
RIQUADRO
100
AcDbLine
 10
608.3956368229
 20
322.9393000233
 30
0.0
 11
608.3956368229
 21
172.7034164735
 31
0.0
  0
LINE
  5
466
330
1F
100
AcDbEntity
  8
RIQUADRO
100
AcDbLine
 10
608.3956368229
 20
172.7034164735
 30
0.0
 11
798.0470183383
 21
172.7034164735
 31
0.0
  0
LINE
  5
467
330
1F
100
AcDbEntity
  8
RIQUADRO
100
AcDbLine
 10
798.0470183383
 20
322.9393000233
 30
0.0
 11
798.0470183383
 21
172.7034164735
 31
0.0
  0
MTEXT
  5
468
330
1F
100
AcDbEntity
  8
RIQUADRO
100
AcDbMText
 10
722.0722179119
 20
194.2231111322
 30
0.0
 40
4.2333333333
 41
0.0
 71
     1
 72
     1
  1
SCALA 1:5
  7
SLDTEXTSTYLE1
 73
     1
 44
1.0
  0
OLE2FRAME
  5
469
330
1F
100
AcDbEntity
  8
0
100
AcDbOle2Frame
 70
     2
  3
Picture (Device Independent Bitmap)
 10
461.5284504262
 20
80.9833869686
 30
0.0
 11
541.7312080261
 21
40.5505918149
 31
0.0
 71
     3
 72
     0
 73
     1
 90
    41600
310
8055C6246F8874D87C408351E5CFEF3E544000000000000000003CF59783D9ED
310
80408351E5CFEF3E544000000000000000003CF59783D9ED8040FA41E7CA7946
310
44400000000000000000C6246F8874D87C40FA41E7CA79464440000000000000
310
0000000000000100000000010000010000000100000000000100000000A20000
310
D0CF11E0A1B11AE1000000000000000000000000000000003E000300FEFF0900
310
0600000000000000000000000100000001000000000000000010000002000000
310
01000000FEFFFFFF0000000000000000FFFFFFFFFFFFFFFFFFFFFFFFFFFFFFFF
310
FFFFFFFFFFFFFFFFFFFFFFFFFFFFFFFFFFFFFFFFFFFFFFFFFFFFFFFFFFFFFFFF
310
FFFFFFFFFFFFFFFFFFFFFFFFFFFFFFFFFFFFFFFFFFFFFFFFFFFFFFFFFFFFFFFF
310
FFFFFFFFFFFFFFFFFFFFFFFFFFFFFFFFFFFFFFFFFFFFFFFFFFFFFFFFFFFFFFFF
310
FFFFFFFFFFFFFFFFFFFFFFFFFFFFFFFFFFFFFFFFFFFFFFFFFFFFFFFFFFFFFFFF
310
FFFFFFFFFFFFFFFFFFFFFFFFFFFFFFFFFFFFFFFFFFFFFFFFFFFFFFFFFFFFFFFF
310
FFFFFFFFFFFFFFFFFFFFFFFFFFFFFFFFFFFFFFFFFFFFFFFFFFFFFFFFFFFFFFFF
310
FFFFFFFFFFFFFFFFFFFFFFFFFFFFFFFFFFFFFFFFFFFFFFFFFFFFFFFFFFFFFFFF
310
FFFFFFFFFFFFFFFFFFFFFFFFFFFFFFFFFFFFFFFFFFFFFFFFFFFFFFFFFFFFFFFF
310
FFFFFFFFFFFFFFFFFFFFFFFFFFFFFFFFFFFFFFFFFFFFFFFFFFFFFFFFFFFFFFFF
310
FFFFFFFFFFFFFFFFFFFFFFFFFFFFFFFFFFFFFFFFFFFFFFFFFFFFFFFFFFFFFFFF
310
FFFFFFFFFFFFFFFFFFFFFFFFFFFFFFFFFFFFFFFFFFFFFFFFFFFFFFFFFFFFFFFF
310
FFFFFFFFFFFFFFFFFFFFFFFFFFFFFFFFFFFFFFFFFFFFFFFFFFFFFFFFFFFFFFFF
310
FFFFFFFFFFFFFFFFFFFFFFFFFFFFFFFFFFFFFFFFFFFFFFFFFFFFFFFFFFFFFFFF
310
FDFFFFFFFEFFFFFFFEFFFFFFFEFFFFFF05000000060000000700000008000000
310
090000000A0000000B0000000C0000000D0000000E0000000F00000010000000
310
1100000012000000130000001400000015000000160000001700000018000000
310
190000001A0000001B0000001C0000001D0000001E0000001F00000020000000
310
2100000022000000230000002400000025000000260000002700000028000000
310
290000002A0000002B0000002C0000002D0000002E0000002F00000030000000
310
3100000032000000330000003400000035000000360000003700000038000000
310
390000003A0000003B0000003C0000003D0000003E0000003F00000040000000
310
4100000042000000430000004400000045000000460000004700000048000000
310
490000004A0000004B0000004C0000004D0000004E0000004F000000FEFFFFFF
310
FFFFFFFFFFFFFFFFFFFFFFFFFFFFFFFFFFFFFFFFFFFFFFFFFFFFFFFFFFFFFFFF
310
FFFFFFFFFFFFFFFFFFFFFFFFFFFFFFFFFFFFFFFFFFFFFFFFFFFFFFFFFFFFFFFF
310
FFFFFFFFFFFFFFFFFFFFFFFFFFFFFFFFFFFFFFFFFFFFFFFFFFFFFFFFFFFFFFFF
310
FFFFFFFFFFFFFFFFFFFFFFFFFFFFFFFFFFFFFFFFFFFFFFFFFFFFFFFFFFFFFFFF
310
FFFFFFFFFFFFFFFFFFFFFFFFFFFFFFFFFFFFFFFFFFFFFFFFFFFFFFFFFFFFFFFF
310
FFFFFFFFFFFFFFFFFFFFFFFFFFFFFFFFFFFFFFFFFFFFFFFFFFFFFFFFFFFFFFFF
310
52006F006F007400200045006E00740072007900000000000000000000000000
310
0000000000000000000000000000000000000000000000000000000000000000
310
16000500FFFFFFFFFFFFFFFF020000001603000000000000C000000000000046
310
0000000000000000000000007075F00D5317CE0103000000C000000000000000
310
01004F006C006500000000000000000000000000000000000000000000000000
310
0000000000000000000000000000000000000000000000000000000000000000
310
0A000200FFFFFFFFFFFFFFFFFFFFFFFF00000000000000000000000000000000
310
0000000000000000000000000000000000000000000000001400000000000000
310
010043006F006D0070004F0062006A0000000000000000000000000000000000
310
0000000000000000000000000000000000000000000000000000000000000000
310
120002010100000003000000FFFFFFFF00000000000000000000000000000000
310
0000000000000000000000000000000000000000010000006B00000000000000
310
43004F004E00540045004E005400530000000000000000000000000000000000
310
0000000000000000000000000000000000000000000000000000000000000000
310
12000200FFFFFFFFFFFFFFFFFFFFFFFF00000000000000000000000000000000
310
000000000000000000000000000000000000000004000000D696000000000000
310
FEFFFFFF02000000FEFFFFFFFFFFFFFFFFFFFFFFFFFFFFFFFFFFFFFFFFFFFFFF
310
FFFFFFFFFFFFFFFFFFFFFFFFFFFFFFFFFFFFFFFFFFFFFFFFFFFFFFFFFFFFFFFF
310
FFFFFFFFFFFFFFFFFFFFFFFFFFFFFFFFFFFFFFFFFFFFFFFFFFFFFFFFFFFFFFFF
310
FFFFFFFFFFFFFFFFFFFFFFFFFFFFFFFFFFFFFFFFFFFFFFFFFFFFFFFFFFFFFFFF
310
FFFFFFFFFFFFFFFFFFFFFFFFFFFFFFFFFFFFFFFFFFFFFFFFFFFFFFFFFFFFFFFF
310
FFFFFFFFFFFFFFFFFFFFFFFFFFFFFFFFFFFFFFFFFFFFFFFFFFFFFFFFFFFFFFFF
310
FFFFFFFFFFFFFFFFFFFFFFFFFFFFFFFFFFFFFFFFFFFFFFFFFFFFFFFFFFFFFFFF
310
FFFFFFFFFFFFFFFFFFFFFFFFFFFFFFFFFFFFFFFFFFFFFFFFFFFFFFFFFFFFFFFF
310
FFFFFFFFFFFFFFFFFFFFFFFFFFFFFFFFFFFFFFFFFFFFFFFFFFFFFFFFFFFFFFFF
310
FFFFFFFFFFFFFFFFFFFFFFFFFFFFFFFFFFFFFFFFFFFFFFFFFFFFFFFFFFFFFFFF
310
FFFFFFFFFFFFFFFFFFFFFFFFFFFFFFFFFFFFFFFFFFFFFFFFFFFFFFFFFFFFFFFF
310
FFFFFFFFFFFFFFFFFFFFFFFFFFFFFFFFFFFFFFFFFFFFFFFFFFFFFFFFFFFFFFFF
310
FFFFFFFFFFFFFFFFFFFFFFFFFFFFFFFFFFFFFFFFFFFFFFFFFFFFFFFFFFFFFFFF
310
FFFFFFFFFFFFFFFFFFFFFFFFFFFFFFFFFFFFFFFFFFFFFFFFFFFFFFFFFFFFFFFF
310
FFFFFFFFFFFFFFFFFFFFFFFFFFFFFFFFFFFFFFFFFFFFFFFFFFFFFFFFFFFFFFFF
310
FFFFFFFFFFFFFFFFFFFFFFFFFFFFFFFFFFFFFFFFFFFFFFFFFFFFFFFFFFFFFFFF
310
0100000200000000000000000000000000000000000000000000000000000000
310
0000000000000000000000000000000000000000000000000000000000000000
310
0100FEFF030A0000FFFFFFFF1603000000000000C00000000000004625000000
310
496D6D6167696E6520284269746D61702044657669636520496E646570656E64
310
656E742900FFFFFFFF080000000A00000053746174696344696200F439B27100
310
0000000000000000000000000000000000000000000000000000000000000000
310
0000000000000000000000000000000000000000000000000000000000000000
310
0000000000000000000000000000000000000000000000000000000000000000
310
0000000000000000000000000000000000000000000000000000000000000000
310
0000000000000000000000000000000000000000000000000000000000000000
310
0000000000000000000000000000000000000000000000000000000000000000
310
0000000000000000000000000000000000000000000000000000000000000000
310
0000000000000000000000000000000000000000000000000000000000000000
310
0000000000000000000000000000000000000000000000000000000000000000
310
0000000000000000000000000000000000000000000000000000000000000000
310
0000000000000000000000000000000000000000000000000000000000000000
310
424DD69600000000000036000000280000009E00000051000000010018000000
310
00000000000074120000741200000000000000000000FFFFFFFFFFFFFFFFFFFF
310
FFFFFFFFFFFFFFFFFFFFFFFFFFFFFFFFFFFFFFFFFFFFFFFFFFFFFFFFFFFFFFFF
310
FFFFFFFFFFFFFFFFFFFFFFFFFFFFFFFFFFFFFFFFFFFFFFFFFFFFFFFFFFFFFFFF
310
FFFFFFFFFFFFFFFFFFFFFFFFFFFFFFFFFFFFFFFFFFFFFFFFFFFCFCFCFFFFFFFE
310
FEFEFEFEFEEAEAEADBDBDBFFFFFFFFFFFFFFFFFFFFFFFFFFFFFFFFFFFFFFFFFF
310
FFFFFFFFFFFFFFFFFFFFFFFFFFFFFFFFFFFFFFFFFFFFFFFFFFFFFFFFFFFFFFFF
310
FFFFFFFFFFFFFFFFFFFFFFFFFFFFFFFFFFFFFFFFFFFFFFFFFFFFFFFFFFFFFFFF
310
FFFFFFFFFFFFFFFFFFFFFFFFFFFEFFFFFFFFFFFEFCFDFBFFFFFEFEFCFB989695
310
2826252A28279E9E9EFFFFFFFEFEFEFEFEFEFEFEFEFFFFFFFDFDFDFFFFFFFFFF
310
FFFFFFFFFFFFFFFFFFFFFFFFFFFFFFFFFFFFFFFFFFFFFFFFFFFFFFFFFFFFFFFF
310
FFFFFFFFFFFFFFFFFFFFFFFFFFFFFFFFFFFFFFFFFFFFFFFFFFFFFFFFFFFFFFFF
310
FFFFFFFFFFFFFFFFFFFFFFFFFFFFFFFFFFFFFFFFFFFFFFFFFFFFFFFFFFFFFEFE
310
FEFEFEFEC0C0C0323232212121787878FEFEFEFFFFFFFBFBFBFEFEFEFFFFFFFF
310
FFFFFFFFFFFEFEFEFFFFFFFFFFFFFFFFFFFFFFFFFFFFFFFFFFFFFFFFFFFFFFFF
310
FFFFFFFFFFFFFFFFFFFFFFFFFFFFFFFFFFFFFFFFFFFFFFFFFFFFFFFFFFFFFFFF
310
FFFFFFFFFFFFFFFFFFFFFFFFFFFFFFFF0000FFFFFFF9F9F9FFFFFFFFFFFFEFEF
310
EFFFFFFFF8F8F8FFFFFFFFFFFFF6F6F6FFFFFFFFFFFFFCFCFCFFFFFFFFFFFFF5
310
F5F5FFFFFFE1E1E1FFFFFFFFFFFFF7F7F7FFFFFFF5F5F5FFFFFFF6F6F6FFFFFF
310
F5F5F5FDFDFDFFFFFFF4F4F4FFFFFFFAFAFAFFFFFFF2F2F2FFFFFFFFFFFFF9F9
310
F9BFBFBF5D5D5DFFFFFFFDFDFDFEFEFEFFFFFFFFFFFFF8F8F8FFFFFFFFFFFFFD
310
FDFDFEFEFEF9F9F9FFFFFFFDFDFDFFFFFFFFFFFFF0F0F0FFFFFFFFFFFFFFFFFF
310
FBFBFBF7F7F7FAFAFAFCFCFCFFFFFFFEFEFEFAFCFCFDFFFFFDFFFFFDFFFFFFFF
310
FEF0F1EFFEFCFBFEFDF9FFFFFEFAF9F5FFFEFAFFFFFC64615C383530DBD8D3D1
310
CECA1B1918949494FFFFFFF9F9F9FDFDFDFFFFFFFDFDFDF7F7F7FFFFFFFFFFFF
310
FCFCFCFFFFFFEFEFEFFFFFFFFFFFFFF6F6F6FFFFFFFAFAFAF7F7F7FFFFFFF2F2
310
F2FFFFFFFBFBFBFFFFFFFAFAFAFFFFFFFCFCFCFFFFFFFDFDFDFFFFFFF2F2F2FF
310
FFFFFFFFFFFAFAFAFFFFFFF2F2F2FFFFFFFFFFFFF5F5F5FFFFFFFDFDFDBABABA
310
000000C8C8C8DDDDDD4A4A4A404040FFFFFFFBFBFBFFFFFFFFFFFFFDFDFDFFFF
310
FFFFFFFFF5F5F5FFFFFFF8F8F8FBFBFBFFFFFFFAFAFAF3F3F3FFFFFFFCFCFCFB
310
FBFBFDFDFDFFFFFFF0F0F0FFFFFFFFFFFFFCFCFCFFFFFFFBFBFBFFFFFFFFFFFF
310
F2F2F2FDFDFDFEFEFEFFFFFF0000FFFFFFFBFBFBFFFFFFFFFFFFFFFFFFFDFDFD
310
FFFFFFFCFCFCFFFFFFFFFFFFFAFAFAFFFFFFFFFFFFFCFCFCFFFFFFFFFFFFF8F8
310
F8FAFAFAFFFFFFF9F9F9FFFFFFFAFAFAFFFFFFFEFEFEFFFFFFECECECFFFFFFFD
310
FDFDFEFEFEFAFAFAF5F5F5FFFFFFF4F4F4FFFFFFFFFFFFF6F6F6FEFEFEBBBBBB
310
646464FFFFFFFFFFFFFFFFFFEBEBEBFFFFFFFCFCFCFFFFFFF6F6F6FDFDFDFFFF
310
FFF6F6F6F4F4F4FFFFFFF5F5F5FFFFFFFDFDFDFEFEFEF6F6F6FAFAFAFDFDFDFF
310
FFFFFFFFFFF3F3F3FFFFFFFCFCFCFAFCFCFDFFFFF4F6F6F6F8F8F2F3F1FFFFFE
310
FFFFFCFFFEFAFFFFFCFFFEFAFFFFFCFFFFFB494641EAE8E0FFFFFBFCF9F4F2F0
310
EF141414FAFAFAF4F4F4FFFFFFEFEFEFFFFFFFFFFFFFF6F6F6E8E8E8FFFFFFF3
310
F3F3FFFFFFFFFFFFEEEEEEFFFFFFFFFFFFF1F1F1FFFFFFFFFFFFFBFBFBFFFFFF
310
FFFFFFF1F1F1FBFBFBEEEEEEFFFFFFF7F7F7F5F5F5FFFFFFFFFFFFFBFBFBF1F1
310
F1FFFFFFF5F5F5FFFFFFF3F3F3FEFEFEFBFBFBFFFFFFFEFEFE484848D9D9D9FF
310
FFFFFEFEFEF0F0F0393939D6D6D6FFFFFFFAFAFAFFFFFFFCFCFCF9F9F9FFFFFF
310
FFFFFFFAFAFAFFFFFFFAFAFAF6F6F6FFFFFFFFFFFFFCFCFCF8F8F8FFFFFFF8F8
310
F8FFFFFFFDFDFDEDEDEDF7F7F7F8F8F8F3F3F3FFFFFFF7F7F7FAFAFAFBFBFBFE
310
FEFEFEFEFEEEEEEE0000FBFBFBFFFFFFB2B2B2E7E7E7FFFFFFFDFDFD9E9E9EF9
310
F9F9F9F9F9FFFFFFFEFEFEA2A2A2FDFDFDF6F6F6FBFBFBA9A9A9F6F6F6FFFFFF
310
FFFFFFF7F7F7A2A2A2FEFEFEFBFBFBEDEDEDC3C3C3FFFFFFF7F7F79F9F9FF2F2
310
F2FFFFFFFFFFFFCECECE5656563232328E8E8EFFFFFFFFFFFFADADAD969696D1
310
D1D13B3B3B2A2A2A9A9A9AFFFFFFFCFCFCFDFDFDB3B3B3E2E2E2F4F4F4FFFFFF
310
E6E6E64F4F4F2222227B7B7BFFFFFFF9F9F9FFFFFFF7F7F7FFFFFFFFFFFFEAEA
310
EAF4F4F4D3D3D34242424647458D8E8CFFFFFEFFFFFED5D6D4B2B3B1F4F5F3FF
310
FFFEF5F6F4B5B6B4C5C6C4F4F3EFFFFFFCC2C2BC3B3834555450FCFDFB5B5B5B
310
D5D5D5D1D1D1BBBBBBF8F8F8989898F2F2F2FFFFFFFFFFFFE6E6E69F9F9FF1F1
310
F1FFFFFFD3D3D33C3C3C272727989898FFFFFFFCFCFCFEFEFEEAEAEAA9A9A938
310
3838444444CACACAF9F9F9F0F0F0BCBCBCD3D3D3F2F2F2D0D0D0BBBBBBF6F6F6
310
9D9D9DFFFFFFF5F5F5FEFEFEDDDDDDAFAFAFFFFFFFE9E9E9E2E2E24242423D3D
310
3DD8D8D8959595929292FDFDFD999999E9E9E9FFFFFFEDEDEDF8F8F86666662B
310
2B2B656565FFFFFFECECECFFFFFFF4F4F4CFCFCF3838382A2A2AA5A5A5F7F7F7
310
F1F1F1E2E2E2BDBDBDFEFEFEFFFFFFF2F2F2B7B7B7D4D4D4FFFFFFFFFFFFF3F3
310
F39898980000F6F6F6FFFFFF3B3B3BABABABF5F5F5FFFFFF0A0A0AEDEDEDFBFB
310
FBFBFBFBFEFEFE151515E3E3E3FDFDFDDBDBDB111111FFFFFFFFFFFFFFFFFFEB
310
EBEB090909FFFFFFF0F0F0B6B6B63D3D3DEFEFEFFFFFFF202020F0F0F0FAFAFA
310
CACACA0000009A9A9AB6B6B62E2E2E707070F4F4F4C2C2C2343434141414B0B0
310
B0D1D1D12626264E4E4EFCFCFCFFFFFF2B2B2BDDDDDDFFFFFFE5E5E508080872
310
7272D9D9D9626262313131FDFDFDFCFCFCFFFFFFE6E6E6FFFFFFFFFFFFB5B5B5
310
171717ACACACB3B4B22122206E6F6DF8F9F7A2A3A17F807EF1F2F0FFFFFEFFFF
310
FE787977B7B8B6FFFFFE797A7820211FC6C7C59394921313133F3F3FCACACACA
310
CACA666666FFFFFF2C2C2CFFFFFFFEFEFEFEFEFEBBBBBB5B5B5BFFFFFFD1D1D1
310
080808B5B5B5C9C9C92F2F2F626262DDDDDDFFFFFF8B8B8B2F2F2FC7C7C7AAAA
310
AA040404ACACACFFFFFF616161B5B5B5FDFDFD9393938A8A8ADEDEDE444444FC
310
FCFCFBFBFBFFFFFFC1C1C1575757EBEBEBDADADA000000919191B0B0B0272727
310
6969696F6F6FFFFFFF383838C9C9C9F8F8F8FCFCFC000000828282C2C2C25F5F
310
5F1C1C1CFFFFFFFBFBFBC5C5C50B0B0BA9A9A9C8C8C81B1B1B8A8A8AFFFFFF94
310
94946A6A6AFBFBFBFFFFFFFFFFFF797979ADADADFFFFFFFFFFFFF1F1F14C4C4C
310
0000FEFEFEFBFBFB111111717171FEFEFED8D8D8000000ACACACFFFFFFFEFEFE
310
D4D4D4040404A4A4A4FFFFFF9B9B9B000000DFDFDFFDFDFDFFFFFFA9A9A90000
310
00DCDCDCFAFAFA686868030303FFFFFFF2F2F2919191FFFFFFF2F2F2121212F4
310
F4F4FAFAFAFFFFFFFFFFFF1D1D1DE0E0E0CBCBCB080808C9C9C9FEFEFEF2F2F2
310
FDFDFD2C2C2CC6C6C6FFFFFF3F3F3FE8E8E8F8F8F83E3E3EB1B1B1FFFFFFFFFF
310
FFEFEFEF3B3B3BABABABFFFFFFFFFFFFFFFFFFFFFFFFFBFBFB1E1E1EE4E4E4FF
310
FFFFFFFFFEFFFFFE050604EEEFED969795868785FDFFFFFDFFFFFDFFFF6F7171
310
B1B3B3E9EBEB0C0E0EFAFCFCFDFFFFFDFFFFDDDDDD040404DBDBDBB3B3B36B6B
310
6BFFFFFF363636F8F8F8F9F9F9FFFFFFE0E0E04C4C4CECECEC2A2A2ADADADAFD
310
FDFDFAFAFAFFFFFF151515DDDDDDD6D6D61E1E1EFFFFFFF5F5F5FFFFFFDDDDDD
310
121212FFFFFF5A5A5AB1B1B1FFFFFF9E9E9E848484F2F2F2333333FFFFFFF7F7
310
F7FEFEFEC9C9C9606060FFFFFF020202DADADAFFFFFFFFFFFFFFFFFF0303038A
310
8A8AEAEAEAB4B4B4D5D5D5FAFAFA6A6A6AA0A0A0F9F9F9FFFFFFFFFFFF5A5A5A
310
858585F7F7F7000000DFDFDFFFFFFFE9E9E9FFFFFF0B0B0BE6E6E6C0C0C08A8A
310
8AF0F0F0FFFFFFFAFAFA737373A9A9A9FFFFFFFFFFFFFCFCFC4242420000FFFF
310
FFC1C1C1575757555555FFFFFF8787877E7E7E525252FFFFFFFFFFFF8787877C
310
7C7C646464FFFFFF5B5B5B7F7F7F8F8F8FFFFFFFFDFDFD5050508A8A8A969696
310
FFFFFF3D3D3D656565BCBCBCFFFFFFF3F3F3FFFFFFE0E0E0323232E4E4E4F6F6
310
F6FBFBFBEFEFEF9F9F9F7E7E7EC1C1C1303030FFFFFFFCFCFCFFFFFFFFFFFF9E
310
9E9E585858FFFFFF565656C6C6C6F8F8F8232323FFFFFFF7F7F7F8F8F8FFFFFF
310
E0E0E0464646FAFAFAEFEFEFFFFFFFFFFFFFBBBBBB676767FFFFFFFFFFFFF5F6
310
F4F6F7F5FFFFFEFCFDFBB6B7B56D6E6CFDFFFFE3E5E5FDFFFF717675BFC3C477
310
7B7C8F9394E8ECEDFBFFFFF9FDFEFDFFFF1C1C1CD2D2D2C6C6C6727272FAFAFA
310
323232FCFCFCFFFFFFF4F4F4CACACA797979EBEBEB535353FFFFFFFEFEFEFAFA
310
FAFFFFFFEFEFEFFBFBFB939393959595FFFFFFFFFFFFFFFFFFF3F3F3EBEBEBF7
310
F7F7636363D6D6D6E8E8E8A6A6A6868686FCFCFC383838FFFFFFFAFAFAFFFFFF
310
CECECE6D6D6DE4E4E43E3E3EFFFFFFF5F5F5F3F3F3F6F6F68888886F6F6FFFFF
310
FFFBFBFBFFFFFFF6F6F6070707FFFFFFE8E8E8FFFFFFF6F6F6E7E7E7F9F9F9D0
310
D0D0484848FFFFFFF6F6F6FFFFFFF2F2F27A7A7AA2A2A2A1A1A1848484FEFEFE
310
F8F8F8FFFFFF7E7E7EB3B3B3FEFEFEFFFFFFFFFFFF4040400000FEFEFE6F6F6F
310
C0C0C05E5E5EECECEC535353E5E5E5343434F0F0F0FFFFFF4A4A4AE3E3E34F4F
310
4FEFEFEF434343EFEFEF464646FFFFFFF0F0F02C2C2CF9F9F9595959E6E6E657
310
5757C4C4C4757575F3F3F3FFFFFFF5F5F5B7B7B7696969FFFFFFFFFFFFFFFFFF
310
FFFFFFB3B3B3575757DADADA565656FBFBFBFFFFFFE6E6E6FFFFFFC5C5C54545
310
45FFFFFF4C4C4CDEDEDEE8E8E82E2E2EFCFCFCFFFFFFFFFFFFFFFFFFDCDCDC2D
310
2D2DE2E2E23737370B0B0B828282BFBFBF3131315F5F5F5959596162605C5D5B
310
686967B2B3B1B5B7B77E8080F3F5F5FDFFFFF0F4F5747879BCBFC3515659BCC1
310
C4FAFFFFEDF2F5FAFFFFF8FAFB858585ABABABB7B7B76B6B6BFFFFFF323232FF
310
FFFFFFFFFFF9F9F9D9D9D9474747C9C9C91E1E1E5B5B5B6E6E6E636363565656
310
7777778F8F8F6060605050505D5D5D5353535959595F5F5F676767E1E1E16767
310
67B8B8B8FFFFFFA0A0A0828282EEEEEE383838FDFDFDFFFFFFFFFFFFC5C5C561
310
6161AEAEAE707070FEFEFEFFFFFFFFFFFFEEEEEEC9C9C9656565EFEFEFFCFCFC
310
F1F1F1FFFFFF373737FFFFFFFFFFFFFDFDFDFFFFFFFFFFFFFEFEFE8F8F8F6D6D
310
6DFFFFFFF2F2F2F4F4F4F6F6F6D8D8D8606060C6C6C6838383FFFFFFFFFFFFF0
310
F0F0787878B7B7B7FBFBFBFFFFFFFCFCFC3535350000FBFBFB383838FFFFFF74
310
7474C0C0C0515151F7F7F74F4F4FDDDDDDF4F4F4343434F6F6F65A5A5AD1D1D1
310
4B4B4BFFFFFF272727FBFBFBE8E8E83A3A3AFFFFFF3C3C3CB4B4B4898989F9F9
310
F9292929FFFFFFEEEEEEFFFFFFB1B1B1535353FEFEFEFEFEFEE8E8E8FFFFFFC0
310
C0C05D5D5DBEBEBE626262FDFDFDF8F8F8FFFFFFFFFFFFC4C4C4595959F2F2F2
310
545454D7D7D7EDEDED2E2E2EFFFFFFF7F7F7FFFFFFF6F6F6F3F3F3313131FFFF
310
FFBEBEBED2D2D2E9E9E9ABABAB3B3B3BCDCDCDB4B4B4B8B9B7CDCECC6D6E6C77
310
7876BBBDBD717373FDFFFFF6F8F8FBFFFF5D6162CED2D362676AA6ABAEEFF4F7
310
FAFFFFEDF2F5FDFFFF444444CFCFCFC2C2C27F7F7FEDEDED2F2F2FF7F7F7F0F0
310
F0FFFFFFCBCBCB5B5B5BDFDFDF333333D1D1D1B5B5B5ABABABC4C4C47C7C7C5A
310
5A5A868686828282B5B5B5BCBCBCB4B4B4CDCDCD373737C3C3C3707070C5C5C5
310
FFFFFF969696888888EFEFEF474747F6F6F6FFFFFFFFFFFFC6C6C6707070C3C3
310
C3636363FCFCFCFCFCFCF8F8F8FDFDFDACACAC5E5E5EFFFFFFFFFFFFF5F5F5ED
310
EDED292929FEFEFEFDFDFDFFFFFFF8F8F8FFFFFFFCFCFCB1B1B1717171F9F9F9
310
F8F8F8FFFFFFFFFFFFAAAAAA797979C0C0C07A7A7AF5F5F5FFFFFFFFFFFF7171
310
71B8B8B8FAFAFAFFFFFFFFFFFF3C3C3C0000FBFBFB2A2A2AFFFFFFCACACA2B2B
310
2B6E6E6EFEFEFE9393938F8F8FDADADA555555FDFDFDA0A0A02D2D2DA4A4A4FF
310
FFFF595959CACACA818181A0A0A0FFFFFF6868682F2F2FDEDEDEF9F9F93D3D3D
310
D7D7D7FFFFFFFEFEFEF5F5F5252525F7F7F7FFFFFFFFFFFFFAFAFA6E6E6EA0A0
310
A0C7C7C7000000FFFFFFFFFFFFF7F7F7FFFFFF4949499F9F9FFFFFFF484848DC
310
DCDCFCFCFC262626E5E5E5FFFFFFF7F7F7FFFFFF999999626262FFFFFFFCFCFC
310
FFFFFFFEFEFEE2E2E2121212FFFFFFFFFFFFFBFCFAFFFFFE545553BABBB9BEC0
310
C0525454F5F7F7FDFFFFF9FBFB585A5AD1D3D3ACB0B155595AF5F9FAF3F7F8FB
310
FFFFFDFFFF000000DADADAB9B9B9787878FCFCFC232323F6F6F6FFFFFFFDFDFD
310
BDBDBD595959FBFBFB1D1D1DF7F7F7FFFFFFFFFFFFF4F4F4585858A9A9A9ADAD
310
AD5F5F5FF4F4F4FFFFFFF8F8F8FFFFFF212121ECECEC5F5F5FB8B8B8FAFAFAA3
310
A3A3888888F1F1F1191919FFFFFFFEFEFEFFFFFFA5A5A57D7D7DF0F0F01C1C1C
310
FEFEFEFBFBFBFCFCFCFFFFFF4646467A7A7AFFFFFFF5F5F5FFFFFFFFFFFF2F2F
310
2FDADADAFFFFFFFDFDFDFFFFFFB7B7B7AAAAAAF1F1F1202020FBFBFBFDFDFDFF
310
FFFFFFFFFF4E4E4EB9B9B9C1C1C15A5A5AF3F3F3FFFFFFFFFFFF555555878787
310
FFFFFFFBFBFBFCFCFC41414100009D9D9D888888FFFFFFFFFFFF080808B5B5B5
310
EFEFEFE1E1E1555555686868C4C4C4FDFDFDE3E3E3000000DDDDDDF8F8F8ABAB
310
AB7979793E3E3EE5E5E5FFFFFFB3B3B30B0B0BF2F2F2FFFFFF626262BFBFBFFF
310
FFFFEEEEEEFBFBFB606060636363FEFEFEF8F8F8CCCCCC050505F1F1F1DCDCDC
310
060606494949FCFCFCFFFFFF989898171717FFFFFFFFFFFF585858C5C5C5FFFF
310
FF858585484848F6F6F6FFFFFFDCDCDC151515EEEEEEECECECFFFFFFF8F8F8FF
310
FFFFFFFFFF555555797979FFFFFFFFFFFEB1B2B00F100EF7F8F6C1C3C3000000
310
DBDDDDF0F2F2DDDFDF050604EFF0EEF4F5F30A0C0CC0C2C2FDFFFFF1F3F36B6B
310
6B0A0A0AC5C5C5D5D5D5616161FFFFFF0000008B8B8BFFFFFFFFFFFF282828C0
310
C0C0FFFFFF525252696969F2F2F2EFEFEFD4D4D40E0E0EFFFFFFFFFFFF171717
310
D9D9D9EDEDEDFAFAFA747474323232FFFFFF6C6C6C1C1C1CEFEFEFA0A0A08B8B
310
8BFEFEFE0202029B9B9BFFFFFFF3F3F31E1E1ED3D3D3FFFFFF343434696969FF
310
FFFFEEEEEEAFAFAF000000777777F2F2F2FFFFFFEEEEEEFAFAFAC1C1C1161616
310
FFFFFFF9F9F9E8E8E8050505D3D3D3F4F4F45353537B7B7BFAFAFAFBFBFBA8A8
310
A8282828FFFFFFA0A0A0000000E7E7E7F2F2F2DBDBDB000000393939E1E1E1F5
310
F5F5BBBBBB3131310000787878BABABAEFEFEFF9F9F9505050E7E7E7F3F3F3FF
310
FFFF2B2B2B3D3D3DEEEEEEFFFFFFFEFEFE434343FFFFFFFFFFFFDCDCDC464646
310
4B4B4BF3F3F3FFFFFFDDDDDD505050FFFFFFFBFBFBC4C4C4515151F9F9F9FFFF
310
FFF9F9F9FFFFFF4242420707072B2B2B050505EFEFEFFFFFFFB8B8B882828266
310
66660000001B1B1B282828ECECECFFFFFF0D0D0D0101010101018C8C8CFFFFFF
310
646464050505353535090909B3B3B3F1F1F1FDFDFDFFFFFFFFFFFFF1F1F1FFFF
310
FFEAEAEA4747471E1E1E1D1F1F1E2020CACCCCFDFFFFAFB0AE5D5E5C2E2F2D15
310
1614070806B3B2AEFFFFFCFDFCF8EFEEEA201F1B0B08032B2A26575856818181
310
BBBBBBB6B6B67B7B7BE6E6E65A5A5A595959151515000000686868FFFFFFE4E4
310
E4FAFAFA6060601A1A1A212121020202D0D0D0F3F3F3F8F8F8DBDBDB0B0B0B26
310
2626212121323232F7F7F7FBFBFB7979795B5B5B404040B7B7B7878787F7F7F7
310
434343555555131313000000888888F0F0F0FEFEFEFFFFFF4949490404042D2D
310
2D242424C3C3C3767676FDFDFDFFFFFFFDFDFDFFFFFFFAFAFA94949404040429
310
2929000000B6B6B6FFFFFFFFFFFFFFFFFF2828281F1F1F202020191919EFEFEF
310
FFFFFFC6C6C65A5A5A1D1D1D1313130D0D0DBBBBBBBBBBBB0F0F0F0E0E0E0505
310
05F5F5F50000F1F1F1FEFEFEFFFFFFFBFBFBF0F0F0FFFFFFFFFFFFFFFFFFFFFF
310
FFF6F6F6F6F6F6F0F0F0FFFFFFF1F1F1FFFFFFF7F7F7FEFEFEE3E3E3FDFDFDF1
310
F1F1FFFFFFFFFFFFFBFBFBF4F4F4FFFFFFFAFAFAF8F8F8FFFFFFF6F6F6FFFFFF
310
FFFFFFFFFFFFDDDDDDC2C2C2FFFFFFF5F5F5FFFFFFFFFFFFE7E7E7FDFDFDEBEB
310
EBE0E0E0FAFAFAEFEFEFFFFFFFFFFFFF4E4E4EE1E1E1FFFFFFF4F4F4FBFBFBE3
310
E3E3C6C6C6EDEDEDFFFFFFFFFFFFFFFFFFF4F4F4FFFFFFFFFFFFF0F0F0FFFFFF
310
FCFCFCDBDBDBD0D2D2F8FAFAFDFFFFFDFFFFF0F1EFFFFFFEFFFFFEDDDCD8FFFF
310
FCF1EEE9FFFFF9F5F2EAFFFFF9FFFFF8DCD7CEEFECE4FFFFFEFFFFFFFFFFFFFD
310
FDFDF7F7F7FFFFFFFFFFFFECECECE7E7E7FFFFFFFDFDFDF1F1F1FFFFFFFFFFFF
310
FFFFFFCBCBCBD0D0D0FFFFFFFFFFFFFDFDFDFFFFFFFFFFFFFFFFFFD5D5D5CDCD
310
CDFFFFFFF4F4F4FFFFFFEDEDEDFCFCFCF2F2F2FCFCFCFAFAFAF7F7F7FFFFFFF7
310
F7F7E1E1E1F5F5F5F8F8F8FFFFFFF3F3F3FFFFFFFFFFFFDBDBDBEAEAEAEEEEEE
310
F5F5F5F8F8F8FFFFFFEBEBEBF5F5F5F1F1F1FFFFFFFBFBFBFFFFFFBDBDBDFFFF
310
FFF0F0F0F5F5F5FEFEFEF5F5F5FFFFFFD0D0D0CBCBCBFAFAFAFDFDFDF1F1F1FB
310
FBFBFBFBFBFFFFFFE8E8E8F8F8F8FFFFFFFFFFFFE5E5E5DFDFDFFFFFFFF3F3F3
310
0000FFFFFFFCFCFCFAFAFAFFFFFFFFFFFFF5F5F5F7F7F7FAFAFAE5E5E5FFFFFF
310
FFFFFFF8F8F8FFFFFFFFFFFFECECECFFFFFFFFFFFFFFFFFFFFFFFFFFFFFFF8F8
310
F8EBEBEBF9F9F9FFFFFFFFFFFFFFFFFFF0F0F0F7F7F7FFFFFFF9F9F9E7E7E7FF
310
FFFFF8F8F8FFFFFFFDFDFDF2F2F2FFFFFFFFFFFFF0F0F0FFFFFFFFFFFFF6F6F6
310
FFFFFFFFFFFFF6F6F6FFFFFF323232D4D4D4FBFBFBE6E6E6FFFFFFFFFFFFFAFA
310
FAF3F3F3FFFFFFECECECFFFFFFF0F0F0F5F5F5FFFFFFFFFFFFFEFEFEFDFDFDFF
310
FFFFF7F9FAFAFEFFECF1F0EEF0F0FFFFFEFFFFFEF9F8F4FFFFFBFFFEF6FFFEF5
310
FFFEF3FFFFF7FFF7EAFFF8EBFFFFF5FAF4E9FFFEFAF1F1F1FBFBFBB8B8B87979
310
79FFFFFFF5F5F5FFFFFFFFFFFFECECECFFFFFFF6F6F6FBFBFBF4F4F4ECECECFF
310
FFFFFDFDFDF1F1F1FEFEFEFBFBFBFDFDFDFFFFFFF4F4F4FEFEFEFFFFFFFFFFFF
310
F2F2F2FFFFFFFFFFFFF5F5F5FFFFFFA4A4A47D7D7DFFFFFFF7F7F7FFFFFFFDFD
310
FDFFFFFFEAEAEAFFFFFFFAFAFAFFFFFFEEEEEEFFFFFFEEEEEEFFFFFFFFFFFFFF
310
FFFFFFFFFFFFFFFFFFFFFFF9F9F9F6F6F6FAFAFAF7F7F7FFFFFFFCFCFCFFFFFF
310
F2F2F2FFFFFFFFFFFFF7F7F7FAFAFAFFFFFFFFFFFFFFFFFFFAFAFAF9F9F9F9F9
310
F9FAFAFAEAEAEAFFFFFFEDEDEDF6F6F6FFFFFFFFFFFFF6F6F6FFFFFF0000F8F8
310
F8F4F4F4F2F2F2FFFFFFFDFDFDFFFFFFFFFFFFFFFFFFFFFFFFFAFAFAFFFFFFED
310
EDEDFBFBFBFFFFFFF7F7F7FFFFFFF3F3F3FFFFFFFFFFFFF1F1F1FEFEFEFFFFFF
310
FFFFFFFFFFFFFFFFFFFAFAFAFFFFFFFFFFFFFFFFFFFFFFFFFFFFFFFFFFFFFFFF
310
FFFCFCFCFFFFFFFFFFFFF4F4F4F8F8F8FEFEFEF2F2F2FDFDFDFFFFFFF9F9F9F7
310
F7F7FCFCFCFFFFFF898989D5D5D5FCFCFCFFFFFFF7F7F7FBFBFBFFFFFFFFFFFF
310
FFFFFFF9F9F9FEFEFEFFFFFFFFFFFFF6F6F6EBEBEBFFFFFFF5F5F5FDFFFFFBFF
310
FFFBFFFFFBFFFFFBFFFFF1F2F0F5F4F0FFFFFAFFFEF6FFFBF2FFFFF7FFFFF5F4
310
EBDDFFFFF4FFFFF2FFFFEFFFFFF5FFFFFCFFFFFFFFFFFFB8B8B8787878FFFFFF
310
FFFFFFFEFEFEFBFBFBFFFFFFFFFFFFFCFCFCFFFFFFFFFFFFFCFCFCFFFFFFFCFC
310
FCFFFFFFFCFCFCFFFFFFFFFFFFFBFBFBFFFFFFFAFAFAF5F5F5FFFFFFFFFFFFEB
310
EBEBFFFFFFFFFFFFF3F3F3ADADADA1A1A1F8F8F8FFFFFFFFFFFFDFDFDFFFFFFF
310
FFFFFFFFFFFFFFFFFFF4F4F4FFFFFFF7F7F7FFFFFFF9F9F9FFFFFFE8E8E8F7F7
310
F7F1F1F1F1F1F1FFFFFFFFFFFFF2F2F2FFFFFFF9F9F9ECECECFFFFFFFFFFFFE5
310
E5E5FFFFFFFFFFFFF4F4F4FFFFFFF3F3F3FCFCFCFFFFFFFFFFFFFFFFFFFFFFFF
310
F7F7F7FEFEFEFFFFFFFCFCFCF4F4F4FAFAFAF7F7F7FFFFFF0000FFFFFFFDFDFD
310
FFFFFFFEFEFEFBFBFBF8F8F8FFFFFFEFEFEFF9F9F9F1F1F1FFFFFFFFFFFFFAFA
310
FAF6F6F6F7F7F7FFFFFFFFFFFFF3F3F3FEFEFEF4F4F4FFFFFFF4F4F4F4F4F4FB
310
FBFBFFFFFFF6F6F6FFFFFFFFFFFFEEEEEEFBFBFBFFFFFFF9F9F9FFFFFFFEFEFE
310
EEEEEEF8F8F8F7F7F7FFFFFFF8F8F8FFFFFFFBFBFBFFFFFFFFFFFFFFFFFFFFFF
310
FFF9F9F9EFEFEFFFFFFFFCFCFCFAFAFAFFFFFFFEFEFEFFFFFFF3F3F3FDFDFDFF
310
FFFFFFFFFFF5F5F5FBFBFBFFFFFFF7F7F7FFFFFFF4F4F4FDFFFFFBFFFFE6EBEC
310
F1F5F6FBFFFFFDFEFCFFFFFCFFFFFBFDFAF2E5DFD4D5CDC0CDC4B6E5DBCAD2C6
310
B4FFFFEFF4E6D3FFFCEEFFFFFAF8F8F8F0F0F0FFFFFFFFFFFFF5F5F5FEFEFEF5
310
F5F5FFFFFFFFFFFFF4F4F4FFFFFFFFFFFFF8F8F8FFFFFFF5F5F5FFFFFFFFFFFF
310
F5F5F5FFFFFFFFFFFFF2F2F2FFFFFFFFFFFFFFFFFFE5E5E5FFFFFFFFFFFFE7E7
310
E7FFFFFFFFFFFFFFFFFFFFFFFFE6E6E6FEFEFEFFFFFFFFFFFFFFFFFFF3F3F3FD
310
FDFDF8F8F8F2F2F2FFFFFFFFFFFFFFFFFFFFFFFFFFFFFFFFFFFFFDFDFDFFFFFF
310
FFFFFFEFEFEFFFFFFFFBFBFBEEEEEEFEFEFEFFFFFFEDEDEDFFFFFFFFFFFFEEEE
310
EEFFFFFFFBFBFBFFFFFFFFFFFFFFFFFFF7F7F7FFFFFFFFFFFFFBFBFBFEFEFEFE
310
FEFEFAFAFAFFFFFFF9F9F9F5F5F5FFFFFFFFFFFF0000FFFFFFF7F7F7FFFFFFFF
310
FFFFFEFEFEFFFFFFFFFFFFFFFFFFFFFFFFFFFFFFFFFFFFEBEBEBFFFFFFFFFFFF
310
FFFFFFF8F8F8F5F5F5FFFFFFF8F8F8FFFFFFFFFFFFF0F0F0FFFFFFFDFDFDFFFF
310
FFFFFFFFF5F5F5FFFFFFFFFFFFF6F6F6FFFFFFF9F9F9F8F8F8FCFCFCFFFFFFFE
310
FEFEFFFFFFF9F9F9FFFFFFF7F7F7FFFFFFFAFAFAF7F7F7FFFFFFFFFFFFFFFFFF
310
FFFFFFFCFCFCFFFFFFFEFEFEFFFFFFF5F5F5FFFFFFF2F2F2FFFFFFF5F5F5F3F3
310
F3FFFFFFFEFEFEF4F4F4FFFFFFF2F2F2FCFCFCFDFFFFF1F5F6FBFFFFF7FBFCFB
310
FFFFFAFCFCF0F1EFFFFFFBFFFFF7F5ECDED0C4B2D2C4AEE0CFB5DCC9AED2BDA1
310
EFD9BDD9C5ACDDD0C0FFF7EDFFFFF6FFFAF3FFFFFBFFFFFCF8F6F5FFFFFFF8FA
310
FBFBFDFEFDFFFFFDFFFFEEF0F0FDFFFFF5F6F4FFFFFEFDFFFFFDFFFFFBFDFDFD
310
FFFFFCFEFEFBFBFBFEFEFEFFFFFFF7F7F7FFFFFFFEFEFEFDFDFDFFFFFFF9F9F9
310
FFFFFFF2F2F2F7F7F7FFFFFFFDFDFDFFFFFFF0F0F0FFFFFFFFFFFFFFFFFFFCFC
310
FCFFFFFFF6F6F6F5F5F5FEFEFEFCFCFCFFFFFFFBFBFBFFFFFFE9E9E9FFFFFFFF
310
FFFFF8F8F8FFFFFFFFFFFFFFFFFFF6F6F6FFFFFFF4F4F4FFFFFFFAFAFAFFFFFF
310
FFFFFFFAFAFAFFFFFFF2F2F2FFFFFFFFFFFFF6F6F6FEFEFEFFFFFFFFFFFFFBFB
310
FBF8F8F8FFFFFFFFFFFFF1F1F1F9F9F90000FDFDFDFFFFFFFFFFFFFFFFFFFCFC
310
FCFCFCFCFFFFFFFFFFFFFFFFFFFFFFFFFFFFFFFFFFFFFFFFFFFFFFFFFFFFFFFF
310
FFFFF5F5F5FFFFFFEBEBEBBABABACBCBCBD6D6D6BABABAD6D6D6D2D2D2CBCBCB
310
CECECED0D0D0CACACACCCCCCD1D1D1CDCDCDCCCCCCCECECEC5C5C5FFFFFFFBFB
310
FBFDFDFDFFFFFFFBFBFBFFFFFFFFFFFFFFFFFFFFFFFFFFFFFFFFFFFFFFFFFFFF
310
FFFFFFFFFFFFFFFFFFFFFFFFFFFFFFFFFFFFFFFFFFFFFFFFFFFFF2F2F2FEFEFE
310
FFFFFFFFFFFFFFFFFFFFFFFFFEFEFEF8F8F8FDFFFFFAFCFCF1F6F7F2F7FAF9FE
310
FFFBFFFFFFFFFCFFFCF1F7E9D6DEC9AEE5CAA8ECCDA6EDCBA0EFCCA0EBC69AF0
310
CCA4F6D3B1E1C3A6DFC4AAFDE8D3FFFFF4FFFFF8FBF6F3FAF9FBEFF4F7F1F7FC
310
F5FBFFF7FEFFFAFFFFFBFFFEFDFFFCFCFFFBF1F6F4FBFFFFF9FEFDF2F7F6F7FC
310
FBFBFDFDF9FBFBFCFEFEFCFCFCFCFCFCFEFCFCFFFDFDFFFDFDFFFDFDFFFDFEFF
310
FEFEFDFDFDFDFDFDFDFDFDFDFDFDFDFDFDFDFDFDFDFDFDFDFDFDFDFDFDFDFDFD
310
FDFDFDFDFDFDFDFDFDFDFDFDFDFDFDFDFDFDFEFEFEFDFDFDFCFCFCFCFCFCFCFC
310
FCFCFCFCFDFDFDFEFEFEFDFDFDFDFDFDFDFDFDFDFDFDFDFDFDFDFDFDFDFDFDFD
310
FDFDFBFBFBFCFCFCFCFCFCFDFDFDFDFDFDFEFEFEFEFEFEFEFEFEFFFFFFF3F3F3
310
FFFFFFFAFAFAF8F8F8FDFDFD0000FBFBFBFDFDFDFFFFFFFFFFFFFFFFFFFFFFFF
310
FEFEFEFDFDFDFFFFFFFFFFFFFFFFFFFFFFFFFFFFFFFFFFFFFFFFFFFFFFFFFFFF
310
FFFDFDFDEAEAEA8F8F8F8080807A7A7A8D8D8D8585858282827E7E7E83838386
310
86868080808282828585857F7F7F8585858585858F8F8FF7F7F7FBFBFBFDFDFD
310
FFFFFFFFFFFFFFFFFFFFFFFFFFFFFFFFFFFFFFFFFFFFFFFFFFFFFFFFFFFFFFFF
310
FFFFFFFFFFFFFFFFFFFFFFFFFFFFFFFFFFFFFFFFFFFFFFFFFFFFFFFFFAFAFAF6
310
F6F6FBFBFBFFFFFFFFFFFFFFFFFFF5F6F4FCFEFEFAFFFFF8FFFFF7FDFFF4F7FB
310
FDFBFAFFFFF7F6E7D4DFC7A9E7C7A3F0CB9FF2C99CF4CA9BECC293F1C79AE9BE
310
93FDD4ADF4CFADDABC9FDDC5B1F3E3D6FFFCF5FFFFFEFBFFFFF6FDFFEDF3F8F2
310
F9FCF7FFFEF7FEFBF9FFFAFBFFFCFBFFFEFAFFFFF2F8F7F5FBFAFBFFFFFBFFFF
310
FDFFFFF2F4F4FEFEFEFEFEFEFFFFFFFFFFFFFFFEFFFFFEFFFFFEFFFFFFFFFFFF
310
FFFFFFFFFFFFFFFFFFFFFFFFFFFFFFFFFFFFFFFFFFFFFEFEFEFEFEFEFEFEFEFE
310
FEFEFEFEFEFEFEFEFEFEFEFEFEFEFFFFFFFFFFFFFFFFFFFEFEFEFEFEFEFFFFFF
310
FFFFFFFFFFFFFCFCFCFCFCFCFCFCFCFCFCFCFCFCFCFCFCFCFCFCFCFCFCFCFEFE
310
FEFEFEFEFEFEFEFFFFFFFFFFFFFFFFFFFFFFFFFFFFFFF6F6F6F1F1F1FFFFFFFF
310
FFFFFFFFFFFEFEFE0000FFFFFFFEFEFEFEFEFEFFFFFFFFFFFFFFFFFFFEFEFEFC
310
FCFCFFFFFFFFFFFFFFFFFFFFFFFFFFFFFFFFFFFFFFFFFFFFFFFFF9F9F9FFFFFF
310
EBEBEBCBCBCB7070708484849494948080808989898686868D8D8D9292928D8D
310
8D8E8E8E9090908989898F8F8F878787919191FFFFFFFFFFFFFFFFFFFAFAFAFA
310
FAFAFFFFFFFFFFFFFFFFFFFFFFFFFFFFFFFFFFFFFFFFFFFFFFFFFFFFFFFFFFFF
310
FFFFFFFFFFFFFFFFFFFFFFFFFFFFFFFFFFFFFBFBFBFEFEFEFFFFFFFFFFFFFFFF
310
FFF8F8F8F6F6F6F9F9F9FFFFFEFFFFFEF6FAFBF0F5F8EEF4F9F6F9FDFFFFFEFF
310
FFF8FAECDADFCAAFE3C7A5E9C8A1EDC9A1F6D3A8F4D0A8FCD5AEEDC399FAD0A6
310
F4CEABE8C9AAE3CAB0DFCBB9DED2C6E8E0D9FEFBF7FBFCFAFAFCFCFAFFFEFBFF
310
FEFBFFFCFDFFFBFAFFFBFBFFFEF7FDFCFBFFFFFBFFFFFBFFFFEAEFEEFDFFFFFD
310
FFFFFDFDFDFDFDFDFFFDFDFFFDFDFFFDFDFFFDFDFFFBFCFEFCFCFFFDFDFDFDFD
310
FDFDFDFDFDFDFDFDFDFDFDFDFDFDFDFDFDFDFDFDFDFDFDFDFDFDFDFDFDFDFDFD
310
FDFDFDFDFDFDFDFDFDFDFDFDFDFDFDFDFDFDFDFDFDFDFDFDFDFDFDFDFDFDFDFD
310
FDFDFFFFFFFFFFFFFFFFFFFFFFFFFFFFFFFFFFFFFFFFFFFFFFFFFCFCFCFCFCFC
310
FCFCFCFDFDFDFDFDFDFDFDFDFEFEFEFEFEFEFFFFFFFFFFFFFDFDFDFFFFFFFAFA
310
FAFAFAFA0000FFFFFFFFFFFFFFFFFFFEFEFEFCFCFCFDFDFDFFFFFFFFFFFFFFFF
310
FFFFFFFFFFFFFFFFFFFFFFFFFFFFFFFFFFFFFFFFFFFFF6F6F6FFFFFFFAFAFAFF
310
FFFF9E9E9E8A8A8A8C8C8C8181818282827F7F7F8585858A8A8A858585878787
310
8A8A8A848484909090898989929292FFFFFFFFFFFFFDFDFDFDFDFDFFFFFFFFFF
310
FFFFFFFFFFFFFFFFFFFFFFFFFFFFFFFFFFFFFFFFFFFFFFFFFFFFFFFFFFFFFFFF
310
FFFFFFFFFFFFFFFFFFFFFFFFFFFFFDFDFDFCFCFCFFFFFFFFFFFFFFFFFFFDFDFD
310
FFFFFFFFFFFEFCFBF7F8F9F7F6FAFBFAFFFFF8FEFFFAFFFFFFFFFFFFFDF6F0E3
310
D5DAC8B1E3CBAFE9CCADEACBAAEBCCABDEBF9EDEBE9BFED7B0F4CBA4E6C19BE8
310
C8A5EBCEB3D8C2A9D0BEADDBD0C2E8E2D7FFFEF6FFFFFBFFFFFCFDFEFAFDFFFC
310
FDFFFCF5FBF6F9FEFCE9EFEEF4F9F8F6FBFAFBFFFFFBFFFFF4F6F6F4F6F6FFFF
310
FFFFFFFFFFFFFFFFFFFFFFFEFEFFFEFEFFFDFEFFFEFEFEFEFEFEFEFEFEFEFEFE
310
FEFEFEFEFEFEFEFEFEFEFEFEFEFEFFFFFFFFFFFFFFFFFFFFFFFFFFFFFFFFFFFF
310
FFFFFFFFFFFFFEFEFEFEFEFEFFFFFFFFFFFFFFFFFFFFFFFFFEFEFEFEFEFEFDFD
310
FDFDFDFDFDFDFDFDFDFDFDFDFDFDFDFDFDFDFDFDFDFDFEFEFEFEFEFEFEFEFEFE
310
FEFEFEFEFEFFFFFFFFFFFFFFFFFFF7F7F7FFFFFFF4F4F4FFFFFFFFFFFFFEFEFE
310
0000F8F8F8FEFEFEFFFFFFFFFFFFFEFEFEFCFCFCFFFFFFFFFFFFFFFFFFFFFFFF
310
FFFFFFFFFFFFFFFFFFFFFFFFFFFFFFFFFFFFFFFFFFF9F9F9FFFFFFF5F5F5DDDD
310
DD7575758585858888888989898383838888888B8B8B8686868A8A8A8F8F8F8A
310
8A8A818181878787929292F7F7F7F7F7F7FAFAFAFFFFFFFFFFFFFFFFFFFFFFFF
310
FFFFFFFFFFFFFFFFFFFFFFFFFFFFFFFFFFFFFFFFFFFFFFFFFFFFFFFFFFFFFFFF
310
FFFFFFFFFFFFFFFFFFFFFFFFFFFFFFFFFAFAFAFEFEFEFFFFFFFFFFFFF8F8F8F4
310
F5F3FFFFFBFFFFFCFDFFFFFAFFFFF2F8FDEEF2F7F3F5F6FFFBF8F6ECE2DDCDBC
310
DEC9B3DBC3ABD9C1A9E5CDB5E4CDB7F0D5BBE1BE9CF1CCA6EDC9A5E1C19EE3C6
310
A7E5CAAFE0CAB1DECDB8D7CBB9E6DDCFF7F1E6FDFAF2FFFFF9FFFFFCFDFFFCFA
310
FFFDFBFFFFFBFFFFFBFFFFF5FAF9F4F6F6FDFFFFEDEFEFFDFFFFFFFFFFFFFFFF
310
FFFFFFFFFFFFFFFFFFFFFFFFFFFFFFFFFFFFFFFFFFFFFFFFFFFFFFFFFFFFFFFF
310
FFFFFFFFFFFFFFFFFFFFFFFFFFFFFFFFFFFFFFFFFFFFFFFFFFFFFFFFFFFFFFFF
310
FFFFFFFFFFFFFFFFFFFFFFFFFFFFFFFFFFFFFFFFFFFFFFFFFFFFFFFFFFFFFFFF
310
FFFFFFFFFFFFFFFFFFFFFFFFFFFFFFFFFFFFFFFFFFFFFFFFFFFFFFFFFFFFFFFF
310
FFFFFFFFFFFFFFFFFFFFFFFFFFFFFFFFFBFBFBFFFFFFFEFEFEF8F8F80000E2E2
310
E2EDEDEDFBFBFBFFFFFFFFFFFFFFFFFFFDFDFDFCFCFCFFFFFFFFFFFFFFFFFFFF
310
FFFFFFFFFFFFFFFFFFFFFFFFFFFFFFFFFFF4F4F4FAFAFAFDFDFDFFFFFFA1A1A1
310
8A8A8A9696968989898282828686868888888282828686868C8C8C8888888585
310
859090909F9F9FFFFFFFFDFDFDFCFCFCFEFEFEF9F9F9FFFFFFFFFFFFFFFFFFFF
310
FFFFFFFFFFFFFFFFFFFFFFFFFFFFFFFFFFFFFFFFFFFFFFFFFFFFFFFFFFFFFFFF
310
FFFFFFFFFFFFFAFAFAFFFFFFFFFFFFFFFFFFFEFEFEFFFFFFFFFFFFFFFFFEFFFC
310
F8FEFDF9FAFCFCF4F7FBECF0F5E1E5EAD8DADBD5D3D2C0B9B0B9ADA1D2C2B2DD
310
CBBAE1CFBEE7D7C7DFCFC2E5D1BFE8CCAEEFCFACEBCAA9EACBAAF0D3B4E7CDAF
310
D7C1A5D3BFA6D5C7B1CBBFADDBD3C6FFFBF2FFFFFBF2F3EFDDE2E0DDE3E2D4D9
310
D8DDE2E1E6EBEAE2E7E6DCDEDEECEEEEEAECECC5C7C7C9C9C9C9C9C9C9C9C9CA
310
CACACCCACACDCBCBCDCBCBCDCBCBCACACACACACACACACACACACACACACACACACA
310
CACACACACACAC8C8C8C8C8C8C8C8C8C8C8C8C8C8C8C8C8C8C8C8C8C8C8C8C8C8
310
C8C9C9C9CBCBCBCCCCCCCCCCCCCBCBCBC9C9C9C8C8C8CCCCCCCCCCCCCCCCCCCC
310
CCCCCCCCCCCCCCCCCCCCCCCCCCCCCBCBCBCBCBCBCBCBCBCACACACACACACACACA
310
C9C9C9C9C9C9CBCBCBBFBFBFF4F4F4FAFAFAFCFCFCF6F6F60000D3D3D3D9D9D9
310
E4E4E4F3F3F3FEFEFEFFFFFFFFFFFFFBFBFBFFFFFFFFFFFFFFFFFFFFFFFFFFFF
310
FFFFFFFFFFFFFFFFFFFFFFFFFFFFFFFFF5F5F5FFFFFFFAFAFADEDEDE8C8C8C7E
310
7E7E8A8A8A8585858A8A8A8C8C8C8787878989898D8D8D8787877E7E7E808080
310
8F8F8FFFFFFFFFFFFFFEFEFEFFFFFFFFFFFFFFFFFFFFFFFFFFFFFFFFFFFFFFFF
310
FFFFFFFFFFFFFFFFFFFFFFFFFFFFFFFFFFFFFFFFFFFFFFFFFFFFFFFFFFFFFFFF
310
FFFFFCFCFCFFFFFFFFFFFFF7F7F7F8F8F8FFFFFFFFFFFFF7F5F4CAC7C295928D
310
4849470E1213000004000004000307060606100C070B02000F0300190D01372B
310
2172675FA49B97D0C4BAE2CAB6E8CDB3E0C5AADEC3A8E3C8ADDFC7ABDCC5ABE3
310
CFB6DAC9B4D6CAB8E4DCCFFDF8EFFFFFFCF7F9F9ECF1F2ECF4F4F2F6F7E6E8E8
310
DDDFDFEDEFEFE5E7E7D2D4D4FDFFFF4D4F4F4242424242424343434444444545
310
4546464647474748484845454545454545454545454545454545454545454545
310
4545434343434343434343434343434343434343434343434343434343444444
310
4646464747474747474646464444444343433D3D3D3D3D3D3D3D3D3D3D3D3D3D
310
3D3D3D3D3D3D3D3D3D3D46464646464645454545454545454544444444444444
310
4444383838434343DEDEDEFFFFFFFFFFFFFEFEFE0000D0D0D0CCCCCCCFCFCFDE
310
DEDEF4F4F4FFFFFFFFFFFFFFFFFFFFFFFFFFFFFFFFFFFFFFFFFFFFFFFFFFFFFF
310
FFFFFFFFFFFFFFFFFFF6F6F6FFFFFFF7F7F7FEFEFEFFFFFFBFBFBF8686868A8A
310
8A8686868C8C8C9090908A8A8A8A8A8A8C8C8C8484849C9C9C8B8B8B909090FF
310
FFFFFFFFFFF9F9F9F9F9F9FFFFFFFFFFFFFFFFFFFFFFFFFFFFFFFFFFFFFFFFFF
310
FFFFFFFFFFFFFFFFFFFFFFFFFFFFFFFFFFFFFFFFFFFFFFFFFFFFFFFFFFFFFFFF
310
FFFDFDFDFAFAFAFFFFFFFFFFFFDFDFDF7373730D0B0A04010004010000010000
310
010200030801050A0003070101010D0805090100170E05120900090100080300
310
0601020F08056A5A4DC6B2A0F5E1CFE2CDB8D8C3ADE9D4BEEFDAC4E0CFBAFFFF
310
F0FFFFF0DFD6CC88857D3E3F3D1B1F20060C110000040000010000000001010A
310
0C0C000000080A0AFDFFFF595B5B4B4B4B4B4B4B4C4C4C4E4E4E505050515151
310
5252525353534F4F4F4F4F4F4F4F4F4F4F4F4F4F4F4F4F4F4F4F4F4F4F4F5151
310
515151515151515151515151515151515151515151514C4C4C4E4E4E50505051
310
51515151515050504E4E4E4C4C4C545454545454545454545454545454545454
310
5454545454545050505050505050504F4F4F4E4E4E4E4E4E4D4D4D4D4D4D4545
310
45404040F3F3F3FCFCFCFDFDFDEEEEEE0000D9D9D9D9D9D9D2D2D2CACACACFCF
310
CFE3E3E3F8F8F8FFFFFFFAFAFAFFFFFFFFFFFFFCFCFCF8F8F8FBFBFBFFFFFFFF
310
FFFFFFFFFFF8F8F8FFFFFFFFFFFFEFEFEFFFFFFFF8F8F89C9C9C858585858585
310
8484849292928181817F7F7F9A9A9A7C7C7C878787888888949494FFFFFFFFFF
310
FFFDFDFDFEFEFEFEFEFEFFFFFFFFFFFFFFFFFFFFFFFFFFFFFFFFFFFFFFFFFFFF
310
FFFFFFFFFFF6F6F6FFFFFFFBFBFBFFFFFFFAFAFAFFFFFFF7F7F7FDFDFDFAFAFA
310
FEFEFEDFDFDF5C5C5C0000000C0C0C0200000401000E0B06070806090D0E050A
310
0D00010605080C030303060100070100160E0719110A0500000D08090A0B0F00
310
0001130A060C0200675B4FCDC0B2CCBDADFFF0E0FFFAE8EADDCD695E502D241A
310
07020007060200020200000300070E0000050408090000000606060606060D0D
310
0D040404EFEFEF6969694C4E4E4D4F4F4F51515153535153534F51514D4F4F4C
310
4E4E5454545252525050505151515252525353535353535252524E4E4E4F4F4F
310
5151515353535353535151514F4F4F4E4E4E4F4F4F5050505050505151515151
310
515252525252525353535454545454545454545454545252525151514F4F4F4E
310
4E4E5454545353535252525151515151515252525353535454545151513D3D3D
310
ECECECFFFFFFF8F8F8FFFFFF0000CCCCCCD8D8D8DCDCDCD1D1D1C7C7C7CFCFCF
310
E4E4E4F5F5F5FFFFFFFFFFFFFAFAFAF8F8F8FEFEFEFFFFFFFFFFFFFBFBFBFFFF
310
FFF7F7F7FFFFFFFFFFFFF7F7F7FFFFFFFFFFFFCBCBCB8181818686867C7C7C86
310
86868787878989897777778F8F8F878787888888949494FFFFFFFFFFFFFDFDFD
310
FEFEFEFEFEFEFFFFFFFFFFFFFFFFFFFFFFFFFFFFFFFFFFFFFFFFFFFFFFFFFCFC
310
FCFFFFFFF8F8F8F4F4F4FBFBFBFFFFFFF6F6F6FFFFFFFFFFFFF5F5F583838301
310
01010000001010100909090806050D0A050B0803000100000203000407000003
310
0204050200000B0702170F080901000901000904010A07090000042021250200
310
001B16130701006A625BFFFFF8D0C7BE4E453B0F06000902000701000703000E
310
0D0906080801060903090E000005090B0C0404040A0A0A000000000000000000
310
FFFFFF626262494B4B4B4D4D4C4E4E4E50504E50504C4E4E4B4D4D494B4B5151
310
514F4F4F4E4E4E4E4E4E4F4F4F5050505050504F4F4F4B4B4B4D4D4D4E4E4E50
310
50505050504E4E4E4D4D4D4B4B4B515151515151515151515151525252525252
310
5252525252525050505151515151515151515050504F4F4F4D4D4D4D4D4D5050
310
504F4F4F4F4F4F4E4E4E4E4E4E4F4F4F4F4F4F5050504545453E3E3EEBEBEBFF
310
FFFFFEFEFEFFFFFF0000D2D2D2D4D4D4D2D2D2CFCFCFCFCFCFD3D3D3D5D5D5D4
310
D4D4E8E8E8F5F5F5FFFFFFFFFFFFFDFDFDFDFDFDFFFFFFFFFFFFFFFFFFF9F9F9
310
FEFEFEFFFFFFFDFDFDFFFFFFFFFFFFFAFAFAA7A7A78181818585858585858F8F
310
8F8B8B8B767676979797878787888888949494FFFFFFFFFFFFFDFDFDFEFEFEFE
310
FEFEFFFFFFFFFFFFFFFFFFFFFFFFFFFFFFFFFFFFFFFFFFFFFFFFFAFAFAFCFCFC
310
FFFFFFF7F7F7FFFFFFF6F6F6FFFFFFFFFFFFD0D0D02323230000000808080707
310
070202020000000405030504001615110A0C0C0105060000030001051010100B
310
08040701001D140A170D030B020017110C040000121115000004000203030303
310
CCCCCCEEECEB5B57560501000E0906050000181511100D090704000200000001
310
000303030608080A0A0A0303030200000A08080200000B0B0B0B0B0BFFFFFF5E
310
5E5E4B4D4D4C4E4E4D4F4F4E50504C51504B504F4A4F4E4B4D4D525252505050
310
4E4E4E4E4E4E5050505151515151515050504D4D4D4E4E4E4F4F4F5050505050
310
504F4F4F4E4E4E4D4D4D5050505050505050505050505050504F4F4F4F4F4F4F
310
4F4F4F4F4F5050505151515151515151515050505050504F4F4F4E4E4E4E4E4E
310
4F4F4F4F4F4F4F4F4F4F4F4F4E4E4E4E4E4E4C4C4C4E4E4EE3E3E3FEFEFEF9F9
310
F9FDFDFD0000D9D9D9D3D3D3CECECED0D0D0D8D8D8D9D9D9D1D1D1C7C7C7CDCD
310
CDE1E1E1F8F8F8FFFFFFFEFEFEFAFAFAFCFCFCFFFFFFFFFFFFFFFFFFFDFDFDFE
310
FEFEFFFFFFFBFBFBFDFDFDFFFFFFE7E7E78383838E8E8E8B8B8B8D8D8D7D7D7D
310
939393878787878787888888949494FFFFFFFFFFFFFDFDFDFEFEFEFEFEFEFFFF
310
FFFFFFFFFFFFFFFFFFFFFFFFFFFFFFFFFFFFFFFFFFFFFDFDFDF5F5F5FFFFFFFB
310
FBFBFFFFFFFFFFFFF7F7F7A7A7A7030303020202121212080808000000020202
310
0000000F100E0001000001000001001317181B2023242829757674C4C0BBAAA1
310
97887C7061544633271B130902070000161113030206101115F7FBFCBEC0C111
310
13140000011416170000010808080402020200000502000E0B071F1B16322C25
310
3E3831544E49605C5B5755555A5858514F4F585858525252EEEEEE5757573F41
310
413F41414042424143433F44433E43423D42413D424143454543434341414141
310
4141434343444444444444434343414141414141424242434343434343424242
310
4141414141414343434343434242424141414141414040404040404040404141
310
414141414343434343434444444444444444444343433F3F3F40404041414142
310
42424242424141414040403F3F3F3A3A3A4C4C4CD2D2D2FDFDFDFFFFFFFFFFFF
310
0000CFCFCFD4D4D4D9D9D9D9D9D9D3D3D3CFCFCFD1D1D1D6D6D6D1D1D1CFCFCF
310
D6D6D6E8E8E8FDFDFDFFFFFFFFFFFFF6F6F6FAFAFAFFFFFFFFFFFFFAFAFAFFFF
310
FFFFFFFFFBFBFBFFFFFFFFFFFFADADAD7F7F7F8989898282827B7B7B9696967D
310
7D7D878787888888949494FFFFFFFFFFFFFDFDFDFEFEFEFEFEFEFFFFFFFFFFFF
310
FFFFFFFFFFFFFFFFFFFFFFFFFFFFFFFFFFFFFEFEFEFFFFFFF3F3F3FBFBFBFEFE
310
FEFFFFFF8D8D8D12121202020200000000000000000007070700000009090902
310
02021C1D1B4043414E53524A4F503D40445B5D5EBEBCBBFFFFF9FAF1E4E5D6C6
310
E8D8C7F6E6D5BDAFA38A81780700003C3738FFFFFF8688890000010004050000
310
03000003000003040509000000393736A39F9AE1DAD1FEF5E8FFFFF2FFFFF1FF
310
FFF4FFFAF5FFFEFFFFFFFFFFFFFFFEFCFCF7F5F5FFFFFFD7D7D7E2E4E4E3E5E5
310
E1E6E5E1E6E5E1E6E5E1E6E5E0E6E5E0E5E4E6E8E8E6E6E6E4E4E4E4E4E4E6E6
310
E6E7E7E7E6E6E6E5E5E5E4E4E4E5E5E5E5E5E5E5E5E5E5E5E5E5E5E5E5E5E5E4
310
E4E4E9E9E9E9E9E9E8E8E8E8E8E8E7E7E7E6E6E6E6E6E6E6E6E6E3E3E3E4E4E4
310
E5E5E5E6E6E6E7E7E7E7E7E7E7E7E7E7E7E7E2E2E2E3E3E3E4E4E4E5E5E5E5E5
310
E5E4E4E4E3E3E3E2E2E2F0F0F0DFDFDFFFFFFFFCFCFCF4F4F4F8F8F80000D3D3
310
D3D1D1D1D2D2D2D5D5D5D5D5D5D3D3D3D4D4D4D7D7D7D6D6D6CECECECBCBCBD6
310
D6D6E7E7E7F4F4F4FAFAFAFDFDFDF7F7F7FFFFFFFFFFFFFBFBFBFFFFFFFFFFFF
310
FFFFFFFAFAFAFFFFFFF2F2F28383838787878080808F8F8F8080808B8B8B8787
310
87888888949494FFFFFFFFFFFFFDFDFDFEFEFEFEFEFEFFFFFFFFFFFFFFFFFFFF
310
FFFFFFFFFFFFFFFFFFFFFFFFFFFFFFFFFFFBFBFBFFFFFFFFFFFFFFFFFF878787
310
1717170000000000002626260909090000000909090000001414143232324A4D
310
4B4E53523E434451565795989CE5E7E7FFFFFCFFFFF8F5E8D8D9CAB7CCB9A4D9
310
C6B1DECEBEC9BBAFF0E6DFFFFCF7757372020301020404000001080D1005090E
310
070B1026292DDDDFE0E4E1DDFFFFF8EEE3D5D0BFACE4D0B7E3CBAFD5C0AAD8CE
310
C7E9E4E5FFFEFEFFFFFFFFFEFEFFFFFFF5F5F5FFFFFFFDFFFFFDFFFFFBFFFFFB
310
FFFFFBFFFFFBFFFFFAFFFFFBFFFFFDFFFFFFFFFFFEFEFEFEFEFEFFFFFFFFFFFF
310
FFFFFFFFFFFFFFFFFFFFFFFFFFFFFFFFFFFFFFFFFFFFFFFFFFFFFFFFFFFFFFFF
310
FFFFFFFFFFFFFFFFFFFFFFFFFFFFFFFFFFFFFFFFFFFFFDFDFDFEFEFEFFFFFFFF
310
FFFFFFFFFFFFFFFFFFFFFFFFFFFFFDFDFDFEFEFEFEFEFEFFFFFFFFFFFFFEFEFE
310
FEFEFEFDFDFDF2F2F2F0F0F0FEFEFEFFFFFFFFFFFFFFFFFF0000DCDCDCD1D1D1
310
CACACAD1D1D1D9D9D9D9D9D9D3D3D3D0D0D0D3D3D3D0D0D0D0D0D0D1D1D1D2D2
310
D2D7D7D7E8E8E8FAFAFAFBFBFBFEFEFEFFFFFFFFFFFFFFFFFFFFFFFFFFFFFFFC
310
FCFCF8F8F8FFFFFFBDBDBD8C8C8C8585859595957E7E7E949494878787888888
310
949494FFFFFFFFFFFFFDFDFDFEFEFEFEFEFEFFFFFFFFFFFFFFFFFFFFFFFFFFFF
310
FFFFFFFFFFFFFFFFFFFFFFFFFFECECECFFFFFFFFFFFFB5B5B512121200000014
310
14141515150000000000000C0C0C060606242424545454515151404242636867
310
A5AAABF9FEFFFBFFFFEEEEEEF4F0EBFFFFF7E8DAC8DFCCB7DEC8AFD7C2ACE4D0
310
BECDBDADFFFDF3736A6105010008070300010004060600000400000491979EFA
310
FEFF848484716D68BBB1A7DCCCBBD7C0A6F0D4B5ECCCA8D9BFA1CCC2B8D9D4D5
310
F8F3F4FFFEFFFBF9F9FCFAFAF0F0F0FFFFFFFCFEFEFBFDFDF9FEFDF8FDFCF7FD
310
FCF8FEFDF8FEFDFAFFFEFDFFFFFDFDFDFBFBFBFBFBFBFDFDFDFEFEFEFEFEFEFD
310
FDFDFEFEFEFDFDFDFDFDFDFCFCFCFCFCFCFDFDFDFDFDFDFEFEFEFAFAFAFAFAFA
310
FBFBFBFBFBFBFBFBFBFBFBFBFCFCFCFCFCFCFCFCFCFCFCFCFDFDFDFEFEFEFEFE
310
FEFEFEFEFDFDFDFDFDFDFDFDFDFDFDFDFCFCFCFCFCFCFCFCFCFCFCFCFDFDFDFD
310
FDFDFFFFFFFFFFFFFBFBFBFCFCFCFEFEFEFBFBFB0000D7D4D6D8D5D7DDDADCDD
310
DADCD3D2D4CBCACCCFCED0D7D9DAD6D8D9C9CDCEC2C5C9C6CBCCCCD1D4D0D5D6
310
D2D9DCD9DEDFFDFFFFFAFBF9FDFEFCFFFFFEFCFDFBFAFBF9FFFFFEFFFFFEFEFC
310
FBFFFFFEFFFFFE918F8E888685878584918F8E8A8B89878787888888949494FF
310
FFFFFFFFFFFDFDFDFEFEFEFEFEFEFFFFFFFFFFFFFFFFFFFFFFFFFFFFFFFFFFFF
310
FFFFFFFFFFFFFFFFFFFFFDFDF3F1F1F4F2F20301010C090B0603050200010200
310
010F0C0E0F0D0D0200003331304F4D4C3E3C3B646563C3C5C5F4F8F9FBFFFFF6
310
FAFBF3F5F5FFFFFEFFFFF9FCF3E6F2E3D3D6C5B2D9C6B1D8C5B0D4C2B1FFFFF4
310
867A700C05000906010506020F0D0C020000191416E0DCE1DDDBE126272B0D0F
310
10020100746F66DCD2C1DFCBB2DFC2A3E5C09AF5D4B3D6C3B4D5C9C3F0E8E1FF
310
FEF9FFFFFCFFFEFDFFFFFFF5F7F8FCFEFFFCFEFFFBFDFEFBFDFEFBFDFDF9FEFD
310
FAFFFEFAFFFEFFFFFFFDFDFDFCFCFCFCFCFCFDFDFDFEFEFEFEFEFEFDFDFDFEFE
310
FEFEFEFEFDFDFDFDFDFDFDFDFDFDFDFDFEFEFEFEFEFEFDFDFDFDFDFDFEFEFEFE
310
FEFEFFFFFFFFFFFFFFFFFFFFFFFFFDFDFDFDFDFDFEFEFEFEFEFEFEFEFEFEFEFE
310
FDFDFDFCFCFCFFFFFFFEFEFEFDFDFDFCFCFCFCFCFCFDFDFDFEFEFEFFFFFFF6F6
310
F6FFFFFFF5F5F5FCFCFCFFFFFFFDFDFD0000DFD4DCDBD3DAD9D0DAD8D0DAD8D3
310
DCD8D5DED6D5DED2D5DDD5DBE2CFD9E0CBD6DEC6D4DAC3D3DAC0D3D8BFD2D9C5
310
D4D7D4D9D8F0EFEBFFFFFCFFFFFBFEFDF9FFFFFCFFFFFCFFFFFCFFFFFBF1F1EB
310
FFFFFBF7F4EF787570918E898E8C8482827C8C8D8B898C8A939694FCFFFDFFFF
310
FEFDFEFCFFFFFFFFFFFFFBF9F9FFFFFFFFFEFFFFFBFDFFFAFCFFFEFFFFFEFFFF
310
F9FAFFFEFFFFF9F9FFFEFF322A2B0E05080700030A000610060C0900050C0208
310
090003292121534C498D8782DED8D3FFFCF8FDFFFFFBFFFFFDFFFFFFFFFFFFFF
310
FEFFFFFBFFFFF8FFFFF7F4E9DBC8BDAFD8CBBDCEC3B5FFFBEEBDB4AA11090202
310
0200000605000707110F0F0B0000F2DFE2D8C3C618090D080207000003081212
310
000200888C81E7DDCBDFC5ADEDC5A8F4C8ABE8C7ADE5CDB7DDCCB9FFFFF2FFFF
310
F8FEFDF9FDFFFFFAFDFFFDFDFFFDFCFFFFFDFFFFFDFFFFFEFFFFFFFFFFFFFEFF
310
FFFEFFFFFFFFFFFFFFFFFFFFFFFFFFFFFFFFFFFFFFFFFFFFFFFFFFFFFFFFFFFF
310
FFFFFFFFFFFFFFFFFFFFFFFFFFFFFFFFFFFFFFFFFFFFFFFFFFFFFFFFFFFFFFFF
310
FFFFFFFFFFFFFFFFFFFFFFFFFFFFFFFFFFFFFFFFFFFFFFFFFFFFFFFFFFFFFFFF
310
FFFFFFFFFFFFFFFFFFFFFFFFFFFFFFFFFFFFFFFFFFFFFFFFFFFFFFFFFFFFFFFF
310
FFFFFFFFFFFFFFFFFFFFFFFF0000D9D5DBD9D5DBD9D5DBD8D6DCD8D6DCD4D2D8
310
CCCDD1C6C9CDCCD1D4CED3D6CFD6D9D1D8DBCED8D8C9D5D5C5D1D1C5D0CECED1
310
CFCECFCDE2E3DFFFFFFCFFFFFCFCFDF9F8F7F3FFFFFBFFFFFBFFFFFAFFFFFBF5
310
F5EFC8C5C07B787394928A8686808A8B87888B89939694FCFFFDFFFFFEFDFEFC
310
FFFFFFFFFFFFFFFFFFFDFBFBFFFDFFFFFEFFFFFBFDF7F2F4FEF7FAFFFEFFF3EE
310
EDFFFFFE8A85840A05061A13160701060B0409040003050004211B20221C1D92
310
8E8DFAF5F2F6F4ECFFFFF9FFFFFBFDFFFFFBFFFFFFFEFFFFFFFEFFFFFCFFFFF9
310
FFFFF8FFFFF7F3E9DFC9C0B6C6BDB3E2DBD2F8F1E82620190501000F100C0410
310
10000101040000F4E2E3FFFBFB2102051300000B0003010609000103000F0E2C
310
3630C3BDB0DFC7B3F0C6AFEFBFA3EFC8A8EDCEAFE1CAB0FFF5DFFFFFF4FCFDF4
310
FCFEFEFBFEFFFDFCFFFFFBFFFFFCFFFFFCFFFFFDFFFFFEFFFFFFFEFFFFFEFFFF
310
FFFFFFFFFFFFFFFFFFFFFFFFFFFFFFFFFFFFFFFFFFFFFFFFFFFFFFFFFFFFFFFF
310
FFFFFFFFFFFFFFFFFFFFFFFFFFFFFFFFFFFFFFFFFFFFFFFFFFFFFFFFFFFFFFFF
310
FFFFFFFFFFFFFFFFFFFFFFFFFFFFFFFFFFFFFFFFFFFFFFFFFFFFFFFFFFFFFFFF
310
FFFFFFFFFFFFFFFFFFFFFFFFFFFFFFFFFFFFFFFFFFFFFFFFFFFFFFFFFFFFFFFF
310
FFFFFFFFFFFFFFFF0000C5D2D0C5D2D0C9D4D2CDD6D3D2D9D6D4D8D3D4D6D0D5
310
D3CBDAD8CEDDD7CCDED4CAE1D3C7E3D3C6E4D4C7E7D7C7E3D7CBD3D0CCCDCFCF
310
CFD1D1D8DADAEAECECFAFCFCFFFFFFFDFDFDFFFFFEFFFFFEFFFFFEF5F6F4FFFF
310
FE8A8B89848583929391888987898A88949593FEFFFDFFFFFEFEFFFDFFFFFFFF
310
FFFFF3F3F3FFFFFFFFFFFFFFFFFFFFFEFEFFFFFFFFFEFFFEFFFDFDFFFCF8FFF9
310
0F151000020004090700040303070800000106090D2B3031FAFFFEFAFFFEDDE3
310
DEFAFFF9FBFFF9F5FCF5FBFFFFFBFFFFFFFEFFFFFFFEFFFFFCFFFFFBFFFFF9FF
310
FFF8EDE4DBCCC3BACEC5BCFFFFF8706A630501000F0B06030400000200000400
310
BCB3AFFFFDF8D9BAB7A98A892E161616090B000001000305000201000802635D
310
52F7E1CFEBC2ACF6C7ACF1C8A8F0CDACE2C7ACEEDEC7FFFFF2FDFBF1FCFDFBFD
310
FFFFFDFDFFFFFCFFFFFCFFFFFCFFFFFDFFFFFFFFFFFFFEFFFFFEFFFFFFFFFFFF
310
FFFFFFFFFFFFFFFFFFFFFFFFFFFFFFFFFFFFFFFFFFFFFFFFFFFFFFFFFFFFFFFF
310
FFFFFFFFFFFFFFFFFFFFFFFFFFFFFFFFFFFFFFFFFFFFFFFFFFFFFFFFFFFFFFFF
310
FFFFFFFFFFFFFFFFFFFFFFFFFFFFFFFFFFFFFFFFFFFFFFFFFFFFFFFFFFFFFFFF
310
FFFFFFFFFFFFFFFFFFFFFFFFFFFFFFFFFFFFFFFFFFFFFFFFFFFFFFFFFFFFFFFF
310
FFFFFFFF0000C9DACFC5D6CBC0D1C6C2D0C5C7D3C7CED6CBD6DACFDBDAD0DEDA
310
CFE2D9CFE4D8CEE5D6CDE8D6CBEBD7CCEDD9CEE9D9D2DBD7D6D6DADBCBCED2BE
310
C2C3CACDD1E9EDEEFDFEFFFBFDFEFDFFFFFDFFFFFDFFFFFAFCFDFBFDFEC9CBCC
310
787A7B979999868785878886939492FEFFFDFFFFFEFEFFFDFFFFFFFFFFFFFFFF
310
FFFCFCFCF2F2F2FBFBFBFFFFFFFFFFFFFAFAFAF7FAF8EBF6EE7D8B8000040004
310
100A000300000502000A08000303000A0AF6FFFFF4FFFCEEF9F6F6FFFCDFECE4
310
F6FFF9F5FFF8FAFFFFFBFEFFFDFFFFFFFFFFFFFFFEFFFFFCFFFFF9FFFFF9E9E1
310
DAC7BFB8F6EEE7D9D3CC050100100D0915120E020100070B05606157FDF1E7E6
310
D0C5E8C7BEF4D2CC664B471203010000000C1616000200000A04100A00D6C1B2
310
EEC9B5F5C7AFF1C5A6F1CBABE4C8AAE0CCB3FFFFF2FFFCF1FCFBF7FFFFFFFFFD
310
FFFFFCFFFFFCFFFFFDFFFFFDFFFFFFFFFDFFFFFBFFFEFFFFFFFFFFFFFFFFFFFF
310
FFFFFFFFFFFFFFFFFFFFFFFFFFFFFFFFFFFFFFFFFFFFFFFFFFFFFFFFFFFFFFFF
310
FFFFFFFFFFFFFFFFFFFFFFFFFFFFFFFFFFFFFFFFFFFFFFFFFFFFFFFFFFFFFFFF
310
FFFFFFFFFFFFFFFFFFFFFFFFFFFFFFFFFFFFFFFFFFFFFFFFFFFFFFFFFFFFFFFF
310
FFFFFFFFFFFFFFFFFFFFFFFFFFFFFFFFFFFFFFFFFFFFFFFFFFFFFFFFFFFFFFFF
310
0000E6F2DCDEEBD5D5E1CDCEDAC8CCD6C6CAD2C7C9D1C7C9CFCAC9CECCCDD1D2
310
D2D5D9D7D9E1D8D9E3D6D7E1D2D2DECFD0DAD4D7DCCCCFD3CFD2D7D8DBDFD4D7
310
DCCBCED2D6D9DEEBEEF2F4F7FBFAFDFFFBFEFFFBFEFFEFF2F6F4F7FB9A9DA183
310
8788838585878886939492FEFFFDFFFFFEFEFFFDFDFFFEFDFFFEF0F3F1FDFFFE
310
FDFFFEFAFDFBF9FCFAFDFFFEFAFDFBE2E8E36A756B000C0100050005120A0005
310
00000906000B08000200A5B0AEF0FBF9F0FBF8E9F4F1F6FFFCF6FFFBF6FFFBF7
310
FFFBFAFFFFFBFEFFFDFFFFFFFFFFFFFFFEFFFFFCFFFFFCFFFFFBE8E2DDC9C5C0
310
FFFFFB5A55520F0C08120E0D0400000D0A05040400FFFFF2ECDCCBD4BAAAEDCA
310
BCE8C6B9DABFB5100000050400091110000705000400070200665548FDDBCBE8
310
BEA7F0C4A5F3CAA9EACBACDAC5AAFFFCEAFFFFF3FDFAF5FFFDFCFFFDFFFFFDFF
310
FFFDFFFFFDFFFFFEFFFDFFFFFAFFFFFAFFFEFDFFFFFFFFFFFFFFFFFFFFFFFFFF
310
FFFFFFFFFFFFFFFFFFFFFFFFFFFFFFFFFFFFFFFFFFFFFFFFFFFFFFFFFFFFFFFF
310
FFFFFFFFFFFFFFFFFFFFFFFFFFFFFFFFFFFFFFFFFFFFFFFFFFFFFFFFFFFFFFFF
310
FFFFFFFFFFFFFFFFFFFFFFFFFFFFFFFFFFFFFFFFFFFFFFFFFFFFFFFFFFFFFFFF
310
FFFFFFFFFFFFFFFFFFFFFFFFFFFFFFFFFFFFFFFFFFFFFFFFFFFFFFFF0000FAFF
310
EFF7FDECF2F9EAEEF5E8E9EFE4E0E8DED7DED9D2D9D6CBD3D3C8CFD2C2CAD1BD
310
C6CFBEC7D1C1CAD7C7D0DDCCD5DFC8CBD3D2D3D7DBDCE0DADBDFD0D1D5C7C8CC
310
CBCBD1D5D6DAE4E4EAF9F9FFF9F9FFFDFDFFFDFDFFF6F9FEDBDEE37E81858385
310
85878886939492FFFFFEFFFFFEFDFEFCFCFFFDFBFEFCFDFFFEFAFFFDF4F9F7FB
310
FFFEFBFFFEF7FCFA9CA19F3C433E1F27200004000109020003000C130E000401
310
0209061F2524FAFFFFECF2F1FAFFFFFAFFFFEDF4F1F2F9F6F1F8F3FAFFFEFBFF
310
FFFBFEFFFDFFFFFDFFFFFFFFFFFFFFFEFFFFFEFFFFFCE4E1DDDDDAD6EDEAE615
310
13120D09080200000B0908050200837F6DFFFFEDD6C1ABF7DAC5EAC7B3EBCAB7
310
EED3C59281780501000001000008070006030D0A021E0E02E8CBBCF0CBB5F2C6
310
A7F4CAA7EDCBADDBC4AAFCEDDAFFFFF4FFFCF4FDFCF8FFFEFFFFFDFFFFFDFFFF
310
FEFFFDFFFFFAFFFFF8FFFFF8FFFEFDFFFFFFFFFFFFFFFFFFFFFFFFFFFFFFFFFF
310
FFFFFFFFFFFFFFFFFFFFFFFFFFFFFFFFFFFFFFFFFFFFFFFFFFFFFFFFFFFFFFFF
310
FFFFFFFFFFFFFFFFFFFFFFFFFFFFFFFFFFFFFFFFFFFFFFFFFFFFFFFFFFFFFFFF
310
FFFFFFFFFFFFFFFFFFFFFFFFFFFFFFFFFFFFFFFFFFFFFFFFFFFFFFFFFFFFFFFF
310
FFFFFFFFFFFFFFFFFFFFFFFFFFFFFFFFFFFFFFFFFFFFFFFF0000FEFDFFFFFEFF
310
FFFEFFFFFEFFFFFEFFFCFEFFF6F8F9F0F5F4E9EEEDE0E5E3D4D9D7C8CFCAC4CB
310
C6C6D1C9CDD8D0D5DCD7C8C8C8DBD8DADCD9DBCCC9CBC9C6C8D7D4D6D8D7DBCD
310
CCCED8D7DBE1E0E4F0EFF3FCFBFFFFFEFFFBFCFFFDFEFFAFB0B4868686878787
310
949494FFFFFFFDFFFEFBFEFCFAFDFBF9FCFAFAFFFBF4FAF5FBFFFCFAFFFCAFB6
310
B1454C472C332E545A552E2F2B1A17120F0C080400000E0A090500010500019A
310
9597FAF5F7FFFBFDFFFBFDFFFCFEFFFCFEFFFEFFFFFEFFFEFBFDFFFEFFFDFEFF
310
FDFFFFFDFFFFFFFFFFFFFFFFFFFFFFFFFFFEE1DFDEF1EFEE9A98971111110200
310
00000000191919090600FFF5E3F4E5CBD5BCA2F3D5BAD8B49CE6C4ADE5C9B8CE
310
BDB0120C050105000002000308060805001509009B8377FDDCC9F4CAADF3C8A7
310
EBC9ABDEC5ABE9D8C3FFFFF4FFFDF4FFFCF7FFFFFFFFFEFFFFFEFFFFFEFFFBFF
310
FFF8FFFFF6FFFFF6FFFFFBFFFFFFFFFFFFFFFFFFFFFFFFFFFFFFFFFFFFFFFFFF
310
FFFFFFFFFFFFFFFFFFFFFFFFFFFFFFFFFFFFFFFFFFFFFFFFFFFFFFFFFFFFFFFF
310
FFFFFFFFFFFFFFFFFFFFFFFFFFFFFFFFFFFFFFFFFFFFFFFFFFFFFFFFFFFFFFFF
310
FFFFFFFFFFFFFFFFFFFFFFFFFFFFFFFFFFFFFFFFFFFFFFFFFFFFFFFFFFFFFFFF
310
FFFFFFFFFFFFFFFFFFFFFFFFFFFFFFFFFFFFFFFF0000FFFDF9FFFEF9FFFCF7FF
310
FCF7FFFFF8FFFFF8FFFFF8FFFFF7FFFFF7FFFFF7FFFFF4FBFEEFF0F5E6E2E9DA
310
D6DDCED0D4C8D2CFCACCC5C2CEC6C6DBD6D5E5DDDDDDD8D7D7D2D1D8D3D4D6D1
310
D2C6C1C2E9E4E6F1ECEEF4F1F3FFFEFFFFFDFFF1EEF0868686888888959595FF
310
FFFFFDFFFEFAFDFBF9FCFAF8FBF9F2F8F3FBFFFCEAF0EB7C837E323934555D56
310
B2B9B4F4FAF53632310500000E0607110B0C070001110A0D070001FFFDFFFFFC
310
FFFFFDFFFBF1F7FFFDFFFFFCFFF8F0F7FFFBFFFFFCFFFFFDFFFDFFFFFDFFFFFD
310
FFFFFFFFFFFFFFFFFFFFFFFFFFFFE6E6E6F7F7F7545454030303090909080808
310
010101312E26FFFFF0D9C6ABF2D7BCE1C3A6E8C5ABEECCB4E9CEBAE6D5C83932
310
290F100C0D1210000100110E09110800513E36F2D6C5F5CEB2F0C7A7E7C7AADE
310
C5ABD8C9B6FFFFF4FFFEF5FFFDF8FFFFFEFFFFFFFFFEFFFDFFFFFBFFFFF8FFFF
310
F4FFFFF6FFFFFBFFFFFFFFFFFFFFFFFFFFFFFFFFFFFFFFFFFFFFFFFFFFFFFFFF
310
FFFFFFFFFFFFFFFFFFFFFFFFFFFFFFFFFFFFFFFFFFFFFFFFFFFFFFFFFFFFFFFF
310
FFFFFFFFFFFFFFFFFFFFFFFFFFFFFFFFFFFFFFFFFFFFFFFFFFFFFFFFFFFFFFFF
310
FFFFFFFFFFFFFFFFFFFFFFFFFFFFFFFFFFFFFFFFFFFFFFFFFFFFFFFFFFFFFFFF
310
FFFFFFFFFFFFFFFFFFFFFFFFFFFFFFFF0000A96C40A66A40B27A51D19D75F1C0
310
9AFFD8B5FFECCCFFFDE0FFFFE5FFFFEBFFFFEFFFFFEFFFFFF2FFFFF5FFFFF7FF
310
FFF8FFF8EFF2E7DFDFD3CDD4CAC3D5C9C3D8CEC7D9CFC8D5CCC8D2C9C5DAD1CD
310
D6CFCCD1CAC7E3DBDBFFFBFBFFFFFEFFFBFABCBABA858585939393FEFEFEFDFF
310
FEF8FBF9FDFFFCFBFFFAFBFFFAB0B4AF31352F4E554EC9D0C9F9FFF7F5FCF5EC
310
F0EB040202040003171015040003171015090308453E43FFFAFFFCF4FBFFFBFF
310
FFFCFFFFFBFFFFFAFFFFFBFFFFFAFFFDF6FDFFFEFFFFFFFFFFFFFFFEFEFEFEFE
310
FEFEFEFEFBFDFEFBFDFEE3E5E6FDFFFF0B0D0E0608090000010403050B0B0B81
310
7E76FFF5E2E7D4B9D9C1A5E7CBADECCEB1E0C2A9DEC5B1E7D7C7857E75020100
310
0C0E0E000101020100120C0522120BDDC6B7E3BFA7FBD4B8ECCEB3DAC3ADDACC
310
B9F2EBDCFEF9F0FFFFFBFFFFFCFFFFFFFFFFFFFFFFFFFBFFFFF8FFFFF4FFFFF6
310
FFFEFBFFFFFFFFFFFFFFFFFFFFFFFFFFFFFFFFFFFFFFFFFFFFFFFFFFFFFFFFFF
310
FFFFFFFFFFFFFFFFFFFFFFFFFFFFFFFFFFFFFFFFFFFFFFFFFFFFFFFFFFFFFFFF
310
FFFFFFFFFFFFFFFFFFFFFFFFFFFFFFFFFFFFFFFFFFFFFFFFFFFFFFFFFFFFFFFF
310
FFFFFDFDFDFDFDFDFDFDFDFDFDFDFDFDFDFDFDFDFDFDFDFDFDFDFFFFFFFFFFFF
310
FFFFFFFFFFFFFFFFFFFFFFFF0000C78C5AAD7240915928844E1F7B491B75481D
310
7A4F287F593681603F8F7355A58E74BDAB94D9C8B5F0E2D0FCF0DEFEF4E3FFFC
310
EEFFFFF3FFFFF5FFFFF5FFFDF1FAEEE4EADED4DDD2CADED3CBD9CFC8DBD1CADF
310
D6D2DFD6D2E3DAD6F4EDEAFFFFFCFFFFFF7575758F8F8FFFFFFFEDF0EEEEF1EF
310
FDFFFCE8ECE75C605B797B75BABCB6FFFFF9F3F8EFF7FCF3FDFFF9C4C8C20C0B
310
0D050309010005000003000003000003939294FFFEFFF9F8FAFCFBFFFBFAFEF6
310
F5F9F7F6FAFEFCFFFFFDFFFFFEFFFFFFFFFFFFFCFFFFFEFFFEFDFDFDFDFCFCFC
310
FBFAFCF8FAFBE1E3E4E1E3E407090A010304080709070707020202C4C0BBF3E6
310
D6E1CFB8D6C1A6DFC7ABE3C8ADDAC1A7D8C3AEDFD0C0AAA39A0A0703080A0A0B
310
0D0E090706060200160C05C9B8ABE0C1ACE6C4ACDCC1ACD4C1ACD1C7B6FFFDF0
310
F8F6ECFFFFFBFFFFFCFFFFFEFFFFFFFFFFFFFBFFFFF8FFFEF6FFFEF6FFFEFBFF
310
FFFFFFFFFFFFFFFFFFFFFFFFFFFFFFFFFFFFFFFFFFFFFFFFFFFFFFFFFFFFFFFF
310
FFFFFFFFFFFFFFFFFFFFFFFFFFFFFFFFFFFFFFFFFFFFFFFFFFFFFFFFFFFFFFFF
310
FFFFFFFFFFFFFFFFFFFFFFFFFFFFFFFFFFFFFFFFFFFFFFFFFFFFFFFFFFFFFFFF
310
FFFFFFFFFFFFFFFFFFFFFFFFFFFFFFFFFFFFFFFFFFFFFFFFFFFFFFFFFEFEFEFD
310
FDFDFDFDFDFDFDFD0000FFFFE9FFFDE1FFFBE0FFFEE2FFF6DAFBE0C5EBCFB1E4
310
C6A9BA9A7DB49275A47F63936C508961458C62458F654888654B816B598F8070
310
AE9E91CBBEB0E4D7C9F8ECE0FFFFF3FFFFF7F4EAE0F8EFE6F6EDE4E5DBD4CCC4
310
BDC3BBB4D2C9C5E2DDDAFFFFFFD1D3D48B8D8DF2F4F4FFFFFEFFFFFE9798946B
310
6C68E0E2DCF0F0EAFFFFFBFFFFF9F7F8EFFEFFF5FFFFF68C8E88000102000409
310
0000030C1414000202000201D7E0DDF0F9F6F8FFFEF8FFFEF8FFFEF8FFFEF8FF
310
FEF8FFFFF7FFFEF6FBFAF9F8F4FEFAF5FFFCF9FFFFFCFFFFFEFFFFFFFFFEFFFF
310
FEFFFDFFFFCCCECF060809000001010101000000020000EEEAE5E8DCD0E1D1C0
310
DDCAB5E0CBB5E0CCB3DDC8B2D9CAB7DBD0C2B3ABA4221E1D0000010000010200
310
0004010019130EA69A8EEBD2C2E1C8B4D8C4B2D5C8B8C8C2B5FFFFF5F3F3EDFF
310
FFFBFFFCFBFFFCFBFFFBFCFEFCFCFAFDFBF7FEFBF5FEFBF5FEFBFAFCFCFCFCFC
310
FCFCFCFCFCFCFCFCFCFCFCFCFCFCFCFCFCFCFCFCFCFCFCFCFCFCFCFCFCFCFCFC
310
FCFCFCFCFCFCFCFCFCFCFCFCFCFCFCFCFCFCFCFCFCFCFCFCFCFCFCFCFCFCFCFC
310
FCFCFBFBFBFBFBFBFBFBFBFBFBFBFBFBFBFBFBFBFBFBFBFBFBFBFDFDFDFDFDFD
310
FDFDFDFDFDFDFDFDFDFDFDFDFDFDFDFDFDFDFFFFFFFFFFFFFFFFFFFFFFFFFFFF
310
FFFFFFFF0000FFFFF5FFFFF3FFFFF3FFFFF4FFFFF4FFFFF2FFFDEBFFFCE9FFFF
310
F0FFFFEEFFFFEEFFFEEAFFF9E6FFF9E4FFF7E2FFF4E0FFF0DEF5E6D6E0D3C3C4
310
B7A9A89D8F988C80948B7E978D83B5ACA2B4ADA4C0B8B1D4CEC7EAE4DFF1EBE6
310
E9E3DEDDDAD6DADADAF3F5F6939595FDFFFFD8D9D7969795EDEEEAFFFFFCFCFC
310
F6FFFFF9FFFFF9FCFAF0FFFFF6FFFFF7FFFFF57C7A7200010000020200010004
310
0D0A000200000400F9FFF8F2FEF2F3FDF1F2FFF1F6FFF4F5FFF5F9FFF7F8FFF8
310
F9FFF8FAFFF6FFFFF8FFFFF9FFFFF9FFFFFAFFFDF9FAF8F7F7F5F5F3F2F4FCFB
310
FDA6A8A90000010000000F0F0F12100F151312E5E1DCFFFFF6FFFFF4FFFFF2FF
310
FDEBFFFBE8FFFDEAFFFDEDFFFCF2FFFFFBE9E5E4F3F2F4FFFEFFFFFEFFFCFAF9
310
E7E3DEFFFDF4FFF6E9FFFDEEFFFFF4FFFFF5F7F6ECF6F8F2FFFFFCF9FAF8FFFF
310
FEFFFFFEFFFEFFFFFFFEFFFFFEFDFFFCFAFFFCFAFFFCFDFFFEFFFFFFFFFFFFFF
310
FFFFFFFFFFFFFFFFFFFFFFFFFFFFFFFFFFFFFFFFFFFFFFFFFFFFFFFFFFFFFFFF
310
FFFFFFFFFFFFFFFFFFFFFFFFFFFFFFFFFFFFFFFFFFFFFFFFFFFFFFFFFFFFFFFF
310
FFFFFFFFFFFFFFFFFFFFFFFFFFFFFFFFFFFFFFFFFFFFFFFFFFFFFFFFFFFFFFFF
310
FFFFFFFFFFFFFFFFFFFFFFFFFFFFFCFCFCFCFCFCFEFEFEFFFFFFFFFFFFFFFFFF
310
0000FAFFF7F7FFF4F0FAEEEEF6EBF1F6EDF5F8EFFCFCF6FFFFFCF5F0EDFCF4F4
310
FFF8F9FFF7FAFFF8FCFFFBFFFFFBFFFFF9FAFFFEF4FFFFF1FFFFF2FFFFF3FFFF
310
F4FFFFF7FFFFF7FFFFF8FFFCF5F8F5EDF4F0EBF1EEE9E4E1DDD1D0CCD0CECDDA
310
DBD9E2E4E5E3E7E8E8EDECC2C4C4E0E1DFEFF0EEECEBE7F8F5F1FFFFFBFEF8F1
310
FFFFF9FFFFF8FFF6EDFFFFF7FFFFF7766F66110D080D0C080A08000E0F050909
310
000E1102F6F8E5FFFFF0FFFFF0FFFFF0FFFFEAF9FFE6FBFEE8FBFFEAFFFFEFFF
310
FFF2FFFFF2FFFFF5FFFFF8FFFFF9FFFFFBFFFFFCFFFFFFFFFFFFFFFFFFA1A1A1
310
040404090909020000040100040100443F3C3A3532443D3A474037433A304239
310
2B463D2F463E313E3930403D393B39393A393D31303435343644424140403A40
310
3D354A3F3750453D39342B33312930342E3A403BE7ECEAF9FBFBFDFDFDFFFCFD
310
FFFDFCFFFDFCFFFDFCFDFEFAF9FFFAF9FFFAFAFDFBFCFCFCFCFCFCFCFCFCFCFC
310
FCFCFCFCFCFCFCFCFCFCFDFDFDFDFDFDFDFDFDFDFDFDFDFDFDFDFDFDFDFDFDFD
310
FDFDFDFDFDFDFDFDFDFDFDFDFDFDFDFDFDFDFDFDFDFDFDFDFDFDFCFCFCFCFCFC
310
FCFCFCFCFCFCFCFCFCFCFCFCFCFCFCFCFCFCF9F9F9F9F9F9F9F9F9F9F9F9F9F9
310
F9F9F9F9F9F9F9F9F9F9F9F9F9FAFAFAFCFCFCFDFDFDFDFDFDFDFDFD0000F2FB
310
F1F5FEF4FAFFFBFAFFFBFAFFFCFAFFFEFAFFFFF9FFFEFAFFFFFAFFFFF8FEFFEF
310
F5FCF0F2FCF6F8FFFAFCFFFDFDFFFFFFF9FFFFF5FFFFF7FFFFF7FFFFF8FFFFF8
310
FFFCF4F8F5F0F1F0ECFFFFFCFFFFFEF5F8F6F7F9F9FBFFFFFBFFFFF5F9FACED2
310
D3D2D6D7A6ABAAEDF2F1E3E4E2D1CFCEEBE8E4D5D1CCCEC8C3CAC2BBC5BCB3B0
310
A69CC2B8AECFC3B9DDCFC372635A3828212A1A131E1004140700180C00352A14
310
F6ECD4FFFFEAFFFFE2FFFEDDFFFFDEFFFFE5FFFFE7FFFFE9FFFFE9FFFFEBFFFA
310
E8FFF9ECFFF9EFFFF9F0FEF8F1FDF9F4FCF8F7FBF9F9FFFFFFA0A0A00707070E
310
0C0B0805010805001B17120E0B070200010605070A08070705000705000B0900
310
0B090005020006040305020408070B0403070302040607050303000604000701
310
00110D08020100000300020B08000200E7EFEEF5FAF9FBFBFBFFFAFBFFFBFAFF
310
FAFAFFFCF8FDFCF8F9FDF7F9FDF8FAFBF9FAFAFAFAFAFAFAFAFAFAFAFAFAFAFA
310
FAFAFAFAFAFAFBFBFBFBFBFBFBFBFBFBFBFBFBFBFBFBFBFBFBFBFBFBFBFBFBFB
310
FBFBFBFBFBFBFBFBFBFBFBFBFBFBFBFBFBFBFBFBFBFBFBFBFBFBFBFBFBFBFBFB
310
FBFBFBFBFBFBFBFBFBFBFBFBFBFBF9F9F9F9F9F9F9F9F9F9F9F9F9F9F9F9F9F9
310
F9F9F9F9F9F9FEFEFEFFFFFFFFFFFFFFFFFFFFFFFFFFFFFF0000FFFFFEFFFFFE
310
FFFFFEF9FCFAF7FAF8F8FBF9F8FEF9F8FFFAECF3EEF2FCF6F6FFFBF6FFFBF4FF
310
FBF4FFFBF1FFF8EDF8F0FFFFF9FFFFF6FFFEF6FFFFF8FFFFFBFFFFFBFFFFFCFF
310
FFFEFDFFFFFBFFFFFAFFFFF6FDFFF8FEFFECF5F9BBC3CA868C91BBC0C3F9FEFF
310
ACB1B0D3D8D7F6F7F5F8F6F5C6C3BFCAC6C1CFC6C2F9EFE8FFFDF5EFE3D9FFF5
310
ECEEE0D4E5D5C98973687A5B5288645A997668A07F6C83634C73553ACAAD8EA6
310
8A68E9CEA9E9CFA7F3D9B1FFECC4FFFCD4FFFFDBFFFFDDFFFFE3FFFFEEFFFFF4
310
FFFFF5FFFFF6FFFEF7FFFFFAFFFFFEFFFFFEFCFCFC9F9F9F0E0C0B0301000401
310
00050100110B0604000002020802040C01050601040204060008090008080205
310
04000707070000030B090F0B0A0E09080A070806000200050500090706090909
310
000100000706000806000808EEF8F8FAFFFFFFFFFFFFFEFFFFFEFEFFFEFEFFFF
310
FCFFFFFCFFFFFBFFFFFCFFFFFEFFFFFFFFFFFFFFFFFFFFFFFFFFFFFFFFFFFFFF
310
FFFFFFFFFFFFFFFFFFFFFFFFFFFFFFFFFFFFFFFFFFFFFFFFFFFFFFFFFFFFFFFF
310
FFFFFFFFFFFFFFFFFFFFFFFFFFFFFFFFFFFFFFFFFFFFFFFFFFFFFFFFFFFFFFFF
310
FFFFFFFFFFFFFFFFFFFFFFFFFFFFFFFFFFFFFFFFFFFFFFFFFFFFFFFFFFFFFFFF
310
FFFFFAFAFAFBFBFBFEFEFEFFFFFFFFFFFFFFFFFF0000FDF8F9FDFBFBFFFDFDFD
310
FBFBFBFCFAFCFDFBFBFFFAF9FFFAFAFFFBFAFFFBF6FFF7EFFDF1EFFDF1F6FFF8
310
F4FFF8F8FFF8FFFFF9FFFFFBFFFFFBFFFEFAFCFDF9FBFCFAF9FBFBFAFCFCFBFF
310
FFEFF4F5FAFFFFF8FFFFB0B6BB5F686C8C9299F7FDFFFAFFFFAAAEAFB5BAB9B2
310
B4B4FFFFFEF2F0EFFFFCFBE3DEDBDFD9D4C3BAB6DDD3CCD7CEC5DFD4CCF6E9E1
310
FFFBF36C59511C00002400002D0A004726173D1D0A65462FDBBDA4B19479967A
310
5C8367487156346B502E6C5031705435775B3C7D63459E866AA28B71AE987FBD
310
A990D0BEA7E4D3BEF5E4CFFDEEDBFFF2DFBAA69448352047321D59442E4E3A21
310
4D39204C392449392D43342B43342445372148391F4B3A1F4A391F4A38214837
310
24402E1D4D3A2B412F1E43321F5240294534194C391E543E254A351F44331E53
310
46303D34203B321EF9EEDAF8E9D6FEEBD6FFEBD5FFEBD5FFEBD5FFEBD6FEEBD6
310
FAEBD8F9EBD8FAECD9FAECD9FAECD9FAECD9FAECD9FAECD9FAECD9FAECD9F9EB
310
D8F9EBD8F9EBD8F9EBD8F9EBD8F9EBD8F9EBD8F9EBD8FAEBD8FAEBD8FAEBD8FA
310
EBD8FAEBD8FAEBD8FAEBD8FAEBD8FCEDDAFCEDDAFCEDDAFCEDDAFCEDDAFCEDDA
310
FCEDDAFCEDDAF9EBD8F9EBD8F9EBD9F9EBD9F9EBD9F7EBD9F7EADAF5EADCF6ED
310
E0F8EFE5F9F4EBFCF8F3FFFCF8FFFFFB0000FFFFFFFFFFFFFFFFFFFFFFFFFFFF
310
FFFFFFFFFFFFFEFDFFFEFDFFFEFBFEFCFAFDFBF8FEF9F6FCF7F5FBF6F9FFFAFD
310
FFFCFCFDFBFFFFFEFFFFFEFFFFFEFDFEFCFDFDFDFDFDFDFAFAFAF8FAFAFDFFFF
310
A9ABAC4C4E4F565859D8DCDDFDFFFFF9FBFCD1D3D4AFB1B1B2B4B4B0B0B0EBEB
310
EBFFFFFFFFFEFEFFFDFCE3E1E0D9D5D4CBC7C6D5D2CEC7C4C0DBD6D3DFDAD769
310
625F0F0603160A080B00001207030F05000C0300FFFEF5FFFFF8FFFFF6FFFFF6
310
FFFFF7FFF7EDEEE5DBCDC4BACFC6BC9A8674A7825C9E7041885F2E7F5723754D
310
186D460F7B4F199061298C571E925B22975D229F652A905A1E9360229867298D
310
5D2385501DA069368F581F8F581BAA702F894F0DA16A27955F1E885516936224
310
92602495642695602197621F99611A985D15A3601B9D5A15A26523965C1BA067
310
298F581B965F22935A1C995C1C985B1B985B1B935A1D8E582189592586582885
310
5A27845C22865D1F865D1F865D1F865D1F865D1F865D1F865D1F845B1D845B1D
310
845B1D845B1D845B1D845B1D845B1D845B1D865A1D8A5D208C5F228B5E21885B
310
1E86591C895C1F8B5E21895C1F885B1E86591C86591C86591C86591C885B1E88
310
5C21855A21855A218458228259228258238059257D59297B5A2D73562F685131
310
F8E7CDFFFFF1FFF7EDFFFFF80000FFFFFFFFFFFFFFFFFFFFFFFFFFFFFFFFFFFF
310
FFFFFFFFFFFFFFFFFFFDFDFDFDFDFDFFFFFFFFFFFFFFFFFFFAFAFAF8F8F8FEFE
310
FEFEFEFEFAFAFAF8F8F8FFFFFFFFFFFFFDFDFDEEEEEE9D9D9D393939444444B0
310
B0B0FFFFFFFDFDFDF5F5F5F4F4F4BFBFBFACACACADADADB1B1B1D0D0D0FEFEFE
310
FCFCFCFEFEFEF7F7F7EFEFEFDADADAD9D9D9C4C4C4CDCDCDD6D6D67C7C7C0000
310
000E0E0E080808080808050505030303C6C6C6EEEEEEFFFFFFFDFDFDFFFFFFFB
310
FBFBFFFFFFF0F0F0FFFFFFFFFFF7FFFFE5FFFFD6FFFDD1FFF6C8FFDFADE3BD87
310
CCA36CC79860D29B62DBA1669C5D23A4682CAB74379562248B5C1FD7A569DCA3
310
6CC3864EDA9B5EE0A05FDB9A55DC9C55DA9C56D29954DDA766C89556D2A163B8
310
8547D7A361E0A966CE924CE3A45AE8A255E6A053E19F58D29551D59858CF9658
310
D59C5ED29A59D69C5AD59B59D39C59CF9A5BC9995FC59964C09868BF9A68C39B
310
61C59C5DC59C5EC59C5DC59C5EC59C5DC59C5EC59C5DC59C5EC59C5DC59C5EC5
310
9C5DC59C5EC59C5DC59C5EC59C5DC6995CC79B5CCA9B5EC89C5DC99A5DC69A5B
310
C99A5DC89C5DD0A164CDA162CE9F62CB9F60CD9E61CCA061CFA063CEA164C79A
310
5DC79A5DC79A5DC79A5DC69A5FC3985FBE9661B89464B7976CA78D69FFEDD2FF
310
FFF1FCF6EBFFFFF90000FFFFFFFFFFFFFFFFFFFFFFFFFFFFFFFFFFFFFFFFFFFF
310
FFFFF6F6F6FFFFFFFFFFFFF3F3F3F5F5F5FFFFFFFFFFFFFBFBFBFFFFFFFDFDFD
310
FDFDFDFFFFFFFFFFFFD7D7D78787874040403A3A3A8D8D8DF2F2F2F7F7F7F8F8
310
F8FDFDFDFDFDFDC0C0C0B2B2B2AFAFAFB0B0B0B8B8B8B6B6B6F6F6F6FFFFFFFF
310
FFFFFFFFFFFFFFFFF1F1F1E9E9E9D2D2D2CCCCCCD4D4D4A0A0A0060606000000
310
0808080909090000000A0A0A8C8C8CD2D2D2CFCFCFCFCFCFE1E1E1E6E6E6FFFF
310
FFFEFEFEF7F7F7FFFFFEFFFFFBFFFFF9FFFFF7FFFEF1FFFEEFFFFFECFFFFEDFF
310
FFEEFFFAE4FFEDD53415002203001E0400210B00201000DFCBB2FFF1D8FFE1C7
310
FFE8C8FFEBC8FFDDB7FFEAC4FFF3CFFFE6C4A28C70634F366B58435F4C37705B
310
45695238654A2FEED2AFFFE8BDFFF0C3FFE7BFF7E1BEF4E2C3FFFCE0FFFFEAFF
310
FFEAFFFFE9FFFFE9FFFFE9FFFFEAFFFFEEFFFFF1FFFFF5FFFFF4FFFFEEFFFFEB
310
FFFFEDFFFFEBFFFFEDFFFFEBFFFFEDFFFFEBFFFFEDFFFFEBFFFFEDFFFFEBFFFF
310
EDFFFFEBFFFFEDFFFFEBFFFFEDFFFFEBFFFFEDFFFFEBFFFFEDFFFFEBFFFFEDFF
310
FFEBFFFFECFFFFEAFFFFEBFFFFE8FFFFEAFFFFE9FFFFECFFFFEAFFFFE9FFFFE7
310
FFFFE6FFFFE6FFFFE6FFFFE6FFFFE4FFFFE5FFFEE7FBEFDDFFFFF5FFFFF9F8FA
310
FAFAFFFF0000FFFFFFFFFFFFFFFFFFFFFFFFFFFFFFFFFFFFFFFFFFFFFFFFFFFF
310
FFF9F9F9FCFCFCFFFFFFFFFFFFF1F1F1F1F1F1FFFFFFFFFFFFFFFFFFFAFAFAC3
310
C3C37373733C3C3C3C3C3C555555C5C5C5F5F5F5FFFFFFFFFFFFFDFDFDFFFFFF
310
D8D8D8ACACACB2B2B2B2B2B2B9B9B9B6B6B6ABABABE5E5E5FFFFFFF9F9F9F9F9
310
F9FFFFFFFDFDFDFBFBFBEBEBEBDADADADADADAC2C2C20B0B0B00000009090900
310
0000010101080808434343DEDEDED2D2D2C5C5C5D5D5D5C5C5C5CACACADFDFDF
310
DADADADCDDE1F0EFF9F4F6FFF6FBFFF4FCFFF5FEFFF6FFFFFAFFFEF9FAF8E8E0
310
E0FFFEFC382B291B0F0D1008081F1D1C000100999691FEECE5E1C9BDE5CCBCD8
310
BEADE2C9B5DEC9B4D5C5B4E9DDD136302902000000000108090D000001040000
310
1B1411E7DBD1D9C5ACE9D4B8D4C6B0CFC7B6CBC9BFF6F8F2FDFFFEFBFFFEFCFF
310
FBFBFFFAFAFEF8F8FEF9F5FDFCF1FDFFEFFDFFF2FEFFF8FEFDF9FEFCFBFEFCF9
310
FEFCFBFEFCF9FEFCFBFEFCF9FEFCFBFEFCF9FEFCFBFEFCF9FEFCFBFEFCF9FEFC
310
FBFEFCFBFEFCFFFFFEFEFFFDFCFDFBFDFEFCFFFFFEFFFFFEFFFFFEFCFDFBFFFF
310
FEFFFFFEFFFFFEFFFFFEFFFFFEFFFFFEFFFFFEFFFFFEFFFFFCFFFFFBFFFFF9FF
310
FFF8FFFFF6FFFFF3FFFFF2FFFFF2FFFFF7FFFFF9F7F6F2FDFFFFEFF5FAF6FEFF
310
0000FFFFFFFFFFFFFFFFFFFFFFFFFFFFFFFFFFFFFFFFFFFFFFFFFFFFFFFFFFFF
310
FEFEFEF6F6F6FDFDFDFFFFFFFFFFFFFFFFFFFCFCFCA7A7A76565655454544141
310
413D3D3D8F8F8FFCFCFCF4F4F4FFFFFFFDFDFDF9F9F9F9F9F9EFEFEFB7B7B7B0
310
B0B0B2B2B2AEAEAEB9B9B9ACACACADADADCFCFCFFFFFFFF3F3F3F6F6F6FFFFFF
310
FFFFFFFFFFFFFEFEFEEFEFEFEAEAEAE1E1E11F1F1F1010100C0C0C0000001313
310
13000000010101D9D9D9E6E6E6CACACAE0E0E0D8D8D8B8B8B8CACACACFCFCFD3
310
D4D8C4C6D1CED4E1DBE3F0E3EDF7E8F5FDF0FFFFF6FFFFFAFFFFD8D7D9FBF6F8
310
716A6D040001000003070C0F0000043D4241FFFFF9C5AFA3E0C9BAD3BCACE4CE
310
BCD7C5B4BFB3A7CAC4BD00000000020700000800000800020D00000854545AD7
310
CCC8E4C5B0F7D2B8DFC1AED7C1B6D5C6C4FFF6F9FFFAFFF9F4FDFFFAFFFFFAFF
310
FFFBFFFFFAFFFEFAFFFDFAFFF9F9FFF9FBFFF6FCFFF4FDFFF6FCFFF4FDFFF6FC
310
FFF4FDFFF6FCFFF4FDFFF8FEFFF6FFFFF8FEFFF6FFFFF8FEFFF6FFFFF8FEFFF8
310
FEFFF8FEFFF6FCFFF4FAFFF5FBFFF8FEFFF8FEFFF7FDFFF4FAFFF8FEFFF8FEFF
310
F8FEFFF8FEFFF8FEFFF8FEFFF8FEFFF6FEFFF3FCFFF0FCFFF1FBFFF1FBFFF5FB
310
FFF9FDFEFDFFFFFFFFFEF2F3F1FBFEFCEAECEDFAFFFFF1F7FCF4FAFF0000FFFF
310
FFFFFFFFFFFFFFFFFFFFFFFFFFFFFFFFFFFFFFFFFFFFF4F4F4FFFFFFFFFFFFF8
310
F8F8FDFDFDFFFFFFE4E4E4ACACAC5151515B5B5B4848483737376D6D6DD4D4D4
310
FFFFFFFFFFFFFFFFFFFEFEFEF6F6F6F3F3F3FFFFFFC2C2C29F9F9FB4B4B4B4B4
310
B4ADADADB6B6B6ACACACB6B6B6C0C0C0FAFAFAFAFAFAFFFFFFFFFFFFFEFEFEFF
310
FFFFFFFFFFFDFDFDFAFAFAF6F6F67E7E7E0000000000000F0F0F040404000000
310
0303036D6D6DEAEAEAC8C8C8CFCFCFE4E4E4D0D0D0D3D3D3CACACAC5C4C6D4D4
310
DACFD1D9C6CCD1BDC6C9BAC6C8C8D2D2E3E9E8F9FCFAE9E5E4EAE5E4D7CFCF07
310
0102090909000001091215000100F5E6DDF5DECEDCC4B2E5CDB9E0C8B4D9C5B3
310
F3E6D6615B5002000002050911141C0000070E10180000049C9799DECDC4F0C9
310
ADFCCFAEEAC4ACE1C4B5E8D4CFFFF7F9FCF4FBEAE2ECF1E9F3F1E9F0F1EAEFF2
310
E9ECF2E9ECF1EAEFF0E9F0EFEBF1EAEBEFE7ECEFE8EBEFE7ECEFE8EBEFE7ECEF
310
E8EBEFE7ECEFE7EAEEE6EBEEE7EAEEE6EBEEE7EAEEE6EBEEE7EAEEE6EBEEE6EB
310
EEE5EAEDE4E9ECE4E9ECE6EBEEE6EBEEE5EAEDE4E9ECE2E7EAE3E8EBE3E8EBE4
310
E9ECE4E9ECE3E8EBE3E8EBDEE6EDD9E8F8D5E7F8D6E6F6D9E7F3DEE7F0E1EAEE
310
E7ECEFE9EDEEE6E8E8F4F5F3F7F8F6FDFFFFFDFFFFF6FBFA0000FFFFFFFFFFFF
310
FFFFFFFFFFFFFFFFFFFFFFFFFFFFFFFFFFFFFFFFFFF5F5F5FAFAFAFFFFFFE3E3
310
E39191915454544545454F4F4F3232324A4A4AA7A7A7F9F9F9FFFFFFFAFAFAF0
310
F0F0F1F1F1FEFEFEFFFFFFF2F2F2D7D7D7AFAFAFBABABAC0C0C0B4B4B4B5B5B5
310
AEAEAEB7B7B7B6B6B6B4B4B4E5E5E5FFFFFFFFFFFFFAFAFAFEFEFEFFFFFFFBFB
310
FBFFFFFFFFFFFFFBFBFBE2E2E20B0B0B00000013131300000003030314141407
310
0707C8C8C8DFDFDFC6C6C6C9C9C9CECECEDEDEDED7D7D7DAD8D7D8D2CDDAD2CB
310
D9D7CDD9D9CDD5D5C9DADACCF3F0E1FFFFF4ECE1D3D0C3B5FFEFE22D1F130D04
310
000703001B1C12070400755F4DFFFFEAEACDB2E8CCAEDCC0A2E6CEB2DAC6AD13
310
0400160D000A0300161009070100110800190B00D4C1B2F2D7BDF2C99CF5C895
310
EBC79FE3C9ABF9E7D6FFF8EFF3F0ECD4D2D2CDCBCBCCCBC7CFCBC6D0CBC2D0CB
310
C2D1CCC3D1CCC3D2CDC4D1CBC4D1CBC4D3CBC4D1CBC4D3CBC4D1CBC4D3CBC4D1
310
CBC4D0C8C1CEC8C1D0C8C1CEC8C1D0C8C1CEC8C1D0C8C1CEC8C1CDCAC2CECBC3
310
CFCCC4CECBC3CDCAC2CCC9C1CDCAC2CFCCC4D0CDC5D1CEC6D2CFC7D3D0C8D3D0
310
C8D2CFC7D1CEC6CBCCCABDC6CFBBC7D3BFC9D3C3CBD2C7CCCFC8CACACAC8C7CB
310
C8C3CCC9C1D2CDC4F2EDE4FFFBF2FFFFF6FFFEF40000FFFFFFFFFFFFFFFFFFFF
310
FFFFFFFFFFFFFFFFFFFFFFFFFFFFFCFCFCFFFFFFDBDBDB838383454545404040
310
4D4D4D4D4D4D3A3A3A878787E1E1E1FFFFFFFFFFFFF7F7F7FBFBFBFFFFFFFFFF
310
FFF8F8F8F8F8F8F9F9F9B0B0B0AEAEAEB3B3B3A9A9A9B0B0B0BABABAA3A3A3BE
310
BEBEACACACA6A6A6CCCCCCFFFFFFFFFFFFF2F2F2FFFFFFFFFFFFF8F8F8FFFFFF
310
FFFFFFF6F6F6FFFFFF5B5B5B0A0A0A0000000A0A0A0000000000000505055353
310
53E4E4E4E4E4E4CACACACACACAD9D9D9D0D0D0DDD9D8E0D8D1DED5CBDDD7CCDB
310
D8CAD0D0C0CDCDBBE9E5D3FFFFF1F8ECDAD9CBB9FFFFF278685B170E01100A00
310
0606000F0C00140400F7DFCBFFEFD9D9C2A8DBC4AAFEE9CE57452E180A00170C
310
00140B000C0300190D0113030076604EFFE5CDDDBD9AFDD5A1F4CC97F1D1A6E6
310
D1B1FFF7E3F9F7ECE6EAE5BEC4C3CBD1D0CBD1CCCED1C8D0D1C7D2D2C6D3D2C4
310
D4D3C5D5D3C8D8D1C8DAD1C8DAD1C8DAD1C8DAD1C8DAD1C8DAD1C8DAD1C8DED5
310
CCDED5CCDED5CCDED5CCDED5CCDED5CCDED5CCDCD5CCD6D1C8D8D3CADBD6CDD9
310
D4CBD6D1C8D5D0C7D7D2C9DAD5CCD0CBC2D1CCC3D3CEC5D3CEC5D3CEC5D3CEC5
310
D1CCC3CDCAC5CBCFD0CBD1D6D1D6D9D7D9D9D8D9D7D7D4CFD2CFC7D0CBC2E1DB
310
D0D8D0C3FFFDF0FFFFF2FFFFF5FFFFF40000F5F5F5FFFFFFFAFAFAFFFFFFFFFF
310
FFF9F9F9FFFFFFFFFFFFCECECE8181814343433B3B3B4747474D4D4D50505052
310
5252CDCDCDF4F4F4FFFFFFFDFDFDFFFFFFFFFFFFF7F7F7FEFEFEF4F4F4FFFFFF
310
F6F6F6C2C2C2AFAFAFB1B1B1B2B2B2B9B9B9B0B0B0ADADADB5B5B5B1B1B1B8B8
310
B8AEAEAEB4B4B4FFFFFFFFFFFFF8F8F8FEFEFEFFFFFFFDFDFDFCFCFCFFFFFFFF
310
FFFFFFFFFFE3E3E30404040909090404040000000B0B0B000000010101949494
310
D9D9D9DADADAD4D4D4E5E5E5D4D4D4C6C4C4D8D4D3DCD9D5D8D7D3D3D5CFDFE4
310
DBCCD2C7EBECE2FEFDF3FDF6EDC4BBB2F2E6E0FDF3EC110D0802020000060100
310
060114100F2E2724FEF6EFDED5CCDED5C8958C7F090300140F060B08000A0601
310
110B04130A00130200DCC4B0DCC1A7E5C4A3F0CDA1EACB9EE2CCA9DFD3BBFFFF
310
F7FBFFFEC0CBCFC8D6DCCAD8DECBD7DBCED8D8D1D8D5D3D9D4D4DBD4D5DCD5D8
310
DCD7D6D4D3D8D6D6D6D4D4D2D0D0D3D1D1D8D6D6DBD9D9D9D7D7D9D7D7D9D7D7
310
D9D7D7D9D7D7D9D7D7D9D7D7D9D7D7D9D7D7D1D1D1D2D4D4D6D8D8D6D8D8D3D5
310
D5CFD1D1CBCDCDC9CBCBD1D3D3D3D5D5D3D5D5D2D4D4D3D5D5D5D7D7D6D8D8D7
310
D8D6D5D4D0D6D5D1DAD7D2D9D6D1D9D6CEDAD5CCDED8CDDFD9CED6CEC1D6CEC1
310
FFFAEDFFFFF4FFFFF8FFFEF50000FFFFFFFAFAFAF7F7F7FFFFFFF8F8F8F9F9F9
310
CBCBCB4C4C4C3F3F3F4343434B4B4B5757574F4F4F4545458A8A8AFBFBFBEAEA
310
EAFFFFFFFFFFFFF9F9F9FFFFFFFFFFFFFBFBFBFFFFFFFFFFFFFBFBFBDCDCDCB7
310
B7B7ADADADB1B1B1B2B2B2B2B2B2B3B3B3AFAFAFB2B2B2AEAEAEB8B8B8B1B1B1
310
B0B0B0EBEBEBFFFFFFFBFBFBFFFFFFFFFFFFFDFDFDFDFDFDFFFFFFFFFFFFFEFE
310
FEFBFBFB7474740000000D0D0D000000191919080808000000181818B0B0B0D9
310
D9D9CFCFCFBDBDBDDADADACFCFCFD4D3D5DEDDDFD7DBDCC9CFCEC9D2CFB8BFBA
310
E2E8E3FFFFFBDBD7D2D3CDC8CDC4C1F0E9E6656362030604000201030D0D0000
310
06000007787B80FEFDFFA5A3A20F0E0A1617130001000002000001000E0B070B
310
02006B5B4BFFEED8DDBFA4FAD9B8EBCAA3EBCDAAE1CCB1F7EADAFFFFFCE1E6E9
310
C0C9D2C5D1DDCAD4DEC9D2DBCBD1D6CCD1D2CDD2D1CFD4D3D1D6D5D3D7D8CFD2
310
D6D2D5D9D3D3D9CDD0D4CFCFD5D1D4D8D5D5DBD1D4D8D0D0D6CED1D5D0D0D6CE
310
D1D5D0D0D6CED1D5D0D0D6CED1D5CBCFD4CCD3D6D1D5DAD1D8DBD2D6DBD0D7DA
310
D3D7DCD1D8DBD0D4D9CFD6D9D1D5DACED5D8D0D4D9CFD6D9D0D4D9D1D5D6D1D0
310
CCD6D3CBD9D6CED9D6CEDAD7CFDAD7CFDDDAD2DFDCD4D0CDC5D0CDC5FBF8F3FE
310
FDF9FFFFFEFCFDFB0000F2F2F2FFFFFFFFFFFFF5F5F5A7A7A74F4F4F44444457
310
57575454545151514C4C4C3E3E3E636363D2D2D2FFFFFFFDFDFDFFFFFFFFFFFF
310
FEFEFEF9F9F9FFFFFFFFFFFFFDFDFDFFFFFFFFFFFFE1E1E1BEBEBEB0B0B0AEAE
310
AEB3B3B3B5B5B5ADADADB3B3B3B2B2B2B1B1B1ACACACB7B7B7B3B3B3ACACACCD
310
CDCDFFFFFFFFFFFFFFFFFFFFFFFFFDFDFDFFFFFFFFFFFFFFFFFFFDFDFDFCFCFC
310
FFFFFF1B1B1B0C0C0C0D0D0D000000080808040404000000030303ADADADEBEB
310
EBCFCFCFBABABADFDEE0C7C6CACCCCD2CACED3C9D0D3DDE5E4CFD8D5EEF3F1FF
310
FFFCF6F1EEC9C2BFCDC4C1EFE8E5F3EFEE131614090F0E000205010A1700010F
310
0000087A8087FAFFFF2E32330000010C111200000101030313100C30271ED9C7
310
B6D2B8A0F2D0B2E2BD9BEDC7A7ECC9AFE5C9B8FFFEF6FFFDFFD5CED5CBC9D5C8
310
C8D6D7D5E1D7D4DDD7D3D8D7D2D4D8D1D4D8D3D5DAD4D9D8D7DBCFD2D7D1D5DA
310
D1D3DBCDD1D6CED0D8D0D4D9D0D2DACCD0D5CED0D8CDD1D6CED0D8CDD1D6CED0
310
D8CDD1D6CED0D8CDD1D6D1D7DED0D9DDD2D8DFCED7DBCED4DBCBD4D8CFD5DCCE
310
D7DBD1D7DECED7DBCFD5DCCDD6DACED4DBCBD4D8CCD2D9CED3D6D0D1CFD4D3CF
310
D4D5D3D5D6D4D5D6D4D3D5D5D5D7D7D5D9DAC7CCCFC6CBCEF0F6FBF2FAFFF4FD
310
FFF0FAFF0000FFFFFFE6E6E69393934D4D4D4242424848484747474545455252
310
524343434D4D4DA4A4A4FFFFFFFFFFFFECECECFFFFFFFFFFFFFFFFFFFCFCFCFE
310
FEFEFFFFFFFFFFFFFDFDFDFEFEFEFAFAFAC7C7C7AFAFAFB5B5B5B2B2B2B3B3B3
310
B6B6B6AFAFAFAFAFAFB5B5B5B2B2B2AFAFAFB6B6B6B4B4B4ACACACB8B8B8F7F7
310
F7FFFFFFFFFFFFFCFCFCFEFEFEFFFFFFFEFEFEFEFEFEFFFFFFFFFFFFF0F0F0E2
310
E2E20606060000001010100000000707070000000303030A0A0A959595EDEDED
310
D6D6D6DCDBDDD2CED3DDDCE0D9DADEC7CBCCC6CDCAB7BDB8E5E7E1FFFFFBEAE2
310
DBCDC1BBCABEB8BEB2ACFFFFF9D4D0CB00020000020100000701091600000700
310
00047F8384FBFFFF686D6C0001000C10110404040D0904B4AAA0E2CEBCE0C5AA
310
FEDBB9ECC7A5EDCBAEE2C6AEF1D8C8FFFFF7FFF9F9D7D1D6D2CFD8CCC9D2DAD6
310
DBDCD7D9DDD8D7DCD7D4DCD7D6DBD6D7D9D6D8D6D5D9D0D1D5D4D5D9D4D5D9D1
310
D2D6D0D1D5D2D3D7D1D2D6CDCED2D5D6DAD5D6DAD5D6DAD5D6DAD5D6DAD5D6DA
310
D5D6DAD3D6DAD3D6DAD3D8DBD3D8DBD0D5D8CDD2D5CBD0D3CCD1D4CDD2D5D2D7
310
DAD0D5D8CFD4D7D1D6D9D0D5D8CED3D6CED3D6D0D4D5D2D4D4D3D5D5D4D6D6D1
310
D5D6D0D4D5CED3D6CDD3D8CCD4DBC1CAD3C0C9D2EAF4FEECF8FFEFFCFFECF9FF
310
00009696964545453131314545454B4B4B5D5D5D6363634C4C4C3F3F3F797979
310
DCDCDCFFFFFFFCFCFCFFFFFFFFFFFFF2F2F2FEFEFEFBFBFBFDFDFDFFFFFFFFFF
310
FFFFFFFFFFFFFFFBFBFBD9D9D9B4B4B4AEAEAEBDBDBDB5B5B5AFAFAFB4B4B4B3
310
B3B3ABABABB6B6B6B5B5B5B3B3B3B4B4B4B1B1B1B1B1B1B1B1B1E7E7E7FEFEFE
310
FFFFFFFAFAFAFFFFFFFFFFFFFDFDFDFFFFFFFFFFFFFAFAFAFFFFFFFFFFFFACAC
310
AC0000000404041111110404040303030C0C0C0505050000005B5B5BEFEFEFC9
310
C7C7D7D1D2E2DDDCDFDCD8D4D4CEE1E2D9D7D6CCFCF6EBFFFFF5F6E6D9E6D3C4
310
E2CDBEE3D0C1E3D3C3F8EBDD7F786917150B0402010000000806051D1A150705
310
0027251DFFFFF9E2E2DC23221E0401008D867DDED1C3E9D2BCD9BB9EE9C3A0EC
310
CAA6DFCBACD9CEB3FFFCE8FFFFF3DFE2D9CFD5D0CAD1CECED5D0CDD5CBD1D7CC
310
D6DBCCD8DDCED6DDD0D0D9CFCBD5CFCBD2CDD3D4D0DAD7D2DAD7D2D7D4CFD7D4
310
CFD9D6D1D7D4CFD4D1CCDBD8D3DBD8D3DBD8D3DBD8D3DBD8D3DBD8D3DBD8D3DB
310
D8D3D0CDC8D3D0CBD7D4CFD9D6D1D9D6D1D8D5D0D9D6D1DAD7D2D9D6D1D5D2CD
310
D6D3CEDAD7D2DBD8D3D7D4CFD7D4CFDAD9D5D2D4D4D2D6D7D3D7D8D1D6D9CFD4
310
D7CBD1D6CCD2D7CCD4DBC2CBD4C1CAD3EAF4FEEEF8FFF1FDFFEDF9FF00006464
310
644C4C4C5959595D5D5D4E4E4E474747414141434343BEBEBEF8F8F8FFFFFFFD
310
FDFDFFFFFFFFFFFFF9F9F9FFFFFFFFFFFFFBFBFBFEFEFEFDFDFDFBFBFBFFFFFF
310
FFFFFFEEEEEEB9B9B9AEAEAEB2B2B2BBBBBBB4B4B4ACACACAFAFAFB3B3B3ACAC
310
ACB6B6B6B3B3B3B7B7B7B3B3B3AEAEAEB7B7B7B1B1B1D0D0D0F7F7F7FFFFFFF9
310
F9F9FFFFFFFFFFFFFBFBFBFFFFFFF2F2F2FFFFFFFFFFFFF5F5F5FFFFFFB2B2B2
310
0000000000000000000E0E0E0000000303030000000E0E0E111111A2A0A0DBD5
310
D6E7DFDFDEDAD9CDCDC7D9D7CFCFCDC3F5EFE4FFFEF0F0E0D0D7C3B2DBC4B4CE
310
B7A7E9D5C4F3E3D2FFFFF2776F62100D050B08030502000702000B0700110F04
310
04020095958FFFFFFCE4E3DFE1DDD8D7CDC3D1BDABF2D7BDE8C5A4EBCEAFD4C7
310
ADDED9C4FFFFF2F5F7EBC5CAC1C4CCC5C2CAC3D0D8CECDD4C7D2D8C7D8DBCBD9
310
DFCED5DED1D0DBD1C9D7D1C9D4D1D4D6D0DBD9D1DCD8D3D7D5CDD8D4CFDAD8D0
310
DBD7D2D7D5CDD7D3CED6D4CCD7D3CED6D4CCD7D3CED6D4CCD7D3CED6D4CCD4D0
310
CBD6D4CCDBD7D2DBD9D1DBD7D2D9D7CFDAD6D1D9D7CFDAD6D1D3D1C9D5D1CCDA
310
D8D0DCD8D3D6D4CCD8D4CFDDDAD5D1D2D0D1D3D3D3D5D5D1D5D6D0D4D5D0D4D5
310
D1D6D9D3D8DBC8CDD0C7CCCFF1F6F9F4F9FCFAFFFFF6FBFE00006565654C4C4C
310
4C4C4C515151515151484848808080FFFFFFFBFBFBF8F8F8FFFFFFFFFFFFF5F5
310
F5FCFCFCFFFFFFF9F9F9FFFFFFFCFCFCFFFFFFFDFDFDF9F9F9FFFFFFF4F4F4CB
310
CBCBACACACB5B5B5B4B4B4B1B1B1B3B3B3B1B1B1AFAFAFB3B3B3B2B2B2B5B5B5
310
ACACACB6B6B6B2B2B2ABABABBABABAB0B0B0B9B9B9EFEFEFFFFFFFF9F9F9FFFF
310
FFFFFFFFFAFAFAFFFFFFFCFCFCFFFFFFFCFCFCFFFFFFFFFFFFF7F7F7ACACAC06
310
06060A0A0A0000000808080606060B0B0B0000001414140000012A262C76747A
310
C1C1C7DDE1E2EBEDEDD4D5D1F6F3EEFFFFF9FFFFF7DAC8BDF2DED3E9D5CACFBD
310
B27E7064423A2DFFFFF7928F870401001411090D0B010403000F1007070B060B
310
11100B1215858B90E6E9EDF9F7F6FFFFF9DFCEC1EFD6C2D4BCA8E5D8CAF4EDE4
310
FFFFFBF7F4F0DBD9D9D7D7D7DBD9D8D9D6D1D7D2C9DBD5CADAD6CBDAD8CED8D8
310
D2D3D8D7D0D7DACFD5DAD1D5D6D5D8D6D6D6D6D1D4D2D3D3D3D5D8D6D9D9D9D5
310
D8D6D2D2D2D0D3D1D2D2D2D0D3D1D2D2D2D0D3D1D2D2D2D0D3D1D7D7D7D6D9D7
310
D9D9D9D5D8D6D4D4D4D0D3D1D3D3D3D2D5D3D7D7D7CED1CFD0D0D0D5D8D6D7D7
310
D7CFD2D0D1D1D1D8D9D7D4D3CFD7D4CFD9D6D1D7D6D2D6D5D1D6D5D1DAD7D2DB
310
D8D3D2CFCAD1CEC6FBF8F0FFFBF2FFFFF8FFFDF400006B6B6B4D4D4D50505042
310
4242646464CDCDCDFFFFFFFFFFFFFFFFFFFEFEFEF9F9F9FFFFFFFFFFFFFFFFFF
310
F9F9F9FFFFFFFBFBFBFAFAFAFFFFFFFFFFFFFDFDFDFFFFFFE5E5E5A7A7A7AEAE
310
AEBFBFBFB6B6B6A8A8A8B4B4B4B9B9B9B2B2B2B3B3B3B9B9B9B4B4B4A6A6A6B5
310
B5B5B2B2B2AAAAAABCBCBCAEAEAEABABABEAEAEAFFFFFFF9F9F9FFFFFFFFFFFF
310
F9F9F9FFFFFFFEFEFEFDFDFDFEFEFEF4F4F4FFFFFFFFFFFFF1F1F1BFBFBF0202
310
020808080404040303030000000D0D0D0000000403050000040200060000050B
310
0E12414546555A597D7E7C84817D766F6C5F54505347411C100A1208010E0600
310
0D0A02232119FEFBF6CBC8C3050200040200171711000200080D0C0000030004
310
0B000710090F162A2D327B7677D0C7C4EFDFD8FFFCF5FFF9F5FFFFFCFAF5F4FF
310
FDFEFFFEFFFBF8FAFFFAFBE1DCD9D6CDC9D6CEC7D5CDC6D3CDC8D2CECDD0CFD1
310
CED2D7D0D3DBD2D5D9D4D8D9D4D6D7CED2D3D1D3D4D4D8D9D9DBDCD5D9DAD5D7
310
D8D3D7D8D5D7D8D3D7D8D5D7D8D3D7D8D5D7D8D3D7D8D0D2D3CFD3D4D0D2D3CE
310
D2D3CFD1D2D0D4D5D7D9DAD8DCDDD7D9DACDD1D2CFD1D2D4D8D9D5D7D8CBCFD0
310
CCCECFD3D5D5D8D7D3DBD8D3DBD8D3DAD7D2D7D4CFD6D3CED7D4CCD8D5CDD5CF
310
C8D3CEC5FFF9EEFFFCF1FFFFF5FFFEF100006868683A3A3A474747A7A7A7F7F7
310
F7FFFFFFF9F9F9FFFFFFFFFFFFFFFFFFFFFFFFFFFFFFFFFFFFFFFFFFFFFFFFFF
310
FFFFFFFFFFFFFFFFF6F6F6FFFFFFFFFFFFEDEDEDB8B8B8B1B1B1B7B7B7B6B6B6
310
B4B4B4B2B2B2B1B1B1B0B0B0B0B0B0B0B0B0B2B2B2B2B2B2B2B2B2B2B2B2B2B2
310
B2B2B2B2B2B2B2B2B2B2B3B3B3BABABAFFFFFFF9F9F9FFFFFFFFFFFFF4F4F4FF
310
FFFFFFFFFFFFFFFFFFFFFFFFFFFFFFFFFFFFFFFFFFFFFFFFFFFFD5D5D5313131
310
0000000808080606060000000A0A0A040404110D0C0B07060402010101010305
310
0504090803070801050600000100010201030403050606080804090800040200
310
0100000100DDDEDCF3F4F24D4E4C09090904060600000102070A00020A01040C
310
00020C00000700000506040A07060A060305020000100E0D100E0E0A08080C0C
310
0C060606F8F6F6E0DEDDDAD6D5DAD6D5DBD7D6D9D7D6D8D6D6D5D5D5D1D3D4D0
310
D2D3CED0D1D0D2D2D3D3D3CFD1D1CFCFCFCED0D0D4D4D4D6D8D8D4D4D4D4D6D6
310
D8D8D8D7D9D9D8D8D8D4D6D6D3D3D3CFD1D1D9D9D9D5D7D7D4D4D4D0D2D2D2D2
310
D2D2D4D4D7D7D7D7D9D9D2D2D2D2D4D4D7D7D7D7D9D9D9D9D9D5D7D7D4D4D4D2
310
D2D2D3D4D2D5D3D2D5D3D2D6D4D3D7D5D4D8D6D5D8D6D5D8D6D5D1CFCECFCECA
310
FCF9F5FFFDF9FFFFFCFFFCF80000575757878787CBCBCBFCFCFCFFFFFFFEFEFE
310
F8F8F8FAFAFAFFFFFFFFFFFFFFFFFFFFFFFFFFFFFFFFFFFFFFFFFFFFFFFFFFFF
310
FFF5F5F5FFFFFFF7F7F7FFFFFFC5C5C5B8B8B8B0B0B0B3B3B3B3B3B3B2B2B2B2
310
B2B2B2B2B2B2B2B2B3B3B3B3B3B3B2B2B2B2B2B2B2B2B2B2B2B2B2B2B2B2B2B2
310
B2B2B2B2B2B2B1B1B1B8B8B8F5F5F5FEFEFEFFFFFFFFFFFFF7F7F7FFFFFFFFFF
310
FFFFFFFFFFFFFFFFFFFFFFFFFFFFFFFFFFFFFFFFFFFFF4F4F4FFFFFF8B8B8B00
310
00000202021313130000000806050401000401000C09050D0C08060606000100
310
000001000003070E11060D1004090C000304000001000403060B0A0D100E1411
310
0D0501007A7671FEFBF7B8B5B12F2D2C0705050D0C0E00000300000400000601
310
030B03050D02040C00020C00020A0406070D0D0D0505050101010C0C0C040404
310
F7F7F7D3D3D3D5D5D5D6D6D6D8D8D8D9D9D9DADADAD8D8D8D7D7D7D5D5D5D5D5
310
D5D7D7D7D9D9D9D9D9D9D8D8D8D7D7D7D8D8D8D9D9D9D5D5D5D5D5D5D6D6D6D7
310
D7D7D8D8D8D8D8D8D9D9D9D9D9D9D7D7D7D6D6D6D5D5D5D3D3D3D3D3D3D5D5D5
310
D6D6D6D7D7D7D1D1D1D3D3D3D5D5D5D7D7D7D7D7D7D5D5D5D3D3D3D1D1D1D4D4
310
D4D4D4D4D4D4D4D4D4D4D4D4D4D4D4D4D3D3D3D3D3D3CACACAC8C8C8F3F3F3F7
310
F7F7FFFFFFFCFCFC0000BEBEBEEBEBEBFFFFFFFFFFFFF6F6F6F7F7F7FFFFFFFF
310
FFFFFFFFFFFFFFFFFFFFFFFFFFFFFFFFFFFFFFFFFFFFFFFFFFFFFEFEFEFDFDFD
310
FFFFFFFFFFFFDADADAB8B8B8AEAEAEB9B9B9B0B0B0B0B0B0B0B0B0B1B1B1B2B2
310
B2B3B3B3B5B5B5B6B6B6B2B2B2B2B2B2B2B2B2B2B2B2B2B2B2B2B2B2B2B2B2B2
310
B2B2B0B0B0B4B4B4DBDBDBFFFFFFFEFEFEFEFEFEFEFEFEFCFCFCFFFFFFFFFFFF
310
FFFFFFFFFFFFFFFFFFFFFFFFFFFFFFFFFFFFFFFFFFDADADAF9F9F9E0E0E04848
310
48000000101010060705090804090804090804070602030303020404050A090A
310
0E0F0000010000000808080A08070403000401000502000A050012060026190B
310
7F7264D0C4B8F6EAE0FFFFF8CAC0B9362D29120B080C07060B06070B080A0403
310
07000003000003090A0E050406050505000000000000080808030303FFFFFFDF
310
DFDFCCCCCCCFCFCFD2D2D2D4D4D4D5D5D5D4D4D4D2D2D2D1D1D1D2D2D2D2D2D2
310
D3D3D3D5D5D5D6D6D6D5D5D5D2D2D2CFCFCFD2D2D2D1D1D1D0D0D0D0D0D0D0D0
310
D0D2D2D2D4D4D4D5D5D5D4D4D4D3D3D3D3D3D3D3D3D3D3D3D3D3D3D3D3D3D3D4
310
D4D4CFCFCFD0D0D0D2D2D2D4D4D4D4D4D4D2D2D2D0D0D0CFCFCFD9D9D9D9D9D9
310
D8D8D8D8D8D8D7D7D7D6D6D6D5D5D5D5D5D5D5D5D5D1D1D1F8F8F8FAFAFAFFFF
310
FFFCFCFC0000FFFFFFFFFFFFFFFFFFFFFFFFFFFFFFFEFEFEFBFBFBF9F9F9FFFF
310
FFFFFFFFFFFFFFFFFFFFFFFFFFFFFFFFFFFFFFFFFFFFFFFFFFFFFFFFFDFDFDFA
310
FAFAB7B7B7B2B2B2AFAFAFBBBBBBB0B0B0B0B0B0B0B0B0B0B0B0B1B1B1B3B3B3
310
B4B4B4B5B5B5B2B2B2B2B2B2B2B2B2B2B2B2B2B2B2B2B2B2B2B2B2B2B2B2B0B0
310
B0B4B4B4C2C2C2FFFFFFFDFDFDFDFDFDFFFFFFF8F8F8FFFFFFFFFFFFFFFFFFFF
310
FFFFFFFFFFFFFFFFFFFFFFFFFFFFFEFEFEFFFFFFFFFFFFFFFFFFFFFFFFCECECE
310
6060600202020809070001000201000001000506040608080000000001000F0D
310
0C0C09050903000901000B0200120900281D0F3E2E1DBCA58FD7BFA7E1C9B3E3
310
CBB7E5CFBDE0CCBBF6E6D6FFFFF5F2E6DC9C928B3E35310F0805050000050001
310
030101040202030303060606070707020202090909000000EDEDEDD0D0D0CECE
310
CED1D1D1D4D4D4D7D7D7D7D7D7D6D6D6D3D3D3D1D1D1D4D4D4D2D2D2D1D1D1D2
310
D2D2D5D5D5D4D4D4D1D1D1CDCDCDD6D6D6D5D5D5D4D4D4D3D3D3D2D2D2D2D2D2
310
D2D2D2D2D2D2D4D4D4D5D5D5D6D6D6D7D7D7D7D7D7D6D6D6D5D5D5D4D4D4D2D2
310
D2D3D3D3D5D5D5D6D6D6D6D6D6D5D5D5D3D3D3D2D2D2CCCCCCCCCCCCCCCCCCCB
310
CBCBCBCBCBCACACACACACACACACAD7D7D7D2D2D2F9F9F9FCFCFCFFFFFFFDFDFD
310
0000FEFEFEF6F6F6F8F8F8FFFFFFFFFFFFFCFCFCFBFBFBFFFFFFFFFFFFFFFFFF
310
FFFFFFFFFFFFFFFFFFFFFFFFFFFFFFFFFFFFFFFFFFF6F6F6FBFBFBC7C7C7B1B1
310
B1A2A2A2BEBEBEAFAFAFB2B2B2B1B1B1B1B1B1B0B0B0B1B1B1B1B1B1B2B2B2B3
310
B3B3B2B2B2B2B2B2B2B2B2B2B2B2B2B2B2B2B2B2B2B2B2B2B2B2B1B1B1B5B5B5
310
B3B3B3F7F7F7FDFDFDFEFEFEFFFFFFF8F8F8FFFFFFFFFFFFFFFFFFFFFFFFFFFF
310
FFFFFFFFFFFFFFFFFFFFFFFFFFF6F6F6EFEFEFFAFAFAFFFFFFFFFFFFFBFBFBFF
310
FFFFA6A7A5797C7A40413F1314120001000001000705040C07040701000B0200
310
1E120847372A786655A99381D4BCA8F4D9BFEECCAEF1CCAAF3D0AFF2D0B2E7C9
310
AEE1C3AADABFAAD0BBA6EEDBCCF9E9DCFFFEF4FFFEF5D9D0CC968F8C6964615C
310
58573937372D2D2D2828282121212E2E2E2F2F2FECECECD7D7D7CBCBCBCCCCCC
310
CFCFCFD0D0D0D0D0D0CDCDCDCACACAC8C8C8CFCFCFCBCBCBC8C8C8C7C7C7CACA
310
CACBCBCBCACACAC7C7C7CCCCCCCDCDCDCFCFCFCFCFCFCFCFCFCDCDCDCACACAC9
310
C9C9C8C8C8C9C9C9CBCBCBCCCCCCCCCCCCCBCBCBC9C9C9C8C8C8C9C9C9C9C9C9
310
CBCBCBCBCBCBCBCBCBCBCBCBC9C9C9C9C9C9D0D0D0D0D0D0D0D0D0D1D1D1D1D1
310
D1D2D2D2D2D2D2D2D2D2CBCBCBC7C7C7F0F0F0F6F6F6FFFFFFFFFFFF0000F9F9
310
F9FFFFFFFFFFFFFAFAFAF5F5F5FBFBFBFFFFFFFFFFFFFFFFFFFFFFFFFFFFFFFF
310
FFFFFFFFFFFFFFFFFFFFFFFFFFFFFFFFFFF4F4F4DDDDDDB6B6B6A9A9A9B1B1B1
310
BCBCBCAFAFAFB3B3B3B3B3B3B1B1B1B0B0B0B0B0B0B0B0B0B0B0B0B0B0B0B2B2
310
B2B2B2B2B2B2B2B2B2B2B2B2B2B2B2B2B2B2B2B2B2B2B2B2B2B6B6B6AEAEAEE0
310
E0E0FDFDFDFFFFFFFFFFFFFBFBFBFFFFFFFFFFFFFFFFFFFFFFFFFFFFFFFFFFFF
310
FFFFFFFFFFFFF8F8F8FBFBFBFFFFFFFFFFFFFCFCFCFDFDFDFFFFFFF5F5F5FDFF
310
FFFDFFFEFAFDFBF0F3F1E6E7E5DEDCDBDCD7D4DED5D1D4C9C1D1C1B5D5C2B3E9
310
D1BFF5DAC5F4D6BDEFCEB4EECBAAFBCFAAF9CCA6F8CCA7EFC5A2E7C0A0F3CFB1
310
F5D7BCE2C8B0E5CDBBD6C3B4D7CABCECE2D8FFFAF3FFFFFBFFFCF9FBF7F6F5F3
310
F3F3F3F3FFFFFFFFFFFFFFFFFFE0E0E0FFFFFFD1D1D1DADADADADADADBDBDBDB
310
DBDBDADADAD8D8D8D7D7D7D5D5D5DCDCDCD9D9D9D6D6D6D5D5D5D6D6D6D8D8D8
310
D9D9D9D9D9D9D4D4D4D6D6D6D9D9D9DCDCDCDDDDDDDBDBDBD9D9D9D8D8D8D6D6
310
D6D7D7D7D8D8D8D9D9D9D9D9D9D8D8D8D7D7D7D6D6D6D7D7D7D7D7D7D8D8D8D8
310
D8D8D8D8D8D8D8D8D7D7D7D7D7D7D2D2D2D2D2D2D3D3D3D3D3D3D4D4D4D5D5D5
310
D6D6D6D6D6D6DCDCDCD4D4D4F7F7F7F8F8F8FFFFFFFFFFFF0000FAFAFAFFFFFF
310
FFFFFFFFFFFFFFFFFFFFFFFFFFFFFFF0F0F0FFFFFFFFFFFFFFFFFFFFFFFFFFFF
310
FFFFFFFFFFFFFFFFFFFFFFFFFFEEEEEEB7B7B7B9B9B9A9A9A9C2C2C2AEAEAEB5
310
B5B5B3B3B3B2B2B2B1B1B1B0B0B0B0B0B0B0B0B0B0B0B0B0B0B0B2B2B2B2B2B2
310
B2B2B2B2B2B2B2B2B2B2B2B2B2B2B2B2B2B2B0B0B0B7B7B7AFAFAFC5C5C5FBFB
310
FBFFFFFFFDFDFDFFFFFFFFFFFFFFFFFFFFFFFFFFFFFFFFFFFFFFFFFFFFFFFFFF
310
FFFFFFFFFFF5F5F5F9F9F9FDFDFDEDEDEDF5F5F5FFFFFFFDFFFFEBF0EFF3F8F7
310
FBFFFFFDFFFFFFFFFEFFFFFBFFFFFBFFFFF8F5E7DBE4D1C2D9C0ACDEBFA8E5C4
310
AAE9C3A5ECC3A2F4C8A3F4C39BFFD0A6FAC9A1F4C7A1FBD1AEECC5A5DFBDA0EE
310
D0B7D3BBA7DCCAB9ECDED2FBF2E8FFFCF5FFFFFAFFFFFCFFFFFEFFFFFFFFFFFF
310
FBFBFBF7F7F7FDFDFDFFFFFFFFFFFFFFFFFFFDFDFDFDFDFDFDFDFDFCFCFCFCFC
310
FCFCFCFCFCFCFCFDFDFDFBFBFBFCFCFCFDFDFDFDFDFDFCFCFCFCFCFCFDFDFDFF
310
FFFFF9F9F9FAFAFAFCFCFCFEFEFEFEFEFEFEFEFEFEFEFEFDFDFDFEFEFEFEFEFE
310
FFFFFFFFFFFFFFFFFFFFFFFFFEFEFEFEFEFEFDFDFDFEFEFEFEFEFEFEFEFEFEFE
310
FEFEFEFEFEFEFEFDFDFDFFFFFFFFFFFFFFFFFFFFFFFFFFFFFFFFFFFFFFFFFFFF
310
FFFFFDFDFDEEEEEEFFFFFFFEFEFEFFFFFFFCFCFC0000FFFFFFFFFFFFFAFAFAFA
310
FAFAFDFDFDFFFFFFFFFFFFFFFFFFFFFFFFFFFFFFFFFFFFFFFFFFFFFFFFFFFFFF
310
FFFFFFFFFFFFFBFBFBD3D3D3B0B0B0A1A1A1C3C3C3B0B0B0ABABABB1B1B1B1B1
310
B1B1B1B1B0B0B0B0B0B0B0B0B0B0B0B0B1B1B1B2B2B2B2B2B2B2B2B2B2B2B2B2
310
B2B2B2B2B2B2B2B2B2B2B2B2B2B2AFAFAFB6B6B6B2B2B2B3B3B3F9F9F9FEFEFE
310
F8F8F8FFFFFFFFFFFFFFFFFFFFFFFFFFFFFFFFFFFFFFFFFFFFFFFFFFFFFFF9F9
310
F9FDFDFDFFFFFFFFFFFFFFFFFFFEFEFEFDFDFDFDFFFFFBFFFFFAFFFFF7FCFBFA
310
FCFCFFFFFEFFFFFCFFFDF9FFFBF1EFDED1E2CCBADEC1ACE6C5ABF0CAACF0C7A6
310
F3C6A1F9CAA4F8C59DFFCDA5FFCEA8F5C8A3F0C5A4F0CAACEAC9AFE0C4ACE4CE
310
BCF4E4D4FFF9EFFFFEF7FFFCF7FCFAF9FBFBFBFAFCFCF6F6F6FCFCFCFFFFFFFF
310
FFFFF8F8F8FFFFFFEDEDEDFEFEFEFFFFFFFFFFFFFEFEFEFEFEFEFFFFFFFFFFFF
310
FFFFFFFFFFFFF9F9F9FDFDFDFFFFFFFFFFFFFFFFFFFEFEFEFFFFFFFFFFFFFFFF
310
FFFFFFFFFFFFFFFFFFFFFEFEFEFEFEFEFFFFFFFFFFFFFFFFFFFFFFFFFFFFFFFF
310
FFFFFFFFFFFFFFFFFFFFFFFFFFFFFEFEFEFEFEFEFEFEFEFEFEFEFEFEFEFEFEFE
310
FEFEFEFEFEFEFFFFFFFEFEFEFEFEFEFDFDFDFCFCFCFCFCFCFBFBFBFBFBFBFFFF
310
FFF5F5F5FFFFFFFBFBFBFFFFFFFBFBFB0000FFFFFFFFFFFFFFFFFFFFFFFFFFFF
310
FFFFFFFFFFFFFFFFFFFFFFFFFFFFFFFFFFFFFFFFFFFFFFFFFFFFFFFFFFFFFFFF
310
FFFFDDDDDDC6C6C6B7B7B7BCBCBCC4C4C4C2C2C2BDBDBDBDBDBDC0C0C0C0C0C0
310
C0C0C0C0C0C0C0C0C0C0C0C0C0C0C0C0C0C0C0C0C0C0C0C0C0C0C0C0C0C0C0C0
310
C0C0C0C0C0C0C0C0C0C0C1C1C1BFBFBFBBBBBBC0C0C0DADADAF8F8F8FFFFFFFB
310
FBFBFFFFFFFFFFFFFFFFFFFFFFFFFFFFFFFFFFFFFFFFFFFFFFFFFFFFFFFFFFFF
310
FFFFFFFFFFFFFFFFFFFFFFFFFFFFFFFDFFFFFAFFFFFAFFFFFBFFFFFDFFFFFFFF
310
FEFFFFFCFFFFF9FFFFF7F2E1D4DDC7B5E4C8B0E6C6A9EDC6A6FBD1AEFBCCA6FC
310
CDA7F3C6A1F7CAA8FACFAEF5CEAEEFCAAEE8C9B0E5CAB5E4CEBCFFFAEDFFFBF1
310
FFFDF6FFFFFBFFFFFFFBFFFFF9FEFFF8FDFEFDFFFFFFFFFFFFFFFFFFFFFFFFFF
310
FFFFFFFFFFFFFFFFFFFFFFFFFFFFFFFFFFFFFFFFFFFFFFFFFFFFFFFFFFFFFFFF
310
FFFFFFFFFFFFFFFFFFFFFFFFFFFFFFFFFFFFFFFFFFFFFFFFFFFFFFFFFFFFFFFF
310
FFFFFFFFFFFFFFFFFFFFFFFFFFFFFFFFFFFFFFFFFFFFFFFFFFFFFFFFFFFFFFFF
310
FFFFFFFFFFFFFFFFFFFFFFFFFFFFFFFFFFFFFFFFFFFFFFFFFFFFFFFFFFFFFFFF
310
FFFFFFFFFFFFFFFFFFFFFFFFFFFFFFFFFFFFFFFFFFFFFFFFFFFFFFFFFFFFFFFF
310
FFFFFFFFFFFFFFFFFFFFFFFF0000FFFFFFFFFFFFFFFFFFFFFFFFFFFFFFFFFFFF
310
FFFFFFFFFFFFFFFFFFFFFFFFFFFFFFFFFFFFFFFFFFFFFFFFFFFFFFFFFFFFFFFF
310
FFF9F9F9F4F4F4FBFBFBFFFFFFFBFBFBFAFAFAFEFEFEFBFBFBFBFBFBFBFBFBFB
310
FBFBFBFBFBFBFBFBFBFBFBFBFBFBFBFBFBFBFBFBFBFBFBFBFBFBFBFBFBFBFBFB
310
FBFBFBFBFBFBFDFDFDFEFEFEF8F8F8F2F2F2F8F8F8FFFFFFFFFFFFFEFEFEFFFF
310
FFFFFFFFFFFFFFFFFFFFFFFFFFFFFFFFFFFFFFFFFFFFFFFFFFFFFFFFFFFFFFFF
310
FFFFFFFFFFFFFFFFFFFFFFFDFFFFFAFFFFFAFFFFFBFFFFFDFFFFFFFFFEFFFFFC
310
FFFFF9FFFFF7FCECDFE3CDBBE6CCB4E7C9AEEAC4A4F0C8A5EDC19CF1C5A0F7D0
310
B0EFCAAEE5C2A8DDBBA3DCBFAAEAD1BDFEEAD9FFFCEFFFFAF0FFFBF4FFFDF9FE
310
FEFEFBFEFFFAFEFFF5FEFFF6FCFFFDFFFFFFFFFFFFFFFFFFFFFFFFFFFFFFFFFF
310
FFFFFFFFFFFFFFFFFFFFFFFFFFFFFFFFFFFFFFFFFFFFFFFFFFFFFFFFFFFFFFFF
310
FFFFFFFFFFFFFFFFFFFFFFFFFFFFFFFFFFFFFFFFFFFFFFFFFFFFFFFFFFFFFFFF
310
FFFFFFFFFFFFFFFFFFFFFFFFFFFFFFFFFFFFFFFFFFFFFFFFFFFFFFFFFFFFFFFF
310
FFFFFFFFFFFFFFFFFFFFFFFFFFFFFFFFFFFFFFFFFFFFFFFFFFFFFFFFFFFFFFFF
310
FFFFFFFFFFFFFFFFFFFFFFFFFFFFFFFFFFFFFFFFFFFFFFFFFFFFFFFFFFFFFFFF
310
FFFFFFFFFFFFFFFF0000FFFFFFFFFFFFFFFFFFFFFFFFFFFFFFFFFFFFFFFFFFFF
310
FFFFFFFFFFFFFFFFFFFFFFFFFFFFFFFFFFFFFFFFFFFFFFFFFFFFFFFFFFFCFCFC
310
FFFFFFFFFFFFFFFFFFFFFFFFFFFFFFFFFFFFFFFFFFFFFFFFFFFFFFFFFFFFFFFF
310
FFFFFFFFFFFFFFFFFFFFFFFFFFFFFFFFFFFFFFFFFFFFFFFFFFFFFFFFFFFFFFFF
310
FFFFFFFFFFFFFFFFFFFFFFFEFEFEF9F9F9FBFBFBFBFBFBF7F7F7FFFFFFFFFFFF
310
FFFFFFFFFFFFFFFFFFFFFFFFFFFFFFFFFFFFFFFFFFFFFFFFFFFFFFFFFFFFFFFF
310
FFFFFFFFFFFFFFFDFFFFFBFFFFFBFFFFFBFFFFFDFFFFFFFFFEFFFFFCFFFFFBFF
310
FFF8F1E3D7D5C3B2DCC4B0E6CAB2E8CAADF2CFAEF2CDABFAD7B6E0C2A9DFC4B0
310
E1C7B6E4CDBDECD7C8F8E7DAFFF9F0FFFFF8FFF9F5FFFBFAFDFDFDFAFDFFFAFE
310
FFF6FEFFF5FDFFF6FCFFFDFFFFFFFFFFFFFFFFFFFFFFFFFFFFFFFFFFFFFFFFFF
310
FFFFFFFFFFFFFFFFFFFFFFFFFFFFFFFFFFFFFFFFFFFFFFFFFFFFFFFFFFFFFFFF
310
FFFFFFFFFFFFFFFFFFFFFFFFFFFFFFFFFFFFFFFFFFFFFFFFFFFFFFFFFFFFFFFF
310
FFFFFFFFFFFFFFFFFFFFFFFFFFFFFFFFFFFFFFFFFFFFFFFFFFFFFFFFFFFFFFFF
310
FFFFFFFFFFFFFFFFFFFFFFFFFFFFFFFFFFFFFFFFFFFFFFFFFFFFFFFFFFFFFFFF
310
FFFFFFFFFFFFFFFFFFFFFFFFFFFFFFFFFFFFFFFFFFFFFFFFFFFFFFFFFFFFFFFF
310
FFFFFFFF0000FFFFFFFFFFFFFFFFFFFFFFFFFFFFFFFFFFFFFFFFFFFFFFFFFFFF
310
FFFFFFFFFFFFFFFFFFFFFFFFFFFFFFFFFFFFFFFFFFFFF8F8F8F8F8F8FCFCFCFF
310
FFFFFCFCFCF6F6F6F6F6F6FCFCFCFCFCFCFCFCFCFCFCFCFCFCFCFCFCFCFCFCFC
310
FCFCFCFCFCFCFCFCFCFCFCFCFCFCFCFCFCFCFCFCFCFCFCFCFCFCFCFCFCFCF5F5
310
F5FDFDFDFFFFFFFDFDFDFBFBFBFFFFFFFFFFFFFFFFFFFFFFFFFFFFFFFFFFFFFF
310
FFFFFFFFFFFFFFFFFFFFFFFFFFFFFFFFFFFFFFFFFFFFFFFFFFFFFFFFFFFFFFFF
310
FFFFFFFFFFFFFDFFFFFBFFFFFBFFFFFDFFFFFFFFFEFFFFFEFFFFFCFFFFF9F3EA
310
E0D3C6B8D8C6B5DFCAB5DDC5ADDEC3A8DDC0A1E6CBB0D8C4B2E1D1C4F5E5D9FF
310
F4EBFFFCF4FFFDF6FFFBF4FEF8F3FFFBFAFCFCFCFBFDFEF9FEFFF8FEFFF8FEFF
310
F5FDFFF6FCFFFDFFFFFFFFFFFFFFFFFFFFFFFFFFFFFFFFFFFFFFFFFFFFFFFFFF
310
FFFFFFFFFFFFFFFFFFFFFFFFFFFFFFFFFFFFFFFFFFFFFFFFFFFFFFFFFFFFFFFF
310
FFFFFFFFFFFFFFFFFFFFFFFFFFFFFFFFFFFFFFFFFFFFFFFFFFFFFFFFFFFFFFFF
310
FFFFFFFFFFFFFFFFFFFFFFFFFFFFFFFFFFFFFFFFFFFFFFFFFFFFFFFFFFFFFFFF
310
FFFFFFFFFFFFFFFFFFFFFFFFFFFFFFFFFFFFFFFFFFFFFFFFFFFFFFFFFFFFFFFF
310
FFFFFFFFFFFFFFFFFFFFFFFFFFFFFFFFFFFFFFFFFFFFFFFFFFFFFFFFFFFFFFFF
310
0000FFFFFFFFFFFFFFFFFFFFFFFFFFFFFFFFFFFFFFFFFFFFFFFFFFFFFFFFFFFF
310
FFFFFFFFFFFFFFFFFFFFFFFFFFFFFFFFFFFFFFFFFFFFFFFFFFFFFFFFFFFFFFFF
310
FFFEFEFEFDFDFDFFFFFFFFFFFFFFFFFFFFFFFFFFFFFFFFFFFFFFFFFFFFFFFFFF
310
FFFFFFFFFFFFFFFFFFFFFFFFFFFFFFFFFFFFFFFFFFFFFFFFFFFFFEFEFEFFFFFF
310
FFFFFFFEFEFEFFFFFFFFFFFFFFFFFFFFFFFFFFFFFFFFFFFFFFFFFFFFFFFFFFFF
310
FFFFFFFFFFFFFFFFFFFFFFFFFFFFFFFFFFFFFFFFFFFFFFFFFFFFFFFFFFFFFFFF
310
FFFFFDFFFFFDFFFFFDFFFFFDFFFFFFFFFFFFFFFEFFFFFCFFFFFBE8E2DBCCC3B9
310
D3C7BBDBCCBCDBCAB7DECCB5DECAB1E5D4BFF6EDE0F8F2EBFFFBF4FFFFFBFFFF
310
FBFFFFFCFFFFFCFFFEFDFCFDFBFBFDFDF9FEFDFAFEFFF9FEFFF9FEFFF9FEFFFA
310
FEFFFDFFFFFFFFFFFFFFFFFFFFFFFFFFFFFFFFFFFFFFFFFFFFFFFFFFFFFFFFFF
310
FFFFFFFFFFFFFFFFFFFFFFFFFFFFFFFFFFFFFFFFFFFFFFFFFFFFFFFFFFFFFFFF
310
FFFFFFFFFFFFFFFFFFFFFFFFFFFFFFFFFFFFFFFFFFFFFFFFFFFFFFFFFFFFFFFF
310
FFFFFFFFFFFFFFFFFFFFFFFFFFFFFFFFFFFFFFFFFFFFFFFFFFFFFFFFFFFFFFFF
310
FFFFFFFFFFFFFFFFFFFFFFFFFFFFFFFFFFFFFFFFFFFFFFFFFFFFFFFFFFFFFFFF
310
FFFFFFFFFFFFFFFFFFFFFFFFFFFFFFFFFFFFFFFFFFFFFFFFFFFFFFFF0000FFFF
310
FFFFFFFFFFFFFFFFFFFFFFFFFFFFFFFFFFFFFFFFFFFFFFFFFFFFFFFFFFFFFFFF
310
FFFFFFFFFFFFFFFFFFFFFFFFFFFFFFFFFFFDFDFDFAFAFAFAFAFAFDFDFDFFFFFF
310
FEFEFEFDFDFDFDFDFDFDFDFDFDFDFDFDFDFDFDFDFDFDFDFDFDFDFDFDFDFDFDFD
310
FDFDFDFDFDFDFDFDFDFDFDFDFDFDFDFDFDFDFDFDFDFDFFFFFFFDFDFDFAFAFAF9
310
F9F9FCFCFCFEFEFEFDFDFDFAFAFAFFFFFFFFFFFFFFFFFFFFFFFFFFFFFFFFFFFF
310
FFFFFFFFFFFFFFFFFFFFFFFFFFFFFFFFFFFFFFFFFFFFFFFFFFFFFFFFFFFFFFFF
310
FEFDFFFEFDFFFFFDFFFFFFFFFFFFFFFFFFFFFEFFFFFCEAE7E2D6D3CBE5DED5EE
310
E6D9F4EAD9FFF6E4FFF7E4FFFFEFFFFFF9FFFFFEFFFFFEFEFFFDFEFFFDFEFFFD
310
FFFFFEFDFFFEFCFEFEFCFEFEFCFEFEFCFEFEFCFEFEFCFEFEFCFEFEFCFEFEFFFF
310
FFFFFFFFFFFFFFFFFFFFFFFFFFFFFFFFFFFFFFFFFFFFFFFFFFFFFFFFFFFFFFFF
310
FFFFFFFFFFFFFFFFFFFFFFFFFFFFFFFFFFFFFFFFFFFFFFFFFFFFFFFFFFFFFFFF
310
FFFFFFFFFFFFFFFFFFFFFFFFFFFFFFFFFFFFFFFFFFFFFFFFFFFFFFFFFFFFFFFF
310
FFFFFFFFFFFFFFFFFFFFFFFFFFFFFFFFFFFFFFFFFFFFFFFFFFFFFFFFFFFFFFFF
310
FFFFFFFFFFFFFFFFFFFFFFFFFFFFFFFFFFFFFFFFFFFFFFFFFFFFFFFFFFFFFFFF
310
FFFFFFFFFFFFFFFFFFFFFFFFFFFFFFFFFFFFFFFFFFFFFFFF0000FFFFFFFFFFFF
310
FFFFFFFFFFFFFFFFFFFFFFFFFFFFFFFFFFFFFFFFFFFFFFFFFFFFFFFFFFFFFFFF
310
FFFFFFFFFFFFFFFFFFFFFFFFFFFEFEFEFDFDFDFDFDFDFEFEFEFFFFFFFFFFFFFF
310
FFFFFFFFFFFFFFFFFFFFFFFFFFFFFFFFFFFFFFFFFFFFFFFFFFFFFFFFFFFFFFFF
310
FFFFFFFFFFFFFFFFFFFFFFFFFFFFFFFFFFFFFFFFFFFFFFFFFEFEFEFFFFFFFFFF
310
FFFFFFFFFFFFFFFFFFFFFFFFFFFFFFFFFFFFFFFFFFFFFFFFFFFFFFFFFFFFFFFF
310
FFFFFFFFFFFFFFFFFFFFFFFFFFFFFFFFFFFFFFFFFFFFFFFFFFFFFFFFFEFFFFFC
310
FFFFFEFFFFFEFDFFFFFDFFFFFDFFFFFFFFFEFFFFFEFAF9F5FFFFFBFFFFF5FFFC
310
F1FFFFF4FFFFF2FFFFF5F9FDF8F7FDFCF7FDFCF8FEFDFAFFFEF9FEFDF7FCFAF7
310
FAF8FDFFFEFFFFFEFEFFFDFEFFFBFFFFFBFFFFFBFFFFFBFFFFFCFFFFFFFFFFFF
310
FFFFFFFFFFFFFFFFFFFFFFFFFFFFFFFFFFFFFFFFFFFFFFFFFFFFFFFFFFFFFFFF
310
FFFFFFFFFFFFFFFFFFFFFFFFFFFFFFFFFFFFFFFFFFFFFFFFFFFFFFFFFFFFFFFF
310
FFFFFFFFFFFFFFFFFFFFFFFFFFFFFFFFFFFFFFFFFFFFFFFFFFFFFFFFFFFFFFFF
310
FFFFFFFFFFFFFFFFFFFFFFFFFFFFFFFFFFFFFFFFFFFFFFFFFFFFFFFFFFFFFFFF
310
FFFFFFFFFFFFFFFFFFFFFFFFFFFFFFFFFFFFFFFFFFFFFFFFFFFFFFFFFFFFFFFF
310
FFFFFFFFFFFFFFFFFFFFFFFFFFFFFFFFFFFFFFFF0000FFFFFFFFFFFFFFFFFFFF
310
FFFFFFFFFFFFFFFFFFFFFFFFFFFFFFFFFFFFFFFFFFFFFFFFFFFFFFFFFFFFFFFF
310
FFFFFFFFFFFFFCFCFCFFFFFFFFFFFFFFFFFFFDFDFDFDFDFDFDFDFDFCFCFCFFFF
310
FFFFFFFFFFFFFFFFFFFFFFFFFFFFFFFFFFFFFFFFFFFFFFFFFFFFFFFFFFFFFFFF
310
FFFFFFFFFFFFFFFFFFFFFFFFFFFFFAFAFAFBFBFBFEFEFEFFFFFFFFFFFFFCFCFC
310
FCFCFCFDFDFDFFFFFFFFFFFFFFFFFFFFFFFFFFFFFFFFFFFFFFFFFFFFFFFFFFFF
310
FFFFFFFFFFFFFFFFFFFFFFFFFFFFFFFFFFFFFFFFFFFEFFFFFEFFFFFCFFFFFEFF
310
FFFEFDFFFFFDFFFFFDFFFFFDFFFFFAFDFBF2F6F1FFFFFCFAFBF2FAF8EEFFFFF5
310
FFFFF5FEFEF2FAFFFEF5FFFFF6FEFEF6FEFEFAFFFFFAFFFFFBFFFEFBFFFEFFFF
310
FEFFFFFEFFFFFBFFFFFBFFFFFAFFFFFAFFFFFBFFFFFCFFFFFEFFFFFFFFFFFFFF
310
FFFFFFFFFFFFFFFFFFFFFFFFFFFFFFFFFFFFFFFFFFFFFFFFFFFFFFFFFFFFFFFF
310
FFFFFFFFFFFFFFFFFFFFFFFFFFFFFFFFFFFFFFFFFFFFFFFFFFFFFFFFFFFFFFFF
310
FFFFFFFFFFFFFFFFFFFFFFFFFFFFFFFFFFFFFFFFFFFFFFFFFFFFFFFFFFFFFFFF
310
FFFFFFFFFFFFFFFFFFFFFFFFFFFFFFFFFFFFFFFFFFFFFFFFFFFFFFFFFFFFFFFF
310
FFFFFFFFFFFFFFFFFFFFFFFFFFFFFFFFFFFFFFFFFFFFFFFFFFFFFFFFFFFFFFFF
310
FFFFFFFFFFFFFFFFFFFFFFFFFFFFFFFF00000000000000000000000000000000
310
0000000000000000000000000000000000000000000000000000000000000000
310
0000000000000000000000000000000000000000000000000000000000000000
310
0000000000000000000000000000000000000000000000000000000000000000
310
0000000000000000000000000000000000000000000000000000000000000000
310
0000000000000000000000000000000000000000000000000000000000000000
310
0000000000000000000000000000000000000000000000000000000000000000
310
0000000000000000000000000000000000000000000000000000000000000000
310
0000000000000000000000000000000000000000000000000000000000000000
310
0000000000000000000000000000000000000000000000000000000000000000
  1
OLE
  0
ENDSEC
  0
SECTION
  2
OBJECTS
  0
DICTIONARY
  5
C
330
0
100
AcDbDictionary
281
     1
  3
ACAD_GROUP
350
D
  3
ACAD_LAYOUT
350
1A
  3
ACAD_MLINESTYLE
350
17
  3
ACAD_PLOTSETTINGS
350
19
  3
ACAD_PLOTSTYLENAME
350
E
  0
DICTIONARY
  5
D
102
{ACAD_REACTORS
330
C
102
}
330
C
100
AcDbDictionary
281
     1
  0
DICTIONARY
  5
1A
102
{ACAD_REACTORS
330
C
102
}
330
C
100
AcDbDictionary
281
     1
  3
Layout1
350
1E
  3
Layout2
350
26
  3
Model
350
22
  0
DICTIONARY
  5
17
102
{ACAD_REACTORS
330
C
102
}
330
C
100
AcDbDictionary
281
     1
  3
Standard
350
18
  0
DICTIONARY
  5
19
102
{ACAD_REACTORS
330
C
102
}
330
C
100
AcDbDictionary
281
     1
  0
ACDBDICTIONARYWDFLT
  5
E
102
{ACAD_REACTORS
330
C
102
}
330
C
100
AcDbDictionary
281
     1
  3
Normal
350
F
100
AcDbDictionaryWithDefault
340
F
  0
LAYOUT
  5
1E
102
{ACAD_REACTORS
330
1A
102
}
330
1A
100
AcDbPlotSettings
  1

  2
none_device
  4

  6

 40
0.0
 41
0.0
 42
0.0
 43
0.0
 44
0.0
 45
0.0
 46
0.0
 47
0.0
 48
0.0
 49
0.0
140
0.0
141
0.0
142
1.0
143
1.0
 70
   688
 72
     0
 73
     0
 74
     5
  7

 75
    16
147
1.0
148
0.0
149
0.0
100
AcDbLayout
  1
Layout1
 70
     1
 71
     1
 10
0.0
 20
0.0
 11
420.0
 21
297.0
 12
0.0
 22
0.0
 32
0.0
 14
1.0000000000E+20
 24
1.0000000000E+20
 34
1.0000000000E+20
 15
-1.0000000000E+20
 25
-1.0000000000E+20
 35
-1.0000000000E+20
146
0.0
 13
0.0
 23
0.0
 33
0.0
 16
1.0
 26
0.0
 36
0.0
 17
0.0
 27
1.0
 37
0.0
 76
     0
330
1B
  0
LAYOUT
  5
26
102
{ACAD_REACTORS
330
1A
102
}
330
1A
100
AcDbPlotSettings
  1

  2
none_device
  4

  6

 40
0.0
 41
0.0
 42
0.0
 43
0.0
 44
0.0
 45
0.0
 46
0.0
 47
0.0
 48
0.0
 49
0.0
140
0.0
141
0.0
142
1.0
143
1.0
 70
   688
 72
     0
 73
     0
 74
     5
  7

 75
    16
147
1.0
148
0.0
149
0.0
100
AcDbLayout
  1
Layout2
 70
     1
 71
     2
 10
0.0
 20
0.0
 11
0.0
 21
0.0
 12
0.0
 22
0.0
 32
0.0
 14
0.0
 24
0.0
 34
0.0
 15
0.0
 25
0.0
 35
0.0
146
0.0
 13
0.0
 23
0.0
 33
0.0
 16
1.0
 26
0.0
 36
0.0
 17
0.0
 27
1.0
 37
0.0
 76
     0
330
23
  0
LAYOUT
  5
22
102
{ACAD_REACTORS
330
1A
102
}
330
1A
100
AcDbPlotSettings
  1

  2
none_device
  4

  6

 40
0.0
 41
0.0
 42
0.0
 43
0.0
 44
0.0
 45
0.0
 46
0.0
 47
0.0
 48
0.0
 49
0.0
140
0.0
141
0.0
142
1.0
143
1.0
 70
  1712
 72
     0
 73
     0
 74
     0
  7

 75
     0
147
1.0
148
0.0
149
0.0
100
AcDbLayout
  1
Model
 70
     1
 71
     0
 10
0.0
 20
0.0
 11
840.0
 21
594.0
 12
0.0
 22
0.0
 32
0.0
 14
0.0
 24
0.0
 34
0.0
 15
840.0
 25
594.0
 35
0.0
146
0.0
 13
0.0
 23
0.0
 33
0.0
 16
1.0
 26
0.0
 36
0.0
 17
0.0
 27
1.0
 37
0.0
 76
     0
330
1F
331
29
  0
MLINESTYLE
  5
18
102
{ACAD_REACTORS
330
17
102
}
330
17
100
AcDbMlineStyle
  2
Standard
 70
     0
  3

 62
   256
 51
90.0
 52
90.0
 71
     2
 49
0.5
 62
   256
  6
BYLAYER
 49
-0.5
 62
   256
  6
BYLAYER
  0
ACDBPLACEHOLDER
  5
F
102
{ACAD_REACTORS
330
E
102
}
330
E
  0
ENDSEC
  0
EOF
