  0
SECTION
  2
HEADER
  9
$ACADVER
  1
AC1014
  9
$ACADMAINTVER
 70
     9
  9
$DWGCODEPAGE
  3
ANSI_1252
  9
$INSBASE
 10
0.0
 20
0.0
 30
0.0
  9
$EXTMIN
 10
0.0
 20
0.0
 30
0.0
  9
$EXTMAX
 10
420.0
 20
594.0
 30
0.0
  9
$LIMMIN
 10
0.0
 20
0.0
  9
$LIMMAX
 10
420.0
 20
594.0
  9
$ORTHOMODE
 70
     0
  9
$REGENMODE
 70
     1
  9
$FILLMODE
 70
     1
  9
$QTEXTMODE
 70
     0
  9
$MIRRTEXT
 70
     1
  9
$DRAGMODE
 70
     2
  9
$LTSCALE
 40
2.0
  9
$OSMODE
 70
    37
  9
$ATTMODE
 70
     1
  9
$TEXTSIZE
 40
7.0
  9
$TRACEWID
 40
1.0
  9
$TEXTSTYLE
  7
STANDARD
  9
$CLAYER
  8
0
  9
$CELTYPE
  6
BYLAYER
  9
$CECOLOR
 62
   256
  9
$CELTSCALE
 40
1.0
  9
$DELOBJ
 70
     1
  9
$DISPSILH
 70
     0
  9
$DIMSCALE
 40
1.0
  9
$DIMASZ
 40
5.0
  9
$DIMEXO
 40
2.0
  9
$DIMDLI
 40
3.75
  9
$DIMRND
 40
0.0
  9
$DIMDLE
 40
0.0
  9
$DIMEXE
 40
2.0
  9
$DIMTP
 40
0.0
  9
$DIMTM
 40
0.0
  9
$DIMTXT
 40
7.0
  9
$DIMCEN
 40
2.5
  9
$DIMTSZ
 40
0.0
  9
$DIMTOL
 70
     0
  9
$DIMLIM
 70
     0
  9
$DIMTIH
 70
     1
  9
$DIMTOH
 70
     1
  9
$DIMSE1
 70
     0
  9
$DIMSE2
 70
     0
  9
$DIMTAD
 70
     1
  9
$DIMZIN
 70
     0
  9
$DIMBLK
  1

  9
$DIMASO
 70
     1
  9
$DIMSHO
 70
     1
  9
$DIMPOST
  1

  9
$DIMAPOST
  1

  9
$DIMALT
 70
     0
  9
$DIMALTD
 70
     3
  9
$DIMALTF
 40
0.0393700787
  9
$DIMLFAC
 40
1.0
  9
$DIMTOFL
 70
     1
  9
$DIMTVP
 40
0.0
  9
$DIMTIX
 70
     0
  9
$DIMSOXD
 70
     0
  9
$DIMSAH
 70
     0
  9
$DIMBLK1
  1

  9
$DIMBLK2
  1

  9
$DIMSTYLE
  2
ISO-25
  9
$DIMCLRD
 70
     0
  9
$DIMCLRE
 70
     0
  9
$DIMCLRT
 70
     0
  9
$DIMTFAC
 40
1.0
  9
$DIMGAP
 40
3.048
  9
$DIMJUST
 70
     0
  9
$DIMSD1
 70
     0
  9
$DIMSD2
 70
     0
  9
$DIMTOLJ
 70
     0
  9
$DIMTZIN
 70
     0
  9
$DIMALTZ
 70
     0
  9
$DIMALTTZ
 70
     0
  9
$DIMFIT
 70
     3
  9
$DIMUPT
 70
     0
  9
$DIMUNIT
 70
     2
  9
$DIMDEC
 70
     2
  9
$DIMTDEC
 70
     2
  9
$DIMALTU
 70
     2
  9
$DIMALTTD
 70
     3
  9
$DIMTXSTY
  7
STANDARD
  9
$DIMAUNIT
 70
     0
  9
$LUNITS
 70
     2
  9
$LUPREC
 70
     2
  9
$SKETCHINC
 40
1.0
  9
$FILLETRAD
 40
10.0
  9
$AUNITS
 70
     0
  9
$AUPREC
 70
     2
  9
$MENU
  1
.
  9
$ELEVATION
 40
0.0
  9
$PELEVATION
 40
0.0
  9
$THICKNESS
 40
0.0
  9
$LIMCHECK
 70
     0
  9
$CHAMFERA
 40
10.0
  9
$CHAMFERB
 40
10.0
  9
$CHAMFERC
 40
20.0
  9
$CHAMFERD
 40
0.0
  9
$SKPOLY
 70
     0
  9
$TDCREATE
 40
2456427.541526725
  9
$TDUPDATE
 40
2456427.541529734
  9
$TDINDWG
 40
0.0000000116
  9
$TDUSRTIMER
 40
0.0000000116
  9
$USRTIMER
 70
     1
  9
$ANGBASE
 50
0.0
  9
$ANGDIR
 70
     0
  9
$PDMODE
 70
     0
  9
$PDSIZE
 40
-1.0
  9
$PLINEWID
 40
0.0
  9
$COORDS
 70
     1
  9
$SPLFRAME
 70
     0
  9
$SPLINETYPE
 70
     6
  9
$SPLINESEGS
 70
     8
  9
$ATTDIA
 70
     0
  9
$ATTREQ
 70
     1
  9
$HANDLING
 70
     1
  9
$HANDSEED
  5
420
  9
$SURFTAB1
 70
     6
  9
$SURFTAB2
 70
     6
  9
$SURFTYPE
 70
     6
  9
$SURFU
 70
     6
  9
$SURFV
 70
     6
  9
$UCSNAME
  2

  9
$UCSORG
 10
0.0
 20
0.0
 30
0.0
  9
$UCSXDIR
 10
1.0
 20
0.0
 30
0.0
  9
$UCSYDIR
 10
0.0
 20
1.0
 30
0.0
  9
$PUCSNAME
  2

  9
$PUCSORG
 10
0.0
 20
0.0
 30
0.0
  9
$PUCSXDIR
 10
1.0
 20
0.0
 30
0.0
  9
$PUCSYDIR
 10
0.0
 20
1.0
 30
0.0
  9
$USERI1
 70
     0
  9
$USERI2
 70
     0
  9
$USERI3
 70
     0
  9
$USERI4
 70
     0
  9
$USERI5
 70
     0
  9
$USERR1
 40
0.0
  9
$USERR2
 40
0.0
  9
$USERR3
 40
0.0
  9
$USERR4
 40
0.0
  9
$USERR5
 40
0.0
  9
$WORLDVIEW
 70
     1
  9
$SHADEDGE
 70
     3
  9
$SHADEDIF
 70
    70
  9
$TILEMODE
 70
     1
  9
$MAXACTVP
 70
    64
  9
$PINSBASE
 10
0.0
 20
0.0
 30
0.0
  9
$PLIMCHECK
 70
     0
  9
$PEXTMIN
 10
1.0000000000E+20
 20
1.0000000000E+20
 30
1.0000000000E+20
  9
$PEXTMAX
 10
-1.0000000000E+20
 20
-1.0000000000E+20
 30
-1.0000000000E+20
  9
$PLIMMIN
 10
0.0
 20
0.0
  9
$PLIMMAX
 10
420.0
 20
297.0
  9
$UNITMODE
 70
     0
  9
$VISRETAIN
 70
     1
  9
$PLINEGEN
 70
     0
  9
$PSLTSCALE
 70
     1
  9
$TREEDEPTH
 70
  3020
  9
$PICKSTYLE
 70
     1
  9
$CMLSTYLE
  2
STANDARD
  9
$CMLJUST
 70
     0
  9
$CMLSCALE
 40
20.0
  9
$PROXYGRAPHICS
 70
     1
  9
$MEASUREMENT
 70
     1
  0
ENDSEC
  0
SECTION
  2
CLASSES
  0
CLASS
  1
ACDBDICTIONARYWDFLT
  2
AcDbDictionaryWithDefault
  3
ObjectDBX Classes
 90
        0
280
     0
281
     0
  0
CLASS
  1
VISUALSTYLE
  2
AcDbVisualStyle
  3
ObjectDBX Classes
 90
     4095
280
     0
281
     0
  0
CLASS
  1
MATERIAL
  2
AcDbMaterial
  3
ObjectDBX Classes
 90
     1153
280
     0
281
     0
  0
CLASS
  1
XRECORD
  2
AcDbXrecord
  3
AutoCAD 2000
 90
        0
280
     0
281
     0
  0
CLASS
  1
LWPOLYLINE
  2
AcDbPolyline
  3
AutoCAD 2000
 90
        0
280
     0
281
     1
  0
CLASS
  1
HATCH
  2
AcDbHatch
  3
AutoCAD 2000
 90
        0
280
     0
281
     1
  0
ENDSEC
  0
SECTION
  2
TABLES
  0
TABLE
  2
VPORT
  5
8
330
0
100
AcDbSymbolTable
 70
     1
  0
VPORT
  5
29
330
8
100
AcDbSymbolTableRecord
100
AcDbViewportTableRecord
  2
*ACTIVE
 70
     0
 10
0.0
 20
0.0
 11
1.0
 21
1.0
 12
210.0
 22
297.0
 13
0.0
 23
0.0
 14
10.0
 24
10.0
 15
10.0
 25
10.0
 16
0.0
 26
0.0
 36
1.0
 17
0.0
 27
0.0
 37
0.0
 40
594.0
 41
0.7070707071
 42
50.0
 43
0.0
 44
0.0
 50
0.0
 51
0.0
 71
     0
 72
  2000
 73
     1
 74
     3
 75
     0
 76
     0
 77
     0
 78
     0
  0
ENDTAB
  0
TABLE
  2
LTYPE
  5
5
330
0
100
AcDbSymbolTable
 70
     6
  0
LTYPE
  5
14
330
5
100
AcDbSymbolTableRecord
100
AcDbLinetypeTableRecord
  2
BYBLOCK
 70
     0
  3

 72
    65
 73
     0
 40
0.0
  0
LTYPE
  5
15
330
5
100
AcDbSymbolTableRecord
100
AcDbLinetypeTableRecord
  2
BYLAYER
 70
     0
  3

 72
    65
 73
     0
 40
0.0
  0
LTYPE
  5
16
330
5
100
AcDbSymbolTableRecord
100
AcDbLinetypeTableRecord
  2
CONTINUOUS
 70
     0
  3
Solid line
 72
    65
 73
     0
 40
0.0
  0
LTYPE
  5
3F
330
5
100
AcDbSymbolTableRecord
100
AcDbLinetypeTableRecord
  2
HIDDEN
 70
     0
  3
Hidden __ __ __ __ __ __ __ __ __ __ __ __ __ __
 72
    65
 73
     2
 40
1.905
 49
1.27
 74
     0
 49
-0.635
 74
     0
  0
LTYPE
  5
40
330
5
100
AcDbSymbolTableRecord
100
AcDbLinetypeTableRecord
  2
PHANTOM
 70
     0
  3
Phantom ______  __  __  ______  __  __  ______
 72
    65
 73
     6
 40
12.7
 49
6.35
 74
     0
 49
-1.27
 74
     0
 49
1.27
 74
     0
 49
-1.27
 74
     0
 49
1.27
 74
     0
 49
-1.27
 74
     0
  0
LTYPE
  5
41
330
5
100
AcDbSymbolTableRecord
100
AcDbLinetypeTableRecord
  2
CENTER
 70
     0
  3
Center ____ _ ____ _ ____ _ ____ _ ____ _ ____
 72
    65
 73
     4
 40
10.16
 49
6.35
 74
     0
 49
-1.27
 74
     0
 49
1.27
 74
     0
 49
-1.27
 74
     0
  0
LTYPE
  5
42
330
5
100
AcDbSymbolTableRecord
100
AcDbLinetypeTableRecord
  2
CENTERX2
 70
     0
  3
Center (2x) ________  __  ________  __  _____
 72
    65
 73
     4
 40
20.32
 49
12.7
 74
     0
 49
-2.54
 74
     0
 49
2.54
 74
     0
 49
-2.54
 74
     0
  0
LTYPE
  5
43
330
5
100
AcDbSymbolTableRecord
100
AcDbLinetypeTableRecord
  2
DOT2
 70
     0
  3
Dot (.5x) ........................................
 72
    65
 73
     2
 40
0.635
 49
0.0
 74
     0
 49
-0.635
 74
     0
  0
ENDTAB
  0
TABLE
  2
LAYER
  5
2
330
0
100
AcDbSymbolTable
 70
     8
  0
LAYER
  5
10
330
2
100
AcDbSymbolTableRecord
100
AcDbLayerTableRecord
  2
0
 70
     0
 62
     7
  6
CONTINUOUS
  0
LAYER
  5
44
330
2
100
AcDbSymbolTableRecord
100
AcDbLayerTableRecord
  2
SLD-0
 70
     0
 62
     7
  6
CONTINUOUS
  0
LAYER
  5
45
330
2
100
AcDbSymbolTableRecord
100
AcDbLayerTableRecord
  2
CONTORNO
 70
     0
 62
     7
  6
CONTINUOUS
  0
LAYER
  5
46
330
2
100
AcDbSymbolTableRecord
100
AcDbLayerTableRecord
  2
RIQUADRO
 70
     0
 62
     5
  6
CONTINUOUS
  0
LAYER
  5
47
330
2
100
AcDbSymbolTableRecord
100
AcDbLayerTableRecord
  2
LOGO
 70
     0
 62
   176
  6
CONTINUOUS
  0
LAYER
  5
48
330
2
100
AcDbSymbolTableRecord
100
AcDbLayerTableRecord
  2
PROIEZ
 70
     0
 62
    16
  6
CONTINUOUS
  0
LAYER
  5
49
330
2
100
AcDbSymbolTableRecord
100
AcDbLayerTableRecord
  2
CARTIGLIO
 70
     0
 62
     5
  6
CONTINUOUS
  0
LAYER
  5
4A
330
2
100
AcDbSymbolTableRecord
100
AcDbLayerTableRecord
  2
TABELLA_REV
 70
     0
 62
   136
  6
CONTINUOUS
  0
ENDTAB
  0
TABLE
  2
STYLE
  5
3
330
0
100
AcDbSymbolTable
 70
     6
  0
STYLE
  5
11
330
3
100
AcDbSymbolTableRecord
100
AcDbTextStyleTableRecord
  2
STANDARD
 70
     0
 40
0.0
 41
1.0
 50
0.0
 71
     0
 42
7.0
  3
txt
  4

  0
STYLE
  5
A5
330
3
100
AcDbSymbolTableRecord
100
AcDbTextStyleTableRecord
  2
SLDTEXTSTYLE0
 70
     0
 40
0.0
 41
0.6375
 50
0.0
 71
     0
 42
0.2
  3
TXT
  4

  0
STYLE
  5
AA
330
3
100
AcDbSymbolTableRecord
100
AcDbTextStyleTableRecord
  2
SLDTEXTSTYLE1
 70
     0
 40
0.0
 41
0.75
 50
0.0
 71
     0
 42
0.2
  3
TXT
  4

  0
STYLE
  5
AF
330
3
100
AcDbSymbolTableRecord
100
AcDbTextStyleTableRecord
  2
SLDTEXTSTYLE2
 70
     0
 40
0.0
 41
0.6530726257
 50
0.0
 71
     0
 42
0.2
  3
TXT
  4

  0
STYLE
  5
C4
330
3
100
AcDbSymbolTableRecord
100
AcDbTextStyleTableRecord
  2
SLDTEXTSTYLE3
 70
     0
 40
0.0
 41
0.7
 50
0.0
 71
     0
 42
0.2
  3
TXT
  4

  0
STYLE
  5
397
330
3
100
AcDbSymbolTableRecord
100
AcDbTextStyleTableRecord
  2
SLDTEXTSTYLE4
 70
     0
 40
0.0
 41
0.6875
 50
0.0
 71
     0
 42
0.2
  3
TXT
  4

  0
ENDTAB
  0
TABLE
  2
VIEW
  5
6
330
0
100
AcDbSymbolTable
 70
     0
  0
ENDTAB
  0
TABLE
  2
UCS
  5
7
330
0
100
AcDbSymbolTable
 70
     0
  0
ENDTAB
  0
TABLE
  2
APPID
  5
9
330
0
100
AcDbSymbolTable
 70
     1
  0
APPID
  5
12
330
9
100
AcDbSymbolTableRecord
100
AcDbRegAppTableRecord
  2
ACAD
 70
     0
  0
ENDTAB
  0
TABLE
  2
DIMSTYLE
  5
A
330
0
100
AcDbSymbolTable
 70
     5
  0
DIMSTYLE
105
27
330
A
100
AcDbSymbolTableRecord
100
AcDbDimStyleTableRecord
  2
ISO-25
 70
     0
  3

  4

  5

  6

  7

 40
1.0
 41
2.5
 42
0.625
 43
3.75
 44
1.25
 45
0.0
 46
0.0
 47
0.0
 48
0.0
140
2.5
141
2.5
142
0.0
143
0.0393700787
144
1.0
145
0.0
146
1.0
147
0.625
 71
     0
 72
     0
 73
     0
 74
     0
 75
     0
 76
     0
 77
     1
 78
     8
170
     0
171
     3
172
     1
173
     0
174
     0
175
     0
176
     0
177
     0
178
     0
270
     2
271
     2
272
     2
273
     2
274
     3
340
11
275
     0
280
     0
281
     0
282
     0
283
     0
284
     8
285
     0
286
     0
287
     3
288
     0
  0
DIMSTYLE
105
246
102
{ACAD_REACTORS
330
245
330
257
330
261
330
26B
330
2B6
330
2C0
330
2CA
330
3BB
330
3C5
330
3CF
330
3D9
330
3E3
102
}
330
A
100
AcDbSymbolTableRecord
100
AcDbDimStyleTableRecord
  2
SLDDIMSTYLE0
 70
     0
  3

  4

  5

  6
CLOSED
  7
CLOSED
 40
1.0
 41
5.0
 42
0.0625
 43
0.38
 44
0.0
 45
0.000000001
 46
0.0
 47
0.0
 48
0.0
140
7.0
141
0.09
142
0.0
143
25.4
144
1.0
145
0.0
146
1.0
147
1.75
 71
     0
 72
     0
 73
     0
 74
     0
 75
     0
 76
     0
 77
     1
 78
    12
170
     0
171
     2
172
     0
173
     1
174
     0
175
     0
176
     0
177
     0
178
     0
270
     2
271
     2
272
     2
273
     2
274
     2
340
AA
275
     0
280
     0
281
     0
282
     0
283
     1
284
    12
285
     0
286
     0
287
     3
288
     0
  0
DIMSTYLE
105
280
330
A
100
AcDbSymbolTableRecord
100
AcDbDimStyleTableRecord
  2
SLDDIMSTYLE1
 70
     0
  3

  4

  5

  6
DOT
  7
DOT
 40
1.0
 41
1.24
 42
0.0625
 43
0.38
 44
0.0
 45
0.000000001
 46
0.0
 47
0.0
 48
0.0
140
0.0
141
0.09
142
0.0
143
25.4
144
1.0
145
0.0
146
1.24
147
0.0
 71
     0
 72
     0
 73
     1
 74
     1
 75
     0
 76
     0
 77
     0
 78
     0
170
     0
171
     2
172
     0
173
     1
174
     0
175
     0
176
     0
177
     0
178
     0
270
     2
271
     0
272
     0
273
     2
274
     2
340
11
275
     0
280
     0
281
     0
282
     0
283
     1
284
     0
285
     0
286
     0
287
     3
288
     0
  0
DIMSTYLE
105
361
102
{ACAD_REACTORS
330
360
330
36C
102
}
330
A
100
AcDbSymbolTableRecord
100
AcDbDimStyleTableRecord
  2
SLDDIMSTYLE2
 70
     0
  3

  4

  5

  6
CLOSED
  7
CLOSED
 40
1.0
 41
5.0
 42
0.0625
 43
0.38
 44
0.0
 45
0.000000001
 46
0.0
 47
0.2
 48
0.2
140
7.0
141
0.09
142
0.0
143
25.4
144
1.0
145
0.0
146
1.0
147
1.75
 71
     1
 72
     0
 73
     0
 74
     0
 75
     0
 76
     0
 77
     1
 78
    12
170
     0
171
     2
172
     0
173
     1
174
     0
175
     0
176
     0
177
     0
178
     0
270
     2
271
     2
272
     2
273
     2
274
     2
340
AA
275
     0
280
     0
281
     0
282
     0
283
     1
284
     8
285
     0
286
     0
287
     3
288
     0
  0
DIMSTYLE
105
38B
330
A
100
AcDbSymbolTableRecord
100
AcDbDimStyleTableRecord
  2
SLDDIMSTYLE3
 70
     0
  3

  4

  5

  6

  7

 40
1.0
 41
5.0
 42
0.0625
 43
0.38
 44
0.0
 45
0.000000001
 46
0.0
 47
0.0
 48
0.0
140
0.0
141
0.09
142
0.0
143
25.4
144
1.0
145
0.0
146
5.0
147
0.0
 71
     0
 72
     0
 73
     1
 74
     1
 75
     0
 76
     0
 77
     0
 78
     0
170
     0
171
     2
172
     0
173
     1
174
     0
175
     0
176
     0
177
     0
178
     0
270
     2
271
     0
272
     0
273
     2
274
     2
340
11
275
     0
280
     0
281
     0
282
     0
283
     1
284
     0
285
     0
286
     0
287
     3
288
     0
  0
ENDTAB
  0
TABLE
  2
BLOCK_RECORD
  5
1
330
0
100
AcDbSymbolTable
 70
    35
  0
BLOCK_RECORD
  5
1F
330
1
100
AcDbSymbolTableRecord
100
AcDbBlockTableRecord
  2
*MODEL_SPACE
  0
BLOCK_RECORD
  5
1B
330
1
100
AcDbSymbolTableRecord
100
AcDbBlockTableRecord
  2
*PAPER_SPACE
  0
BLOCK_RECORD
  5
23
330
1
100
AcDbSymbolTableRecord
100
AcDbBlockTableRecord
  2
*PAPER_SPACE0
  0
BLOCK_RECORD
  5
B8
330
1
100
AcDbSymbolTableRecord
100
AcDbBlockTableRecord
  2
SW_NOTE_0
  0
BLOCK_RECORD
  5
BE
330
1
100
AcDbSymbolTableRecord
100
AcDbBlockTableRecord
  2
SW_NOTE_1
  0
BLOCK_RECORD
  5
C9
330
1
100
AcDbSymbolTableRecord
100
AcDbBlockTableRecord
  2
SW_NOTE_2
  0
BLOCK_RECORD
  5
CF
330
1
100
AcDbSymbolTableRecord
100
AcDbBlockTableRecord
  2
SW_NOTE_3
  0
BLOCK_RECORD
  5
D5
330
1
100
AcDbSymbolTableRecord
100
AcDbBlockTableRecord
  2
SW_NOTE_4
  0
BLOCK_RECORD
  5
DB
330
1
100
AcDbSymbolTableRecord
100
AcDbBlockTableRecord
  2
SW_NOTE_5
  0
BLOCK_RECORD
  5
E1
330
1
100
AcDbSymbolTableRecord
100
AcDbBlockTableRecord
  2
SW_NOTE_6
  0
BLOCK_RECORD
  5
E7
330
1
100
AcDbSymbolTableRecord
100
AcDbBlockTableRecord
  2
SW_NOTE_7
  0
BLOCK_RECORD
  5
ED
330
1
100
AcDbSymbolTableRecord
100
AcDbBlockTableRecord
  2
SW_NOTE_8
  0
BLOCK_RECORD
  5
F3
330
1
100
AcDbSymbolTableRecord
100
AcDbBlockTableRecord
  2
SW_NOTE_9
  0
BLOCK_RECORD
  5
247
330
1
100
AcDbSymbolTableRecord
100
AcDbBlockTableRecord
  2
_CLOSED
  0
BLOCK_RECORD
  5
24E
330
1
100
AcDbSymbolTableRecord
100
AcDbBlockTableRecord
  2
_D
  0
BLOCK_RECORD
  5
258
330
1
100
AcDbSymbolTableRecord
100
AcDbBlockTableRecord
  2
_D_1
  0
BLOCK_RECORD
  5
262
330
1
100
AcDbSymbolTableRecord
100
AcDbBlockTableRecord
  2
_D_2
  0
BLOCK_RECORD
  5
26C
330
1
100
AcDbSymbolTableRecord
100
AcDbBlockTableRecord
  2
_D_3
  0
BLOCK_RECORD
  5
275
330
1
100
AcDbSymbolTableRecord
100
AcDbBlockTableRecord
  2
SW_NOTE_10
  0
BLOCK_RECORD
  5
281
330
1
100
AcDbSymbolTableRecord
100
AcDbBlockTableRecord
  2
_DOT
  0
BLOCK_RECORD
  5
2B7
330
1
100
AcDbSymbolTableRecord
100
AcDbBlockTableRecord
  2
_D_4
  0
BLOCK_RECORD
  5
2C1
330
1
100
AcDbSymbolTableRecord
100
AcDbBlockTableRecord
  2
_D_5
  0
BLOCK_RECORD
  5
2CB
330
1
100
AcDbSymbolTableRecord
100
AcDbBlockTableRecord
  2
_D_6
  0
BLOCK_RECORD
  5
362
330
1
100
AcDbSymbolTableRecord
100
AcDbBlockTableRecord
  2
_D_7
  0
BLOCK_RECORD
  5
36D
330
1
100
AcDbSymbolTableRecord
100
AcDbBlockTableRecord
  2
_D_8
  0
BLOCK_RECORD
  5
377
330
1
100
AcDbSymbolTableRecord
100
AcDbBlockTableRecord
  2
SW_NOTE_11
  0
BLOCK_RECORD
  5
37F
330
1
100
AcDbSymbolTableRecord
100
AcDbBlockTableRecord
  2
SW_NOTE_12
  0
BLOCK_RECORD
  5
38D
330
1
100
AcDbSymbolTableRecord
100
AcDbBlockTableRecord
  2
SW_NOTE_13
  0
BLOCK_RECORD
  5
3BC
330
1
100
AcDbSymbolTableRecord
100
AcDbBlockTableRecord
  2
_D_9
  0
BLOCK_RECORD
  5
3C6
330
1
100
AcDbSymbolTableRecord
100
AcDbBlockTableRecord
  2
_D_10
  0
BLOCK_RECORD
  5
3D0
330
1
100
AcDbSymbolTableRecord
100
AcDbBlockTableRecord
  2
_D_11
  0
BLOCK_RECORD
  5
3DA
330
1
100
AcDbSymbolTableRecord
100
AcDbBlockTableRecord
  2
_D_12
  0
BLOCK_RECORD
  5
3E4
330
1
100
AcDbSymbolTableRecord
100
AcDbBlockTableRecord
  2
_D_13
  0
BLOCK_RECORD
  5
3EE
330
1
100
AcDbSymbolTableRecord
100
AcDbBlockTableRecord
  2
SW_CENTERMARKSYMBOL_0
  0
BLOCK_RECORD
  5
3FA
330
1
100
AcDbSymbolTableRecord
100
AcDbBlockTableRecord
  2
SW_CENTERMARKSYMBOL_1
  0
BLOCK_RECORD
  5
406
330
1
100
AcDbSymbolTableRecord
100
AcDbBlockTableRecord
  2
SW_CENTERMARKSYMBOL_2
  0
BLOCK_RECORD
  5
412
330
1
100
AcDbSymbolTableRecord
100
AcDbBlockTableRecord
  2
SW_CENTERMARKSYMBOL_3
  0
ENDTAB
  0
ENDSEC
  0
SECTION
  2
BLOCKS
  0
BLOCK
  5
20
330
1F
100
AcDbEntity
  8
0
100
AcDbBlockBegin
  2
*MODEL_SPACE
 70
     0
 10
0.0
 20
0.0
 30
0.0
  3
*MODEL_SPACE
  1

  0
ENDBLK
  5
21
330
1F
100
AcDbEntity
  8
0
100
AcDbBlockEnd
  0
BLOCK
  5
1C
330
1B
100
AcDbEntity
 67
     1
  8
0
100
AcDbBlockBegin
  2
*PAPER_SPACE
 70
     0
 10
0.0
 20
0.0
 30
0.0
  3
*PAPER_SPACE
  1

  0
ENDBLK
  5
1D
330
1B
100
AcDbEntity
 67
     1
  8
0
100
AcDbBlockEnd
  0
BLOCK
  5
24
330
23
100
AcDbEntity
  8
0
100
AcDbBlockBegin
  2
*PAPER_SPACE0
 70
     0
 10
0.0
 20
0.0
 30
0.0
  3
*PAPER_SPACE0
  1

  0
ENDBLK
  5
25
330
23
100
AcDbEntity
  8
0
100
AcDbBlockEnd
  0
BLOCK
  5
B9
330
B8
100
AcDbEntity
  8
0
100
AcDbBlockBegin
  2
SW_NOTE_0
 70
     0
 10
0.0
 20
0.0
 30
0.0
  3
SW_NOTE_0
  1

  0
MTEXT
  5
BB
330
B8
100
AcDbEntity
  8
CARTIGLIO
 62
     0
100
AcDbMText
 10
0.0
 20
5.1562709591
 30
0.0
 40
4.0
 41
0.0
 71
     1
 72
     1
  1
Undimensioned
  7
SLDTEXTSTYLE1
  0
MTEXT
  5
BC
330
B8
100
AcDbEntity
  8
CARTIGLIO
 62
     0
100
AcDbMText
 10
0.0
 20
-0.8437290931
 30
0.0
 40
4.0
 41
0.0
 71
     1
 72
     1
  1
radii
  7
SLDTEXTSTYLE1
  0
ENDBLK
  5
BA
330
B8
100
AcDbEntity
  8
0
100
AcDbBlockEnd
  0
BLOCK
  5
BF
330
BE
100
AcDbEntity
  8
0
100
AcDbBlockBegin
  2
SW_NOTE_1
 70
     0
 10
0.0
 20
0.0
 30
0.0
  3
SW_NOTE_1
  1

  0
MTEXT
  5
C1
330
BE
100
AcDbEntity
  8
CARTIGLIO
 62
     0
100
AcDbMText
 10
0.0
 20
5.1562709591
 30
0.0
 40
4.0
 41
0.0
 71
     1
 72
     1
  1
Undimensioned
  7
SLDTEXTSTYLE1
  0
MTEXT
  5
C2
330
BE
100
AcDbEntity
  8
CARTIGLIO
 62
     0
100
AcDbMText
 10
0.0
 20
-0.8437290931
 30
0.0
 40
4.0
 41
0.0
 71
     1
 72
     1
  1
bevels
  7
SLDTEXTSTYLE1
  0
ENDBLK
  5
C0
330
BE
100
AcDbEntity
  8
0
100
AcDbBlockEnd
  0
BLOCK
  5
CA
330
C9
100
AcDbEntity
  8
0
100
AcDbBlockBegin
  2
SW_NOTE_2
 70
     0
 10
0.0
 20
0.0
 30
0.0
  3
SW_NOTE_2
  1

  0
MTEXT
  5
CC
330
C9
100
AcDbEntity
  8
CARTIGLIO
 62
     0
100
AcDbMText
 10
7.125
 20
5.1562709591
 30
0.0
 40
4.0
 41
0.0
 71
     3
 72
     1
  1
0.5
  7
SLDTEXTSTYLE1
  0
MTEXT
  5
CD
330
C9
100
AcDbEntity
  8
CARTIGLIO
 62
     0
100
AcDbMText
 10
7.0131949708
 20
-0.8437290931
 30
0.0
 40
4.0
 41
0.0
 71
     3
 72
     1
  1
÷3
  7
SLDTEXTSTYLE1
  0
ENDBLK
  5
CB
330
C9
100
AcDbEntity
  8
0
100
AcDbBlockEnd
  0
BLOCK
  5
D0
330
CF
100
AcDbEntity
  8
0
100
AcDbBlockBegin
  2
SW_NOTE_3
 70
     0
 10
0.0
 20
0.0
 30
0.0
  3
SW_NOTE_3
  1

  0
MTEXT
  5
D2
330
CF
100
AcDbEntity
  8
CARTIGLIO
 62
     0
100
AcDbMText
 10
8.75
 20
5.1562709591
 30
0.0
 40
4.0
 41
0.0
 71
     3
 72
     1
  1
>3÷
  7
SLDTEXTSTYLE1
  0
MTEXT
  5
D3
330
CF
100
AcDbEntity
  8
CARTIGLIO
 62
     0
100
AcDbMText
 10
8.9562497977
 20
-0.8437290931
 30
0.0
 40
4.0
 41
0.0
 71
     3
 72
     1
  1
6
  7
SLDTEXTSTYLE1
  0
ENDBLK
  5
D1
330
CF
100
AcDbEntity
  8
0
100
AcDbBlockEnd
  0
BLOCK
  5
D6
330
D5
100
AcDbEntity
  8
0
100
AcDbBlockBegin
  2
SW_NOTE_4
 70
     0
 10
0.0
 20
0.0
 30
0.0
  3
SW_NOTE_4
  1

  0
MTEXT
  5
D8
330
D5
100
AcDbEntity
  8
CARTIGLIO
 62
     0
100
AcDbMText
 10
8.75
 20
5.1562709591
 30
0.0
 40
4.0
 41
0.0
 71
     3
 72
     1
  1
>6÷
  7
SLDTEXTSTYLE1
  0
MTEXT
  5
D9
330
D5
100
AcDbEntity
  8
CARTIGLIO
 62
     0
100
AcDbMText
 10
8.8680558726
 20
-0.8437290931
 30
0.0
 40
4.0
 41
0.0
 71
     3
 72
     1
  1
30
  7
SLDTEXTSTYLE1
  0
ENDBLK
  5
D7
330
D5
100
AcDbEntity
  8
0
100
AcDbBlockEnd
  0
BLOCK
  5
DC
330
DB
100
AcDbEntity
  8
0
100
AcDbBlockBegin
  2
SW_NOTE_5
 70
     0
 10
0.0
 20
0.0
 30
0.0
  3
SW_NOTE_5
  1

  0
MTEXT
  5
DE
330
DB
100
AcDbEntity
  8
CARTIGLIO
 62
     0
100
AcDbMText
 10
11.625
 20
5.1562709591
 30
0.0
 40
4.0
 41
0.0
 71
     3
 72
     1
  1
>30÷
  7
SLDTEXTSTYLE1
  0
MTEXT
  5
DF
330
DB
100
AcDbEntity
  8
CARTIGLIO
 62
     0
100
AcDbMText
 10
11.9673611894
 20
-0.8437290931
 30
0.0
 40
4.0
 41
0.0
 71
     3
 72
     1
  1
120
  7
SLDTEXTSTYLE1
  0
ENDBLK
  5
DD
330
DB
100
AcDbEntity
  8
0
100
AcDbBlockEnd
  0
BLOCK
  5
E2
330
E1
100
AcDbEntity
  8
0
100
AcDbBlockBegin
  2
SW_NOTE_6
 70
     0
 10
0.0
 20
0.0
 30
0.0
  3
SW_NOTE_6
  1

  0
MTEXT
  5
E4
330
E1
100
AcDbEntity
  8
CARTIGLIO
 62
     0
100
AcDbMText
 10
11.75
 20
5.1562709591
 30
0.0
 40
4.0
 41
0.0
 71
     3
 72
     1
  1
>120
  7
SLDTEXTSTYLE1
  0
MTEXT
  5
E5
330
E1
100
AcDbEntity
  8
CARTIGLIO
 62
     0
100
AcDbMText
 10
11.4354167581
 20
-0.8437290931
 30
0.0
 40
4.0
 41
0.0
 71
     3
 72
     1
  1
÷400
  7
SLDTEXTSTYLE1
  0
ENDBLK
  5
E3
330
E1
100
AcDbEntity
  8
0
100
AcDbBlockEnd
  0
BLOCK
  5
E8
330
E7
100
AcDbEntity
  8
0
100
AcDbBlockBegin
  2
SW_NOTE_7
 70
     0
 10
0.0
 20
0.0
 30
0.0
  3
SW_NOTE_7
  1

  0
MTEXT
  5
EA
330
E7
100
AcDbEntity
  8
CARTIGLIO
 62
     0
100
AcDbMText
 10
14.5
 20
5.1562709591
 30
0.0
 40
4.0
 41
0.0
 71
     3
 72
     1
  1
>400÷
  7
SLDTEXTSTYLE1
  0
MTEXT
  5
EB
330
E7
100
AcDbEntity
  8
CARTIGLIO
 62
     0
100
AcDbMText
 10
14.854861401
 20
-0.8437290931
 30
0.0
 40
4.0
 41
0.0
 71
     3
 72
     1
  1
1000
  7
SLDTEXTSTYLE1
  0
ENDBLK
  5
E9
330
E7
100
AcDbEntity
  8
0
100
AcDbBlockEnd
  0
BLOCK
  5
EE
330
ED
100
AcDbEntity
  8
0
100
AcDbBlockBegin
  2
SW_NOTE_8
 70
     0
 10
0.0
 20
0.0
 30
0.0
  3
SW_NOTE_8
  1

  0
MTEXT
  5
F0
330
ED
100
AcDbEntity
  8
CARTIGLIO
 62
     0
100
AcDbMText
 10
14.625
 20
5.1562709591
 30
0.0
 40
4.0
 41
0.0
 71
     3
 72
     1
  1
>1000
  7
SLDTEXTSTYLE1
  0
MTEXT
  5
F1
330
ED
100
AcDbEntity
  8
CARTIGLIO
 62
     0
100
AcDbMText
 10
14.3222231343
 20
-0.8437290931
 30
0.0
 40
4.0
 41
0.0
 71
     3
 72
     1
  1
÷2000
  7
SLDTEXTSTYLE1
  0
ENDBLK
  5
EF
330
ED
100
AcDbEntity
  8
0
100
AcDbBlockEnd
  0
BLOCK
  5
F4
330
F3
100
AcDbEntity
  8
0
100
AcDbBlockBegin
  2
SW_NOTE_9
 70
     0
 10
0.0
 20
0.0
 30
0.0
  3
SW_NOTE_9
  1

  0
MTEXT
  5
F6
330
F3
100
AcDbEntity
  8
CARTIGLIO
 62
     0
100
AcDbMText
 10
14.625
 20
5.1562709591
 30
0.0
 40
4.0
 41
0.0
 71
     3
 72
     1
  1
>2000
  7
SLDTEXTSTYLE1
  0
MTEXT
  5
F7
330
F3
100
AcDbEntity
  8
CARTIGLIO
 62
     0
100
AcDbMText
 10
14.5145831555
 20
-0.8437290931
 30
0.0
 40
4.0
 41
0.0
 71
     3
 72
     1
  1
÷4000
  7
SLDTEXTSTYLE1
  0
ENDBLK
  5
F5
330
F3
100
AcDbEntity
  8
0
100
AcDbBlockEnd
  0
BLOCK
  5
248
330
247
100
AcDbEntity
  8
0
100
AcDbBlockBegin
  2
_CLOSED
 70
     0
 10
0.0
 20
0.0
 30
0.0
  3
_CLOSED
  1

  0
LINE
  5
24A
330
247
100
AcDbEntity
  8
0
  6
BYBLOCK
 62
     0
100
AcDbLine
 10
-1.0
 20
0.166667
 30
0.0
 11
0.0
 21
0.0
 31
0.0
  0
LINE
  5
24B
330
247
100
AcDbEntity
  8
0
  6
BYBLOCK
 62
     0
100
AcDbLine
 10
0.0
 20
0.0
 30
0.0
 11
-1.0
 21
-0.166667
 31
0.0
  0
LINE
  5
24C
330
247
100
AcDbEntity
  8
0
  6
BYBLOCK
 62
     0
100
AcDbLine
 10
-1.0
 20
0.166667
 30
0.0
 11
-1.0
 21
-0.166667
 31
0.0
  0
LINE
  5
24D
330
247
100
AcDbEntity
  8
0
  6
BYBLOCK
 62
     0
100
AcDbLine
 10
0.0
 20
0.0
 30
0.0
 11
-1.0
 21
0.0
 31
0.0
  0
ENDBLK
  5
249
330
247
100
AcDbEntity
  8
0
100
AcDbBlockEnd
  0
BLOCK
  5
24F
330
24E
100
AcDbEntity
  8
0
100
AcDbBlockBegin
  2
_D
 70
     0
 10
0.0
 20
0.0
 30
0.0
  3
_D
  1

  0
INSERT
  5
251
330
24E
100
AcDbEntity
  8
RIQUADRO
100
AcDbBlockReference
  2
_CLOSED
 10
33.9995595865
 20
260.4340439614
 30
4.6
 41
5.0
 42
5.0
 50
90.0
  0
INSERT
  5
252
330
24E
100
AcDbEntity
  8
RIQUADRO
100
AcDbBlockReference
  2
_CLOSED
 10
33.9995595865
 20
180.4340439614
 30
4.6
 41
5.0
 42
5.0
 50
270.0
  0
LINE
  5
253
330
24E
100
AcDbEntity
  8
RIQUADRO
100
AcDbLine
 10
50.0391280224
 20
260.4340439614
 30
0.0
 11
31.9995595865
 21
260.4340439614
 31
0.0
  0
LINE
  5
254
330
24E
100
AcDbEntity
  8
RIQUADRO
100
AcDbLine
 10
39.5391280224
 20
180.4340439614
 30
0.0
 11
31.9995595865
 21
180.4340439614
 31
0.0
  0
LINE
  5
255
330
24E
100
AcDbEntity
  8
RIQUADRO
100
AcDbLine
 10
33.9995595865
 20
260.4340439614
 30
0.0
 11
33.9995595865
 21
180.4340439614
 31
0.0
  0
MTEXT
  5
256
330
24E
100
AcDbEntity
  8
RIQUADRO
100
AcDbMText
 10
24.9760857573
 20
213.5456442521
 30
0.0
 40
7.0
 41
0.0
 71
     1
 72
     1
  1
80
  7
SLDTEXTSTYLE1
 11
-7.044195017643634E-15
 21
1.0
 31
0.0
  0
ENDBLK
  5
250
330
24E
100
AcDbEntity
  8
0
100
AcDbBlockEnd
  0
BLOCK
  5
259
330
258
100
AcDbEntity
  8
0
100
AcDbBlockBegin
  2
_D_1
 70
     0
 10
0.0
 20
0.0
 30
0.0
  3
_D_1
  1

  0
INSERT
  5
25B
330
258
100
AcDbEntity
  8
RIQUADRO
100
AcDbBlockReference
  2
_CLOSED
 10
185.5255870867
 20
299.9340439614
 30
4.6
 41
5.0
 42
5.0
 50
90.0
  0
INSERT
  5
25C
330
258
100
AcDbEntity
  8
RIQUADRO
100
AcDbBlockReference
  2
_CLOSED
 10
185.5255870867
 20
220.9340439614
 30
4.6
 41
5.0
 42
5.0
 50
270.0
  0
LINE
  5
25D
330
258
100
AcDbEntity
  8
RIQUADRO
100
AcDbLine
 10
157.0391280224
 20
299.9340439614
 30
0.0
 11
187.5255870867
 21
299.9340439614
 31
0.0
  0
LINE
  5
25E
330
258
100
AcDbEntity
  8
RIQUADRO
100
AcDbLine
 10
157.0391280224
 20
220.9340439614
 30
0.0
 11
187.5255870867
 21
220.9340439614
 31
0.0
  0
LINE
  5
25F
330
258
100
AcDbEntity
  8
RIQUADRO
100
AcDbLine
 10
185.5255870867
 20
299.9340439614
 30
0.0
 11
185.5255870867
 21
220.9340439614
 31
0.0
  0
MTEXT
  5
260
330
258
100
AcDbEntity
  8
RIQUADRO
100
AcDbMText
 10
176.5021132575
 20
251.3198423529
 30
0.0
 40
7.0
 41
0.0
 71
     1
 72
     1
  1
79
  7
SLDTEXTSTYLE1
 11
-7.044195017643634E-15
 21
1.0
 31
0.0
  0
ENDBLK
  5
25A
330
258
100
AcDbEntity
  8
0
100
AcDbBlockEnd
  0
BLOCK
  5
263
330
262
100
AcDbEntity
  8
0
100
AcDbBlockBegin
  2
_D_2
 70
     0
 10
0.0
 20
0.0
 30
0.0
  3
_D_2
  1

  0
INSERT
  5
265
330
262
100
AcDbEntity
  8
RIQUADRO
100
AcDbBlockReference
  2
_CLOSED
 10
157.0391280224
 20
370.1918046963
 30
4.6
 41
5.0
 42
5.0
 50
0.0
  0
INSERT
  5
266
330
262
100
AcDbEntity
  8
RIQUADRO
100
AcDbBlockReference
  2
_CLOSED
 10
54.0391280224
 20
370.1918046963
 30
4.6
 41
5.0
 42
5.0
 50
180.0
  0
LINE
  5
267
330
262
100
AcDbEntity
  8
RIQUADRO
100
AcDbLine
 10
157.0391280224
 20
299.9340439614
 30
0.0
 11
157.0391280224
 21
372.1918046963
 31
0.0
  0
LINE
  5
268
330
262
100
AcDbEntity
  8
RIQUADRO
100
AcDbLine
 10
54.0391280224
 20
299.9340439614
 30
0.0
 11
54.0391280224
 21
372.1918046963
 31
0.0
  0
LINE
  5
269
330
262
100
AcDbEntity
  8
RIQUADRO
100
AcDbLine
 10
157.0391280224
 20
370.1918046963
 30
0.0
 11
54.0391280224
 21
370.1918046963
 31
0.0
  0
MTEXT
  5
26A
330
262
100
AcDbEntity
  8
RIQUADRO
100
AcDbMText
 10
98.1118820185
 20
379.2152785254
 30
0.0
 40
7.0
 41
0.0
 71
     1
 72
     1
  1
103
  7
SLDTEXTSTYLE1
  0
ENDBLK
  5
264
330
262
100
AcDbEntity
  8
0
100
AcDbBlockEnd
  0
BLOCK
  5
26D
330
26C
100
AcDbEntity
  8
0
100
AcDbBlockBegin
  2
_D_3
 70
     0
 10
0.0
 20
0.0
 30
0.0
  3
_D_3
  1

  0
INSERT
  5
26F
330
26C
100
AcDbEntity
  8
RIQUADRO
100
AcDbBlockReference
  2
_CLOSED
 10
41.0391280224
 20
162.9633714643
 30
4.6
 41
5.0
 42
5.0
 50
180.0
  0
INSERT
  5
270
330
26C
100
AcDbEntity
  8
RIQUADRO
100
AcDbBlockReference
  2
_CLOSED
 10
170.0391280224
 20
162.9633714643
 30
4.6
 41
5.0
 42
5.0
 50
0.0
  0
LINE
  5
271
330
26C
100
AcDbEntity
  8
RIQUADRO
100
AcDbLine
 10
41.0391280224
 20
178.4340439614
 30
0.0
 11
41.0391280224
 21
160.9633714643
 31
0.0
  0
LINE
  5
272
330
26C
100
AcDbEntity
  8
RIQUADRO
100
AcDbLine
 10
170.0391280224
 20
178.4340439614
 30
0.0
 11
170.0391280224
 21
160.9633714643
 31
0.0
  0
LINE
  5
273
330
26C
100
AcDbEntity
  8
RIQUADRO
100
AcDbLine
 10
41.0391280224
 20
162.9633714643
 30
0.0
 11
170.0391280224
 21
162.9633714643
 31
0.0
  0
MTEXT
  5
274
330
26C
100
AcDbEntity
  8
RIQUADRO
100
AcDbMText
 10
97.5299494976
 20
171.9868452934
 30
0.0
 40
7.0
 41
0.0
 71
     1
 72
     1
  1
129
  7
SLDTEXTSTYLE1
  0
ENDBLK
  5
26E
330
26C
100
AcDbEntity
  8
0
100
AcDbBlockEnd
  0
BLOCK
  5
276
330
275
100
AcDbEntity
  8
0
100
AcDbBlockBegin
  2
SW_NOTE_10
 70
     0
 10
0.0
 20
0.0
 30
0.0
  3
SW_NOTE_10
  1

  0
LINE
  5
278
330
275
100
AcDbEntity
  8
RIQUADRO
 62
     0
100
AcDbLine
 10
-75.8186397985
 20
0.0
 30
0.0
 11
0.0
 21
0.0
 31
0.0
  0
LINE
  5
279
330
275
100
AcDbEntity
  8
RIQUADRO
 62
     0
100
AcDbLine
 10
0.0
 20
0.0
 30
0.0
 11
-75.8186397985
 21
0.0
 31
0.0
  0
LINE
  5
27A
330
275
100
AcDbEntity
  8
RIQUADRO
 62
     0
100
AcDbLine
 10
-75.8186397985
 20
0.0
 30
0.0
 11
0.0
 21
0.0
 31
0.0
  0
LINE
  5
27B
330
275
100
AcDbEntity
  8
RIQUADRO
 62
     0
100
AcDbLine
 10
0.0
 20
0.0
 30
0.0
 11
-75.8186397985
 21
0.0
 31
0.0
  0
LINE
  5
27C
330
275
100
AcDbEntity
  8
RIQUADRO
 62
     0
100
AcDbLine
 10
-75.8186397985
 20
0.0
 30
0.0
 11
0.0
 21
0.0
 31
0.0
  0
LINE
  5
27D
330
275
100
AcDbEntity
  8
RIQUADRO
 62
     0
100
AcDbLine
 10
0.0
 20
0.0
 30
0.0
 11
-75.8186397985
 21
0.0
 31
0.0
  0
MTEXT
  5
27E
330
275
100
AcDbEntity
  8
RIQUADRO
 62
     0
100
AcDbMText
 10
-75.7479660032
 20
8.4080406945
 30
0.0
 40
7.0
 41
0.0
 71
     1
 72
     1
  1
magnetic holder
  7
SLDTEXTSTYLE1
  0
ENDBLK
  5
277
330
275
100
AcDbEntity
  8
0
100
AcDbBlockEnd
  0
BLOCK
  5
282
330
281
100
AcDbEntity
  8
0
100
AcDbBlockBegin
  2
_DOT
 70
     0
 10
0.0
 20
0.0
 30
0.0
  3
_DOT
  1

  0
POLYLINE
  5
284
330
281
100
AcDbEntity
  8
0
  6
BYBLOCK
 62
     0
100
AcDb2dPolyline
 66
     1
 10
0.0
 20
0.0
 30
0.0
 70
     1
 40
0.5
 41
0.5
  0
VERTEX
  5
286
330
284
100
AcDbEntity
  8
0
  6
BYBLOCK
 62
     0
100
AcDbVertex
100
AcDb2dVertex
 10
-0.25
 20
0.0
 30
0.0
 42
1.0
  0
VERTEX
  5
287
330
284
100
AcDbEntity
  8
0
  6
BYBLOCK
 62
     0
100
AcDbVertex
100
AcDb2dVertex
 10
0.25
 20
0.0
 30
0.0
 42
1.0
  0
SEQEND
  5
288
330
284
100
AcDbEntity
  8
0
  6
BYBLOCK
 62
     0
  0
LINE
  5
285
330
281
100
AcDbEntity
  8
0
  6
BYBLOCK
 62
     0
100
AcDbLine
 10
-0.5
 20
0.0
 30
0.0
 11
-1.0
 21
0.0
 31
0.0
  0
ENDBLK
  5
283
330
281
100
AcDbEntity
  8
0
100
AcDbBlockEnd
  0
BLOCK
  5
2B8
330
2B7
100
AcDbEntity
  8
0
100
AcDbBlockBegin
  2
_D_4
 70
     0
 10
0.0
 20
0.0
 30
0.0
  3
_D_4
  1

  0
INSERT
  5
2BA
330
2B7
100
AcDbEntity
  8
RIQUADRO
100
AcDbBlockReference
  2
_CLOSED
 10
214.3015997566
 20
350.9489387873
 30
0.1
 41
5.0
 42
5.0
 50
0.0
  0
INSERT
  5
2BB
330
2B7
100
AcDbEntity
  8
RIQUADRO
100
AcDbBlockReference
  2
_CLOSED
 10
191.3015997566
 20
350.9489387873
 30
0.1
 41
5.0
 42
5.0
 50
180.0
  0
LINE
  5
2BC
330
2B7
100
AcDbEntity
  8
RIQUADRO
100
AcDbLine
 10
214.3015997566
 20
327.4340439614
 30
0.0
 11
214.3015997566
 21
352.9489387873
 31
0.0
  0
LINE
  5
2BD
330
2B7
100
AcDbEntity
  8
RIQUADRO
100
AcDbLine
 10
191.3015997566
 20
191.9340439614
 30
0.0
 11
191.3015997566
 21
352.9489387873
 31
0.0
  0
LINE
  5
2BE
330
2B7
100
AcDbEntity
  8
RIQUADRO
100
AcDbLine
 10
214.3015997566
 20
350.9489387873
 30
0.0
 11
191.3015997566
 21
350.9489387873
 31
0.0
  0
MTEXT
  5
2BF
330
2B7
100
AcDbEntity
  8
RIQUADRO
100
AcDbMText
 10
198.8125471475
 20
359.9724126165
 30
0.0
 40
7.0
 41
0.0
 71
     1
 72
     1
  1
23
  7
SLDTEXTSTYLE1
  0
ENDBLK
  5
2B9
330
2B7
100
AcDbEntity
  8
0
100
AcDbBlockEnd
  0
BLOCK
  5
2C2
330
2C1
100
AcDbEntity
  8
0
100
AcDbBlockBegin
  2
_D_5
 70
     0
 10
0.0
 20
0.0
 30
0.0
  3
_D_5
  1

  0
INSERT
  5
2C4
330
2C1
100
AcDbEntity
  8
RIQUADRO
100
AcDbBlockReference
  2
_CLOSED
 10
201.3015997566
 20
336.9359656536
 30
0.1
 41
5.0
 42
5.0
 50
180.0
  0
INSERT
  5
2C5
330
2C1
100
AcDbEntity
  8
RIQUADRO
100
AcDbBlockReference
  2
_CLOSED
 10
214.3015997566
 20
336.9359656536
 30
0.1
 41
5.0
 42
5.0
 50
0.0
  0
LINE
  5
2C6
330
2C1
100
AcDbEntity
  8
RIQUADRO
100
AcDbLine
 10
201.3015997566
 20
327.4340439614
 30
0.0
 11
201.3015997566
 21
338.9359656536
 31
0.0
  0
LINE
  5
2C7
330
2C1
100
AcDbEntity
  8
RIQUADRO
100
AcDbLine
 10
214.3015997566
 20
327.4340439614
 30
0.0
 11
214.3015997566
 21
338.9359656536
 31
0.0
  0
LINE
  5
2C8
330
2C1
100
AcDbEntity
  8
RIQUADRO
100
AcDbLine
 10
201.3015997566
 20
336.9359656536
 30
0.0
 11
214.3015997566
 21
336.9359656536
 31
0.0
  0
MTEXT
  5
2C9
330
2C1
100
AcDbEntity
  8
RIQUADRO
100
AcDbMText
 10
202.8919527032
 20
345.9594394827
 30
0.0
 40
7.0
 41
0.0
 71
     1
 72
     1
  1
13
  7
SLDTEXTSTYLE1
  0
ENDBLK
  5
2C3
330
2C1
100
AcDbEntity
  8
0
100
AcDbBlockEnd
  0
BLOCK
  5
2CC
330
2CB
100
AcDbEntity
  8
0
100
AcDbBlockBegin
  2
_D_6
 70
     0
 10
0.0
 20
0.0
 30
0.0
  3
_D_6
  1

  0
INSERT
  5
2CE
330
2CB
100
AcDbEntity
  8
RIQUADRO
100
AcDbBlockReference
  2
_CLOSED
 10
229.8000320523
 20
325.9340439614
 30
0.1
 41
5.0
 42
5.0
 50
90.0
  0
INSERT
  5
2CF
330
2CB
100
AcDbEntity
  8
RIQUADRO
100
AcDbBlockReference
  2
_CLOSED
 10
229.8000320523
 20
180.4340439614
 30
0.1
 41
5.0
 42
5.0
 50
270.0
  0
LINE
  5
2D0
330
2CB
100
AcDbEntity
  8
RIQUADRO
100
AcDbLine
 10
212.8015997566
 20
325.9340439614
 30
0.0
 11
231.8000320523
 21
325.9340439614
 31
0.0
  0
LINE
  5
2D1
330
2CB
100
AcDbEntity
  8
RIQUADRO
100
AcDbLine
 10
213.3015997566
 20
180.4340439614
 30
0.0
 11
231.8000320523
 21
180.4340439614
 31
0.0
  0
LINE
  5
2D2
330
2CB
100
AcDbEntity
  8
RIQUADRO
100
AcDbLine
 10
229.8000320523
 20
325.9340439614
 30
0.0
 11
229.8000320523
 21
180.4340439614
 31
0.0
  0
MTEXT
  5
2D3
330
2CB
100
AcDbEntity
  8
RIQUADRO
100
AcDbMText
 10
220.7765582232
 20
237.1901681537
 30
0.0
 40
7.0
 41
0.0
 71
     1
 72
     1
  1
145,50
  7
SLDTEXTSTYLE1
 11
-7.044195017643634E-15
 21
1.0
 31
0.0
  0
ENDBLK
  5
2CD
330
2CB
100
AcDbEntity
  8
0
100
AcDbBlockEnd
  0
BLOCK
  5
363
330
362
100
AcDbEntity
  8
0
100
AcDbBlockBegin
  2
_D_7
 70
     0
 10
0.0
 20
0.0
 30
0.0
  3
_D_7
  1

  0
INSERT
  5
365
330
362
100
AcDbEntity
  8
RIQUADRO
100
AcDbBlockReference
  2
_CLOSED
 10
365.4374505423
 20
337.6697581374
 30
-4.4
 41
5.0
 42
5.0
 50
0.0
  0
INSERT
  5
366
330
362
100
AcDbEntity
  8
RIQUADRO
100
AcDbBlockReference
  2
_CLOSED
 10
258.4374505423
 20
337.6697581374
 30
-4.4
 41
5.0
 42
5.0
 50
180.0
  0
LINE
  5
367
330
362
100
AcDbEntity
  8
RIQUADRO
100
AcDbLine
 10
365.4374505423
 20
303.9340439614
 30
0.0
 11
365.4374505423
 21
339.6697581374
 31
0.0
  0
LINE
  5
368
330
362
100
AcDbEntity
  8
RIQUADRO
100
AcDbLine
 10
258.4374505423
 20
303.9340439614
 30
0.0
 11
258.4374505423
 21
339.6697581374
 31
0.0
  0
LINE
  5
369
330
362
100
AcDbEntity
  8
RIQUADRO
100
AcDbLine
 10
365.4374505423
 20
337.6697581374
 30
0.0
 11
258.4374505423
 21
337.6697581374
 31
0.0
  0
MTEXT
  5
36A
330
362
100
AcDbEntity
  8
RIQUADRO
100
AcDbMText
 10
284.3204898875
 20
346.6932319666
 30
0.0
 40
7.0
 41
0.0
 71
     1
 72
     1
  1
107
  7
SLDTEXTSTYLE1
  0
MTEXT
  5
36B
330
362
100
AcDbEntity
  8
RIQUADRO
100
AcDbMText
 10
302.4086261618
 20
345.2698549475
 30
0.0
 40
5.6
 41
0.0
 71
     1
 72
     1
  1
±0,20
  7
SLDTEXTSTYLE1
  0
ENDBLK
  5
364
330
362
100
AcDbEntity
  8
0
100
AcDbBlockEnd
  0
BLOCK
  5
36E
330
36D
100
AcDbEntity
  8
0
100
AcDbBlockBegin
  2
_D_8
 70
     0
 10
0.0
 20
0.0
 30
0.0
  3
_D_8
  1

  0
INSERT
  5
370
330
36D
100
AcDbEntity
  8
RIQUADRO
100
AcDbBlockReference
  2
_CLOSED
 10
391.4956951391
 20
301.9340439614
 30
-4.4
 41
5.0
 42
5.0
 50
90.0
  0
INSERT
  5
371
330
36D
100
AcDbEntity
  8
RIQUADRO
100
AcDbBlockReference
  2
_CLOSED
 10
391.4956951391
 20
218.9340439614
 30
-4.4
 41
5.0
 42
5.0
 50
270.0
  0
LINE
  5
372
330
36D
100
AcDbEntity
  8
RIQUADRO
100
AcDbLine
 10
367.4374505423
 20
301.9340439614
 30
0.0
 11
393.4956951391
 21
301.9340439614
 31
0.0
  0
LINE
  5
373
330
36D
100
AcDbEntity
  8
RIQUADRO
100
AcDbLine
 10
367.4374505423
 20
218.9340439614
 30
0.0
 11
393.4956951391
 21
218.9340439614
 31
0.0
  0
LINE
  5
374
330
36D
100
AcDbEntity
  8
RIQUADRO
100
AcDbLine
 10
391.4956951391
 20
301.9340439614
 30
0.0
 11
391.4956951391
 21
218.9340439614
 31
0.0
  0
MTEXT
  5
375
330
36D
100
AcDbEntity
  8
RIQUADRO
100
AcDbMText
 10
382.4722213099
 20
242.0139346958
 30
0.0
 40
7.0
 41
0.0
 71
     1
 72
     1
  1
83
  7
SLDTEXTSTYLE1
 11
-7.044195017643634E-15
 21
1.0
 31
0.0
  0
MTEXT
  5
376
330
36D
100
AcDbEntity
  8
RIQUADRO
100
AcDbMText
 10
383.895598329
 20
254.9298417327
 30
0.0
 40
5.6
 41
0.0
 71
     1
 72
     1
  1
±0,20
  7
SLDTEXTSTYLE1
 11
-7.044195017643634E-15
 21
1.0
 31
0.0
  0
ENDBLK
  5
36F
330
36D
100
AcDbEntity
  8
0
100
AcDbBlockEnd
  0
BLOCK
  5
378
330
377
100
AcDbEntity
  8
0
100
AcDbBlockBegin
  2
SW_NOTE_11
 70
     0
 10
0.0
 20
0.0
 30
0.0
  3
SW_NOTE_11
  1

  0
MTEXT
  5
37A
330
377
100
AcDbEntity
  8
RIQUADRO
 62
     0
100
AcDbMText
 10
-75.176904342
 20
22.8807844394
 30
0.0
 40
7.0
 41
0.0
 71
     1
 72
     1
  1
removable
  7
SLDTEXTSTYLE1
  0
MTEXT
  5
37B
330
377
100
AcDbEntity
  8
RIQUADRO
 62
     0
100
AcDbMText
 10
-75.176904342
 20
13.8293953785
 30
0.0
 40
7.0
 41
0.0
 71
     1
 72
     1
  1
chrome on glass
  7
SLDTEXTSTYLE1
  0
MTEXT
  5
37C
330
377
100
AcDbEntity
  8
RIQUADRO
 62
     0
100
AcDbMText
 10
-75.176904342
 20
4.7780063176
 30
0.0
 40
7.0
 41
0.0
 71
     1
 72
     1
  1
pattern
  7
SLDTEXTSTYLE1
  0
ENDBLK
  5
379
330
377
100
AcDbEntity
  8
0
100
AcDbBlockEnd
  0
BLOCK
  5
380
330
37F
100
AcDbEntity
  8
0
100
AcDbBlockBegin
  2
SW_NOTE_12
 70
     0
 10
0.0
 20
0.0
 30
0.0
  3
SW_NOTE_12
  1

  0
LINE
  5
382
330
37F
100
AcDbEntity
  8
RIQUADRO
 62
     0
100
AcDbLine
 10
-89.4206549118
 20
0.0
 30
0.0
 11
0.0
 21
0.0
 31
0.0
  0
LINE
  5
383
330
37F
100
AcDbEntity
  8
RIQUADRO
 62
     0
100
AcDbLine
 10
0.0
 20
0.0
 30
0.0
 11
-89.4206549118
 21
0.0
 31
0.0
  0
LINE
  5
384
330
37F
100
AcDbEntity
  8
RIQUADRO
 62
     0
100
AcDbLine
 10
-89.4206549118
 20
0.0
 30
0.0
 11
0.0
 21
0.0
 31
0.0
  0
LINE
  5
385
330
37F
100
AcDbEntity
  8
RIQUADRO
 62
     0
100
AcDbLine
 10
0.0
 20
0.0
 30
0.0
 11
-89.4206549118
 21
0.0
 31
0.0
  0
LINE
  5
386
330
37F
100
AcDbEntity
  8
RIQUADRO
 62
     0
100
AcDbLine
 10
-89.4206549118
 20
0.0
 30
0.0
 11
0.0
 21
0.0
 31
0.0
  0
LINE
  5
387
330
37F
100
AcDbEntity
  8
RIQUADRO
 62
     0
100
AcDbLine
 10
0.0
 20
0.0
 30
0.0
 11
-89.4206549118
 21
0.0
 31
0.0
  0
MTEXT
  5
388
330
37F
100
AcDbEntity
  8
RIQUADRO
 62
     0
100
AcDbMText
 10
-89.1781268376
 20
17.9828250507
 30
0.0
 40
7.0
 41
0.0
 71
     1
 72
     1
  1
counterbored holes
  7
SLDTEXTSTYLE1
  0
MTEXT
  5
389
330
37F
100
AcDbEntity
  8
RIQUADRO
 62
     0
100
AcDbMText
 10
-89.1781268376
 20
8.9314359898
 30
0.0
 40
7.0
 41
0.0
 71
     1
 72
     1
  1
for M4 screws
  7
SLDTEXTSTYLE1
  0
ENDBLK
  5
381
330
37F
100
AcDbEntity
  8
0
100
AcDbBlockEnd
  0
BLOCK
  5
38E
330
38D
100
AcDbEntity
  8
0
100
AcDbBlockBegin
  2
SW_NOTE_13
 70
     0
 10
0.0
 20
0.0
 30
0.0
  3
SW_NOTE_13
  1

  0
LINE
  5
390
330
38D
100
AcDbEntity
  8
RIQUADRO
 62
     0
100
AcDbLine
 10
-69.7732997481
 20
0.0
 30
0.0
 11
0.0
 21
0.0
 31
0.0
  0
LINE
  5
391
330
38D
100
AcDbEntity
  8
RIQUADRO
 62
     0
100
AcDbLine
 10
0.0
 20
0.0
 30
0.0
 11
-69.7732997481
 21
0.0
 31
0.0
  0
LINE
  5
392
330
38D
100
AcDbEntity
  8
RIQUADRO
 62
     0
100
AcDbLine
 10
-69.7732997481
 20
0.0
 30
0.0
 11
0.0
 21
0.0
 31
0.0
  0
LINE
  5
393
330
38D
100
AcDbEntity
  8
RIQUADRO
 62
     0
100
AcDbLine
 10
0.0
 20
0.0
 30
0.0
 11
-69.7732997481
 21
0.0
 31
0.0
  0
LINE
  5
394
330
38D
100
AcDbEntity
  8
RIQUADRO
 62
     0
100
AcDbLine
 10
-69.7732997481
 20
0.0
 30
0.0
 11
0.0
 21
0.0
 31
0.0
  0
LINE
  5
395
330
38D
100
AcDbEntity
  8
RIQUADRO
 62
     0
100
AcDbLine
 10
0.0
 20
0.0
 30
0.0
 11
-69.7732997481
 21
0.0
 31
0.0
  0
MTEXT
  5
396
330
38D
100
AcDbEntity
  8
RIQUADRO
 62
     0
100
AcDbMText
 10
-69.7099691502
 20
17.8479289168
 30
0.0
 40
7.0
 41
0.0
 71
     1
 72
     1
  1
%%c
  7
SLDTEXTSTYLE1
  0
MTEXT
  5
398
330
38D
100
AcDbEntity
  8
RIQUADRO
 62
     0
100
AcDbMText
 10
-59.1530943534
 20
17.8479289168
 30
0.0
 40
7.0
 41
0.0
 71
     1
 72
     1
  1
4 F6
  7
SLDTEXTSTYLE4
  0
MTEXT
  5
399
330
38D
100
AcDbEntity
  8
RIQUADRO
 62
     0
100
AcDbMText
 10
-69.7099691502
 20
8.7965398559
 30
0.0
 40
7.0
 41
0.0
 71
     1
 72
     1
  1
dowelling holes
  7
SLDTEXTSTYLE1
  0
ENDBLK
  5
38F
330
38D
100
AcDbEntity
  8
0
100
AcDbBlockEnd
  0
BLOCK
  5
3BD
330
3BC
100
AcDbEntity
  8
0
100
AcDbBlockBegin
  2
_D_9
 70
     0
 10
0.0
 20
0.0
 30
0.0
  3
_D_9
  1

  0
INSERT
  5
3BF
330
3BC
100
AcDbEntity
  8
RIQUADRO
100
AcDbBlockReference
  2
_CLOSED
 10
140.5391280224
 20
433.1264178811
 30
-7.15
 41
5.0
 42
5.0
 50
0.0
  0
INSERT
  5
3C0
330
3BC
100
AcDbEntity
  8
RIQUADRO
100
AcDbBlockReference
  2
_CLOSED
 10
70.5391280224
 20
433.1264178811
 30
-7.15
 41
5.0
 42
5.0
 50
180.0
  0
LINE
  5
3C1
330
3BC
100
AcDbEntity
  8
RIQUADRO
100
AcDbLine
 10
140.5391280224
 20
448.0782918556
 30
0.0
 11
140.5391280224
 21
431.1264178811
 31
0.0
  0
LINE
  5
3C2
330
3BC
100
AcDbEntity
  8
RIQUADRO
100
AcDbLine
 10
70.5391280224
 20
448.0782918556
 30
0.0
 11
70.5391280224
 21
431.1264178811
 31
0.0
  0
LINE
  5
3C3
330
3BC
100
AcDbEntity
  8
RIQUADRO
100
AcDbLine
 10
140.5391280224
 20
433.1264178811
 30
0.0
 11
70.5391280224
 21
433.1264178811
 31
0.0
  0
MTEXT
  5
3C4
330
3BC
100
AcDbEntity
  8
RIQUADRO
100
AcDbMText
 10
99.213767198
 20
442.1498917102
 30
0.0
 40
7.0
 41
0.0
 71
     1
 72
     1
  1
70
  7
SLDTEXTSTYLE1
  0
ENDBLK
  5
3BE
330
3BC
100
AcDbEntity
  8
0
100
AcDbBlockEnd
  0
BLOCK
  5
3C7
330
3C6
100
AcDbEntity
  8
0
100
AcDbBlockBegin
  2
_D_10
 70
     0
 10
0.0
 20
0.0
 30
0.0
  3
_D_10
  1

  0
INSERT
  5
3C9
330
3C6
100
AcDbEntity
  8
RIQUADRO
100
AcDbBlockReference
  2
_CLOSED
 10
160.5391280224
 20
413.5907483986
 30
-7.15
 41
5.0
 42
5.0
 50
0.0
  0
INSERT
  5
3CA
330
3C6
100
AcDbEntity
  8
RIQUADRO
100
AcDbBlockReference
  2
_CLOSED
 10
50.5391280224
 20
413.5907483986
 30
-7.15
 41
5.0
 42
5.0
 50
180.0
  0
LINE
  5
3CB
330
3C6
100
AcDbEntity
  8
RIQUADRO
100
AcDbLine
 10
160.5391280224
 20
448.3282918556
 30
0.0
 11
160.5391280224
 21
411.5907483986
 31
0.0
  0
LINE
  5
3CC
330
3C6
100
AcDbEntity
  8
RIQUADRO
100
AcDbLine
 10
50.5391280224
 20
448.3282918556
 30
0.0
 11
50.5391280224
 21
411.5907483986
 31
0.0
  0
LINE
  5
3CD
330
3C6
100
AcDbEntity
  8
RIQUADRO
100
AcDbLine
 10
160.5391280224
 20
413.5907483986
 30
0.0
 11
50.5391280224
 21
413.5907483986
 31
0.0
  0
MTEXT
  5
3CE
330
3C6
100
AcDbEntity
  8
RIQUADRO
100
AcDbMText
 10
95.3252746138
 20
422.6142222277
 30
0.0
 40
7.0
 41
0.0
 71
     1
 72
     1
  1
110
  7
SLDTEXTSTYLE1
  0
ENDBLK
  5
3C8
330
3C6
100
AcDbEntity
  8
0
100
AcDbBlockEnd
  0
BLOCK
  5
3D1
330
3D0
100
AcDbEntity
  8
0
100
AcDbBlockBegin
  2
_D_11
 70
     0
 10
0.0
 20
0.0
 30
0.0
  3
_D_11
  1

  0
INSERT
  5
3D3
330
3D0
100
AcDbEntity
  8
RIQUADRO
100
AcDbBlockReference
  2
_CLOSED
 10
140.5391280224
 20
488.8030759061
 30
-7.15
 41
5.0
 42
5.0
 50
0.0
  0
INSERT
  5
3D4
330
3D0
100
AcDbEntity
  8
RIQUADRO
100
AcDbBlockReference
  2
_CLOSED
 10
105.5391280224
 20
488.8030759061
 30
-7.15
 41
5.0
 42
5.0
 50
180.0
  0
LINE
  5
3D5
330
3D0
100
AcDbEntity
  8
RIQUADRO
100
AcDbLine
 10
140.5391280224
 20
461.5782918556
 30
0.0
 11
140.5391280224
 21
490.8030759061
 31
0.0
  0
LINE
  5
3D6
330
3D0
100
AcDbEntity
  8
RIQUADRO
100
AcDbLine
 10
105.5391280224
 20
475.3282918556
 30
0.0
 11
105.5391280224
 21
490.8030759061
 31
0.0
  0
LINE
  5
3D7
330
3D0
100
AcDbEntity
  8
RIQUADRO
100
AcDbLine
 10
140.5391280224
 20
488.8030759061
 30
0.0
 11
105.5391280224
 21
488.8030759061
 31
0.0
  0
MTEXT
  5
3D8
330
3D0
100
AcDbEntity
  8
RIQUADRO
100
AcDbMText
 10
121.6797871028
 20
497.8265497353
 30
0.0
 40
7.0
 41
0.0
 71
     1
 72
     1
  1
35
  7
SLDTEXTSTYLE1
  0
ENDBLK
  5
3D2
330
3D0
100
AcDbEntity
  8
0
100
AcDbBlockEnd
  0
BLOCK
  5
3DB
330
3DA
100
AcDbEntity
  8
0
100
AcDbBlockBegin
  2
_D_12
 70
     0
 10
0.0
 20
0.0
 30
0.0
  3
_D_12
  1

  0
INSERT
  5
3DD
330
3DA
100
AcDbEntity
  8
RIQUADRO
100
AcDbBlockReference
  2
_CLOSED
 10
105.5391280224
 20
507.7631508972
 30
-7.15
 41
5.0
 42
5.0
 50
180.0
  0
INSERT
  5
3DE
330
3DA
100
AcDbEntity
  8
RIQUADRO
100
AcDbBlockReference
  2
_CLOSED
 10
160.5391280224
 20
507.7631508972
 30
-7.15
 41
5.0
 42
5.0
 50
0.0
  0
LINE
  5
3DF
330
3DA
100
AcDbEntity
  8
RIQUADRO
100
AcDbLine
 10
105.5391280224
 20
475.3282918556
 30
0.0
 11
105.5391280224
 21
509.7631508972
 31
0.0
  0
LINE
  5
3E0
330
3DA
100
AcDbEntity
  8
RIQUADRO
100
AcDbLine
 10
160.5391280224
 20
461.3282918556
 30
0.0
 11
160.5391280224
 21
509.7631508972
 31
0.0
  0
LINE
  5
3E1
330
3DA
100
AcDbEntity
  8
RIQUADRO
100
AcDbLine
 10
105.5391280224
 20
507.7631508972
 30
0.0
 11
160.5391280224
 21
507.7631508972
 31
0.0
  0
MTEXT
  5
3E2
330
3DA
100
AcDbEntity
  8
RIQUADRO
100
AcDbMText
 10
134.7035667578
 20
516.7866247264
 30
0.0
 40
7.0
 41
0.0
 71
     1
 72
     1
  1
55
  7
SLDTEXTSTYLE1
  0
ENDBLK
  5
3DC
330
3DA
100
AcDbEntity
  8
0
100
AcDbBlockEnd
  0
BLOCK
  5
3E5
330
3E4
100
AcDbEntity
  8
0
100
AcDbBlockBegin
  2
_D_13
 70
     0
 10
0.0
 20
0.0
 30
0.0
  3
_D_13
  1

  0
INSERT
  5
3E7
330
3E4
100
AcDbEntity
  8
RIQUADRO
100
AcDbBlockReference
  2
_CLOSED
 10
190.870545229
 20
454.8282918556
 30
-7.15
 41
5.0
 42
5.0
 50
90.0
  0
INSERT
  5
3E8
330
3E4
100
AcDbEntity
  8
RIQUADRO
100
AcDbBlockReference
  2
_CLOSED
 10
190.870545229
 20
449.8282918556
 30
-7.15
 41
5.0
 42
5.0
 50
270.0
  0
LINE
  5
3E9
330
3E4
100
AcDbEntity
  8
RIQUADRO
100
AcDbLine
 10
167.0391280224
 20
454.8282918556
 30
0.0
 11
192.870545229
 21
454.8282918556
 31
0.0
  0
LINE
  5
3EA
330
3E4
100
AcDbEntity
  8
RIQUADRO
100
AcDbLine
 10
171.5391280224
 20
449.8282918556
 30
0.0
 11
192.870545229
 21
449.8282918556
 31
0.0
  0
LINE
  5
3EB
330
3E4
100
AcDbEntity
  8
RIQUADRO
100
AcDbLine
 10
190.870545229
 20
454.8282918556
 30
0.0
 11
190.870545229
 21
476.6383062674
 31
0.0
  0
LINE
  5
3EC
330
3E4
100
AcDbEntity
  8
RIQUADRO
100
AcDbLine
 10
190.870545229
 20
454.8282918556
 30
0.0
 11
190.870545229
 21
449.8282918556
 31
0.0
  0
MTEXT
  5
3ED
330
3E4
100
AcDbEntity
  8
RIQUADRO
100
AcDbMText
 10
181.8470713998
 20
468.300854401
 30
0.0
 40
7.0
 41
0.0
 71
     1
 72
     1
  1
5
  7
SLDTEXTSTYLE1
 11
-7.044195017643634E-15
 21
1.0
 31
0.0
  0
ENDBLK
  5
3E6
330
3E4
100
AcDbEntity
  8
0
100
AcDbBlockEnd
  0
BLOCK
  5
3EF
330
3EE
100
AcDbEntity
  8
0
100
AcDbBlockBegin
  2
SW_CENTERMARKSYMBOL_0
 70
     0
 10
0.0
 20
0.0
 30
0.0
  3
SW_CENTERMARKSYMBOL_0
  1

  0
LINE
  5
3F1
330
3EE
100
AcDbEntity
  8
RIQUADRO
 62
     0
100
AcDbLine
 10
0.0
 20
0.0
 30
0.0
 11
0.0
 21
2.5
 31
0.0
  0
LINE
  5
3F2
330
3EE
100
AcDbEntity
  8
RIQUADRO
 62
     0
100
AcDbLine
 10
0.0
 20
0.0
 30
0.0
 11
-2.5
 21
0.0
 31
0.0
  0
LINE
  5
3F3
330
3EE
100
AcDbEntity
  8
RIQUADRO
 62
     0
100
AcDbLine
 10
0.0
 20
0.0
 30
0.0
 11
0.0
 21
-2.5
 31
0.0
  0
LINE
  5
3F4
330
3EE
100
AcDbEntity
  8
RIQUADRO
 62
     0
100
AcDbLine
 10
0.0
 20
0.0
 30
0.0
 11
2.5
 21
0.0
 31
0.0
  0
LINE
  5
3F5
330
3EE
100
AcDbEntity
  8
RIQUADRO
 62
     0
100
AcDbLine
 10
0.0
 20
2.5
 30
0.0
 11
0.0
 21
4.75
 31
0.0
  0
LINE
  5
3F6
330
3EE
100
AcDbEntity
  8
RIQUADRO
 62
     0
100
AcDbLine
 10
-2.5
 20
0.0
 30
0.0
 11
-4.75
 21
0.0
 31
0.0
  0
LINE
  5
3F7
330
3EE
100
AcDbEntity
  8
RIQUADRO
 62
     0
100
AcDbLine
 10
0.0
 20
-2.5
 30
0.0
 11
0.0
 21
-4.75
 31
0.0
  0
LINE
  5
3F8
330
3EE
100
AcDbEntity
  8
RIQUADRO
 62
     0
100
AcDbLine
 10
2.5
 20
0.0
 30
0.0
 11
4.75
 21
0.0
 31
0.0
  0
ENDBLK
  5
3F0
330
3EE
100
AcDbEntity
  8
0
100
AcDbBlockEnd
  0
BLOCK
  5
3FB
330
3FA
100
AcDbEntity
  8
0
100
AcDbBlockBegin
  2
SW_CENTERMARKSYMBOL_1
 70
     0
 10
0.0
 20
0.0
 30
0.0
  3
SW_CENTERMARKSYMBOL_1
  1

  0
LINE
  5
3FD
330
3FA
100
AcDbEntity
  8
RIQUADRO
 62
     0
100
AcDbLine
 10
0.0
 20
0.0
 30
0.0
 11
0.0
 21
2.5
 31
0.0
  0
LINE
  5
3FE
330
3FA
100
AcDbEntity
  8
RIQUADRO
 62
     0
100
AcDbLine
 10
0.0
 20
0.0
 30
0.0
 11
-2.5
 21
0.0
 31
0.0
  0
LINE
  5
3FF
330
3FA
100
AcDbEntity
  8
RIQUADRO
 62
     0
100
AcDbLine
 10
0.0
 20
0.0
 30
0.0
 11
0.0
 21
-2.5
 31
0.0
  0
LINE
  5
400
330
3FA
100
AcDbEntity
  8
RIQUADRO
 62
     0
100
AcDbLine
 10
0.0
 20
0.0
 30
0.0
 11
2.5
 21
0.0
 31
0.0
  0
LINE
  5
401
330
3FA
100
AcDbEntity
  8
RIQUADRO
 62
     0
100
AcDbLine
 10
0.0
 20
2.5
 30
0.0
 11
0.0
 21
4.5
 31
0.0
  0
LINE
  5
402
330
3FA
100
AcDbEntity
  8
RIQUADRO
 62
     0
100
AcDbLine
 10
-2.5
 20
0.0
 30
0.0
 11
-4.5
 21
0.0
 31
0.0
  0
LINE
  5
403
330
3FA
100
AcDbEntity
  8
RIQUADRO
 62
     0
100
AcDbLine
 10
0.0
 20
-2.5
 30
0.0
 11
0.0
 21
-4.5
 31
0.0
  0
LINE
  5
404
330
3FA
100
AcDbEntity
  8
RIQUADRO
 62
     0
100
AcDbLine
 10
2.5
 20
0.0
 30
0.0
 11
4.5
 21
0.0
 31
0.0
  0
ENDBLK
  5
3FC
330
3FA
100
AcDbEntity
  8
0
100
AcDbBlockEnd
  0
BLOCK
  5
407
330
406
100
AcDbEntity
  8
0
100
AcDbBlockBegin
  2
SW_CENTERMARKSYMBOL_2
 70
     0
 10
0.0
 20
0.0
 30
0.0
  3
SW_CENTERMARKSYMBOL_2
  1

  0
LINE
  5
409
330
406
100
AcDbEntity
  8
RIQUADRO
 62
     0
100
AcDbLine
 10
0.0
 20
0.0
 30
0.0
 11
0.0
 21
2.5
 31
0.0
  0
LINE
  5
40A
330
406
100
AcDbEntity
  8
RIQUADRO
 62
     0
100
AcDbLine
 10
0.0
 20
0.0
 30
0.0
 11
-2.5
 21
0.0
 31
0.0
  0
LINE
  5
40B
330
406
100
AcDbEntity
  8
RIQUADRO
 62
     0
100
AcDbLine
 10
0.0
 20
0.0
 30
0.0
 11
0.0
 21
-2.5
 31
0.0
  0
LINE
  5
40C
330
406
100
AcDbEntity
  8
RIQUADRO
 62
     0
100
AcDbLine
 10
0.0
 20
0.0
 30
0.0
 11
2.5
 21
0.0
 31
0.0
  0
LINE
  5
40D
330
406
100
AcDbEntity
  8
RIQUADRO
 62
     0
100
AcDbLine
 10
0.0
 20
2.5
 30
0.0
 11
0.0
 21
4.75
 31
0.0
  0
LINE
  5
40E
330
406
100
AcDbEntity
  8
RIQUADRO
 62
     0
100
AcDbLine
 10
-2.5
 20
0.0
 30
0.0
 11
-4.75
 21
0.0
 31
0.0
  0
LINE
  5
40F
330
406
100
AcDbEntity
  8
RIQUADRO
 62
     0
100
AcDbLine
 10
0.0
 20
-2.5
 30
0.0
 11
0.0
 21
-4.75
 31
0.0
  0
LINE
  5
410
330
406
100
AcDbEntity
  8
RIQUADRO
 62
     0
100
AcDbLine
 10
2.5
 20
0.0
 30
0.0
 11
4.75
 21
0.0
 31
0.0
  0
ENDBLK
  5
408
330
406
100
AcDbEntity
  8
0
100
AcDbBlockEnd
  0
BLOCK
  5
413
330
412
100
AcDbEntity
  8
0
100
AcDbBlockBegin
  2
SW_CENTERMARKSYMBOL_3
 70
     0
 10
0.0
 20
0.0
 30
0.0
  3
SW_CENTERMARKSYMBOL_3
  1

  0
LINE
  5
415
330
412
100
AcDbEntity
  8
RIQUADRO
 62
     0
100
AcDbLine
 10
0.0
 20
0.0
 30
0.0
 11
0.0
 21
2.5
 31
0.0
  0
LINE
  5
416
330
412
100
AcDbEntity
  8
RIQUADRO
 62
     0
100
AcDbLine
 10
0.0
 20
0.0
 30
0.0
 11
-2.5
 21
0.0
 31
0.0
  0
LINE
  5
417
330
412
100
AcDbEntity
  8
RIQUADRO
 62
     0
100
AcDbLine
 10
0.0
 20
0.0
 30
0.0
 11
0.0
 21
-2.5
 31
0.0
  0
LINE
  5
418
330
412
100
AcDbEntity
  8
RIQUADRO
 62
     0
100
AcDbLine
 10
0.0
 20
0.0
 30
0.0
 11
2.5
 21
0.0
 31
0.0
  0
LINE
  5
419
330
412
100
AcDbEntity
  8
RIQUADRO
 62
     0
100
AcDbLine
 10
0.0
 20
2.5
 30
0.0
 11
0.0
 21
4.5
 31
0.0
  0
LINE
  5
41A
330
412
100
AcDbEntity
  8
RIQUADRO
 62
     0
100
AcDbLine
 10
-2.5
 20
0.0
 30
0.0
 11
-4.5
 21
0.0
 31
0.0
  0
LINE
  5
41B
330
412
100
AcDbEntity
  8
RIQUADRO
 62
     0
100
AcDbLine
 10
0.0
 20
-2.5
 30
0.0
 11
0.0
 21
-4.5
 31
0.0
  0
LINE
  5
41C
330
412
100
AcDbEntity
  8
RIQUADRO
 62
     0
100
AcDbLine
 10
2.5
 20
0.0
 30
0.0
 11
4.5
 21
0.0
 31
0.0
  0
ENDBLK
  5
414
330
412
100
AcDbEntity
  8
0
100
AcDbBlockEnd
  0
ENDSEC
  0
SECTION
  2
ENTITIES
  0
LINE
  5
4B
330
1F
100
AcDbEntity
  8
RIQUADRO
100
AcDbLine
 10
400.1835431894
 20
298.2988565547
 30
0.0
 11
410.1835431894
 21
298.2988565547
 31
0.0
  0
LINE
  5
4C
330
1F
100
AcDbEntity
  8
RIQUADRO
100
AcDbLine
 10
113.2145228573
 20
565.2988565547
 30
0.0
 11
113.2145228573
 21
577.2988565547
 31
0.0
  0
LINE
  5
4D
330
1F
100
AcDbEntity
  8
RIQUADRO
100
AcDbLine
 10
210.0868343691
 20
565.2988565547
 30
0.0
 11
210.0868343691
 21
577.2988565547
 31
0.0
  0
LINE
  5
4E
330
1F
100
AcDbEntity
  8
RIQUADRO
100
AcDbLine
 10
306.5329076675
 20
565.2988565547
 30
0.0
 11
306.5329076675
 21
577.2988565547
 31
0.0
  0
LINE
  5
4F
330
1F
100
AcDbEntity
  8
RIQUADRO
100
AcDbLine
 10
399.7607482438
 20
565.2988565547
 30
0.0
 11
399.7607482438
 21
577.2988565547
 31
0.0
  0
LINE
  5
50
330
1F
100
AcDbEntity
  8
RIQUADRO
100
AcDbLine
 10
18.1835431894
 20
565.2988565547
 30
0.0
 11
410.1835431894
 21
565.2988565547
 31
0.0
  0
LINE
  5
51
330
1F
100
AcDbEntity
  8
RIQUADRO
100
AcDbLine
 10
399.7607482438
 20
31.2988703404
 30
0.0
 11
399.7607482438
 21
21.2988565547
 31
0.0
  0
LINE
  5
52
330
1F
100
AcDbEntity
  8
RIQUADRO
100
AcDbLine
 10
143.1371630249
 20
83.2988565547
 30
0.0
 11
143.1371630249
 21
41.2988565547
 31
0.0
  0
LINE
  5
53
330
1F
100
AcDbEntity
  8
RIQUADRO
100
AcDbLine
 10
18.1835431894
 20
31.2988703404
 30
0.0
 11
399.7607482438
 21
31.2988703404
 31
0.0
  0
LINE
  5
54
330
1F
100
AcDbEntity
  8
RIQUADRO
100
AcDbLine
 10
210.2762313953
 20
74.2988565547
 30
0.0
 11
210.2762313953
 21
41.2988565547
 31
0.0
  0
LINE
  5
55
330
1F
100
AcDbEntity
  8
RIQUADRO
  6
CONTINUOUS
 62
     7
100
AcDbLine
 10
418.1835431894
 20
11.2988565547
 30
0.0
 11
398.1835431894
 21
11.2988565547
 31
0.0
  0
LINE
  5
56
330
1F
100
AcDbEntity
  8
RIQUADRO
  6
CONTINUOUS
 62
     7
100
AcDbLine
 10
418.1835431894
 20
11.2988565547
 30
0.0
 11
418.1835431894
 21
31.2988565547
 31
0.0
  0
LINE
  5
57
330
1F
100
AcDbEntity
  8
CONTORNO
  6
CONTINUOUS
 62
     7
100
AcDbLine
 10
418.1835431894
 20
585.2988565547
 30
0.0
 11
418.1835431894
 21
565.2988565547
 31
0.0
  0
LINE
  5
58
330
1F
100
AcDbEntity
  8
CONTORNO
  6
CONTINUOUS
 62
     7
100
AcDbLine
 10
418.1835431894
 20
585.2988565547
 30
0.0
 11
398.1835431894
 21
585.2988565547
 31
0.0
  0
LINE
  5
59
330
1F
100
AcDbEntity
  8
RIQUADRO
100
AcDbLine
 10
18.1835431894
 20
565.2988565547
 30
0.0
 11
18.1835431894
 21
577.2988565547
 31
0.0
  0
LINE
  5
5A
330
1F
100
AcDbEntity
  8
RIQUADRO
100
AcDbLine
 10
8.1835431894
 20
21.2988565547
 30
0.0
 11
410.1835431894
 21
21.2988565547
 31
0.0
  0
LINE
  5
5B
330
1F
100
AcDbEntity
  8
RIQUADRO
100
AcDbLine
 10
410.1835431894
 20
577.2988565547
 30
0.0
 11
410.1835431894
 21
21.2988565547
 31
0.0
  0
LINE
  5
5C
330
1F
100
AcDbEntity
  8
RIQUADRO
100
AcDbLine
 10
8.1835431894
 20
577.2988565547
 30
0.0
 11
410.1835431894
 21
577.2988565547
 31
0.0
  0
LINE
  5
5D
330
1F
100
AcDbEntity
  8
CONTORNO
100
AcDbLine
 10
18.1835431894
 20
565.2988565547
 30
0.0
 11
18.1835431894
 21
31.2988703404
 31
0.0
  0
LINE
  5
5E
330
1F
100
AcDbEntity
  8
CARTIGLIO
100
AcDbLine
 10
40.1835431894
 20
31.2988565547
 30
0.0
 11
410.1835431894
 21
31.2988565547
 31
0.0
  0
LINE
  5
5F
330
1F
100
AcDbEntity
  8
RIQUADRO
100
AcDbLine
 10
400.1835431894
 20
431.7988565547
 30
0.0
 11
399.7607482438
 21
431.7988565547
 31
0.0
  0
LINE
  5
60
330
1F
100
AcDbEntity
  8
RIQUADRO
100
AcDbLine
 10
18.1835431894
 20
565.2988565547
 30
0.0
 11
8.1835431894
 21
565.2988565547
 31
0.0
  0
LINE
  5
61
330
1F
100
AcDbEntity
  8
CARTIGLIO
100
AcDbLine
 10
399.7607482438
 20
151.2988565547
 30
0.0
 11
40.1835431894
 21
151.2988565547
 31
0.0
  0
LINE
  5
62
330
1F
100
AcDbEntity
  8
CARTIGLIO
100
AcDbLine
 10
40.1835431894
 20
151.2988565547
 30
0.0
 11
40.1835431894
 21
31.2988565547
 31
0.0
  0
LINE
  5
63
330
1F
100
AcDbEntity
  8
CARTIGLIO
100
AcDbLine
 10
400.1835431894
 20
117.2988565547
 30
0.0
 11
40.1835431894
 21
117.2988565547
 31
0.0
  0
LINE
  5
64
330
1F
100
AcDbEntity
  8
CARTIGLIO
100
AcDbLine
 10
400.1835431894
 20
41.2988565547
 30
0.0
 11
40.1835431894
 21
41.2988565547
 31
0.0
  0
LINE
  5
65
330
1F
100
AcDbEntity
  8
CARTIGLIO
100
AcDbLine
 10
400.1835431894
 20
52.2988565547
 30
0.0
 11
260.1319752348
 21
52.2988565547
 31
0.0
  0
LINE
  5
66
330
1F
100
AcDbEntity
  8
CARTIGLIO
100
AcDbLine
 10
260.1319752348
 20
151.2988565547
 30
0.0
 11
260.1319752348
 21
41.2988565547
 31
0.0
  0
LINE
  5
67
330
1F
100
AcDbEntity
  8
CARTIGLIO
100
AcDbLine
 10
400.1835431894
 20
83.2988565547
 30
0.0
 11
40.1835431894
 21
83.2988565547
 31
0.0
  0
LINE
  5
68
330
1F
100
AcDbEntity
  8
CARTIGLIO
100
AcDbLine
 10
380.7828753262
 20
83.2988565547
 30
0.0
 11
380.7828753262
 21
52.2988565547
 31
0.0
  0
LINE
  5
69
330
1F
100
AcDbEntity
  8
RIQUADRO
100
AcDbLine
 10
212.6028327745
 20
151.2988565547
 30
0.0
 11
212.6028327745
 21
117.2988565547
 31
0.0
  0
LINE
  5
6A
330
1F
100
AcDbEntity
  8
CARTIGLIO
100
AcDbLine
 10
399.7607482438
 20
151.2988565547
 30
0.0
 11
399.7607482438
 21
31.2988703404
 31
0.0
  0
LINE
  5
6B
330
1F
100
AcDbEntity
  8
RIQUADRO
100
AcDbLine
 10
18.1835431894
 20
31.2988703404
 30
0.0
 11
18.1835431894
 21
21.2988565547
 31
0.0
  0
LINE
  5
6C
330
1F
100
AcDbEntity
  8
PROIEZ
  6
CENTERX2
100
AcDbLine
 10
236.4029477153
 20
133.8845952643
 30
0.0
 11
259.1714715172
 21
133.8845952643
 31
0.0
  0
LINE
  5
6D
330
1F
100
AcDbEntity
  8
PROIEZ
  6
CENTERX2
100
AcDbLine
 10
247.7872096162
 20
145.2688571652
 30
0.0
 11
247.7872096162
 21
122.5003333633
 31
0.0
  0
LINE
  5
6E
330
1F
100
AcDbEntity
  8
CONTORNO
  6
CONTINUOUS
 62
     7
100
AcDbLine
 10
2.1519982438
 20
11.2988565547
 30
0.0
 11
2.1519982438
 21
31.2988565547
 31
0.0
  0
LINE
  5
6F
330
1F
100
AcDbEntity
  8
CONTORNO
  6
CONTINUOUS
 62
     7
100
AcDbLine
 10
2.1519982438
 20
11.2988565547
 30
0.0
 11
22.1519982438
 21
11.2988565547
 31
0.0
  0
LINE
  5
70
330
1F
100
AcDbEntity
  8
PROIEZ
  6
CONTINUOUS
 62
    16
100
AcDbLine
 10
229.7132161386
 20
125.4911402712
 30
0.0
 11
229.7132161386
 21
142.2780502574
 31
0.0
  0
LINE
  5
71
330
1F
100
AcDbEntity
  8
PROIEZ
  6
CENTERX2
100
AcDbLine
 10
232.3688962644
 20
133.8845952643
 30
0.0
 11
215.7132161386
 21
133.8845952643
 31
0.0
  0
LINE
  5
72
330
1F
100
AcDbEntity
  8
PROIEZ
  6
CONTINUOUS
 62
    16
100
AcDbLine
 10
215.7132161386
 20
129.4911402712
 30
0.0
 11
215.7132161386
 21
138.2780502574
 31
0.0
  0
LINE
  5
73
330
1F
100
AcDbEntity
  8
PROIEZ
100
AcDbLine
 10
215.7132161386
 20
129.4911402712
 30
0.0
 11
229.7132161386
 21
125.4911402712
 31
0.0
  0
LINE
  5
74
330
1F
100
AcDbEntity
  8
PROIEZ
  6
CONTINUOUS
 62
    16
100
AcDbLine
 10
215.7132161386
 20
138.2780502574
 30
0.0
 11
229.7132161386
 21
142.2780502574
 31
0.0
  0
LINE
  5
75
330
1F
100
AcDbEntity
  8
RIQUADRO
100
AcDbLine
 10
18.1835431894
 20
31.2988703404
 30
0.0
 11
8.1835431894
 21
31.2988703404
 31
0.0
  0
LINE
  5
76
330
1F
100
AcDbEntity
  8
RIQUADRO
100
AcDbLine
 10
400.1835431894
 20
298.2988565547
 30
0.0
 11
399.7607482438
 21
298.2988565547
 31
0.0
  0
LINE
  5
77
330
1F
100
AcDbEntity
  8
RIQUADRO
100
AcDbLine
 10
400.1835431894
 20
164.7988565547
 30
0.0
 11
399.7607482438
 21
164.7988565547
 31
0.0
  0
LINE
  5
78
330
1F
100
AcDbEntity
  8
RIQUADRO
100
AcDbLine
 10
113.2145228573
 20
31.2988703404
 30
0.0
 11
113.2145228573
 21
21.2988565547
 31
0.0
  0
LINE
  5
79
330
1F
100
AcDbEntity
  8
RIQUADRO
100
AcDbLine
 10
209.1835431894
 20
31.2988703404
 30
0.0
 11
209.1835431894
 21
21.2988565547
 31
0.0
  0
LINE
  5
7A
330
1F
100
AcDbEntity
  8
RIQUADRO
100
AcDbLine
 10
306.5329076675
 20
31.2988703404
 30
0.0
 11
306.5329076675
 21
21.2988565547
 31
0.0
  0
LINE
  5
7B
330
1F
100
AcDbEntity
  8
RIQUADRO
100
AcDbLine
 10
18.1835431894
 20
431.7988565547
 30
0.0
 11
8.1835431894
 21
431.7988565547
 31
0.0
  0
LINE
  5
7C
330
1F
100
AcDbEntity
  8
RIQUADRO
100
AcDbLine
 10
18.1835431894
 20
298.2988565547
 30
0.0
 11
8.1835431894
 21
298.2988565547
 31
0.0
  0
LINE
  5
7D
330
1F
100
AcDbEntity
  8
RIQUADRO
100
AcDbLine
 10
18.1835431894
 20
164.7988565547
 30
0.0
 11
8.1835431894
 21
164.7988565547
 31
0.0
  0
LINE
  5
7E
330
1F
100
AcDbEntity
  8
CARTIGLIO
100
AcDbLine
 10
260.1319752348
 20
136.2008746317
 30
0.0
 11
400.1835431894
 21
136.2008746317
 31
0.0
  0
LINE
  5
7F
330
1F
100
AcDbEntity
  8
CARTIGLIO
100
AcDbLine
 10
212.6028327745
 20
134.2988565547
 30
0.0
 11
40.1835431894
 21
134.2988565547
 31
0.0
  0
LINE
  5
80
330
1F
100
AcDbEntity
  8
CARTIGLIO
100
AcDbLine
 10
192.1835431894
 20
117.2988565547
 30
0.0
 11
192.1835431894
 21
83.2988565547
 31
0.0
  0
LINE
  5
81
330
1F
100
AcDbEntity
  8
CARTIGLIO
100
AcDbLine
 10
192.1835431894
 20
100.2988565547
 30
0.0
 11
260.1319752348
 21
100.2988565547
 31
0.0
  0
LINE
  5
82
330
1F
100
AcDbEntity
  8
CARTIGLIO
100
AcDbLine
 10
234.3969475346
 20
117.2988565547
 30
0.0
 11
234.3969475346
 21
83.2988565547
 31
0.0
  0
LINE
  5
83
330
1F
100
AcDbEntity
  8
CARTIGLIO
100
AcDbLine
 10
192.1835431894
 20
103.2988565547
 30
0.0
 11
40.1835431894
 21
103.2988565547
 31
0.0
  0
LINE
  5
84
330
1F
100
AcDbEntity
  8
CARTIGLIO
100
AcDbLine
 10
192.1835431894
 20
91.2988565547
 30
0.0
 11
40.1835431894
 21
91.2988565547
 31
0.0
  0
LINE
  5
85
330
1F
100
AcDbEntity
  8
CARTIGLIO
100
AcDbLine
 10
59.1835431894
 20
103.2988565547
 30
0.0
 11
59.1835431894
 21
83.2988565547
 31
0.0
  0
LINE
  5
86
330
1F
100
AcDbEntity
  8
CARTIGLIO
100
AcDbLine
 10
78.1835431894
 20
103.2988565547
 30
0.0
 11
78.1835431894
 21
83.2988565547
 31
0.0
  0
LINE
  5
87
330
1F
100
AcDbEntity
  8
CARTIGLIO
100
AcDbLine
 10
97.1835431894
 20
103.2988565547
 30
0.0
 11
97.1835431894
 21
83.2988565547
 31
0.0
  0
LINE
  5
88
330
1F
100
AcDbEntity
  8
CARTIGLIO
100
AcDbLine
 10
116.1835431894
 20
103.2988565547
 30
0.0
 11
116.1835431894
 21
83.2988565547
 31
0.0
  0
LINE
  5
89
330
1F
100
AcDbEntity
  8
CARTIGLIO
100
AcDbLine
 10
135.1835431894
 20
103.2988565547
 30
0.0
 11
135.1835431894
 21
83.2988565547
 31
0.0
  0
LINE
  5
8A
330
1F
100
AcDbEntity
  8
CARTIGLIO
100
AcDbLine
 10
154.1835431894
 20
103.2988565547
 30
0.0
 11
154.1835431894
 21
83.2988565547
 31
0.0
  0
LINE
  5
8B
330
1F
100
AcDbEntity
  8
CARTIGLIO
100
AcDbLine
 10
173.1835431894
 20
103.2988565547
 30
0.0
 11
173.1835431894
 21
41.2988565547
 31
0.0
  0
LINE
  5
8C
330
1F
100
AcDbEntity
  8
CARTIGLIO
100
AcDbLine
 10
40.1835431894
 20
110.2988565547
 30
0.0
 11
192.1835431894
 21
110.2988565547
 31
0.0
  0
LINE
  5
8D
330
1F
100
AcDbEntity
  8
CARTIGLIO
100
AcDbLine
 10
160.1566835487
 20
117.2988565547
 30
0.0
 11
160.1566835487
 21
103.2988565547
 31
0.0
  0
LINE
  5
8E
330
1F
100
AcDbEntity
  8
CARTIGLIO
100
AcDbLine
 10
177.7329748962
 20
117.2988565547
 30
0.0
 11
177.7329748962
 21
103.2988565547
 31
0.0
  0
LINE
  5
8F
330
1F
100
AcDbEntity
  8
CARTIGLIO
100
AcDbLine
 10
260.1319752348
 20
52.2988565547
 30
0.0
 11
143.1371630249
 21
52.2988565547
 31
0.0
  0
LINE
  5
90
330
1F
100
AcDbEntity
  8
CARTIGLIO
100
AcDbLine
 10
260.1319752348
 20
63.2988565547
 30
0.0
 11
143.1371630249
 21
63.2988565547
 31
0.0
  0
LINE
  5
91
330
1F
100
AcDbEntity
  8
CARTIGLIO
100
AcDbLine
 10
260.1319752348
 20
74.2988565547
 30
0.0
 11
143.1371630249
 21
74.2988565547
 31
0.0
  0
LINE
  5
92
330
1F
100
AcDbEntity
  8
CARTIGLIO
100
AcDbLine
 10
343.0538500759
 20
136.2008746317
 30
0.0
 11
343.0538500759
 21
151.2988565547
 31
0.0
  0
LINE
  5
93
330
1F
100
AcDbEntity
  8
CONTORNO
  6
CONTINUOUS
 62
     7
100
AcDbLine
 10
2.1519982438
 20
585.2988565547
 30
0.0
 11
22.1519982438
 21
585.2988565547
 31
0.0
  0
LINE
  5
94
330
1F
100
AcDbEntity
  8
TABELLA_REV
100
AcDbLine
 10
400.1835431894
 20
523.2988565547
 30
0.0
 11
40.1835431894
 21
523.2988565547
 31
0.0
  0
LINE
  5
95
330
1F
100
AcDbEntity
  8
CONTORNO
  6
CONTINUOUS
 62
     7
100
AcDbLine
 10
2.1519982438
 20
585.2988565547
 30
0.0
 11
2.1519982438
 21
565.2988565547
 31
0.0
  0
LINE
  5
96
330
1F
100
AcDbEntity
  8
CONTORNO
100
AcDbLine
 10
18.1835431894
 20
565.2988565547
 30
0.0
 11
399.7607482438
 21
565.2988565547
 31
0.0
  0
LINE
  5
97
330
1F
100
AcDbEntity
  8
RIQUADRO
100
AcDbLine
 10
400.1835431894
 20
164.7988565547
 30
0.0
 11
410.1835431894
 21
164.7988565547
 31
0.0
  0
LINE
  5
98
330
1F
100
AcDbEntity
  8
RIQUADRO
100
AcDbLine
 10
400.1835431894
 20
431.7988565547
 30
0.0
 11
410.1835431894
 21
431.7988565547
 31
0.0
  0
LINE
  5
99
330
1F
100
AcDbEntity
  8
CONTORNO
100
AcDbLine
 10
399.7607482438
 20
565.2988565547
 30
0.0
 11
399.7607482438
 21
31.2988703404
 31
0.0
  0
LINE
  5
9A
330
1F
100
AcDbEntity
  8
CONTORNO
100
AcDbLine
 10
399.7607482438
 20
31.2988703404
 30
0.0
 11
18.1835431894
 21
31.2988703404
 31
0.0
  0
LINE
  5
9B
330
1F
100
AcDbEntity
  8
RIQUADRO
100
AcDbLine
 10
8.1835431894
 20
577.2988565547
 30
0.0
 11
8.1835431894
 21
21.2988565547
 31
0.0
  0
LINE
  5
9C
330
1F
100
AcDbEntity
  8
TABELLA_REV
100
AcDbLine
 10
40.1835431894
 20
523.2988565547
 30
0.0
 11
40.1835431894
 21
565.2988565547
 31
0.0
  0
LINE
  5
9D
330
1F
100
AcDbEntity
  8
TABELLA_REV
100
AcDbLine
 10
400.1835431894
 20
534.2988565547
 30
0.0
 11
40.1835431894
 21
534.2988565547
 31
0.0
  0
LINE
  5
9E
330
1F
100
AcDbEntity
  8
TABELLA_REV
100
AcDbLine
 10
400.1835431894
 20
545.2988565547
 30
0.0
 11
40.1835431894
 21
545.2988565547
 31
0.0
  0
LINE
  5
9F
330
1F
100
AcDbEntity
  8
TABELLA_REV
100
AcDbLine
 10
400.1835431894
 20
556.2988565547
 30
0.0
 11
40.1835431894
 21
556.2988565547
 31
0.0
  0
LINE
  5
A0
330
1F
100
AcDbEntity
  8
TABELLA_REV
100
AcDbLine
 10
72.1835431894
 20
565.2988565547
 30
0.0
 11
72.1835431894
 21
523.2988565547
 31
0.0
  0
LINE
  5
A1
330
1F
100
AcDbEntity
  8
TABELLA_REV
100
AcDbLine
 10
294.1835431894
 20
565.2988565547
 30
0.0
 11
294.1835431894
 21
523.2988565547
 31
0.0
  0
LINE
  5
A2
330
1F
100
AcDbEntity
  8
TABELLA_REV
100
AcDbLine
 10
340.1835431894
 20
565.2988565547
 30
0.0
 11
340.1835431894
 21
523.2988565547
 31
0.0
  0
CIRCLE
  5
A3
330
1F
100
AcDbEntity
  8
PROIEZ
100
AcDbCircle
 10
247.7872096162
 20
133.8845952643
 30
0.0
 40
7.999999999999999
  0
CIRCLE
  5
A4
330
1F
100
AcDbEntity
  8
PROIEZ
100
AcDbCircle
 10
247.7872096162
 20
133.8845952643
 30
0.0
 40
3.999999999999982
  0
MTEXT
  5
A6
330
1F
100
AcDbEntity
  8
CARTIGLIO
100
AcDbMText
 10
261.2788382008
 20
149.0509295332
 30
0.0
 40
4.0
 41
0.0
 71
     1
 72
     1
  1
Mass
  7
SLDTEXTSTYLE0
  0
MTEXT
  5
A7
330
1F
100
AcDbEntity
  8
CARTIGLIO
100
AcDbMText
 10
263.8476534351
 20
81.5591484776
 30
0.0
 40
4.0
 41
0.0
 71
     1
 72
     1
  1
Drawing No.
  7
SLDTEXTSTYLE0
  0
MTEXT
  5
A8
330
1F
100
AcDbEntity
  8
CARTIGLIO
100
AcDbMText
 10
350.6397793534
 20
149.3017016237
 30
0.0
 40
4.0
 41
0.0
 71
     1
 72
     1
  1
Scale
  7
SLDTEXTSTYLE0
  0
MTEXT
  5
A9
330
1F
100
AcDbEntity
  8
CARTIGLIO
100
AcDbMText
 10
384.0456809494
 20
80.9169280101
 30
0.0
 40
4.0
 41
0.0
 71
     1
 72
     1
  1
Sheet
  7
SLDTEXTSTYLE0
  0
MTEXT
  5
AB
330
1F
100
AcDbEntity
  8
CARTIGLIO
100
AcDbMText
 10
369.4275170731
 20
147.6468801212
 30
0.0
 40
7.0
 41
0.0
 71
     1
 72
     1
  1
1:2
  7
SLDTEXTSTYLE1
  0
MTEXT
  5
AC
330
1F
100
AcDbEntity
  8
CARTIGLIO
100
AcDbMText
 10
286.9532995971
 20
70.2511152748
 30
0.0
 40
9.0
 41
0.0
 71
     1
 72
     1
  1
18954-0-B
  7
SLDTEXTSTYLE1
  0
MTEXT
  5
AD
330
1F
100
AcDbEntity
  8
CARTIGLIO
100
AcDbMText
 10
285.1374655494
 20
148.0957019749
 30
0.0
 40
7.0
 41
0.0
 71
     1
 72
     1
  1
611.2 g
  7
SLDTEXTSTYLE1
  0
MTEXT
  5
AE
330
1F
100
AcDbEntity
  8
CARTIGLIO
100
AcDbMText
 10
384.2044024206
 20
66.0218091578
 30
0.0
 40
7.0
 41
0.0
 71
     1
 72
     1
  1
1/1
  7
SLDTEXTSTYLE1
  0
MTEXT
  5
B0
330
1F
100
AcDbEntity
  8
CARTIGLIO
100
AcDbMText
 10
47.6183151627
 20
38.9668651025
 30
0.0
 40
4.0
 41
0.0
 71
     1
 72
     1
  1
OPTO  ENGINEERING S.r.l.    -   46100 Mantova Italy   -   Via Cremona, 29/2 -   Tel.    +39 0376 229585    - e-mai: info@opto-engineering.com   -   http://www.opto-engineering.com
  7
SLDTEXTSTYLE2
  0
MTEXT
  5
B1
330
1F
100
AcDbEntity
  8
CARTIGLIO
100
AcDbMText
 10
263.5687900466
 20
48.3680396634
 30
0.0
 40
3.8
 41
0.0
 71
     1
 72
     1
  1
Reproduction forbidden without specific authorization
  7
SLDTEXTSTYLE1
  0
MTEXT
  5
B2
330
1F
100
AcDbEntity
  8
CARTIGLIO
100
AcDbMText
 10
262.3297135126
 20
113.3137656857
 30
0.0
 40
4.0
 41
0.0
 71
     1
 72
     1
  1
Description
  7
SLDTEXTSTYLE1
  0
MTEXT
  5
B3
330
1F
100
AcDbEntity
  8
CARTIGLIO
100
AcDbMText
 10
298.1171916735
 20
101.2318590504
 30
0.0
 40
7.0
 41
0.0
 71
     1
 72
     1
  1
CMHO064-096
  7
SLDTEXTSTYLE1
  0
MTEXT
  5
B4
330
1F
100
AcDbEntity
  8
CARTIGLIO
100
AcDbMText
 10
261.2042765316
 20
134.5371790118
 30
0.0
 40
4.0
 41
0.0
 71
     1
 72
     1
  1
Project-Prod.item/Instrument
  7
SLDTEXTSTYLE1
  0
MTEXT
  5
B5
330
1F
100
AcDbEntity
  8
CARTIGLIO
100
AcDbMText
 10
302.9187672008
 20
128.0646064167
 30
0.0
 40
7.0
 41
0.0
 71
     1
 72
     1
  1
CMPH064-096
  7
SLDTEXTSTYLE1
  0
MTEXT
  5
B6
330
1F
100
AcDbEntity
  8
CARTIGLIO
100
AcDbMText
 10
41.3666859829
 20
149.693447389
 30
0.0
 40
4.0
 41
0.0
 71
     1
 72
     1
  1
Material
  7
SLDTEXTSTYLE1
  0
MTEXT
  5
B7
330
1F
100
AcDbEntity
  8
CARTIGLIO
100
AcDbMText
 10
42.3967119344
 20
132.3487187225
 30
0.0
 40
4.0
 41
0.0
 71
     1
 72
     1
  1
Surface treatment
  7
SLDTEXTSTYLE1
  0
INSERT
  5
BD
330
1F
100
AcDbEntity
  8
CARTIGLIO
100
AcDbBlockReference
  2
SW_NOTE_0
 10
193.4889553641
 20
91.988367951
 30
0.0
  0
INSERT
  5
C3
330
1F
100
AcDbEntity
  8
CARTIGLIO
100
AcDbBlockReference
  2
SW_NOTE_1
 10
193.2787386218
 20
107.4201101538
 30
0.0
  0
MTEXT
  5
C5
330
1F
100
AcDbEntity
  8
CARTIGLIO
100
AcDbMText
 10
237.1746647798
 20
95.5465724035
 30
0.0
 40
6.0
 41
0.0
 71
     1
 72
     1
  1
R 0.5
  7
SLDTEXTSTYLE3
  0
MTEXT
  5
C6
330
1F
100
AcDbEntity
  8
CARTIGLIO
100
AcDbMText
 10
236.2179952894
 20
110.8045782394
 30
0.0
 40
6.0
 41
0.0
 71
     1
 72
     1
  1
0.5x45°
  7
SLDTEXTSTYLE1
  0
MTEXT
  5
C7
330
1F
100
AcDbEntity
  8
CARTIGLIO
100
AcDbMText
 10
43.303402468
 20
114.7239592995
 30
0.0
 40
3.0
 41
0.0
 71
     1
 72
     1
  1
Geometrical tolerance (ISO 2768-2)
  7
SLDTEXTSTYLE1
  0
MTEXT
  5
C8
330
1F
100
AcDbEntity
  8
CARTIGLIO
100
AcDbMText
 10
43.6546848082
 20
108.5544816086
 30
0.0
 40
3.0
 41
0.0
 71
     1
 72
     1
  1
Linear tolerance (ISO 2768-2)
  7
SLDTEXTSTYLE1
  0
INSERT
  5
CE
330
1F
100
AcDbEntity
  8
CARTIGLIO
100
AcDbBlockReference
  2
SW_NOTE_2
 10
45.3403997047
 20
97.4518169232
 30
0.0
  0
INSERT
  5
D4
330
1F
100
AcDbEntity
  8
CARTIGLIO
100
AcDbBlockReference
  2
SW_NOTE_3
 10
63.3369220805
 20
96.7735371541
 30
0.0
  0
INSERT
  5
DA
330
1F
100
AcDbEntity
  8
CARTIGLIO
100
AcDbBlockReference
  2
SW_NOTE_4
 10
82.972807437
 20
97.5898517045
 30
0.0
  0
INSERT
  5
E0
330
1F
100
AcDbEntity
  8
CARTIGLIO
100
AcDbBlockReference
  2
SW_NOTE_5
 10
100.6367105746
 20
97.1530070972
 30
0.0
  0
INSERT
  5
E6
330
1F
100
AcDbEntity
  8
CARTIGLIO
100
AcDbBlockReference
  2
SW_NOTE_6
 10
119.3882603514
 20
96.9415429615
 30
0.0
  0
INSERT
  5
EC
330
1F
100
AcDbEntity
  8
CARTIGLIO
100
AcDbBlockReference
  2
SW_NOTE_7
 10
136.858059513
 20
96.8422699251
 30
0.0
  0
INSERT
  5
F2
330
1F
100
AcDbEntity
  8
CARTIGLIO
100
AcDbBlockReference
  2
SW_NOTE_8
 10
156.6550544259
 20
97.2129147328
 30
0.0
  0
INSERT
  5
F8
330
1F
100
AcDbEntity
  8
CARTIGLIO
100
AcDbBlockReference
  2
SW_NOTE_9
 10
175.0536404226
 20
97.0692911661
 30
0.0
  0
MTEXT
  5
F9
330
1F
100
AcDbEntity
  8
CARTIGLIO
100
AcDbMText
 10
43.427278383
 20
89.1696727035
 30
0.0
 40
4.0
 41
0.0
 71
     1
 72
     1
  1
±0.1
  7
SLDTEXTSTYLE1
  0
MTEXT
  5
FA
330
1F
100
AcDbEntity
  8
CARTIGLIO
100
AcDbMText
 10
63.2159174765
 20
88.9182743367
 30
0.0
 40
4.0
 41
0.0
 71
     1
 72
     1
  1
±0.1
  7
SLDTEXTSTYLE1
  0
MTEXT
  5
FB
330
1F
100
AcDbEntity
  8
CARTIGLIO
100
AcDbMText
 10
83.6137739925
 20
89.2385420386
 30
0.0
 40
4.0
 41
0.0
 71
     1
 72
     1
  1
±0.2
  7
SLDTEXTSTYLE1
  0
MTEXT
  5
FC
330
1F
100
AcDbEntity
  8
CARTIGLIO
100
AcDbMText
 10
101.6935218024
 20
89.0153929233
 30
0.0
 40
4.0
 41
0.0
 71
     1
 72
     1
  1
±0.3
  7
SLDTEXTSTYLE1
  0
MTEXT
  5
FD
330
1F
100
AcDbEntity
  8
CARTIGLIO
100
AcDbMText
 10
120.7224527165
 20
89.2394382285
 30
0.0
 40
4.0
 41
0.0
 71
     1
 72
     1
  1
±0.5
  7
SLDTEXTSTYLE1
  0
MTEXT
  5
FE
330
1F
100
AcDbEntity
  8
CARTIGLIO
100
AcDbMText
 10
139.4253641733
 20
89.5528129209
 30
0.0
 40
4.0
 41
0.0
 71
     1
 72
     1
  1
±0.8
  7
SLDTEXTSTYLE1
  0
MTEXT
  5
FF
330
1F
100
AcDbEntity
  8
CARTIGLIO
100
AcDbMText
 10
159.059443443
 20
89.373714232
 30
0.0
 40
4.0
 41
0.0
 71
     1
 72
     1
  1
±1.2
  7
SLDTEXTSTYLE1
  0
MTEXT
  5
100
330
1F
100
AcDbEntity
  8
CARTIGLIO
100
AcDbMText
 10
179.7795198922
 20
89.2996950736
 30
0.0
 40
4.0
 41
0.0
 71
     1
 72
     1
  1
±2
  7
SLDTEXTSTYLE1
  0
MTEXT
  5
101
330
1F
100
AcDbEntity
  8
CARTIGLIO
100
AcDbMText
 10
161.8385451012
 20
115.0918575614
 30
0.0
 40
3.0
 41
0.0
 71
     1
 72
     1
  1
Class
  7
SLDTEXTSTYLE1
  0
MTEXT
  5
102
330
1F
100
AcDbEntity
  8
CARTIGLIO
100
AcDbMText
 10
161.4525631624
 20
107.7861028785
 30
0.0
 40
3.0
 41
0.0
 71
     1
 72
     1
  1
Class
  7
SLDTEXTSTYLE1
  0
MTEXT
  5
103
330
1F
100
AcDbEntity
  8
CARTIGLIO
100
AcDbMText
 10
181.4330258578
 20
108.3052246944
 30
0.0
 40
4.0
 41
0.0
 71
     1
 72
     1
  1
m
  7
SLDTEXTSTYLE1
  0
MTEXT
  5
104
330
1F
100
AcDbEntity
  8
CARTIGLIO
100
AcDbMText
 10
181.986470777
 20
115.9457002093
 30
0.0
 40
4.0
 41
0.0
 71
     1
 72
     1
  1
K
  7
SLDTEXTSTYLE1
  0
MTEXT
  5
105
330
1F
100
AcDbEntity
  8
CARTIGLIO
100
AcDbMText
 10
146.3946796266
 20
71.7077822244
 30
0.0
 40
4.0
 41
0.0
 71
     1
 72
     1
  1
Designed
  7
SLDTEXTSTYLE1
  0
MTEXT
  5
106
330
1F
100
AcDbEntity
  8
CARTIGLIO
100
AcDbMText
 10
146.3805059689
 20
60.8364353573
 30
0.0
 40
4.0
 41
0.0
 71
     1
 72
     1
  1
Draw
  7
SLDTEXTSTYLE1
  0
MTEXT
  5
107
330
1F
100
AcDbEntity
  8
CARTIGLIO
100
AcDbMText
 10
145.9939786281
 20
49.5556033654
 30
0.0
 40
4.0
 41
0.0
 71
     1
 72
     1
  1
Checked
  7
SLDTEXTSTYLE1
  0
MTEXT
  5
108
330
1F
100
AcDbEntity
  8
CARTIGLIO
100
AcDbMText
 10
216.7207136157
 20
72.4293768223
 30
0.0
 40
6.0
 41
0.0
 71
     1
 72
     1
  1
N. Santini
  7
SLDTEXTSTYLE1
  0
MTEXT
  5
109
330
1F
100
AcDbEntity
  8
CARTIGLIO
100
AcDbMText
 10
174.483606173
 20
72.3343571556
 30
0.0
 40
6.0
 41
0.0
 71
     1
 72
     1
  1
17/09/09
  7
SLDTEXTSTYLE1
  0
MTEXT
  5
10A
330
1F
100
AcDbEntity
  8
CARTIGLIO
100
AcDbMText
 10
189.135732246
 20
51.30218763
 30
0.0
 40
6.0
 41
0.0
 71
     1
 72
     1
  1
x
  7
SLDTEXTSTYLE1
  0
MTEXT
  5
10B
330
1F
100
AcDbEntity
  8
CARTIGLIO
100
AcDbMText
 10
227.3541887179
 20
81.8338085104
 30
0.0
 40
4.0
 41
0.0
 71
     1
 72
     1
  1
Name
  7
SLDTEXTSTYLE1
  0
MTEXT
  5
10C
330
1F
100
AcDbEntity
  8
CARTIGLIO
100
AcDbMText
 10
178.8386707564
 20
81.3485235334
 30
0.0
 40
4.0
 41
0.0
 71
     1
 72
     1
  1
Date
  7
SLDTEXTSTYLE1
  0
MTEXT
  5
10D
330
1F
100
AcDbEntity
  8
RIQUADRO
100
AcDbMText
 10
401.7824254097
 20
507.3122599783
 30
0.0
 40
7.0
 41
0.0
 71
     1
 72
     1
  1
D
  7
SLDTEXTSTYLE1
  0
MTEXT
  5
10E
330
1F
100
AcDbEntity
  8
RIQUADRO
100
AcDbMText
 10
401.7254277054
 20
371.1235355388
 30
0.0
 40
7.0
 41
0.0
 71
     1
 72
     1
  1
C
  7
SLDTEXTSTYLE1
  0
MTEXT
  5
10F
330
1F
100
AcDbEntity
  8
RIQUADRO
100
AcDbMText
 10
402.5669240462
 20
238.81675418
 30
0.0
 40
7.0
 41
0.0
 71
     1
 72
     1
  1
B
  7
SLDTEXTSTYLE1
  0
MTEXT
  5
110
330
1F
100
AcDbEntity
  8
RIQUADRO
100
AcDbMText
 10
402.6611491434
 20
105.3821910023
 30
0.0
 40
7.0
 41
0.0
 71
     1
 72
     1
  1
A
  7
SLDTEXTSTYLE1
  0
MTEXT
  5
111
330
1F
100
AcDbEntity
  8
TABELLA_REV
100
AcDbMText
 10
166.0902642185
 20
562.3871121651
 30
0.0
 40
4.0
 41
0.0
 71
     1
 72
     1
  1
Description
  7
SLDTEXTSTYLE1
  0
MTEXT
  5
112
330
1F
100
AcDbEntity
  8
TABELLA_REV
100
AcDbMText
 10
309.7998944628
 20
562.98331291
 30
0.0
 40
4.0
 41
0.0
 71
     1
 72
     1
  1
Date
  7
SLDTEXTSTYLE1
  0
MTEXT
  5
113
330
1F
100
AcDbEntity
  8
TABELLA_REV
100
AcDbMText
 10
360.834537174
 20
563.0102911297
 30
0.0
 40
4.0
 41
0.0
 71
     1
 72
     1
  1
Name
  7
SLDTEXTSTYLE1
  0
MTEXT
  5
114
330
1F
100
AcDbEntity
  8
TABELLA_REV
100
AcDbMText
 10
44.5231485229
 20
562.9278208017
 30
0.0
 40
4.0
 41
0.0
 71
     1
 72
     1
  1
Rev No.
  7
SLDTEXTSTYLE1
  0
MTEXT
  5
115
330
1F
100
AcDbEntity
  8
RIQUADRO
100
AcDbMText
 10
63.3429295929
 20
574.7971778075
 30
0.0
 40
7.0
 41
0.0
 71
     1
 72
     1
  1
1
  7
SLDTEXTSTYLE1
  0
MTEXT
  5
116
330
1F
100
AcDbEntity
  8
RIQUADRO
100
AcDbMText
 10
157.3221101872
 20
575.1074771848
 30
0.0
 40
7.0
 41
0.0
 71
     1
 72
     1
  1
2
  7
SLDTEXTSTYLE1
  0
MTEXT
  5
117
330
1F
100
AcDbEntity
  8
RIQUADRO
100
AcDbMText
 10
252.079167353
 20
574.693584952
 30
0.0
 40
7.0
 41
0.0
 71
     1
 72
     1
  1
3
  7
SLDTEXTSTYLE1
  0
MTEXT
  5
118
330
1F
100
AcDbEntity
  8
RIQUADRO
100
AcDbMText
 10
347.6222003835
 20
575.2520680765
 30
0.0
 40
7.0
 41
0.0
 71
     1
 72
     1
  1
4
  7
SLDTEXTSTYLE1
  0
MTEXT
  5
119
330
1F
100
AcDbEntity
  8
CARTIGLIO
100
AcDbMText
 10
211.5518007216
 20
50.9379874148
 30
0.0
 40
6.0
 41
0.0
 71
     1
 72
     1
  1
C. Sedazzari
  7
SLDTEXTSTYLE1
  0
MTEXT
  5
11A
330
1F
100
AcDbEntity
  8
RIQUADRO
100
AcDbMText
 10
348.8999545187
 20
30.7831634449
 30
0.0
 40
7.0
 41
0.0
 71
     1
 72
     1
  1
4
  7
SLDTEXTSTYLE1
  0
MTEXT
  5
11B
330
1F
100
AcDbEntity
  8
RIQUADRO
100
AcDbMText
 10
253.3569214882
 20
30.2246803204
 30
0.0
 40
7.0
 41
0.0
 71
     1
 72
     1
  1
3
  7
SLDTEXTSTYLE1
  0
MTEXT
  5
11C
330
1F
100
AcDbEntity
  8
RIQUADRO
100
AcDbMText
 10
158.5998643225
 20
30.6385725531
 30
0.0
 40
7.0
 41
0.0
 71
     1
 72
     1
  1
2
  7
SLDTEXTSTYLE1
  0
MTEXT
  5
11D
330
1F
100
AcDbEntity
  8
RIQUADRO
100
AcDbMText
 10
64.6206837281
 20
30.3282731759
 30
0.0
 40
7.0
 41
0.0
 71
     1
 72
     1
  1
1
  7
SLDTEXTSTYLE1
  0
MTEXT
  5
11E
330
1F
100
AcDbEntity
  8
RIQUADRO
100
AcDbMText
 10
10.5529215055
 20
109.9091036784
 30
0.0
 40
7.0
 41
0.0
 71
     1
 72
     1
  1
A
  7
SLDTEXTSTYLE1
  0
MTEXT
  5
11F
330
1F
100
AcDbEntity
  8
RIQUADRO
100
AcDbMText
 10
10.4586964083
 20
242.6154457022
 30
0.0
 40
7.0
 41
0.0
 71
     1
 72
     1
  1
B
  7
SLDTEXTSTYLE1
  0
MTEXT
  5
120
330
1F
100
AcDbEntity
  8
RIQUADRO
100
AcDbMText
 10
9.6172000674
 20
374.922227061
 30
0.0
 40
7.0
 41
0.0
 71
     1
 72
     1
  1
C
  7
SLDTEXTSTYLE1
  0
MTEXT
  5
121
330
1F
100
AcDbEntity
  8
RIQUADRO
100
AcDbMText
 10
9.6741977718
 20
511.1109515005
 30
0.0
 40
7.0
 41
0.0
 71
     1
 72
     1
  1
D
  7
SLDTEXTSTYLE1
  0
MTEXT
  5
122
330
1F
100
AcDbEntity
  8
RIQUADRO
100
AcDbMText
 10
343.9485989638
 20
554.648519521
 30
0.0
 40
6.0
 41
0.0
 71
     1
 72
     1
  1
N. Santini
  7
SLDTEXTSTYLE1
  0
MTEXT
  5
123
330
1F
100
AcDbEntity
  8
RIQUADRO
100
AcDbMText
 10
301.2777221464
 20
554.6300639464
 30
0.0
 40
6.0
 41
0.0
 71
     1
 72
     1
  1
17/09/09
  7
SLDTEXTSTYLE1
  0
MTEXT
  5
124
330
1F
100
AcDbEntity
  8
RIQUADRO
100
AcDbMText
 10
74.4687947089
 20
554.5723358709
 30
0.0
 40
6.0
 41
0.0
 71
     1
 72
     1
  1
New Part
  7
SLDTEXTSTYLE1
  0
MTEXT
  5
125
330
1F
100
AcDbEntity
  8
RIQUADRO
100
AcDbMText
 10
52.0860543615
 20
554.5478277703
 30
0.0
 40
6.0
 41
0.0
 71
     1
 72
     1
  1
A
  7
SLDTEXTSTYLE1
  0
MTEXT
  5
126
330
1F
100
AcDbEntity
  8
CARTIGLIO
100
AcDbMText
 10
216.1825074511
 20
61.7345089787
 30
0.0
 40
6.0
 41
0.0
 71
     1
 72
     1
  1
N. Santini
  7
SLDTEXTSTYLE1
  0
MTEXT
  5
127
330
1F
100
AcDbEntity
  8
CARTIGLIO
100
AcDbMText
 10
175.5877002422
 20
61.6784363264
 30
0.0
 40
6.0
 41
0.0
 71
     1
 72
     1
  1
17/09/09
  7
SLDTEXTSTYLE1
  0
MTEXT
  5
128
330
1F
100
AcDbEntity
  8
CARTIGLIO
100
AcDbMText
 10
132.4933713183
 20
129.7931737889
 30
0.0
 40
7.0
 41
0.0
 71
     2
 72
     1
  1
N.A.
  7
SLDTEXTSTYLE1
  0
MTEXT
  5
129
330
1F
100
AcDbEntity
  8
RIQUADRO
100
AcDbMText
 10
128.3319432882
 20
145.0084325042
 30
0.0
 40
7.0
 41
0.0
 71
     2
 72
     1
  1
N.A.
  7
SLDTEXTSTYLE1
  0
MTEXT
  5
12A
330
1F
100
AcDbEntity
  8
RIQUADRO
100
AcDbMText
 10
342.6774057287
 20
542.7987951688
 30
0.0
 40
6.0
 41
0.0
 71
     1
 72
     1
  1
N. Santini
  7
SLDTEXTSTYLE1
  0
MTEXT
  5
12B
330
1F
100
AcDbEntity
  8
RIQUADRO
100
AcDbMText
 10
300.0065289114
 20
542.7803395942
 30
0.0
 40
6.0
 41
0.0
 71
     1
 72
     1
  1
16/10/09
  7
SLDTEXTSTYLE1
  0
MTEXT
  5
12C
330
1F
100
AcDbEntity
  8
RIQUADRO
100
AcDbMText
 10
73.1976014739
 20
542.7226115187
 30
0.0
 40
6.0
 41
0.0
 71
     1
 72
     1
  1
decreased frame thickness
  7
SLDTEXTSTYLE1
  0
MTEXT
  5
12D
330
1F
100
AcDbEntity
  8
RIQUADRO
100
AcDbMText
 10
50.8148611264
 20
542.6981034181
 30
0.0
 40
6.0
 41
0.0
 71
     1
 72
     1
  1
B
  7
SLDTEXTSTYLE1
  0
LINE
  5
12E
330
1F
100
AcDbEntity
  8
0
  6
CONTINUOUS
 62
     7
100
AcDbLine
 10
297.3541744759
 20
486.9081539433
 30
0.0
 11
297.2341846087
 21
487.1738526929
 31
0.0
  0
LINE
  5
12F
330
1F
100
AcDbEntity
  8
0
  6
CONTINUOUS
 62
     7
100
AcDbLine
 10
294.7772075493
 20
489.6373224252
 30
0.0
 11
290.7973259672
 21
490.7189689607
 31
0.0
  0
LINE
  5
130
330
1F
100
AcDbEntity
  8
0
  6
CONTINUOUS
 62
     7
100
AcDbLine
 10
287.4314119149
 20
489.8380353961
 30
0.0
 11
287.193440555
 21
489.6696233169
 31
0.0
  0
LINE
  5
131
330
1F
100
AcDbEntity
  8
0
  6
CONTINUOUS
 62
     7
100
AcDbLine
 10
289.1402795136
 20
475.8194196
 30
0.0
 11
287.8136521136
 21
476.1799685011
 31
0.0
  0
LINE
  5
132
330
1F
100
AcDbEntity
  8
0
  6
CONTINUOUS
 62
     7
100
AcDbLine
 10
287.0006300117
 20
473.1884814498
 30
0.0
 11
288.3272574117
 21
472.8279325487
 31
0.0
  0
LINE
  5
133
330
1F
100
AcDbEntity
  8
0
  6
CONTINUOUS
 62
     7
100
AcDbLine
 10
295.3927111231
 20
436.0635352049
 30
0.0
 11
294.0660837231
 21
436.4240841061
 31
0.0
  0
LINE
  5
134
330
1F
100
AcDbEntity
  8
0
  6
CONTINUOUS
 62
     7
100
AcDbLine
 10
293.2530613495
 20
433.4325967896
 30
0.0
 11
294.5796887495
 21
433.0720478885
 31
0.0
  0
LINE
  5
135
330
1F
100
AcDbEntity
  8
0
  6
CONTINUOUS
 62
     7
100
AcDbLine
 10
282.8878481758
 20
423.8584056141
 30
0.0
 11
281.5612207758
 21
424.2189545152
 31
0.0
  0
LINE
  5
136
330
1F
100
AcDbEntity
  8
0
  6
CONTINUOUS
 62
     7
100
AcDbLine
 10
280.7481984022
 20
421.2274671988
 30
0.0
 11
282.0748258022
 21
420.8669182976
 31
0.0
  0
LINE
  5
137
330
1F
100
AcDbEntity
  8
0
  6
CONTINUOUS
 62
     7
100
AcDbLine
 10
293.8946096502
 20
428.9982892128
 30
0.0
 11
295.7518886691
 21
428.4935205721
 31
0.0
  0
LINE
  5
138
330
1F
100
AcDbEntity
  8
0
  6
CONTINUOUS
 62
     7
100
AcDbLine
 10
296.7353831814
 20
432.1122536799
 30
0.0
 11
294.8781041625
 21
432.6170223206
 31
0.0
  0
LINE
  5
139
330
1F
100
AcDbEntity
  8
0
  6
CONTINUOUS
 62
     7
100
AcDbLine
 10
295.8830212925
 20
428.9760171702
 30
0.0
 11
296.9885428903
 21
428.6755600884
 31
0.0
  0
LINE
  5
13A
330
1F
100
AcDbEntity
  8
0
  6
CONTINUOUS
 62
     7
100
AcDbLine
 10
297.7097721558
 20
431.3293
 30
0.0
 11
296.604250558
 21
431.6297570819
 31
0.0
  0
LINE
  5
13B
330
1F
100
AcDbEntity
  8
0
  6
CONTINUOUS
 62
     7
100
AcDbLine
 10
307.7254165545
 20
478.6356444462
 30
0.0
 11
308.8309381523
 21
478.3351873644
 31
0.0
  0
LINE
  5
13C
330
1F
100
AcDbEntity
  8
0
  6
CONTINUOUS
 62
     7
100
AcDbLine
 10
309.5521680698
 20
480.9889279124
 30
0.0
 11
308.446646472
 21
481.2893849942
 31
0.0
  0
LINE
  5
13D
330
1F
100
AcDbEntity
  8
0
  6
CONTINUOUS
 62
     7
100
AcDbLine
 10
305.7370054555
 20
478.6579170191
 30
0.0
 11
307.5942844744
 21
478.1531483784
 31
0.0
  0
LINE
  5
13E
330
1F
100
AcDbEntity
  8
0
  6
CONTINUOUS
 62
     7
100
AcDbLine
 10
308.5777785521
 20
481.771881062
 30
0.0
 11
306.7204995332
 21
482.2766497027
 31
0.0
  0
LINE
  5
13F
330
1F
100
AcDbEntity
  8
0
  6
CONTINUOUS
 62
     7
100
AcDbLine
 10
284.0406253785
 20
455.5185621676
 30
0.0
 11
285.1461469763
 21
455.2181050858
 31
0.0
  0
LINE
  5
140
330
1F
100
AcDbEntity
  8
0
  6
CONTINUOUS
 62
     7
100
AcDbLine
 10
285.8673768938
 20
457.8718456338
 30
0.0
 11
284.761855296
 21
458.1723027156
 31
0.0
  0
LINE
  5
141
330
1F
100
AcDbEntity
  8
0
  6
CONTINUOUS
 62
     7
100
AcDbLine
 10
282.0522142795
 20
455.5408347405
 30
0.0
 11
283.9094932984
 21
455.0360660998
 31
0.0
  0
LINE
  5
142
330
1F
100
AcDbEntity
  8
0
  6
CONTINUOUS
 62
     7
100
AcDbLine
 10
284.8929873761
 20
458.6547987834
 30
0.0
 11
283.0357083572
 21
459.1595674241
 31
0.0
  0
LINE
  5
143
330
1F
100
AcDbEntity
  8
0
  6
CONTINUOUS
 62
     7
100
AcDbLine
 10
298.182975838
 20
429.0765538395
 30
0.0
 11
298.4209474671
 21
429.2449656676
 31
0.0
  0
LINE
  5
144
330
1F
100
AcDbEntity
  8
0
  6
CONTINUOUS
 62
     7
100
AcDbLine
 10
298.656910792
 20
430.1131844635
 30
0.0
 11
298.536920839
 21
430.3788836432
 31
0.0
  0
LINE
  5
145
330
1F
100
AcDbEntity
  8
0
  6
CONTINUOUS
 62
     7
100
AcDbLine
 10
296.9784763008
 20
429.3259674607
 30
0.0
 11
298.0368768954
 21
429.0383168579
 31
0.0
  0
LINE
  5
146
330
1F
100
AcDbEntity
  8
0
  6
CONTINUOUS
 62
     7
100
AcDbLine
 10
298.430274684
 20
430.4858113624
 30
0.0
 11
297.3718740894
 21
430.7734619652
 31
0.0
  0
LINE
  5
147
330
1F
100
AcDbEntity
  8
0
  6
CONTINUOUS
 62
     7
100
AcDbLine
 10
310.0253714328
 20
478.7361814403
 30
0.0
 11
310.2633432045
 21
478.9045934076
 31
0.0
  0
LINE
  5
148
330
1F
100
AcDbEntity
  8
0
  6
CONTINUOUS
 62
     7
100
AcDbLine
 10
310.4993061899
 20
479.7728118721
 30
0.0
 11
310.3793159109
 21
480.0385107336
 31
0.0
  0
LINE
  5
149
330
1F
100
AcDbEntity
  8
0
  6
CONTINUOUS
 62
     7
100
AcDbLine
 10
308.8208722283
 20
478.9855953863
 30
0.0
 11
309.8792728229
 21
478.6979447835
 31
0.0
  0
LINE
  5
14A
330
1F
100
AcDbEntity
  8
0
  6
CONTINUOUS
 62
     7
100
AcDbLine
 10
310.2726699324
 20
480.1454386251
 30
0.0
 11
309.2142693378
 21
480.433089228
 31
0.0
  0
LINE
  5
14B
330
1F
100
AcDbEntity
  8
0
  6
CONTINUOUS
 62
     7
100
AcDbLine
 10
286.3405802568
 20
455.6190991617
 30
0.0
 11
286.5785520285
 21
455.787511129
 31
0.0
  0
LINE
  5
14C
330
1F
100
AcDbEntity
  8
0
  6
CONTINUOUS
 62
     7
100
AcDbLine
 10
286.8145150139
 20
456.6557295935
 30
0.0
 11
286.6945256042
 21
456.9214293034
 31
0.0
  0
LINE
  5
14D
330
1F
100
AcDbEntity
  8
0
  6
CONTINUOUS
 62
     7
100
AcDbLine
 10
285.1360810524
 20
455.8685131077
 30
0.0
 11
286.194481647
 21
455.5808625049
 31
0.0
  0
LINE
  5
14E
330
1F
100
AcDbEntity
  8
0
  6
CONTINUOUS
 62
     7
100
AcDbLine
 10
286.5878787565
 20
457.0283563466
 30
0.0
 11
285.5294781619
 21
457.3160069494
 31
0.0
  0
LINE
  5
14F
330
1F
100
AcDbEntity
  8
0
  6
CONTINUOUS
 62
     7
100
AcDbLine
 10
318.7783110097
 20
405.1393571454
 30
0.0
 11
319.0162827814
 21
405.3077691127
 31
0.0
  0
LINE
  5
150
330
1F
100
AcDbEntity
  8
0
  6
CONTINUOUS
 62
     7
100
AcDbLine
 10
314.5279803381
 20
404.4987890673
 30
0.0
 11
315.4123969574
 21
404.2584235809
 31
0.0
  0
LINE
  5
151
330
1F
100
AcDbEntity
  8
0
  6
CONTINUOUS
 62
     7
100
AcDbLine
 10
311.9510129997
 20
407.2279576611
 30
0.0
 11
312.0710032787
 21
406.9622587996
 31
0.0
  0
LINE
  5
152
330
1F
100
AcDbEntity
  8
0
  6
CONTINUOUS
 62
     7
100
AcDbLine
 10
341.026540331
 20
475.0389406895
 30
0.0
 11
340.906550052
 21
475.304639551
 31
0.0
  0
LINE
  5
153
330
1F
100
AcDbEntity
  8
0
  6
CONTINUOUS
 62
     7
100
AcDbLine
 10
338.4495729926
 20
477.7681092833
 30
0.0
 11
337.5651563733
 21
478.0084747697
 31
0.0
  0
LINE
  5
154
330
1F
100
AcDbEntity
  8
0
  6
CONTINUOUS
 62
     7
100
AcDbLine
 10
334.199242321
 20
477.1275412051
 30
0.0
 11
333.9612705493
 21
476.9591292378
 31
0.0
  0
LWPOLYLINE
  5
155
330
1F
100
AcDbEntity
  8
0
  6
CONTINUOUS
 62
     7
100
AcDbPolyline
 90
       18
 70
   128
 43
0.0
 10
276.4928021549
 20
473.8608743306
 10
275.7595147795
 20
473.0828992234
 10
275.0324841038
 20
472.1870230402
 10
274.3179120623
 20
471.1808988511
 10
273.6218949711
 20
470.0731016552
 10
272.9503718051
 20
468.8730890748
 10
272.3090720409
 20
467.5910977594
 10
271.7034652379
 20
466.2380622449
 10
271.1387201821
 20
464.8255303702
 10
270.6196535978
 20
463.3655493558
 10
270.1506953759
 20
461.8705791772
 10
269.7358459796
 20
460.3533727579
 10
269.3786434104
 20
458.8268718811
 10
269.0821371305
 20
457.3041035026
 10
268.8488558984
 20
455.7980589492
 10
268.6807895139
 20
454.3215850946
 10
268.5793731715
 20
452.8872796778
 10
268.5454709433
 20
451.5073809832
  0
LWPOLYLINE
  5
156
330
1F
100
AcDbEntity
  8
0
  6
CONTINUOUS
 62
     7
100
AcDbPolyline
 90
       18
 70
   128
 43
0.0
 10
268.2076940315
 20
451.4535966812
 10
268.2420934924
 20
452.8537529661
 10
268.3449980557
 20
454.3091139687
 10
268.5155314792
 20
455.8072634799
 10
268.7522377058
 20
457.3354189483
 10
269.0530965102
 20
458.8805425479
 10
269.4155426239
 20
460.429452447
 10
269.8364831206
 20
461.9689339765
 10
270.3123261026
 20
463.4858522488
 10
270.8390128648
 20
464.9672665728
 10
271.4120491886
 20
466.4005360395
 10
272.0265461989
 20
467.7734344382
 10
272.6772612204
 20
469.0742476121
 10
273.3586429805
 20
470.2918766514
 10
274.0648776817
 20
471.415937146
 10
274.7899402896
 20
472.4368347894
 10
275.5276449515
 20
473.3458592937
 10
276.2716975882
 20
474.1352580736
  0
LWPOLYLINE
  5
157
330
1F
100
AcDbEntity
  8
0
  6
CONTINUOUS
 62
     7
100
AcDbPolyline
 90
       18
 70
   128
 43
0.0
 10
272.2918160061
 20
475.2169046091
 10
271.5477633693
 20
474.4275058292
 10
270.8100587075
 20
473.5184813248
 10
270.0849960996
 20
472.4975836815
 10
269.3787613983
 20
471.3735231869
 10
268.6973796382
 20
470.1558941476
 10
268.0466646168
 20
468.8550809737
 10
267.4321676064
 20
467.482182575
 10
266.8591312826
 20
466.0489131083
 10
266.3324445205
 20
464.5674987842
 10
265.8566015385
 20
463.050580512
 10
265.4356610418
 20
461.5110989825
 10
265.073214928
 20
459.9621890834
 10
264.7723561236
 20
458.4170654838
 10
264.5356498971
 20
456.8889100154
 10
264.3651164736
 20
455.3907605042
 10
264.2622119102
 20
453.9353995015
 10
264.2278124494
 20
452.5352432166
  0
LINE
  5
158
330
1F
100
AcDbEntity
  8
0
  6
CONTINUOUS
 62
     7
100
AcDbLine
 10
290.4666460419
 20
487.4997743523
 30
0.0
 11
276.4928021549
 21
473.8608743306
 31
0.0
  0
LWPOLYLINE
  5
159
330
1F
100
AcDbEntity
  8
0
  6
CONTINUOUS
 62
     7
100
AcDbPolyline
 90
       18
 70
   128
 43
0.0
 10
298.4139772535
 20
480.6599588034
 10
298.3800750253
 20
481.9736782698
 10
298.2786586829
 20
483.2100127682
 10
298.1105922984
 20
484.3584107357
 10
297.8773110662
 20
485.4090760207
 10
297.5808047863
 20
486.3530459611
 10
297.2236022172
 20
487.182265522
 10
296.8087528209
 20
487.889660484
 10
296.339794599
 20
488.4691954604
 10
295.8207280146
 20
488.9159266766
 10
295.2559829588
 20
489.2260415762
 10
294.6503761559
 20
489.39689548
 10
294.0090763917
 20
489.4270303357
 10
293.3375532257
 20
489.3161885232
 10
292.6415361345
 20
489.0653176822
 10
291.926964093
 20
488.6765534339
 10
291.1999334172
 20
488.1532211618
 10
290.4666460419
 20
487.4997743523
  0
LINE
  5
15A
330
1F
100
AcDbEntity
  8
0
  6
CONTINUOUS
 62
     7
100
AcDbLine
 10
298.4139772535
 20
433.1119857388
 30
0.0
 11
298.4139772535
 21
480.6599588034
 31
0.0
  0
LINE
  5
15B
330
1F
100
AcDbEntity
  8
0
  6
CONTINUOUS
 62
     7
100
AcDbLine
 10
298.4139772535
 20
433.1119857388
 30
0.0
 11
297.0337401772
 21
431.7648320392
 31
0.0
  0
LINE
  5
15C
330
1F
100
AcDbEntity
  8
0
  6
CONTINUOUS
 62
     7
100
AcDbLine
 10
294.1329029762
 20
428.9335260018
 30
0.0
 11
268.5454709433
 21
403.9594079187
 31
0.0
  0
LINE
  5
15D
330
1F
100
AcDbEntity
  8
0
  6
CONTINUOUS
 62
     7
100
AcDbLine
 10
268.5454709433
 20
451.5073809832
 30
0.0
 11
268.5454709433
 21
403.9594079187
 31
0.0
  0
LINE
  5
15E
330
1F
100
AcDbEntity
  8
0
  6
CONTINUOUS
 62
     7
100
AcDbLine
 10
269.9455582089
 20
420.9692390194
 30
0.0
 11
269.9455582089
 21
458.6631705007
 31
0.0
  0
LWPOLYLINE
  5
15F
330
1F
100
AcDbEntity
  8
0
  6
CONTINUOUS
 62
     7
100
AcDbPolyline
 90
        9
 70
   128
 43
0.0
 10
270.5289268887
 20
420.4671650343
 10
270.4151171086
 20
420.3766713378
 10
270.3056815853
 20
420.3308314128
 10
270.204824195
 20
420.3314045649
 10
270.1164228311
 20
420.3783710424
 10
270.043872932
 20
420.4699262028
 10
269.9899640428
 20
420.6025500271
 10
269.9567668071
 20
420.7711474876
 10
269.9455582089
 20
420.9692390194
  0
LINE
  5
160
330
1F
100
AcDbEntity
  8
0
  6
CONTINUOUS
 62
     7
100
AcDbLine
 10
281.8270688186
 20
431.4944979184
 30
0.0
 11
270.5289268887
 21
420.4671650343
 31
0.0
  0
LWPOLYLINE
  5
161
330
1F
100
AcDbEntity
  8
0
  6
CONTINUOUS
 62
     7
100
AcDbPolyline
 90
       14
 70
   128
 43
0.0
 10
285.1323793782
 20
434.7205823536
 10
285.021710444
 20
433.9986116848
 10
284.8442415156
 20
433.2668154036
 10
284.6076606838
 20
432.5568985625
 10
284.3222167988
 20
431.8996137477
 10
284.0002755352
 20
431.3234352865
 10
283.6557835851
 20
430.8533242003
 10
283.3036646117
 20
430.5096452875
 10
282.9591726616
 20
430.3072869654
 10
282.637231398
 20
430.2550163409
 10
282.3517875129
 20
430.3550971907
 10
282.1152066812
 20
430.6031937428
 10
281.9377377528
 20
430.9885597947
 10
281.8270688186
 20
431.4944979184
  0
LINE
  5
162
330
1F
100
AcDbEntity
  8
0
  6
CONTINUOUS
 62
     7
100
AcDbLine
 10
296.4305213081
 20
445.7479152377
 30
0.0
 11
285.1323793782
 21
434.7205823536
 31
0.0
  0
ARC
  5
163
330
1F
100
AcDbEntity
  8
0
  6
CONTINUOUS
 62
     7
100
AcDbCircle
 10
294.4576980367
 20
447.3734368312
 30
0.0
 40
2.556237882268283
100
AcDbArc
 50
320.5129439884
 51
0.3434717995
  0
LINE
  5
164
330
1F
100
AcDbEntity
  8
0
  6
CONTINUOUS
 62
     7
100
AcDbLine
 10
297.0138899879
 20
485.0826921351
 30
0.0
 11
297.0138899879
 21
447.3887606539
 31
0.0
  0
LWPOLYLINE
  5
165
330
1F
100
AcDbEntity
  8
0
  6
CONTINUOUS
 62
     7
100
AcDbPolyline
 90
       16
 70
   128
 43
0.0
 10
293.6694647326
 20
482.4827352848
 10
293.7709201929
 20
483.1575418434
 10
293.93121949
 20
483.8427396118
 10
294.1442810856
 20
484.512336352
 10
294.40202321
 20
485.1409325164
 10
294.6946681131
 20
485.7046807949
 10
295.0111141189
 20
486.1821968851
 10
295.3393589694
 20
486.5553686451
 10
295.6669492461
 20
486.8100374255
 10
295.9814584785
 20
486.9365429513
 10
296.2709565593
 20
486.9300872866
 10
296.5244617746
 20
486.7909157839
 10
296.7323571921
 20
486.5243083765
 10
296.8867566322
 20
486.1403747745
 10
296.9818028329
 20
485.6536828948
 10
297.0138899879
 20
485.0826921351
  0
LINE
  5
166
330
1F
100
AcDbEntity
  8
0
  6
CONTINUOUS
 62
     7
100
AcDbLine
 10
273.2899834642
 20
462.591736805
 30
0.0
 11
293.6694647326
 21
482.4827352848
 31
0.0
  0
LWPOLYLINE
  5
167
330
1F
100
AcDbEntity
  8
0
  6
CONTINUOUS
 62
     7
100
AcDbPolyline
 90
       16
 70
   128
 43
0.0
 10
269.9455582089
 20
458.6631705007
 10
269.9776453639
 20
459.2967973544
 10
270.0726915646
 20
459.9690252454
 10
270.2270910046
 20
460.6543560211
 10
270.4349864222
 20
461.3267880302
 10
270.6884916375
 20
461.9608172562
 10
270.9779897183
 20
462.5323909246
 10
271.2924989506
 20
463.0198267038
 10
271.6200892274
 20
463.4046342291
 10
271.9483340779
 20
463.6722165429
 10
272.2647800837
 20
463.8124224582
 10
272.5574249867
 20
463.8199349733
 10
272.8151671112
 20
463.6944672388
 10
273.0282287068
 20
463.4407797966
 10
273.1885280038
 20
463.0684960844
 10
273.2899834642
 20
462.591736805
  0
LWPOLYLINE
  5
168
330
1F
100
AcDbEntity
  8
0
  6
CONTINUOUS
 62
     7
100
AcDbPolyline
 90
       23
 70
   128
 43
0.0
 10
278.0673442017
 20
424.6105139273
 10
278.0333163614
 20
424.1426165902
 10
277.9339889179
 20
423.6461994153
 10
277.7774093037
 20
423.1614815921
 10
277.5762626028
 20
422.7277308702
 10
277.346844486
 20
422.380088143
 10
277.1077407635
 20
422.1467155797
 10
276.8783226467
 20
422.0465200767
 10
276.6771755111
 20
422.0876196813
 10
276.520595897
 20
422.2666844974
 10
276.4212688881
 20
422.5692088366
 10
276.3872410478
 20
422.9706817431
 10
276.4212688881
 20
423.4385790802
 10
276.520595897
 20
423.934995831
 10
276.6771755111
 20
424.4197136542
 10
276.8783226467
 20
424.8534648003
 10
277.1077407635
 20
425.2011091241
 10
277.346844486
 20
425.4344816874
 10
277.5762626028
 20
425.5346755938
 10
277.7774093037
 20
425.493575565
 10
277.9339889179
 20
425.3145107489
 10
278.0333163614
 20
425.0119868339
 10
278.0673442017
 20
424.6105139273
  0
LWPOLYLINE
  5
169
330
1F
100
AcDbEntity
  8
0
  6
CONTINUOUS
 62
     7
100
AcDbPolyline
 90
       23
 70
   128
 43
0.0
 10
290.572207149
 20
436.8156435182
 10
290.5381793087
 20
436.347746181
 10
290.4388522998
 20
435.8513294303
 10
290.2822726856
 20
435.3666116071
 10
290.08112555
 20
434.932860461
 10
289.8517074333
 20
434.5852177338
 10
289.6126037107
 20
434.3518451705
 10
289.383185594
 20
434.2516496675
 10
289.182038893
 20
434.2927496963
 10
289.0254592789
 20
434.4718145124
 10
288.9261318353
 20
434.7743384274
 10
288.892103995
 20
435.1758113339
 10
288.9261318353
 20
435.6437086711
 10
289.0254592789
 20
436.140125846
 10
289.182038893
 20
436.6248436692
 10
289.383185594
 20
437.0585943911
 10
289.6126037107
 20
437.4062387149
 10
289.8517074333
 20
437.6396112782
 10
290.08112555
 20
437.7398051846
 10
290.2822726856
 20
437.69870558
 10
290.4388522998
 20
437.5196407639
 10
290.5381793087
 20
437.2171164247
 10
290.572207149
 20
436.8156435182
  0
LWPOLYLINE
  5
16A
330
1F
100
AcDbEntity
  8
0
  6
CONTINUOUS
 62
     7
100
AcDbPolyline
 90
       23
 70
   128
 43
0.0
 10
284.319775784
 20
476.5715297485
 10
284.2857477807
 20
476.1036322523
 10
284.1864205545
 20
475.6072152894
 10
284.0298409947
 20
475.1224975192
 10
283.8286941851
 20
474.6887466913
 10
283.5992759189
 20
474.3411022217
 10
283.3601722779
 20
474.1077297379
 10
283.1307540117
 20
474.0075356857
 10
282.9296072021
 20
474.0486356084
 10
282.7730276423
 20
474.2277004776
 10
282.673700416
 20
474.5302246047
 10
282.6396724127
 20
474.9316973521
 10
282.673700416
 20
475.3995948483
 10
282.7730276423
 20
475.8960118112
 10
282.9296072021
 20
476.3807295814
 10
283.1307540117
 20
476.8144804093
 10
283.3601722779
 20
477.1621232823
 10
283.5992759189
 20
477.3954957661
 10
283.8286941851
 20
477.4956914149
 10
284.0298409947
 20
477.4545914922
 10
284.1864205545
 20
477.275526623
 10
284.2857477807
 20
476.9730024959
 10
284.319775784
 20
476.5715297485
  0
LWPOLYLINE
  5
16B
330
1F
100
AcDbEntity
  8
0
  6
CONTINUOUS
 62
     7
100
AcDbPolyline
 90
       18
 70
   128
 43
0.0
 10
264.1233802278
 20
452.7092104857
 10
264.157282456
 20
454.0891091803
 10
264.2586987984
 20
455.5234145971
 10
264.4267651829
 20
456.9998884518
 10
264.6600464151
 20
458.5059330051
 10
264.956552695
 20
460.0287013836
 10
265.3137552641
 20
461.5552022604
 10
265.7286046604
 20
463.0724086797
 10
266.1975628823
 20
464.5673788583
 10
266.7166294667
 20
466.0273598727
 10
267.2813745225
 20
467.4398917474
 10
267.8869813254
 20
468.792927262
 10
268.5282810896
 20
470.0749185773
 10
269.1998042556
 20
471.2749311578
 10
269.8958213468
 20
472.3827283536
 10
270.6103933883
 20
473.3888525428
 10
271.337424064
 20
474.2847287259
 10
272.0707114394
 20
475.0627038332
  0
LINE
  5
16C
330
1F
100
AcDbEntity
  8
0
  6
CONTINUOUS
 62
     7
100
AcDbLine
 10
273.2899834642
 20
462.591736805
 30
0.0
 11
272.9721471476
 21
462.3431228757
 31
0.0
  0
LWPOLYLINE
  5
16D
330
1F
100
AcDbEntity
  8
0
  6
CONTINUOUS
 62
     7
100
AcDbPolyline
 90
        7
 70
   128
 43
0.0
 10
272.9721471476
 20
462.3431228757
 10
272.8850531927
 20
462.8527057586
 10
272.7314195953
 20
463.2500223272
 10
272.5182067436
 20
463.5170757486
 10
272.2550732956
 20
463.6417678278
 10
271.9539406654
 20
463.6184510519
 10
271.7601398819
 20
463.5332915867
  0
LINE
  5
16E
330
1F
100
AcDbEntity
  8
0
  6
CONTINUOUS
 62
     7
100
AcDbLine
 10
271.1634352026
 20
462.8346920264
 30
0.0
 11
272.9721471476
 21
462.3431228757
 31
0.0
  0
LINE
  5
16F
330
1F
100
AcDbEntity
  8
0
  6
CONTINUOUS
 62
     7
100
AcDbLine
 10
268.2076940315
 20
403.9056236166
 30
0.0
 11
268.2076940315
 21
451.4535966812
 31
0.0
  0
LINE
  5
170
330
1F
100
AcDbEntity
  8
0
  6
CONTINUOUS
 62
     7
100
AcDbLine
 10
268.5454709433
 20
403.9594079187
 30
0.0
 11
268.2076940315
 21
403.9056236166
 31
0.0
  0
LINE
  5
171
330
1F
100
AcDbEntity
  8
0
  6
CONTINUOUS
 62
     7
100
AcDbLine
 10
259.8057219398
 20
410.2606429486
 30
0.0
 11
259.8057219398
 21
406.1890995987
 31
0.0
  0
LINE
  5
172
330
1F
100
AcDbEntity
  8
0
  6
CONTINUOUS
 62
     7
100
AcDbLine
 10
263.785603522
 20
409.1789964131
 30
0.0
 11
259.8057219398
 21
410.2606429486
 31
0.0
  0
LINE
  5
173
330
1F
100
AcDbEntity
  8
0
  6
CONTINUOUS
 62
     7
100
AcDbLine
 10
263.785603522
 20
409.1789964131
 30
0.0
 11
264.0067078827
 21
409.333197245
 31
0.0
  0
LINE
  5
174
330
1F
100
AcDbEntity
  8
0
  6
CONTINUOUS
 62
     7
100
AcDbLine
 10
264.0067078827
 20
409.333197245
 30
0.0
 11
264.2278124494
 21
409.487398021
 31
0.0
  0
LINE
  5
175
330
1F
100
AcDbEntity
  8
0
  6
CONTINUOUS
 62
     7
100
AcDbLine
 10
264.2278124494
 20
452.5352432166
 30
0.0
 11
264.2278124494
 21
409.487398021
 31
0.0
  0
LINE
  5
176
330
1F
100
AcDbEntity
  8
0
  6
CONTINUOUS
 62
     7
100
AcDbLine
 10
259.8057219398
 20
406.1890995987
 30
0.0
 11
268.2076940315
 21
403.9056236166
 31
0.0
  0
LINE
  5
177
330
1F
100
AcDbEntity
  8
0
  6
CONTINUOUS
 62
     7
100
AcDbLine
 10
264.1233802278
 20
409.6613652901
 30
0.0
 11
264.2278124494
 21
409.487398021
 31
0.0
  0
LINE
  5
178
330
1F
100
AcDbEntity
  8
0
  6
CONTINUOUS
 62
     7
100
AcDbLine
 10
264.1233802278
 20
409.6613652901
 30
0.0
 11
264.1233802278
 21
452.7092104857
 31
0.0
  0
LINE
  5
179
330
1F
100
AcDbEntity
  8
0
  6
CONTINUOUS
 62
     7
100
AcDbLine
 10
276.2716975882
 20
474.1352580736
 30
0.0
 11
290.2455414752
 21
487.7741580953
 31
0.0
  0
LINE
  5
17A
330
1F
100
AcDbEntity
  8
0
  6
CONTINUOUS
 62
     7
100
AcDbLine
 10
286.2656598931
 20
488.8558046307
 30
0.0
 11
272.2918160061
 21
475.2169046091
 31
0.0
  0
LINE
  5
17B
330
1F
100
AcDbEntity
  8
0
  6
CONTINUOUS
 62
     7
100
AcDbLine
 10
272.0707114394
 20
475.0627038332
 30
0.0
 11
286.0445553264
 21
488.7016038548
 31
0.0
  0
LWPOLYLINE
  5
17C
330
1F
100
AcDbEntity
  8
0
  6
CONTINUOUS
 62
     7
100
AcDbPolyline
 90
        6
 70
   128
 43
0.0
 10
283.9819974053
 20
476.5177440146
 10
283.9498597229
 20
476.8779903351
 10
283.8563023408
 20
477.1434944742
 10
283.7096382591
 20
477.2906617287
 10
283.5228991359
 20
477.3064167504
 10
283.4763587248
 20
477.2912170889
  0
LWPOLYLINE
  5
17D
330
1F
100
AcDbEntity
  8
0
  6
CONTINUOUS
 62
     7
100
AcDbPolyline
 90
       10
 70
   128
 43
0.0
 10
282.697520867
 20
474.4255108197
 10
282.7283460334
 20
474.3904575042
 10
282.8969305949
 20
474.308076068
 10
283.0976528117
 20
474.3592985578
 10
283.3126776261
 20
474.5395732219
 10
283.5228991359
 20
474.8328817117
 10
283.7096382591
 20
475.2131645481
 10
283.8563023408
 20
475.6466290823
 10
283.9498597229
 20
476.0947613711
 10
283.9819974053
 20
476.5177440146
  0
LWPOLYLINE
  5
17E
330
1F
100
AcDbEntity
  8
0
  6
CONTINUOUS
 62
     7
100
AcDbPolyline
 90
        6
 70
   128
 43
0.0
 10
269.9721024648
 20
420.675619072
 10
269.9778189021
 20
420.6705140527
 10
270.0485406887
 20
420.6329405915
 10
270.1292262532
 20
420.6324817305
 10
270.2167748457
 20
420.6691541595
 10
270.307822322
 20
420.7415487773
  0
LINE
  5
17F
330
1F
100
AcDbEntity
  8
0
  6
CONTINUOUS
 62
     7
100
AcDbLine
 10
270.307822322
 20
420.7415487773
 30
0.0
 11
281.7026960018
 21
431.8632948148
 31
0.0
  0
LINE
  5
180
330
1F
100
AcDbEntity
  8
0
  6
CONTINUOUS
 62
     7
100
AcDbLine
 10
281.7026960018
 20
431.8632948148
 30
0.0
 11
281.8270688186
 21
431.4944979184
 31
0.0
  0
LINE
  5
181
330
1F
100
AcDbEntity
  8
0
  6
CONTINUOUS
 62
     7
100
AcDbLine
 10
277.7228144197
 20
432.9449413503
 30
0.0
 11
269.9455579736
 21
425.354100636
 31
0.0
  0
LINE
  5
182
330
1F
100
AcDbEntity
  8
0
  6
CONTINUOUS
 62
     7
100
AcDbLine
 10
277.7228144197
 20
432.9449413503
 30
0.0
 11
281.7026960018
 21
431.8632948148
 31
0.0
  0
LINE
  5
183
330
1F
100
AcDbEntity
  8
0
  6
CONTINUOUS
 62
     7
100
AcDbLine
 10
277.7228144197
 20
432.9449413503
 30
0.0
 11
277.4049781031
 21
432.696327421
 31
0.0
  0
LINE
  5
184
330
1F
100
AcDbEntity
  8
0
  6
CONTINUOUS
 62
     7
100
AcDbLine
 10
269.9455576542
 20
425.4157043837
 30
0.0
 11
277.4049781031
 21
432.696327421
 31
0.0
  0
LWPOLYLINE
  5
185
330
1F
100
AcDbEntity
  8
0
  6
CONTINUOUS
 62
     7
100
AcDbPolyline
 90
       13
 70
   128
 43
0.0
 10
290.2455414752
 20
487.7741580953
 10
290.989594112
 20
488.4371956823
 10
291.7272987738
 20
488.9682159087
 10
292.4523613817
 20
489.3626849316
 10
293.158596083
 20
489.6172378751
 10
293.8399778431
 20
489.7297078089
 10
294.4906928645
 20
489.6991302541
 10
295.1051898749
 20
489.5257676961
 10
295.6782261987
 20
489.211100268
 10
296.2049129608
 20
488.7578107963
 10
296.6807559428
 20
488.1697672003
 10
297.1016964395
 20
487.4519873293
 10
297.2341846087
 20
487.1738526929
  0
LWPOLYLINE
  5
186
330
1F
100
AcDbEntity
  8
0
  6
CONTINUOUS
 62
     7
100
AcDbPolyline
 90
        8
 70
   128
 43
0.0
 10
290.7973259672
 20
490.7189689607
 10
290.5108112824
 20
490.7807767896
 10
289.8600962609
 20
490.8113543444
 10
289.1787145008
 20
490.6988844106
 10
288.4724797996
 20
490.4443314671
 10
287.7474171917
 20
490.0498624442
 10
287.0097125298
 20
489.5188422178
 10
286.2656598931
 20
488.8558046307
  0
LINE
  5
187
330
1F
100
AcDbEntity
  8
0
  6
CONTINUOUS
 62
     7
100
AcDbLine
 10
263.9022758671
 20
409.5071644582
 30
0.0
 11
263.785603522
 21
409.1789964131
 31
0.0
  0
LINE
  5
188
330
1F
100
AcDbEntity
  8
0
  6
CONTINUOUS
 62
     7
100
AcDbLine
 10
264.1233802278
 20
409.6613652901
 30
0.0
 11
263.9022758671
 21
409.5071644582
 31
0.0
  0
LINE
  5
189
330
1F
100
AcDbEntity
  8
0
  6
CONTINUOUS
 62
     7
100
AcDbLine
 10
263.9022758671
 20
409.5071644582
 30
0.0
 11
264.1233809836
 21
409.7229698302
 31
0.0
  0
LINE
  5
18A
330
1F
100
AcDbEntity
  8
0
  6
CONTINUOUS
 62
     7
100
AcDbLine
 10
259.9223942849
 20
410.5888109936
 30
0.0
 11
263.9022758671
 21
409.5071644582
 31
0.0
  0
LINE
  5
18B
330
1F
100
AcDbEntity
  8
0
  6
CONTINUOUS
 62
     7
100
AcDbLine
 10
259.9223942849
 20
410.5888109936
 30
0.0
 11
259.8057219398
 21
410.2606429486
 31
0.0
  0
LINE
  5
18C
330
1F
100
AcDbEntity
  8
0
  6
CONTINUOUS
 62
     7
100
AcDbLine
 10
264.1233810678
 20
414.6891028809
 30
0.0
 11
259.9223942849
 21
410.5888109936
 31
0.0
  0
LWPOLYLINE
  5
18D
330
1F
100
AcDbEntity
  8
0
  6
CONTINUOUS
 62
     7
100
AcDbPolyline
 90
        9
 70
   128
 43
0.0
 10
263.429095453
 20
411.5283924808
 10
263.0861663935
 20
411.6654934507
 10
262.8549616758
 20
411.8547339211
 10
262.7633700606
 20
412.0732898737
 10
262.8224370712
 20
412.2947991549
 10
263.0250385255
 20
412.4925443853
 10
263.3467387404
 20
412.6426755892
 10
263.7487356798
 20
412.7270847489
 10
264.1233808791
 20
412.7390367985
  0
LWPOLYLINE
  5
18E
330
1F
100
AcDbEntity
  8
0
  6
CONTINUOUS
 62
     7
100
AcDbPolyline
 90
        3
 70
   128
 43
0.0
 10
264.1233811419
 20
411.4565211167
 10
263.8423881524
 20
411.4599685805
 10
263.429095453
 20
411.5283924808
  0
LWPOLYLINE
  5
18F
330
1F
100
AcDbEntity
  8
0
  6
CONTINUOUS
 62
     7
100
AcDbPolyline
 90
        3
 70
   128
 43
0.0
 10
286.0445553264
 20
488.7016038548
 10
286.7778427018
 20
489.3550506643
 10
287.193440555
 20
489.6696233169
  0
LINE
  5
190
330
1F
100
AcDbEntity
  8
0
  6
CONTINUOUS
 62
     7
100
AcDbLine
 10
259.7012893064
 20
410.4346103296
 30
0.0
 11
259.8057219398
 21
410.2606429486
 31
0.0
  0
LINE
  5
191
330
1F
100
AcDbEntity
  8
0
  6
CONTINUOUS
 62
     7
100
AcDbLine
 10
259.9223942849
 20
410.5888109936
 30
0.0
 11
259.7012893064
 21
410.4346103296
 31
0.0
  0
LINE
  5
192
330
1F
100
AcDbEntity
  8
0
  6
CONTINUOUS
 62
     7
100
AcDbLine
 10
259.7012893064
 20
406.3630669797
 30
0.0
 11
259.7012893064
 21
410.4346103296
 31
0.0
  0
LINE
  5
193
330
1F
100
AcDbEntity
  8
0
  6
CONTINUOUS
 62
     7
100
AcDbLine
 10
259.8057219398
 20
406.1890995987
 30
0.0
 11
259.7012893064
 21
406.3630669797
 31
0.0
  0
LINE
  5
194
330
1F
100
AcDbEntity
  8
0
  6
CONTINUOUS
 62
     7
100
AcDbLine
 10
259.7012893064
 20
410.4346103296
 30
0.0
 11
264.1233803365
 21
414.7507067405
 31
0.0
  0
LWPOLYLINE
  5
195
330
1F
100
AcDbEntity
  8
0
  6
CONTINUOUS
 62
     7
100
AcDbPolyline
 90
        8
 70
   128
 43
0.0
 10
264.1233808128
 20
412.3953467877
 10
264.1051832866
 20
412.3963061928
 10
263.7170904738
 20
412.375544566
 10
263.3739662172
 20
412.2798719813
 10
263.1280467355
 20
412.1238527194
 10
263.0167723409
 20
411.9312398078
 10
263.0570836339
 20
411.7313576568
 10
263.1287010008
 20
411.6424832882
  0
LWPOLYLINE
  5
196
330
1F
100
AcDbEntity
  8
0
  6
CONTINUOUS
 62
     7
100
AcDbPolyline
 90
        6
 70
   128
 43
0.0
 10
277.729565986
 20
424.5567283526
 10
277.6974284123
 20
424.9169763757
 10
277.6038708672
 20
425.1824787592
 10
277.4572067855
 20
425.3296460136
 10
277.2704676622
 20
425.3454026319
 10
277.2239272919
 20
425.3302014136
  0
LWPOLYLINE
  5
197
330
1F
100
AcDbEntity
  8
0
  6
CONTINUOUS
 62
     7
100
AcDbPolyline
 90
       10
 70
   128
 43
0.0
 10
276.4450892304
 20
422.4644949455
 10
276.4759146141
 20
422.4294418422
 10
276.6444990941
 20
422.3470603264
 10
276.8452211479
 20
422.3982826571
 10
277.0602460302
 20
422.5785573875
 10
277.2704676622
 20
422.8718675932
 10
277.4572067855
 20
423.252148833
 10
277.6038708672
 20
423.6856133673
 10
277.6974284123
 20
424.1337474117
 10
277.729565986
 20
424.5567283526
  0
LWPOLYLINE
  5
198
330
1F
100
AcDbEntity
  8
0
  6
CONTINUOUS
 62
     7
100
AcDbPolyline
 90
        8
 70
   128
 43
0.0
 10
296.6761122069
 20
485.0289069846
 10
296.6404357621
 20
485.6063205404
 10
296.5350224339
 20
486.0879342474
 10
296.36464809
 20
486.4519299124
 10
296.1370311378
 20
486.6818217096
 10
295.8624813317
 20
486.7671911097
 10
295.5534364431
 20
486.7041734552
 10
295.4449310579
 20
486.6503738653
  0
LWPOLYLINE
  5
199
330
1F
100
AcDbEntity
  8
0
  6
CONTINUOUS
 62
     7
100
AcDbPolyline
 90
       13
 70
   128
 43
0.0
 10
281.9563308496
 20
430.9335919005
 10
282.1195942011
 20
430.7220728575
 10
282.3611325818
 20
430.5785880629
 10
282.6391988204
 20
430.5675142372
 10
282.9424756035
 20
430.6893024416
 10
283.2586195317
 20
430.9389972304
 10
283.57476346
 20
431.3064347732
 10
283.878040243
 20
431.7766614442
 10
284.1561064817
 20
432.3305376166
 10
284.3976448623
 20
432.9455201396
 10
284.5928245538
 20
433.5965810994
 10
284.7337018945
 20
434.2572215755
 10
284.8145430616
 20
434.9005529432
  0
LINE
  5
19A
330
1F
100
AcDbEntity
  8
0
  6
CONTINUOUS
 62
     7
100
AcDbLine
 10
284.8145430616
 20
434.9005529432
 30
0.0
 11
285.1323793782
 21
434.7205823536
 31
0.0
  0
ARC
  5
19B
330
1F
100
AcDbEntity
  8
0
  6
CONTINUOUS
 62
     7
100
AcDbCircle
 10
273.4568751711
 20
436.5119543457
 30
0.0
 40
7.39678112628903
100
AcDbArc
 50
326.4888637059
 51
355.8929801996
  0
LINE
  5
19C
330
1F
100
AcDbEntity
  8
0
  6
CONTINUOUS
 62
     7
100
AcDbLine
 10
280.8346614795
 20
435.9821994787
 30
0.0
 11
284.8145430616
 21
434.9005529432
 31
0.0
  0
LINE
  5
19D
330
1F
100
AcDbEntity
  8
0
  6
CONTINUOUS
 62
     7
100
AcDbLine
 10
296.6761122069
 20
447.3349755034
 30
0.0
 11
296.6761122069
 21
485.0289069846
 31
0.0
  0
LINE
  5
19E
330
1F
100
AcDbEntity
  8
0
  6
CONTINUOUS
 62
     7
100
AcDbLine
 10
292.6962306247
 20
481.5328293668
 30
0.0
 11
292.6962306247
 21
448.4166220388
 31
0.0
  0
LINE
  5
19F
330
1F
100
AcDbEntity
  8
0
  6
CONTINUOUS
 62
     7
100
AcDbLine
 10
280.8346614795
 20
435.9821994787
 30
0.0
 11
280.7102886627
 21
435.9224118561
 31
0.0
  0
ARC
  5
1A0
330
1F
100
AcDbEntity
  8
0
  6
CONTINUOUS
 62
     7
100
AcDbCircle
 10
272.7844828329
 20
436.6807712516
 30
0.0
 40
7.962003957852549
100
AcDbArc
 50
327.9305555597
 51
354.5344462825
  0
LINE
  5
1A1
330
1F
100
AcDbEntity
  8
0
  6
CONTINUOUS
 62
     7
100
AcDbLine
 10
292.5917992724
 20
448.5905901564
 30
0.0
 11
292.5917992724
 21
481.4309004712
 31
0.0
  0
LINE
  5
1A2
330
1F
100
AcDbEntity
  8
0
  6
CONTINUOUS
 62
     7
100
AcDbLine
 10
284.8145430616
 20
434.9005529432
 30
0.0
 11
296.2094167414
 21
446.0222989807
 31
0.0
  0
LINE
  5
1A3
330
1F
100
AcDbEntity
  8
0
  6
CONTINUOUS
 62
     7
100
AcDbLine
 10
292.2295351593
 20
447.1039455162
 30
0.0
 11
280.8346614795
 21
435.9821994787
 31
0.0
  0
LINE
  5
1A4
330
1F
100
AcDbEntity
  8
0
  6
CONTINUOUS
 62
     7
100
AcDbLine
 10
280.7102886627
 20
435.9224118561
 30
0.0
 11
292.0084305926
 21
446.9497447402
 31
0.0
  0
LWPOLYLINE
  5
1A5
330
1F
100
AcDbEntity
  8
0
  6
CONTINUOUS
 62
     7
100
AcDbPolyline
 90
        6
 70
   128
 43
0.0
 10
290.2344289333
 20
436.7618579434
 10
290.2022913595
 20
437.1221059665
 10
290.1087338144
 20
437.38760835
 10
289.9620697327
 20
437.5347756044
 10
289.7753306095
 20
437.5505322228
 10
289.7287902391
 20
437.5353310044
  0
LWPOLYLINE
  5
1A6
330
1F
100
AcDbEntity
  8
0
  6
CONTINUOUS
 62
     7
100
AcDbPolyline
 90
       10
 70
   128
 43
0.0
 10
288.9499521777
 20
434.6696245363
 10
288.9807775613
 20
434.634571433
 10
289.1493620414
 20
434.5521899172
 10
289.3500845298
 20
434.6034126722
 10
289.5651089775
 20
434.7836869783
 10
289.7753306095
 20
435.076997184
 10
289.9620697327
 20
435.4572784238
 10
290.1087338144
 20
435.8907429581
 10
290.2022913595
 20
436.3388770025
 10
290.2344289333
 20
436.7618579434
  0
ARC
  5
1A7
330
1F
100
AcDbEntity
  8
0
  6
CONTINUOUS
 62
     7
100
AcDbCircle
 10
294.6311538417
 20
447.3227185924
 30
0.0
 40
2.044995097085096
100
AcDbArc
 50
320.5129697589
 51
0.3434108354
  0
ARC
  5
1A8
330
1F
100
AcDbEntity
  8
0
  6
CONTINUOUS
 62
     7
100
AcDbCircle
 10
290.6512722596
 20
448.4043651278
 30
0.0
 40
2.044995097084372
100
AcDbArc
 50
320.5129697589
 51
0.3434108354
  0
ARC
  5
1A9
330
1F
100
AcDbEntity
  8
0
  6
CONTINUOUS
 62
     7
100
AcDbCircle
 10
290.0356073213
 20
448.5752663337
 30
0.0
 40
2.556237882268392
100
AcDbArc
 50
320.5129439884
 51
0.3434717995
  0
LWPOLYLINE
  5
1AA
330
1F
100
AcDbEntity
  8
0
  6
CONTINUOUS
 62
     7
100
AcDbPolyline
 90
       22
 70
   128
 43
0.0
 10
289.0530648906
 20
473.4431430571
 10
288.8475551047
 20
473.1226658335
 10
288.6319348824
 20
472.9089057343
 10
288.4253630168
 20
472.8208529097
 10
288.2461943317
 20
472.8663333244
 10
288.1103487553
 20
473.0413046322
 10
288.0298967576
 20
473.3302206016
 10
288.0119868189
 20
473.7074095257
 10
288.0582103882
 20
474.1393570175
 10
288.164460243
 20
474.5876811326
 10
288.3212956179
 20
475.0125478283
 10
288.5147810265
 20
475.3762054934
 10
288.7277244261
 20
475.6463408604
 10
288.941204869
 20
475.7989510971
 10
289.1362536783
 20
475.8204780351
 10
289.2955399018
 20
475.7090077736
 10
289.4049102829
 20
475.4744437709
 10
289.4546467532
 20
475.1376298799
 10
289.4403300161
 20
474.7284917868
 10
289.3632322201
 20
474.2833851386
 10
289.2302037885
 20
473.8418573491
 10
289.0530648906
 20
473.4431430571
  0
LWPOLYLINE
  5
1AB
330
1F
100
AcDbEntity
  8
0
  6
CONTINUOUS
 62
     7
100
AcDbPolyline
 90
       13
 70
   128
 43
0.0
 10
287.0006300117
 20
473.1884814498
 10
286.9195669317
 20
473.2268822255
 10
286.7837213553
 20
473.4018535333
 10
286.7032693576
 20
473.6907695027
 10
286.685359419
 20
474.0679584268
 10
286.7315829882
 20
474.4999059186
 10
286.837832843
 20
474.9482300337
 10
286.9946682179
 20
475.3730967294
 10
287.1881536265
 20
475.7367543946
 10
287.4010970261
 20
476.0068897615
 10
287.6145774691
 20
476.1594999982
 10
287.8096262784
 20
476.1810269363
 10
287.8136521136
 20
476.1799685011
  0
LWPOLYLINE
  5
1AC
330
1F
100
AcDbEntity
  8
0
  6
CONTINUOUS
 62
     7
100
AcDbPolyline
 90
       22
 70
   128
 43
0.0
 10
295.227277377
 20
433.5504336516
 10
295.0155366644
 20
433.2689085104
 10
294.801189392
 20
433.1027943885
 10
294.6032812231
 20
433.0668517941
 10
294.4393969828
 20
433.1642754149
 10
294.3240985472
 20
433.386406815
 10
294.2676304744
 20
433.7135083497
 10
294.2750107286
 20
434.1165180555
 10
294.3455834324
 20
434.5596243071
 10
294.4730775426
 20
435.0034572102
 10
294.6461649339
 20
435.4085790322
 10
294.8494657303
 20
435.7389928513
 10
295.064916129
 20
435.9653408265
 10
295.2733722373
 20
436.0675089757
 10
295.4563117032
 20
436.0364221346
 10
295.5974797121
 20
435.8748394277
 10
295.6843328742
 20
435.5971206464
 10
295.7091540864
 20
435.2279418432
 10
295.6697375304
 20
434.8001059998
 10
295.5695855672
 20
434.3516266245
 10
295.4175970971
 20
433.9223549198
 10
295.227277377
 20
433.5504336516
  0
LWPOLYLINE
  5
1AD
330
1F
100
AcDbEntity
  8
0
  6
CONTINUOUS
 62
     7
100
AcDbPolyline
 90
       12
 70
   128
 43
0.0
 10
293.2530613495
 20
433.4325967896
 10
293.1127695828
 20
433.5248243161
 10
292.9974711472
 20
433.7469557162
 10
292.9410030744
 20
434.0740572508
 10
292.9483833287
 20
434.4770669566
 10
293.0189560324
 20
434.9201732082
 10
293.1464501426
 20
435.3640061114
 10
293.319537534
 20
435.7691279333
 10
293.5228383303
 20
436.0995417524
 10
293.7382887291
 20
436.3258897276
 10
293.9467448374
 20
436.4280578768
 10
294.0660837231
 20
436.4240841061
  0
LWPOLYLINE
  5
1AE
330
1F
100
AcDbEntity
  8
0
  6
CONTINUOUS
 62
     7
100
AcDbPolyline
 90
       22
 70
   128
 43
0.0
 10
281.8159544728
 20
422.2344721338
 10
281.9291666174
 20
422.6820317632
 10
282.0914413712
 20
423.1012132821
 10
282.2883602904
 20
423.4547708164
 10
282.5024259135
 20
423.7112888526
 10
282.7146177866
 20
423.8479766482
 10
282.9060814896
 20
423.8526871844
 10
283.0598050583
 20
423.7250025782
 10
283.1621289373
 20
423.4762677115
 10
283.2039612443
 20
423.1285842363
 10
283.1815857737
 20
422.7128450782
 10
283.0969897176
 20
422.2659904305
 10
282.957690243
 20
421.8277251203
 10
282.7760651405
 20
421.4369930207
 10
282.568251436
 20
421.1285087607
 10
282.3527154124
 20
420.929683998
 10
282.1486079169
 20
420.8581871267
 10
281.9740649029
 20
420.9203675781
 10
281.8445953359
 20
421.1107041897
 10
281.7717025028
 20
421.41228128
 10
281.761864337
 20
421.7983032677
 10
281.8159544728
 20
422.2344721338
  0
LWPOLYLINE
  5
1AF
330
1F
100
AcDbEntity
  8
0
  6
CONTINUOUS
 62
     7
100
AcDbPolyline
 90
        7
 70
   128
 43
0.0
 10
280.4893270728
 20
422.5950210349
 10
280.6025392174
 20
423.0425806644
 10
280.7648139712
 20
423.4617621832
 10
280.9617328904
 20
423.8153197175
 10
281.1757985136
 20
424.0718377537
 10
281.3879903866
 20
424.2085255493
 10
281.5612207758
 20
424.2189545152
  0
LWPOLYLINE
  5
1B0
330
1F
100
AcDbEntity
  8
0
  6
CONTINUOUS
 62
     7
100
AcDbPolyline
 90
        6
 70
   128
 43
0.0
 10
280.7481984022
 20
421.2274671988
 10
280.6474375029
 20
421.2809164792
 10
280.517967936
 20
421.4712530908
 10
280.4450751028
 20
421.7728301811
 10
280.435236937
 20
422.1588521688
 10
280.4893270728
 20
422.5950210349
  0
LWPOLYLINE
  5
1B1
330
1F
100
AcDbEntity
  8
0
  6
CONTINUOUS
 62
     7
100
AcDbPolyline
 90
        8
 70
   128
 43
0.0
 10
295.6069005202
 20
429.5349993804
 10
295.6155164672
 20
429.9310693147
 10
295.6921988523
 20
430.3674330716
 10
295.8286380165
 20
430.7968012384
 10
296.0100486222
 20
431.1726464525
 10
296.2167720614
 20
431.4542384059
 10
296.4264066134
 20
431.6110651549
 10
296.604250558
 20
431.6297570819
  0
ARC
  5
1B2
330
1F
100
AcDbEntity
  8
0
  6
CONTINUOUS
 62
     7
100
AcDbCircle
 10
296.1407576371
 20
429.45102022
 30
0.0
 40
0.540421983895445
100
AcDbArc
 50
171.0602636101
 51
241.5157711943
  0
LWPOLYLINE
  5
1B3
330
1F
100
AcDbEntity
  8
0
  6
CONTINUOUS
 62
     7
100
AcDbPolyline
 90
       13
 70
   128
 43
0.0
 10
295.3753604173
 20
429.2557673712
 10
295.3782300454
 20
429.696227801
 10
295.4452828937
 20
430.1816810282
 10
295.5715458749
 20
430.6761235301
 10
295.747654748
 20
431.1428837757
 10
295.9605482722
 20
431.5473465801
 10
296.1944371095
 20
431.8595145414
 10
296.4319747963
 20
432.0562334385
 10
296.655544249
 20
432.1229141063
 10
296.8485643577
 20
432.0546129269
 10
296.9967196484
 20
431.8563922062
 10
297.0890222134
 20
431.5429564342
 10
297.0963481372
 20
431.4960140027
  0
LWPOLYLINE
  5
1B4
330
1F
100
AcDbEntity
  8
0
  6
CONTINUOUS
 62
     7
100
AcDbPolyline
 90
        7
 70
   128
 43
0.0
 10
296.3751188717
 20
428.8422756876
 10
296.1734118264
 20
428.6323416554
 10
295.9406906669
 20
428.4994027715
 10
295.7304375775
 20
428.5002207694
 10
295.558246096
 20
428.6347343756
 10
295.4368868221
 20
428.8929678948
 10
295.3753604173
 20
429.2557673712
  0
LWPOLYLINE
  5
1B5
330
1F
100
AcDbEntity
  8
0
  6
CONTINUOUS
 62
     7
100
AcDbPolyline
 90
       10
 70
   128
 43
0.0
 10
293.5180813984
 20
429.7605360119
 10
293.5209510265
 20
430.2009964416
 10
293.5880038748
 20
430.6864496689
 10
293.714266856
 20
431.1808921708
 10
293.8903757291
 20
431.6476524163
 10
294.1032692533
 20
432.0521152208
 10
294.3371580906
 20
432.3642831821
 10
294.5746957774
 20
432.5610020792
 10
294.7982652301
 20
432.627682747
 10
294.8781041625
 20
432.6170223206
  0
LWPOLYLINE
  5
1B6
330
1F
100
AcDbEntity
  8
0
  6
CONTINUOUS
 62
     7
100
AcDbPolyline
 90
        5
 70
   128
 43
0.0
 10
293.8946096502
 20
428.9982892128
 10
293.8731585586
 20
429.0049894101
 10
293.7009670771
 20
429.1395030162
 10
293.5796078033
 20
429.3977365355
 10
293.5180813984
 20
429.7605360119
  0
LWPOLYLINE
  5
1B7
330
1F
100
AcDbEntity
  8
0
  6
CONTINUOUS
 62
     7
100
AcDbPolyline
 90
       11
 70
   128
 43
0.0
 10
296.712422118
 20
429.2345422986
 10
296.721038065
 20
429.6306122328
 10
296.7977204501
 20
430.0669759898
 10
296.9341596143
 20
430.4963441566
 10
297.11557022
 20
430.8721893707
 10
297.3222936592
 20
431.1537813241
 10
297.5319282112
 20
431.3106080731
 10
297.7217567293
 20
431.3256731586
 10
297.8712083185
 20
431.197344259
 10
297.9640876017
 20
430.9395284847
 10
297.9907375783
 20
430.605267224
  0
LWPOLYLINE
  5
1B8
330
1F
100
AcDbEntity
  8
0
  6
CONTINUOUS
 62
     7
100
AcDbPolyline
 90
        7
 70
   128
 43
0.0
 10
297.5973397896
 20
429.1577743161
 10
297.4811837744
 20
428.9779009629
 10
297.270126227
 20
428.7556601297
 10
297.0676329583
 20
428.6685258648
 10
296.8956472264
 20
428.7259409717
 10
296.7728063871
 20
428.9216840902
 10
296.712422118
 20
429.2345422986
  0
LWPOLYLINE
  5
1B9
330
1F
100
AcDbEntity
  8
0
  6
CONTINUOUS
 62
     7
100
AcDbPolyline
 90
        9
 70
   128
 43
0.0
 10
296.9439622751
 20
429.5137743609
 10
296.9553927048
 20
429.8168209511
 10
297.0267702604
 20
430.1481238288
 10
297.1472283407
 20
430.4572465148
 10
297.2984283124
 20
430.6971280689
 10
297.4573513501
 20
430.8312481518
 10
297.5998028626
 20
430.839188491
 10
297.704095896
 20
430.7197394361
 10
297.7198391889
 20
430.6788923321
  0
LWPOLYLINE
  5
1BA
330
1F
100
AcDbEntity
  8
0
  6
CONTINUOUS
 62
     7
100
AcDbPolyline
 90
        5
 70
   128
 43
0.0
 10
297.3264413968
 20
429.2313978243
 10
297.240963696
 20
429.1736119366
 10
297.0985121835
 20
429.1656715974
 10
296.9942191501
 20
429.2851206523
 10
296.9439622751
 20
429.5137743609
  0
LWPOLYLINE
  5
1BB
330
1F
100
AcDbEntity
  8
0
  6
CONTINUOUS
 62
     7
100
AcDbPolyline
 90
       13
 70
   128
 43
0.0
 10
309.1688373142
 20
478.89102574
 10
309.116208886
 20
478.8513746206
 10
308.9683551839
 20
478.8161333089
 10
308.8544810765
 20
478.909675812
 10
308.7919236419
 20
479.117762836
 10
308.7902050597
 20
479.4087116195
 10
308.8495887242
 20
479.7382309515
 10
308.9610340412
 20
480.056154613
 10
309.1075725107
 20
480.3140798637
 10
309.266897336
 20
480.4727406562
 10
309.4147510382
 20
480.5079819679
 10
309.5286251455
 20
480.4144394648
 10
309.5622344237
 20
480.3385195816
  0
LWPOLYLINE
  5
1BC
330
1F
100
AcDbEntity
  8
0
  6
CONTINUOUS
 62
     7
100
AcDbPolyline
 90
       18
 70
   128
 43
0.0
 10
309.4397352418
 20
478.8174017777
 10
309.4001861194
 20
478.7511156036
 10
309.1918404107
 20
478.4837338179
 10
308.9834634076
 20
478.3440397895
 10
308.7976357327
 20
478.3471739962
 10
308.6544953096
 20
478.4927958688
 10
308.5695537115
 20
478.7651254516
 10
308.5520149588
 20
479.1346521604
 10
308.6037801841
 20
479.5613304275
 10
308.7192398725
 20
479.9989240344
 10
308.8858823634
 20
480.4000146227
 10
309.0856482005
 20
480.7211346627
 10
309.2968912458
 20
480.9274883801
 10
309.4967188024
 20
480.9967126417
 10
309.6634769085
 20
480.9213058719
 10
309.7790948074
 20
480.7094394729
 10
309.8310434525
 20
480.3840737425
 10
309.8331332206
 20
480.2648948712
  0
LWPOLYLINE
  5
1BD
330
1F
100
AcDbEntity
  8
0
  6
CONTINUOUS
 62
     7
100
AcDbPolyline
 90
       12
 70
   128
 43
0.0
 10
307.7254165545
 20
478.6356444462
 10
307.6921141349
 20
478.647631078
 10
307.5489737118
 20
478.7932529506
 10
307.4640321137
 20
479.0655825334
 10
307.446493361
 20
479.4351092422
 10
307.4982585863
 20
479.8617875093
 10
307.6137182747
 20
480.2993811162
 10
307.7803607656
 20
480.7004717045
 10
307.9801266027
 20
481.0215917445
 10
308.191369648
 20
481.2279454619
 10
308.3911972046
 20
481.2971697235
 10
308.446646472
 20
481.2893849942
  0
LWPOLYLINE
  5
1BE
330
1F
100
AcDbEntity
  8
0
  6
CONTINUOUS
 62
     7
100
AcDbPolyline
 90
       19
 70
   128
 43
0.0
 10
308.217514351
 20
478.5019031758
 10
307.9984990026
 20
478.2779527796
 10
307.7668424695
 20
478.1545229588
 10
307.5588583845
 20
478.1651841223
 10
307.3899731308
 20
478.3091466526
 10
307.2727105393
 20
478.5757293903
 10
307.2157687045
 20
478.945165342
 10
307.2233697579
 20
479.3900521962
 10
307.294950401
 20
479.8773956778
 10
307.4252027617
 20
480.3710539028
 10
307.604464705
 20
480.8344110481
 10
307.8194430804
 20
481.2331045577
 10
308.0541925399
 20
481.5375627276
 10
308.2913038546
 20
481.7252087153
 10
308.5131913302
 20
481.7821226321
 10
308.7033976083
 20
481.7040851594
 10
308.8478167539
 20
481.496883611
 10
308.9357374017
 20
481.175883557
 10
308.9387433992
 20
481.1556428753
  0
LWPOLYLINE
  5
1BF
330
1F
100
AcDbEntity
  8
0
  6
CONTINUOUS
 62
     7
100
AcDbPolyline
 90
       14
 70
   128
 43
0.0
 10
305.7370054555
 20
478.6579170191
 10
305.7015793656
 20
478.6699527629
 10
305.532694112
 20
478.8139152933
 10
305.4154315204
 20
479.080498031
 10
305.3584896856
 20
479.4499339826
 10
305.366090739
 20
479.8948208368
 10
305.4376713821
 20
480.3821643185
 10
305.5679237428
 20
480.8758225434
 10
305.7471856861
 20
481.3391796888
 10
305.9621640615
 20
481.7378731984
 10
306.196913521
 20
482.0423313683
 10
306.4340248357
 20
482.2299773559
 10
306.6559123113
 20
482.2868912728
 10
306.7204995332
 20
482.2766497027
  0
LWPOLYLINE
  5
1C0
330
1F
100
AcDbEntity
  8
0
  6
CONTINUOUS
 62
     7
100
AcDbPolyline
 90
       14
 70
   128
 43
0.0
 10
285.1620714614
 20
455.2144072627
 10
285.0049972224
 20
455.3205244931
 10
284.9022969418
 20
455.5593315483
 10
284.8650992432
 20
455.9049461882
 10
284.8974367531
 20
456.3199205464
 10
284.9958036336
 20
456.7592813411
 10
285.1495406763
 20
457.1754193231
 10
285.3419879785
 20
457.5232393474
 10
285.5522913236
 20
457.7650479993
 10
285.7576614598
 20
457.8746443029
 10
285.935842009
 20
457.8401499772
 10
286.0675252176
 20
457.6653023521
 10
286.1384408554
 20
457.3690504022
 10
286.1483420446
 20
457.1478125926
  0
ARC
  5
1C1
330
1F
100
AcDbEntity
  8
0
  6
CONTINUOUS
 62
     7
100
AcDbCircle
 10
285.0611615741
 20
455.9421745312
 30
0.0
 40
0.7347298839837495
100
AcDbArc
 50
277.8941167552
 51
340.7812643553
  0
LWPOLYLINE
  5
1C2
330
1F
100
AcDbEntity
  8
0
  6
CONTINUOUS
 62
     7
100
AcDbPolyline
 90
       11
 70
   128
 43
0.0
 10
284.0406253785
 20
455.5185621676
 10
283.8994756246
 20
455.6209815749
 10
283.796775344
 20
455.8597886301
 10
283.7595776454
 20
456.20540327
 10
283.7919151553
 20
456.6203776282
 10
283.8902820358
 20
457.0597384229
 10
284.0440190785
 20
457.4758764049
 10
284.2364663807
 20
457.8236964292
 10
284.4467697258
 20
458.0655050811
 10
284.652139862
 20
458.1751013847
 10
284.761855296
 20
458.1723027156
  0
LWPOLYLINE
  5
1C3
330
1F
100
AcDbEntity
  8
0
  6
CONTINUOUS
 62
     7
100
AcDbPolyline
 90
       11
 70
   128
 43
0.0
 10
285.2874132147
 20
455.6982496854
 10
285.172296895
 20
455.7882215751
 10
285.1080991141
 20
455.9934015533
 10
285.1045950146
 20
456.2825549294
 10
285.1623166006
 20
456.6116574537
 10
285.27247711
 20
456.9306102395
 10
285.4183053713
 20
457.1908518935
 10
285.5775997716
 20
457.3527655967
 10
285.7261106554
 20
457.3917010342
 10
285.8412269752
 20
457.3017291445
 10
285.877444117
 20
457.2214381515
  0
LWPOLYLINE
  5
1C4
330
1F
100
AcDbEntity
  8
0
  6
CONTINUOUS
 62
     7
100
AcDbPolyline
 90
        3
 70
   128
 43
0.0
 10
285.4840461382
 20
455.7739434614
 10
285.4359240985
 20
455.7371851229
 10
285.2874132147
 20
455.6982496854
  0
LWPOLYLINE
  5
1C5
330
1F
100
AcDbEntity
  8
0
  6
CONTINUOUS
 62
     7
100
AcDbPolyline
 90
       16
 70
   128
 43
0.0
 10
283.9312081102
 20
455.0310219218
 10
283.7495017293
 20
455.1368564089
 10
283.6161312329
 20
455.3694075459
 10
283.5409899866
 20
455.7114304726
 10
283.5296483873
 20
456.1375556987
 10
283.5829496444
 20
456.6161809032
 10
283.696939367
 20
457.1118098798
 10
283.8631637304
 20
457.5876825734
 10
284.0692953628
 20
458.0085062473
 10
284.3000452286
 20
458.3430682396
 10
284.5383005262
 20
458.5665584039
 10
284.7663912403
 20
458.6624024317
 10
284.9673992898
 20
458.6234869325
 10
285.1264189951
 20
458.4527031517
 10
285.2316549886
 20
458.1627157402
 10
285.2539522233
 20
458.0385605968
  0
ARC
  5
1C6
330
1F
100
AcDbEntity
  8
0
  6
CONTINUOUS
 62
     7
100
AcDbCircle
 10
283.9025588258
 20
455.7679658883
 30
0.0
 40
0.7375006380970056
100
AcDbArc
 50
272.2262980182
 51
328.7000623189
  0
LWPOLYLINE
  5
1C7
330
1F
100
AcDbEntity
  8
0
  6
CONTINUOUS
 62
     7
100
AcDbPolyline
 90
       13
 70
   128
 43
0.0
 10
282.0522142795
 20
455.5408347405
 10
281.8922227104
 20
455.6416250496
 10
281.758852214
 20
455.8741761866
 10
281.6837109677
 20
456.2161991133
 10
281.6723693684
 20
456.6423243394
 10
281.7256706255
 20
457.1209495438
 10
281.8396603481
 20
457.6165785205
 10
282.0058847115
 20
458.092451214
 10
282.2120163439
 20
458.513274888
 10
282.4427662097
 20
458.8478368803
 10
282.6810215073
 20
459.0713270446
 10
282.9091122214
 20
459.1671710724
 10
283.0357083572
 20
459.1595674241
  0
LWPOLYLINE
  5
1C8
330
1F
100
AcDbEntity
  8
0
  6
CONTINUOUS
 62
     7
100
AcDbPolyline
 90
       17
 70
   128
 43
0.0
 10
298.2231406382
 20
429.4227404789
 10
298.2296723045
 20
429.5959090391
 10
298.2704594694
 20
429.785225644
 10
298.3392926601
 20
429.9618685493
 10
298.4256926483
 20
430.098942815
 10
298.5165058142
 20
430.1755824076
 10
298.5979066804
 20
430.1801197462
 10
298.6575026956
 20
430.1118638238
 10
298.6862208982
 20
429.9812045504
 10
298.6796892319
 20
429.8080343936
 10
298.638902067
 20
429.6187193853
 10
298.5700688762
 20
429.4420764801
 10
298.4836688881
 20
429.3050022144
 10
298.3928557222
 20
429.2283626217
 10
298.311454856
 20
429.2238252831
 10
298.2518588408
 20
429.2920812055
 10
298.2231406382
 20
429.4227404789
  0
LWPOLYLINE
  5
1C9
330
1F
100
AcDbEntity
  8
0
  6
CONTINUOUS
 62
     7
100
AcDbPolyline
 90
        8
 70
   128
 43
0.0
 10
297.8862655811
 20
429.3432168415
 10
297.8960630805
 20
429.6029696818
 10
297.9572438348
 20
429.8869437975
 10
298.0604936276
 20
430.1519065654
 10
298.1900936115
 20
430.3575195622
 10
298.3263133586
 20
430.4724789495
 10
298.4484146444
 20
430.4792849442
 10
298.536920839
 20
430.3788836432
  0
LWPOLYLINE
  5
1CA
330
1F
100
AcDbEntity
  8
0
  6
CONTINUOUS
 62
     7
100
AcDbPolyline
 90
        5
 70
   128
 43
0.0
 10
298.182975838
 20
429.0765538395
 10
298.1408382207
 20
429.0516492707
 10
298.018736935
 20
429.0448432761
 10
297.9293428986
 20
429.1472279447
 10
297.8862655811
 20
429.3432168415
  0
LWPOLYLINE
  5
1CB
330
1F
100
AcDbEntity
  8
0
  6
CONTINUOUS
 62
     7
100
AcDbPolyline
 90
       17
 70
   128
 43
0.0
 10
310.4924840184
 20
479.3180710436
 10
310.4288017252
 20
479.1364017914
 10
310.3450649602
 20
478.9890152209
 10
310.2540226996
 20
478.8983526238
 10
310.1695348698
 20
478.8782147315
 10
310.1044634546
 20
478.9316682459
 10
310.0687165974
 20
479.0505737626
 10
310.0677351714
 20
479.216832413
 10
310.101668694
 20
479.4051291741
 10
310.1653509871
 20
479.5867984263
 10
310.2490877522
 20
479.7341849968
 10
310.3401300128
 20
479.8248475939
 10
310.4246178426
 20
479.8449854863
 10
310.4896883885
 20
479.7915327199
 10
310.5254361149
 20
479.6726264551
 10
310.5264175409
 20
479.5063678047
 10
310.4924840184
 20
479.3180710436
  0
LWPOLYLINE
  5
1CC
330
1F
100
AcDbEntity
  8
0
  6
CONTINUOUS
 62
     7
100
AcDbPolyline
 90
       13
 70
   128
 43
0.0
 10
310.0253714328
 20
478.7361814403
 10
310.0113906755
 20
478.7268210629
 10
309.8846589308
 20
478.6966142244
 10
309.7870526772
 20
478.7767929497
 10
309.7334315223
 20
478.9551527712
 10
309.7319589486
 20
479.2045379276
 10
309.7828592324
 20
479.4869846659
 10
309.8783835414
 20
479.7594901909
 10
310.0039878197
 20
479.9805668033
 10
310.1405520799
 20
480.1165623457
 10
310.2672838246
 20
480.1467691842
 10
310.3648900781
 20
480.066590459
 10
310.3793159109
 20
480.0385107336
  0
LWPOLYLINE
  5
1CD
330
1F
100
AcDbEntity
  8
0
  6
CONTINUOUS
 62
     7
100
AcDbPolyline
 90
       17
 70
   128
 43
0.0
 10
286.4869429922
 20
455.7606749833
 10
286.4211622381
 20
455.8120870355
 10
286.3844782886
 20
455.9293339065
 10
286.3824754493
 20
456.0945636942
 10
286.4154588401
 20
456.2826212316
 10
286.4784083236
 20
456.4648812567
 10
286.5617382619
 20
456.6135902884
 10
286.652764006
 20
456.7061127682
 10
286.7376273682
 20
456.7283606772
 10
286.8034081224
 20
456.676948625
 10
286.8400929411
 20
456.5597026025
 10
286.8420949112
 20
456.3944719664
 10
286.8091115203
 20
456.2064144289
 10
286.7461629061
 20
456.0241552523
 10
286.6628320985
 20
455.8754453722
 10
286.5718063544
 20
455.7829228924
 10
286.4869429922
 20
455.7606749833
  0
LWPOLYLINE
  5
1CE
330
1F
100
AcDbEntity
  8
0
  6
CONTINUOUS
 62
     7
100
AcDbPolyline
 90
       11
 70
   128
 43
0.0
 10
286.2031675717
 20
455.5788457917
 10
286.1044955712
 20
455.6559630215
 10
286.049469647
 20
455.8318325296
 10
286.046465388
 20
456.0796764128
 10
286.0959409089
 20
456.3617655382
 10
286.1903646995
 20
456.6351527566
 10
286.3153596069
 20
456.8582179008
 10
286.4518986578
 20
456.9970020447
 10
286.579193701
 20
457.0303739082
 10
286.6778648322
 20
456.9532558299
 10
286.6945256042
 20
456.9214293034
  0
LWPOLYLINE
  5
1CF
330
1F
100
AcDbEntity
  8
0
  6
CONTINUOUS
 62
     7
100
AcDbPolyline
 90
        3
 70
   128
 43
0.0
 10
286.3405802568
 20
455.6190991617
 10
286.3304617457
 20
455.6122168068
 10
286.2031675717
 20
455.5788457917
  0
LWPOLYLINE
  5
1D0
330
1F
100
AcDbEntity
  8
0
  6
CONTINUOUS
 62
     7
100
AcDbPolyline
 90
       18
 70
   128
 43
0.0
 10
320.16516801
 20
461.9916610768
 10
319.4318806346
 20
461.2136859696
 10
318.7048499589
 20
460.3178097864
 10
317.9902779174
 20
459.3116855973
 10
317.2942608262
 20
458.2038884014
 10
316.6227376602
 20
457.0038758209
 10
315.981437896
 20
455.7218845056
 10
315.3758310931
 20
454.368848991
 10
314.8110860373
 20
452.9563171164
 10
314.2920194529
 20
451.496336102
 10
313.823061231
 20
450.0013659234
 10
313.4082118347
 20
448.4841595041
 10
313.0510092656
 20
446.9576586272
 10
312.7545029857
 20
445.4348902488
 10
312.5212217535
 20
443.9288456954
 10
312.353155369
 20
442.4523718408
 10
312.2517390266
 20
441.0180664239
 10
312.2178367984
 20
439.6381677294
  0
LWPOLYLINE
  5
1D1
330
1F
100
AcDbEntity
  8
0
  6
CONTINUOUS
 62
     7
100
AcDbPolyline
 90
       18
 70
   128
 43
0.0
 10
311.8800594748
 20
439.5843835393
 10
311.9144589357
 20
440.9845398242
 10
312.017363499
 20
442.4399008268
 10
312.1878969225
 20
443.9380503381
 10
312.424603149
 20
445.4662058064
 10
312.7254619535
 20
447.011329406
 10
313.0879080672
 20
448.5602393051
 10
313.5088485639
 20
450.0997208347
 10
313.9846915459
 20
451.6166391069
 10
314.511378308
 20
453.098053431
 10
315.0844146319
 20
454.5313228976
 10
315.6989116422
 20
455.9042212963
 10
316.3496266637
 20
457.2050344702
 10
317.0310084237
 20
458.4226635095
 10
317.737243125
 20
459.5467240041
 10
318.4623057329
 20
460.5676216475
 10
319.2000103947
 20
461.4766461518
 10
319.9440630315
 20
462.2660449317
  0
LWPOLYLINE
  5
1D2
330
1F
100
AcDbEntity
  8
0
  6
CONTINUOUS
 62
     7
100
AcDbPolyline
 90
       18
 70
   128
 43
0.0
 10
319.0596464122
 20
462.5064104181
 10
318.3155937755
 20
461.7170116382
 10
317.5778891136
 20
460.8079871338
 10
316.8528265057
 20
459.7870894905
 10
316.1465918045
 20
458.6630289959
 10
315.4652100444
 20
457.4453999566
 10
314.8144950229
 20
456.1445867827
 10
314.1999980126
 20
454.771688384
 10
313.6269616888
 20
453.3384189173
 10
313.1002749266
 20
451.8570045932
 10
312.6244319446
 20
450.340086321
 10
312.2034914479
 20
448.8006047915
 10
311.8410453342
 20
447.2516948924
 10
311.5401865297
 20
445.7065712928
 10
311.3034803032
 20
444.1784158244
 10
311.1329468797
 20
442.6802663132
 10
311.0300423164
 20
441.2249053105
 10
310.9956428555
 20
439.8247490256
  0
LWPOLYLINE
  5
1D3
330
1F
100
AcDbEntity
  8
0
  6
CONTINUOUS
 62
     7
100
AcDbPolyline
 90
       17
 70
   128
 43
0.0
 10
339.286170316
 20
471.8469524854
 10
339.2639669644
 20
472.030295759
 10
339.2007375703
 20
472.1423860496
 10
339.1061086278
 20
472.166157087
 10
338.9944851068
 20
472.0979878312
 10
338.8828624552
 20
471.9482619785
 10
338.7882335127
 20
471.7397694435
 10
338.7250041185
 20
471.5042514987
 10
338.7028007669
 20
471.2775659214
 10
338.7250041185
 20
471.0942226478
 10
338.7882335127
 20
470.9821323571
 10
338.8828624552
 20
470.9583613198
 10
338.9944851068
 20
471.0265297271
 10
339.1061086278
 20
471.1762564282
 10
339.2007375703
 20
471.3847489633
 10
339.2639669644
 20
471.620266908
 10
339.286170316
 20
471.8469524854
  0
LWPOLYLINE
  5
1D4
330
1F
100
AcDbEntity
  8
0
  6
CONTINUOUS
 62
     7
100
AcDbPolyline
 90
       17
 70
   128
 43
0.0
 10
315.6013791401
 20
448.7298702068
 10
315.5791757885
 20
448.9132134804
 10
315.5159463943
 20
449.0253037711
 10
315.4213174518
 20
449.0490748084
 10
315.3096948002
 20
448.9809064011
 10
315.1980712792
 20
448.8311797
 10
315.1034423367
 20
448.622687165
 10
315.0402129426
 20
448.3871692202
 10
315.018009591
 20
448.1604836428
 10
315.0402129426
 20
447.9771403692
 10
315.1034423367
 20
447.8650500786
 10
315.1980712792
 20
447.8412790412
 10
315.3096948002
 20
447.909448297
 10
315.4213174518
 20
448.0591741497
 10
315.5159463943
 20
448.2676666847
 10
315.5791757885
 20
448.5031846295
 10
315.6013791401
 20
448.7298702068
  0
LWPOLYLINE
  5
1D5
330
1F
100
AcDbEntity
  8
0
  6
CONTINUOUS
 62
     7
100
AcDbPolyline
 90
       17
 70
   128
 43
0.0
 10
327.4437745651
 20
422.1873247321
 10
327.4215714036
 20
422.3706681913
 10
327.3583421181
 20
422.482758588
 10
327.2637128225
 20
422.5065292807
 10
327.1520899535
 20
422.4383606612
 10
327.0404670845
 20
422.2886345965
 10
326.9458377889
 20
422.0801417168
 10
326.8826085034
 20
421.844623878
 10
326.8604053419
 20
421.6179384863
 10
326.8826085034
 20
421.4345950271
 10
326.9458377889
 20
421.3225046304
 10
327.0404670845
 20
421.2987339377
 10
327.1520899535
 20
421.3669025572
 10
327.2637128225
 20
421.5166286219
 10
327.3583421181
 20
421.7251215016
 10
327.4215714036
 20
421.9606393404
 10
327.4437745651
 20
422.1873247321
  0
LINE
  5
1D6
330
1F
100
AcDbEntity
  8
0
  6
CONTINUOUS
 62
     7
100
AcDbLine
 10
312.2178367984
 20
439.6381677294
 30
0.0
 11
312.2178367984
 21
413.1156041238
 31
0.0
  0
LINE
  5
1D7
330
1F
100
AcDbEntity
  8
0
  6
CONTINUOUS
 62
     7
100
AcDbLine
 10
334.139011897
 20
475.6305610985
 30
0.0
 11
320.16516801
 21
461.9916610768
 31
0.0
  0
LWPOLYLINE
  5
1D8
330
1F
100
AcDbEntity
  8
0
  6
CONTINUOUS
 62
     7
100
AcDbPolyline
 90
       18
 70
   128
 43
0.0
 10
342.0863431086
 20
468.7907455496
 10
342.0524408804
 20
470.104465016
 10
341.951024538
 20
471.3407995144
 10
341.7829581535
 20
472.4891974819
 10
341.5496769213
 20
473.5398627669
 10
341.2531706414
 20
474.4838327073
 10
340.8959680723
 20
475.3130522682
 10
340.481118676
 20
476.0204472302
 10
340.0121604541
 20
476.5999822066
 10
339.4930938697
 20
477.0467134228
 10
338.9283488139
 20
477.3568283224
 10
338.322742011
 20
477.5276822262
 10
337.6814422468
 20
477.5578170819
 10
337.0099190808
 20
477.4469752694
 10
336.3139019896
 20
477.1961044284
 10
335.5993299481
 20
476.8073401801
 10
334.8722992724
 20
476.2840079079
 10
334.139011897
 20
475.6305610985
  0
LINE
  5
1D9
330
1F
100
AcDbEntity
  8
0
  6
CONTINUOUS
 62
     7
100
AcDbLine
 10
342.0863431086
 20
442.2681819439
 30
0.0
 11
342.0863431086
 21
468.7907455496
 31
0.0
  0
LWPOLYLINE
  5
1DA
330
1F
100
AcDbEntity
  8
0
  6
CONTINUOUS
 62
     7
100
AcDbPolyline
 90
       18
 70
   128
 43
0.0
 10
334.139011897
 20
419.9146885965
 10
334.8722992724
 20
420.6926637037
 10
335.5993299481
 20
421.5885398869
 10
336.3139019896
 20
422.594664076
 10
337.0099190808
 20
423.7024612719
 10
337.6814422468
 20
424.9024738524
 10
338.322742011
 20
426.1844651677
 10
338.9283488139
 20
427.5375006823
 10
339.4930938697
 20
428.9500325569
 10
340.0121604541
 20
430.4100135713
 10
340.481118676
 20
431.9049837499
 10
340.8959680723
 20
433.4221901692
 10
341.2531706414
 20
434.9486910461
 10
341.5496769213
 20
436.4714594245
 10
341.7829581535
 20
437.9775039779
 10
341.951024538
 20
439.4539778325
 10
342.0524408804
 20
440.8882832494
 10
342.0863431086
 20
442.2681819439
  0
LINE
  5
1DB
330
1F
100
AcDbEntity
  8
0
  6
CONTINUOUS
 62
     7
100
AcDbLine
 10
320.16516801
 20
406.2757885748
 30
0.0
 11
334.139011897
 21
419.9146885965
 31
0.0
  0
LWPOLYLINE
  5
1DC
330
1F
100
AcDbEntity
  8
0
  6
CONTINUOUS
 62
     7
100
AcDbPolyline
 90
       18
 70
   128
 43
0.0
 10
312.2178367984
 20
413.1156041238
 10
312.2517390266
 20
411.8018846573
 10
312.353155369
 20
410.565550159
 10
312.5212217535
 20
409.4171521914
 10
312.7545029857
 20
408.3664869064
 10
313.0510092656
 20
407.422516966
 10
313.4082118347
 20
406.5932974051
 10
313.823061231
 20
405.8859024431
 10
314.2920194529
 20
405.3063674667
 10
314.8110860373
 20
404.8596362505
 10
315.3758310931
 20
404.5495213509
 10
315.981437896
 20
404.3786674471
 10
316.6227376602
 20
404.3485325914
 10
317.2942608262
 20
404.4593744039
 10
317.9902779174
 20
404.710245245
 10
318.7048499589
 20
405.0990094932
 10
319.4318806346
 20
405.6223417654
 10
320.16516801
 20
406.2757885748
  0
LINE
  5
1DD
330
1F
100
AcDbEntity
  8
0
  6
CONTINUOUS
 62
     7
100
AcDbLine
 10
339.286170316
 20
468.8682967847
 30
0.0
 11
339.286170316
 21
436.7245217311
 31
0.0
  0
LWPOLYLINE
  5
1DE
330
1F
100
AcDbEntity
  8
0
  6
CONTINUOUS
 62
     7
100
AcDbPolyline
 90
        9
 70
   128
 43
0.0
 10
338.7028007669
 20
469.3703683248
 10
338.816610547
 20
469.4608620213
 10
338.9260469396
 20
469.5067043913
 10
339.0269034606
 20
469.5061287942
 10
339.1153048245
 20
469.4591623167
 10
339.1878547236
 20
469.3676071563
 10
339.2417636128
 20
469.234983332
 10
339.2749608485
 20
469.0663858715
 10
339.286170316
 20
468.8682967847
  0
LINE
  5
1DF
330
1F
100
AcDbEntity
  8
0
  6
CONTINUOUS
 62
     7
100
AcDbLine
 10
315.6013791401
 20
446.8226726102
 30
0.0
 11
338.7028007669
 21
469.3703683248
 31
0.0
  0
ARC
  5
1E0
330
1F
100
AcDbEntity
  8
0
  6
CONTINUOUS
 62
     7
100
AcDbCircle
 10
317.5742028142
 20
445.1971495263
 30
0.0
 40
2.55623914088531
100
AcDbArc
 50
140.5129239469
 51
180.3434214537
  0
LINE
  5
1E1
330
1F
100
AcDbEntity
  8
0
  6
CONTINUOUS
 62
     7
100
AcDbLine
 10
315.018009591
 20
413.0380528886
 30
0.0
 11
315.018009591
 21
445.1818279422
 31
0.0
  0
LWPOLYLINE
  5
1E2
330
1F
100
AcDbEntity
  8
0
  6
CONTINUOUS
 62
     7
100
AcDbPolyline
 90
        9
 70
   128
 43
0.0
 10
315.6013791401
 20
412.5359813485
 10
315.48756936
 20
412.445487652
 10
315.3781329674
 20
412.399645282
 10
315.2772764464
 20
412.4002208791
 10
315.1888750825
 20
412.4471873566
 10
315.1163251834
 20
412.538742517
 10
315.0624162942
 20
412.6713663413
 10
315.0292190585
 20
412.8399638018
 10
315.018009591
 20
413.0380528886
  0
LINE
  5
1E3
330
1F
100
AcDbEntity
  8
0
  6
CONTINUOUS
 62
     7
100
AcDbLine
 10
338.7028007669
 20
435.0836770631
 30
0.0
 11
315.6013791401
 21
412.5359813485
 31
0.0
  0
ARC
  5
1E4
330
1F
100
AcDbEntity
  8
0
  6
CONTINUOUS
 62
     7
100
AcDbCircle
 10
336.7299770928
 20
436.709200147
 30
0.0
 40
2.556239140885619
100
AcDbArc
 50
320.5129239469
 51
0.3434214537
  0
LWPOLYLINE
  5
1E5
330
1F
100
AcDbEntity
  8
0
  6
CONTINUOUS
 62
     7
100
AcDbPolyline
 90
       18
 70
   128
 43
0.0
 10
310.8912102221
 20
439.9987164067
 10
310.9251124503
 20
441.3786151012
 10
311.0265287927
 20
442.8129205181
 10
311.1945951772
 20
444.2893943727
 10
311.4278764094
 20
445.7954389261
 10
311.7243826893
 20
447.3182073045
 10
312.0815852584
 20
448.8447081814
 10
312.4964346547
 20
450.3619146007
 10
312.9653928766
 20
451.8568847792
 10
313.484459461
 20
453.3168657937
 10
314.0492045168
 20
454.7293976683
 10
314.6548113197
 20
456.0824331829
 10
315.2961110839
 20
457.3644244982
 10
315.9676342499
 20
458.5644370787
 10
316.6636513411
 20
459.6722342745
 10
317.3782233826
 20
460.6783584637
 10
318.1052540583
 20
461.5742346469
 10
318.8385414337
 20
462.3522097541
  0
LINE
  5
1E6
330
1F
100
AcDbEntity
  8
0
  6
CONTINUOUS
 62
     7
100
AcDbLine
 10
311.8800594748
 20
413.0618199336
 30
0.0
 11
311.8800594748
 21
439.5843835393
 31
0.0
  0
LINE
  5
1E7
330
1F
100
AcDbEntity
  8
0
  6
CONTINUOUS
 62
     7
100
AcDbLine
 10
310.9956428555
 20
439.8247490256
 30
0.0
 11
310.9956428555
 21
413.30218542
 31
0.0
  0
LINE
  5
1E8
330
1F
100
AcDbEntity
  8
0
  6
CONTINUOUS
 62
     7
100
AcDbLine
 10
310.8912102221
 20
413.476152801
 30
0.0
 11
310.8912102221
 21
439.9987164067
 31
0.0
  0
LINE
  5
1E9
330
1F
100
AcDbEntity
  8
0
  6
CONTINUOUS
 62
     7
100
AcDbLine
 10
319.9440630315
 20
462.2660449317
 30
0.0
 11
333.9179069185
 21
475.9049449534
 31
0.0
  0
LINE
  5
1EA
330
1F
100
AcDbEntity
  8
0
  6
CONTINUOUS
 62
     7
100
AcDbLine
 10
333.0334902992
 20
476.1453104397
 30
0.0
 11
319.0596464122
 21
462.5064104181
 31
0.0
  0
LINE
  5
1EB
330
1F
100
AcDbEntity
  8
0
  6
CONTINUOUS
 62
     7
100
AcDbLine
 10
318.8385414337
 20
462.3522097541
 30
0.0
 11
332.8123853207
 21
475.9911097757
 31
0.0
  0
LWPOLYLINE
  5
1EC
330
1F
100
AcDbEntity
  8
0
  6
CONTINUOUS
 62
     7
100
AcDbPolyline
 90
       17
 70
   128
 43
0.0
 10
318.7783110097
 20
405.1393571454
 10
318.4623057329
 20
404.9275300974
 10
317.737243125
 20
404.5330610745
 10
317.0310084237
 20
404.278508131
 10
316.3496266637
 20
404.1660381972
 10
315.6989116422
 20
404.196615752
 10
315.0844146319
 20
404.36997831
 10
314.511378308
 20
404.6846457381
 10
313.9846915459
 20
405.1379352098
 10
313.5088485639
 20
405.7259788058
 10
313.0879080672
 20
406.4437586768
 10
312.7254619535
 20
407.2851515393
 10
312.424603149
 20
408.2429803061
 10
312.1878969225
 20
409.3090707072
 10
312.017363499
 20
410.4743285198
 10
311.9144589357
 20
411.7288135055
 10
311.8800594748
 20
413.0618199336
  0
LWPOLYLINE
  5
1ED
330
1F
100
AcDbEntity
  8
0
  6
CONTINUOUS
 62
     7
100
AcDbPolyline
 90
       12
 70
   128
 43
0.0
 10
310.9956428555
 20
413.30218542
 10
311.0300423164
 20
411.9691789919
 10
311.1329468797
 20
410.7146940062
 10
311.3034803032
 20
409.5494361935
 10
311.5401865297
 20
408.4833457925
 10
311.8410453342
 20
407.5255170256
 10
312.2034914479
 20
406.6841241632
 10
312.6244319446
 20
405.9663442922
 10
313.1002749266
 20
405.3783006962
 10
313.6269616888
 20
404.9250112245
 10
314.1999980126
 20
404.6103437964
 10
314.5279803381
 20
404.4987890673
  0
ARC
  5
1EE
330
1F
100
AcDbEntity
  8
0
  6
CONTINUOUS
 62
     7
100
AcDbCircle
 10
326.3539056363
 20
412.8849173186
 30
0.0
 40
15.47399459959085
100
AcDbArc
 50
177.81029098
 51
201.4431886063
  0
LWPOLYLINE
  5
1EF
330
1F
100
AcDbEntity
  8
0
  6
CONTINUOUS
 62
     7
100
AcDbPolyline
 90
        6
 70
   128
 43
0.0
 10
315.0445534351
 20
412.7444346497
 10
315.0502707416
 20
412.7393288822
 10
315.1209916589
 20
412.7017561691
 10
315.2016772234
 20
412.7012957115
 10
315.2892266852
 20
412.737968989
 10
315.3802741616
 20
412.8103636068
  0
LINE
  5
1F0
330
1F
100
AcDbEntity
  8
0
  6
CONTINUOUS
 62
     7
100
AcDbLine
 10
315.3802741616
 20
412.8103636068
 30
0.0
 11
338.4816957884
 21
435.3580593214
 31
0.0
  0
LINE
  5
1F1
330
1F
100
AcDbEntity
  8
0
  6
CONTINUOUS
 62
     7
100
AcDbLine
 10
337.5972791691
 20
435.5984248078
 30
0.0
 11
315.018010968
 21
413.560366844
 31
0.0
  0
LINE
  5
1F2
330
1F
100
AcDbEntity
  8
0
  6
CONTINUOUS
 62
     7
100
AcDbLine
 10
315.0180102368
 20
413.6219723002
 30
0.0
 11
337.3761741906
 21
435.4442257404
 31
0.0
  0
LWPOLYLINE
  5
1F3
330
1F
100
AcDbEntity
  8
0
  6
CONTINUOUS
 62
     7
100
AcDbPolyline
 90
       13
 70
   128
 43
0.0
 10
333.9179069185
 20
475.9049449534
 10
334.6619595552
 20
476.5679825404
 10
335.3996642171
 20
477.0990027668
 10
336.124726825
 20
477.4934717897
 10
336.8309615262
 20
477.7480247332
 10
337.5123432863
 20
477.860494667
 10
338.1630583078
 20
477.8299171122
 10
338.7775553181
 20
477.6565545542
 10
339.3505916419
 20
477.3418871261
 10
339.8772784041
 20
476.8885976544
 10
340.3531213861
 20
476.3005540584
 10
340.7740618828
 20
475.5827741874
 10
340.906550052
 20
475.304639551
  0
LWPOLYLINE
  5
1F4
330
1F
100
AcDbEntity
  8
0
  6
CONTINUOUS
 62
     7
100
AcDbPolyline
 90
        8
 70
   128
 43
0.0
 10
337.5651563733
 20
478.0084747697
 10
337.2786416885
 20
478.0702825986
 10
336.6279266671
 20
478.1008601534
 10
335.946544907
 20
477.9883902196
 10
335.2403102057
 20
477.7338372761
 10
334.5152475978
 20
477.3393682532
 10
333.777542936
 20
476.8083480268
 10
333.0334902992
 20
476.1453104397
  0
LWPOLYLINE
  5
1F5
330
1F
100
AcDbEntity
  8
0
  6
CONTINUOUS
 62
     7
100
AcDbPolyline
 90
        3
 70
   128
 43
0.0
 10
332.8123853207
 20
475.9911097757
 10
333.5456726961
 20
476.6445565852
 10
333.9612705493
 20
476.9591292378
  0
LWPOLYLINE
  5
1F6
330
1F
100
AcDbEntity
  8
0
  6
CONTINUOUS
 62
     7
100
AcDbPolyline
 90
        8
 70
   128
 43
0.0
 10
338.9483912539
 20
468.8145108977
 10
338.9394236799
 20
468.9729828058
 10
338.9128660651
 20
469.1078599859
 10
338.8697389537
 20
469.213959684
 10
338.8116992084
 20
469.287203982
 10
338.7409782911
 20
469.3247766951
 10
338.6602927265
 20
469.3252371527
 10
338.6554255836
 20
469.3241301097
  0
LINE
  5
1F7
330
1F
100
AcDbEntity
  8
0
  6
CONTINUOUS
 62
     7
100
AcDbLine
 10
338.9483912539
 20
436.6707358441
 30
0.0
 11
338.9483912539
 21
468.8145108977
 31
0.0
  0
LINE
  5
1F8
330
1F
100
AcDbEntity
  8
0
  6
CONTINUOUS
 62
     7
100
AcDbLine
 10
338.0639746346
 20
468.7468542122
 30
0.0
 11
338.0639746346
 21
436.9111013305
 31
0.0
  0
LINE
  5
1F9
330
1F
100
AcDbEntity
  8
0
  6
CONTINUOUS
 62
     7
100
AcDbLine
 10
337.9595437397
 20
437.0850704084
 30
0.0
 11
337.9595437397
 21
468.644926277
 31
0.0
  0
ARC
  5
1FA
330
1F
100
AcDbEntity
  8
0
  6
CONTINUOUS
 62
     7
100
AcDbCircle
 10
336.9034325735
 20
436.6584790452
 30
0.0
 40
2.044995411629134
100
AcDbArc
 50
320.5129729517
 51
0.3434076425
  0
ARC
  5
1FB
330
1F
100
AcDbEntity
  8
0
  6
CONTINUOUS
 62
     7
100
AcDbCircle
 10
336.0190159542
 20
436.8988445315
 30
0.0
 40
2.044995411629798
100
AcDbArc
 50
320.5129729517
 51
0.3434076425
  0
ARC
  5
1FC
330
1F
100
AcDbEntity
  8
0
  6
CONTINUOUS
 62
     7
100
AcDbCircle
 10
335.4033505165
 20
437.0697488243
 30
0.0
 40
2.556239140885507
100
AcDbArc
 50
320.5129239469
 51
0.3434214537
  0
LINE
  5
1FD
330
1F
100
AcDbEntity
  8
0
  6
CONTINUOUS
 62
     7
100
AcDbLine
 10
302.1930469145
 20
414.372509742
 30
0.0
 11
310.8912090353
 21
422.8621826264
 31
0.0
  0
LINE
  5
1FE
330
1F
100
AcDbEntity
  8
0
  6
CONTINUOUS
 62
     7
100
AcDbLine
 10
315.0180086968
 20
426.890065609
 30
0.0
 11
327.1612504031
 21
438.7422417825
 31
0.0
  0
LINE
  5
1FF
330
1F
100
AcDbEntity
  8
0
  6
CONTINUOUS
 62
     7
100
AcDbLine
 10
302.1930469145
 20
449.9449513673
 30
0.0
 11
302.1930469145
 21
414.372509742
 31
0.0
  0
LINE
  5
200
330
1F
100
AcDbEntity
  8
0
  6
CONTINUOUS
 62
     7
100
AcDbLine
 10
327.1612504031
 20
474.3146834078
 30
0.0
 11
302.1930469145
 21
449.9449513673
 31
0.0
  0
LINE
  5
201
330
1F
100
AcDbEntity
  8
0
  6
CONTINUOUS
 62
     7
100
AcDbLine
 10
327.1612504031
 20
438.7422417825
 30
0.0
 11
327.1612504031
 21
458.1054631625
 31
0.0
  0
LINE
  5
202
330
1F
100
AcDbEntity
  8
0
  6
CONTINUOUS
 62
     7
100
AcDbLine
 10
327.1612504031
 20
470.4754323689
 30
0.0
 11
327.1612504031
 21
474.3146834078
 31
0.0
  0
LINE
  5
203
330
1F
100
AcDbEntity
  8
0
  6
CONTINUOUS
 62
     7
100
AcDbLine
 10
300.8664203382
 20
414.7330584193
 30
0.0
 11
302.1930469145
 21
414.372509742
 31
0.0
  0
LINE
  5
204
330
1F
100
AcDbEntity
  8
0
  6
CONTINUOUS
 62
     7
100
AcDbLine
 10
300.8664203382
 20
450.3055000445
 30
0.0
 11
300.8664203382
 21
414.7330584193
 31
0.0
  0
LINE
  5
205
330
1F
100
AcDbEntity
  8
0
  6
CONTINUOUS
 62
     7
100
AcDbLine
 10
300.8664203382
 20
450.3055000445
 30
0.0
 11
302.1930469145
 21
449.9449513673
 31
0.0
  0
LINE
  5
206
330
1F
100
AcDbEntity
  8
0
  6
CONTINUOUS
 62
     7
100
AcDbLine
 10
325.8346238268
 20
474.675232085
 30
0.0
 11
300.8664203382
 21
450.3055000445
 31
0.0
  0
LINE
  5
207
330
1F
100
AcDbEntity
  8
0
  6
CONTINUOUS
 62
     7
100
AcDbLine
 10
325.8346238268
 20
474.675232085
 30
0.0
 11
327.1612504031
 21
474.3146834078
 31
0.0
  0
LINE
  5
208
330
1F
100
AcDbEntity
  8
RIQUADRO
100
AcDbLine
 10
356.65825411
 20
502.1224698219
 30
0.0
 11
243.86619742
 21
502.1224698219
 31
0.0
  0
LINE
  5
209
330
1F
100
AcDbEntity
  8
RIQUADRO
100
AcDbLine
 10
356.65825411
 20
502.1224698219
 30
0.0
 11
356.65825411
 21
377.4093014492
 31
0.0
  0
LINE
  5
20A
330
1F
100
AcDbEntity
  8
RIQUADRO
100
AcDbLine
 10
356.65825411
 20
377.4093014492
 30
0.0
 11
243.86619742
 21
377.4093014492
 31
0.0
  0
LINE
  5
20B
330
1F
100
AcDbEntity
  8
RIQUADRO
100
AcDbLine
 10
243.86619742
 20
502.1224698219
 30
0.0
 11
243.86619742
 21
377.4093014492
 31
0.0
  0
MTEXT
  5
20C
330
1F
100
AcDbEntity
  8
RIQUADRO
100
AcDbMText
 10
265.8744036035
 20
394.8045497953
 30
0.0
 40
7.0
 41
0.0
 71
     1
 72
     1
  1
1:4
  7
SLDTEXTSTYLE1
  0
LINE
  5
20D
330
1F
100
AcDbEntity
  8
0
  6
CONTINUOUS
 62
     7
100
AcDbLine
 10
169.5391310623
 20
180.4340457496
 30
0.0
 11
169.5391310623
 21
223.6346429166
 31
0.0
  0
LINE
  5
20E
330
1F
100
AcDbEntity
  8
0
  6
CONTINUOUS
 62
     7
100
AcDbLine
 10
169.5391310623
 20
180.4340457496
 30
0.0
 11
41.5391249826
 21
180.4340457496
 31
0.0
  0
LINE
  5
20F
330
1F
100
AcDbEntity
  8
0
  6
CONTINUOUS
 62
     7
100
AcDbLine
 10
41.5391249826
 20
223.6346429166
 30
0.0
 11
41.5391249826
 21
180.4340457496
 31
0.0
  0
LINE
  5
210
330
1F
100
AcDbEntity
  8
0
  6
CONTINUOUS
 62
     7
100
AcDbLine
 10
41.0391314199
 20
180.4340457496
 30
0.0
 11
41.0391314199
 21
229.4919354793
 31
0.0
  0
LINE
  5
211
330
1F
100
AcDbEntity
  8
0
  6
CONTINUOUS
 62
     7
100
AcDbLine
 10
41.5391249826
 20
180.4340457496
 30
0.0
 11
41.0391314199
 21
180.4340457496
 31
0.0
  0
LINE
  5
212
330
1F
100
AcDbEntity
  8
0
  6
CONTINUOUS
 62
     7
100
AcDbLine
 10
170.039124625
 20
229.4919354793
 30
0.0
 11
170.039124625
 21
180.4340457496
 31
0.0
  0
LINE
  5
213
330
1F
100
AcDbEntity
  8
0
  6
CONTINUOUS
 62
     7
100
AcDbLine
 10
170.039124625
 20
180.4340457496
 30
0.0
 11
169.5391310623
 21
180.4340457496
 31
0.0
  0
CIRCLE
  5
214
330
1F
100
AcDbEntity
  8
0
  6
CONTINUOUS
 62
     7
100
AcDbCircle
 10
105.5391280224
 20
313.9340439614
 30
0.0
 40
3.100000000000009
  0
LINE
  5
215
330
1F
100
AcDbEntity
  8
0
  6
CONTINUOUS
 62
     7
100
AcDbLine
 10
121.9136918207
 20
325.9340425905
 30
0.0
 11
93.4387583529
 21
325.9340425905
 31
0.0
  0
LINE
  5
216
330
1F
100
AcDbEntity
  8
0
  6
CONTINUOUS
 62
     7
100
AcDbLine
 10
155.0391277542
 20
220.4340448555
 30
0.0
 11
56.0391282906
 21
220.4340448555
 31
0.0
  0
LINE
  5
217
330
1F
100
AcDbEntity
  8
0
  6
CONTINUOUS
 62
     7
100
AcDbLine
 10
56.0391282906
 20
220.9340421435
 30
0.0
 11
155.0391277542
 21
220.9340421435
 31
0.0
  0
LINE
  5
218
330
1F
100
AcDbEntity
  8
0
  6
CONTINUOUS
 62
     7
100
AcDbLine
 10
121.9136918207
 20
325.9340425905
 30
0.0
 11
135.4812363406
 21
325.9340425905
 31
0.0
  0
LINE
  5
219
330
1F
100
AcDbEntity
  8
0
  6
CONTINUOUS
 62
     7
100
AcDbLine
 10
135.4812363406
 20
325.4340415772
 30
0.0
 11
122.0719868561
 21
325.4340415772
 31
0.0
  0
LINE
  5
21A
330
1F
100
AcDbEntity
  8
0
  6
CONTINUOUS
 62
     7
100
AcDbLine
 10
122.0719868561
 20
325.4340415772
 30
0.0
 11
121.9136918207
 21
325.9340425905
 31
0.0
  0
ARC
  5
21B
330
1F
100
AcDbEntity
  8
0
  6
CONTINUOUS
 62
     7
100
AcDbCircle
 10
56.0391280224
 20
222.9340439614
 30
0.0
 40
2.5
100
AcDbArc
 50
180.0
 51
270.0
  0
ARC
  5
21C
330
1F
100
AcDbEntity
  8
0
  6
CONTINUOUS
 62
     7
100
AcDbCircle
 10
56.0391280224
 20
222.9340439614
 30
0.0
 40
2.0
100
AcDbArc
 50
180.0
 51
270.0
  0
CIRCLE
  5
21D
330
1F
100
AcDbEntity
  8
0
  6
CONTINUOUS
 62
     7
100
AcDbCircle
 10
156.2891280224
 20
304.8840439614
 30
0.0
 40
1.25
  0
CIRCLE
  5
21E
330
1F
100
AcDbEntity
  8
0
  6
CONTINUOUS
 62
     7
100
AcDbCircle
 10
54.7891280224
 20
304.8840439614
 30
0.0
 40
1.249999999999993
  0
CIRCLE
  5
21F
330
1F
100
AcDbEntity
  8
0
  6
CONTINUOUS
 62
     7
100
AcDbCircle
 10
105.5391280224
 20
215.9840439614
 30
0.0
 40
1.249999999999986
  0
LINE
  5
220
330
1F
100
AcDbEntity
  8
0
  6
CONTINUOUS
 62
     7
100
AcDbLine
 10
157.5391290953
 20
297.9340454515
 30
0.0
 11
157.5391290953
 21
222.9340424713
 31
0.0
  0
ARC
  5
221
330
1F
100
AcDbEntity
  8
0
  6
CONTINUOUS
 62
     7
100
AcDbCircle
 10
155.0391280224
 20
297.9340439614
 30
0.0
 40
2.5
100
AcDbArc
 50
0.0
 51
90.0
  0
LINE
  5
222
330
1F
100
AcDbEntity
  8
0
  6
CONTINUOUS
 62
     7
100
AcDbLine
 10
56.0391282906
 20
300.4340430673
 30
0.0
 11
155.0391277542
 21
300.4340430673
 31
0.0
  0
ARC
  5
223
330
1F
100
AcDbEntity
  8
0
  6
CONTINUOUS
 62
     7
100
AcDbCircle
 10
56.0391280224
 20
297.9340439614
 30
0.0
 40
2.5
100
AcDbArc
 50
90.0
 51
180.0
  0
LINE
  5
224
330
1F
100
AcDbEntity
  8
0
  6
CONTINUOUS
 62
     7
100
AcDbLine
 10
53.5391269495
 20
222.9340424713
 30
0.0
 11
53.5391269495
 21
297.9340454515
 31
0.0
  0
ARC
  5
225
330
1F
100
AcDbEntity
  8
0
  6
CONTINUOUS
 62
     7
100
AcDbCircle
 10
155.0391280224
 20
222.9340439614
 30
0.0
 40
2.5
100
AcDbArc
 50
270.0
 51
0.0
  0
ARC
  5
226
330
1F
100
AcDbEntity
  8
0
  6
CONTINUOUS
 62
     7
100
AcDbCircle
 10
135.4812365632
 20
291.3761525022
 30
0.0
 40
34.05789145920374
100
AcDbArc
 50
0.0
 51
90.0
  0
LINE
  5
227
330
1F
100
AcDbEntity
  8
0
  6
CONTINUOUS
 62
     7
100
AcDbLine
 10
169.5391310623
 20
229.4919354793
 30
0.0
 11
169.5391310623
 21
291.3761524435
 31
0.0
  0
ARC
  5
228
330
1F
100
AcDbEntity
  8
0
  6
CONTINUOUS
 62
     7
100
AcDbCircle
 10
135.4812365632
 20
229.4919354206
 30
0.0
 40
34.05789145920377
100
AcDbArc
 50
270.0
 51
0.0
  0
LINE
  5
229
330
1F
100
AcDbEntity
  8
0
  6
CONTINUOUS
 62
     7
100
AcDbLine
 10
75.5970197042
 20
195.4340463456
 30
0.0
 11
135.4812363406
 21
195.4340463456
 31
0.0
  0
ARC
  5
22A
330
1F
100
AcDbEntity
  8
0
  6
CONTINUOUS
 62
     7
100
AcDbCircle
 10
75.5970194816
 20
229.4919354206
 30
0.0
 40
34.05789145920375
100
AcDbArc
 50
180.0
 51
270.0
  0
LINE
  5
22B
330
1F
100
AcDbEntity
  8
0
  6
CONTINUOUS
 62
     7
100
AcDbLine
 10
41.5391249826
 20
291.3761524435
 30
0.0
 11
41.5391249826
 21
229.4919354793
 31
0.0
  0
ARC
  5
22C
330
1F
100
AcDbEntity
  8
0
  6
CONTINUOUS
 62
     7
100
AcDbCircle
 10
75.5970194816
 20
291.3761525022
 30
0.0
 40
34.05789145920374
100
AcDbArc
 50
90.0
 51
180.0
  0
LINE
  5
22D
330
1F
100
AcDbEntity
  8
0
  6
CONTINUOUS
 62
     7
100
AcDbLine
 10
93.2446064671
 20
325.4340415772
 30
0.0
 11
75.5970197042
 21
325.4340415772
 31
0.0
  0
LWPOLYLINE
  5
22E
330
1F
100
AcDbEntity
  8
0
  6
CONTINUOUS
 62
     7
100
AcDbPolyline
 90
       24
 70
   128
 43
0.0
 10
93.2446064671
 20
325.4340415772
 10
92.4696929997
 20
323.0160301503
 10
91.9660672789
 20
320.6101892468
 10
91.748523364
 20
318.2755684432
 10
91.8305170035
 20
316.0625820931
 10
92.2266401594
 20
314.0259286341
 10
92.9514857253
 20
312.2203176793
 10
93.8835524266
 20
310.8535161194
 10
95.0970499089
 20
309.7508264657
 10
96.5865252783
 20
308.9351927813
 10
98.3123055903
 20
308.3957893726
 10
100.2301777025
 20
308.1173239228
 10
102.2959308011
 20
308.0845003899
 10
105.5751258591
 20
308.4623901125
 10
108.9383653143
 20
309.3069432255
 10
112.2364362945
 20
310.5665458318
 10
115.3201254328
 20
312.1895765837
 10
117.5324514752
 20
313.7149786528
 10
119.4356799369
 20
315.4135135886
 10
120.953413496
 20
317.2587504562
 10
122.0092548301
 20
319.2242583212
 10
122.5284504017
 20
321.2836062487
 10
122.514050292
 20
323.3394449529
 10
122.0719868561
 20
325.4340415772
  0
LINE
  5
22F
330
1F
100
AcDbEntity
  8
0
  6
CONTINUOUS
 62
     7
100
AcDbLine
 10
75.5970197042
 20
325.9340425905
 30
0.0
 11
93.4387583529
 21
325.9340425905
 31
0.0
  0
LINE
  5
230
330
1F
100
AcDbEntity
  8
0
  6
CONTINUOUS
 62
     7
100
AcDbLine
 10
93.4387583529
 20
325.9340425905
 30
0.0
 11
93.2446064671
 21
325.4340415772
 31
0.0
  0
ARC
  5
231
330
1F
100
AcDbEntity
  8
0
  6
CONTINUOUS
 62
     7
100
AcDbCircle
 10
75.5970194816
 20
291.3761525022
 30
0.0
 40
34.55789145920378
100
AcDbArc
 50
90.0
 51
180.0
  0
ARC
  5
232
330
1F
100
AcDbEntity
  8
0
  6
CONTINUOUS
 62
     7
100
AcDbCircle
 10
135.4812365632
 20
291.3761525022
 30
0.0
 40
34.5578914592038
100
AcDbArc
 50
0.0
 51
90.0
  0
LINE
  5
233
330
1F
100
AcDbEntity
  8
0
  6
CONTINUOUS
 62
     7
100
AcDbLine
 10
41.0391314199
 20
229.4919354793
 30
0.0
 11
41.0391314199
 21
291.3761524435
 31
0.0
  0
LINE
  5
234
330
1F
100
AcDbEntity
  8
0
  6
CONTINUOUS
 62
     7
100
AcDbLine
 10
170.039124625
 20
291.3761524435
 30
0.0
 11
170.039124625
 21
229.4919354793
 31
0.0
  0
ARC
  5
235
330
1F
100
AcDbEntity
  8
0
  6
CONTINUOUS
 62
     7
100
AcDbCircle
 10
75.5970194816
 20
229.4919354206
 30
0.0
 40
34.55789145920377
100
AcDbArc
 50
180.0
 51
270.0
  0
LINE
  5
236
330
1F
100
AcDbEntity
  8
0
  6
CONTINUOUS
 62
     7
100
AcDbLine
 10
157.039128082
 20
222.9340424713
 30
0.0
 11
157.039128082
 21
297.9340454515
 31
0.0
  0
ARC
  5
237
330
1F
100
AcDbEntity
  8
0
  6
CONTINUOUS
 62
     7
100
AcDbCircle
 10
155.0391280224
 20
297.9340439614
 30
0.0
 40
2.0
100
AcDbArc
 50
0.0
 51
90.0
  0
ARC
  5
238
330
1F
100
AcDbEntity
  8
0
  6
CONTINUOUS
 62
     7
100
AcDbCircle
 10
155.0391280224
 20
222.9340439614
 30
0.0
 40
2.0
100
AcDbArc
 50
270.0
 51
0.0
  0
LINE
  5
239
330
1F
100
AcDbEntity
  8
0
  6
CONTINUOUS
 62
     7
100
AcDbLine
 10
155.0391277542
 20
299.9340457794
 30
0.0
 11
56.0391282906
 21
299.9340457794
 31
0.0
  0
LINE
  5
23A
330
1F
100
AcDbEntity
  8
0
  6
CONTINUOUS
 62
     7
100
AcDbLine
 10
54.0391279628
 20
297.9340454515
 30
0.0
 11
54.0391279628
 21
222.9340424713
 31
0.0
  0
ARC
  5
23B
330
1F
100
AcDbEntity
  8
0
  6
CONTINUOUS
 62
     7
100
AcDbCircle
 10
56.0391280224
 20
297.9340439614
 30
0.0
 40
2.0
100
AcDbArc
 50
90.0
 51
180.0
  0
LINE
  5
23C
330
1F
100
AcDbEntity
  8
0
  6
CONTINUOUS
 62
     7
100
AcDbLine
 10
135.4812363406
 20
194.9340453323
 30
0.0
 11
75.5970197042
 21
194.9340453323
 31
0.0
  0
ARC
  5
23D
330
1F
100
AcDbEntity
  8
0
  6
CONTINUOUS
 62
     7
100
AcDbCircle
 10
135.4812365632
 20
229.4919354206
 30
0.0
 40
34.5578914592038
100
AcDbArc
 50
270.0
 51
0.0
  0
CIRCLE
  5
23E
330
1F
100
AcDbEntity
  8
0
  6
CONTINUOUS
 62
     7
100
AcDbCircle
 10
156.2891280224
 20
304.8840439614
 30
0.0
 40
1.000000000000007
  0
CIRCLE
  5
23F
330
1F
100
AcDbEntity
  8
0
  6
CONTINUOUS
 62
     7
100
AcDbCircle
 10
54.7891280224
 20
304.8840439614
 30
0.0
 40
1.000000000000046
  0
CIRCLE
  5
240
330
1F
100
AcDbEntity
  8
0
  6
CONTINUOUS
 62
     7
100
AcDbCircle
 10
105.5391280224
 20
215.9840439614
 30
0.0
 40
1.000000000000007
  0
HATCH
  5
241
330
1F
100
AcDbEntity
  8
0
  6
CONTINUOUS
 62
     7
100
AcDbHatch
 10
0.0
 20
0.0
 30
0.0
210
0.0
220
0.0
230
1.0
  2
ANSI31
 70
     0
 71
     0
 91
        1
 92
        0
 93
        6
 72
     4
 94
        3
 73
     1
 74
     0
 95
        8
 96
        4
 40
0.0000000000000003
 40
0.0000000000000003
 40
0.0000000000000003
 40
0.0000000000000003
 40
0.0007246083515671
 40
0.0007246083515671
 40
0.0007246083515671
 40
0.0007246083515671
 10
122.0719868392104
 20
325.4340439614115
 42
1.0
 10
122.0221970745381
 20
325.601167680914
 42
1.0
 10
121.9693487477841
 20
325.7678482637272
 42
1.0
 10
121.9136919777628
 20
325.9340439614116
 42
1.0
 72
     4
 94
        3
 73
     1
 74
     0
 95
        8
 96
        4
 40
0.0
 40
0.0
 40
0.0
 40
0.0
 40
0.000724608351567
 40
0.000724608351567
 40
0.000724608351567
 40
0.000724608351567
 10
121.9136919777628
 20
325.9340439614116
 42
1.0
 10
121.9693487477841
 20
325.7678482637272
 42
1.0
 10
122.0221970745381
 20
325.601167680914
 42
1.0
 10
122.0719868392103
 20
325.4340439614116
 42
1.0
 72
     4
 94
        3
 73
     1
 74
     0
 95
       10
 96
        6
 40
0.0766459433929193
 40
0.0766459433929193
 40
0.0766459433929193
 40
0.0766459433929193
 40
0.1346544236546618
 40
0.4626342827380439
 40
0.6407082666491954
 40
0.6407082666491954
 40
0.6407082666491954
 40
0.6407082666491954
 10
122.0719868392104
 20
325.4340439614112
 42
1.0
 10
122.5737654841975
 20
323.7497798547392
 42
1.0
 10
123.7280610775244
 20
312.6358269426207
 42
1.0
 10
91.43971837958469
 20
300.9010998684474
 42
1.0
 10
90.95497284998599
 20
319.3519898234119
 42
1.0
 10
93.24460652142946
 20
325.4340439614116
 42
1.0
 72
     4
 94
        3
 73
     1
 74
     0
 95
        8
 96
        4
 40
0.0
 40
0.0
 40
0.0
 40
0.0
 40
0.0007332769165526
 40
0.0007332769165526
 40
0.0007332769165526
 40
0.0007332769165526
 10
93.24460652142945
 20
325.4340439614116
 42
1.0
 10
93.30748197406668
 20
325.6010627782906
 42
1.0
 10
93.3722003147737
 20
325.7677401952391
 42
1.0
 10
93.43875861734641
 20
325.9340439614116
 42
1.0
 72
     4
 94
        3
 73
     1
 74
     0
 95
        8
 96
        4
 40
0.0
 40
0.0
 40
0.0
 40
0.0
 40
0.0007332769165518
 40
0.0007332769165518
 40
0.0007332769165518
 40
0.0007332769165518
 10
93.43875861734641
 20
325.9340439614116
 42
1.0
 10
93.37220031477379
 20
325.7677401952392
 42
1.0
 10
93.30748197406682
 20
325.601062778291
 42
1.0
 10
93.24460652142966
 20
325.4340439614121
 42
1.0
 72
     4
 94
        3
 73
     1
 74
     0
 95
       10
 96
        6
 40
0.3592917333507992
 40
0.3592917333507992
 40
0.3592917333507992
 40
0.3592917333507992
 40
0.5373657172619561
 40
0.8653455763453382
 40
0.9233540566070806
 40
0.9233540566070806
 40
0.9233540566070806
 40
0.9233540566070806
 10
93.24460652142967
 20
325.4340439614121
 42
1.0
 10
90.95497284998598
 20
319.3519898234123
 42
1.0
 10
91.43971837958438
 20
300.9010998684473
 42
1.0
 10
123.7280610775243
 20
312.6358269426207
 42
1.0
 10
122.5737654841975
 20
323.7497798547392
 42
1.0
 10
122.0719868392105
 20
325.4340439614112
 42
1.0
 97
        0
 75
     0
 76
     1
 52
0.0
 41
2.0
 77
     0
 78
     1
 53
45.0
 43
0.0
 44
0.0
 45
-4.490128060534576
 46
4.490128060534577
 79
     0
 98
        1
 10
0.0
 20
0.0
  0
HATCH
  5
242
330
1F
100
AcDbEntity
  8
0
  6
CONTINUOUS
 62
     7
100
AcDbHatch
 10
0.0
 20
0.0
 30
0.0
210
0.0
220
0.0
230
1.0
  2
ANSI31
 70
     0
 71
     0
 91
        1
 92
        0
 93
        1
 72
     2
 10
105.5391280224264
 20
313.9340439614115
 40
3.1
 50
0.0
 51
360.0
 73
     1
 97
        0
 75
     0
 76
     1
 52
0.0
 41
2.0
 77
     0
 78
     1
 53
45.0
 43
0.0
 44
0.0
 45
-4.490128060534576
 46
4.490128060534577
 79
     0
 98
        1
 10
0.0
 20
0.0
  0
HATCH
  5
243
330
1F
100
AcDbEntity
  8
0
  6
CONTINUOUS
 62
     7
100
AcDbHatch
 10
0.0
 20
0.0
 30
0.0
210
0.0
220
0.0
230
1.0
  2
ANSI38
 70
     0
 71
     0
 91
        2
 92
        0
 93
        2
 72
     1
 10
121.9136919777629
 20
325.9340439614114
 11
93.43875861734679
 21
325.9340439614125
 72
     4
 94
        3
 73
     1
 74
     0
 95
       10
 96
        6
 40
0.3544020963495931
 40
0.3544020963495931
 40
0.3544020963495931
 40
0.3544020963495931
 40
0.5373657172619561
 40
0.8653455763453382
 40
0.929090200392496
 40
0.929090200392496
 40
0.929090200392496
 40
0.929090200392496
 10
93.43875861734679
 20
325.9340439614125
 42
1.0
 10
90.94826452072942
 20
319.7112508328556
 42
1.0
 10
91.15982328882197
 20
300.7993760813138
 42
1.0
 10
124.056412340624
 20
312.7551614186259
 42
1.0
 10
122.5343231572346
 20
324.0807881609501
 42
1.0
 10
121.9136919777616
 20
325.9340439614152
 42
1.0
 97
        0
 92
        0
 93
        1
 72
     2
 10
105.5391280224264
 20
313.9340439614115
 40
3.100000000000024
 50
0.0
 51
360.0
 73
     1
 97
        0
 75
     0
 76
     1
 52
0.0
 41
2.0
 77
     0
 78
     2
 53
45.0
 43
0.0
 44
0.0
 45
-4.490128060534576
 46
4.490128060534577
 79
     0
 53
135.0
 43
0.0
 44
0.0
 45
-13.47038418160373
 46
4.490128060534578
 79
     2
 49
15.875
 49
-9.525
 98
        1
 10
0.0
 20
0.0
  0
HATCH
  5
244
330
1F
100
AcDbEntity
  8
0
  6
CONTINUOUS
 62
     7
100
AcDbHatch
 10
0.0
 20
0.0
 30
0.0
210
0.0
220
0.0
230
1.0
  2
ANSI38
 70
     0
 71
     0
 91
        1
 92
        0
 93
        4
 72
     4
 94
        3
 73
     1
 74
     0
 95
        8
 96
        4
 40
0.0
 40
0.0
 40
0.0
 40
0.0
 40
0.0007332769165521
 40
0.0007332769165521
 40
0.0007332769165521
 40
0.0007332769165521
 10
93.43875861734641
 20
325.9340439614116
 42
1.0
 10
93.3722003147737
 20
325.7677401952391
 42
1.0
 10
93.30748197406668
 20
325.6010627782906
 42
1.0
 10
93.24460652142945
 20
325.4340439614116
 42
1.0
 72
     4
 94
        3
 73
     1
 74
     0
 95
       10
 96
        6
 40
0.3592917333507985
 40
0.3592917333507985
 40
0.3592917333507985
 40
0.3592917333507985
 40
0.5373657172619561
 40
0.8653455763453382
 40
0.9233540566070852
 40
0.9233540566070852
 40
0.9233540566070852
 40
0.9233540566070852
 10
93.2446065214297
 20
325.4340439614122
 42
1.0
 10
90.95497284998598
 20
319.3519898234123
 42
1.0
 10
91.43971837958433
 20
300.9010998684473
 42
1.0
 10
123.7280610775246
 20
312.6358269426208
 42
1.0
 10
122.5737654841975
 20
323.7497798547395
 42
1.0
 10
122.0719868392103
 20
325.4340439614116
 42
1.0
 72
     4
 94
        3
 73
     1
 74
     0
 95
        8
 96
        4
 40
0.0
 40
0.0
 40
0.0
 40
0.0
 40
0.000724608351567
 40
0.000724608351567
 40
0.000724608351567
 40
0.000724608351567
 10
122.0719868392103
 20
325.4340439614116
 42
1.0
 10
122.0221970745381
 20
325.601167680914
 42
1.0
 10
121.9693487477841
 20
325.7678482637272
 42
1.0
 10
121.9136919777628
 20
325.9340439614116
 42
1.0
 72
     4
 94
        3
 73
     1
 74
     0
 95
       10
 96
        6
 40
0.0709097996074601
 40
0.0709097996074601
 40
0.0709097996074601
 40
0.0709097996074601
 40
0.1346544236546618
 40
0.4626342827380439
 40
0.6455979036504069
 40
0.6455979036504069
 40
0.6455979036504069
 40
0.6455979036504069
 10
121.9136919777603
 20
325.934043961419
 42
1.0
 10
122.5343231572343
 20
324.0807881609526
 42
1.0
 10
124.0564123406266
 20
312.7551614186268
 42
1.0
 10
91.15982328882197
 20
300.7993760813138
 42
1.0
 10
90.94826452072942
 20
319.7112508328556
 42
1.0
 10
93.43875861734679
 20
325.9340439614125
 42
1.0
 97
        0
 75
     0
 76
     1
 52
0.0
 41
2.0
 77
     0
 78
     2
 53
45.0
 43
0.0
 44
0.0
 45
-4.490128060534576
 46
4.490128060534577
 79
     0
 53
135.0
 43
0.0
 44
0.0
 45
-13.47038418160373
 46
4.490128060534578
 79
     2
 49
15.875
 49
-9.525
 98
        1
 10
0.0
 20
0.0
  0
DIMENSION
  5
245
330
1F
100
AcDbEntity
  8
RIQUADRO
100
AcDbDimension
  2
_D
 10
33.9995595865
 20
180.4340439614
 30
0.0
 11
33.9995595865
 21
218.7129848039
 31
0.0
 70
   160
  1
<>
  3
SLDDIMSTYLE0
100
AcDbAlignedDimension
 13
52.0391280224
 23
260.4340439614
 33
0.0
 14
41.5391280224
 24
180.4340439614
 34
0.0
 50
90.0
100
AcDbRotatedDimension
  0
DIMENSION
  5
257
330
1F
100
AcDbEntity
  8
RIQUADRO
100
AcDbDimension
  2
_D_1
 10
185.5255870867
 20
220.9340439614
 30
0.0
 11
185.5255870867
 21
256.4871829048
 31
0.0
 70
   160
  1
<>
  3
SLDDIMSTYLE0
100
AcDbAlignedDimension
 13
155.0391280224
 23
299.9340439614
 33
0.0
 14
155.0391280224
 24
220.9340439614
 34
0.0
 50
90.0
100
AcDbRotatedDimension
  0
DIMENSION
  5
261
330
1F
100
AcDbEntity
  8
RIQUADRO
100
AcDbDimension
  2
_D_2
 10
54.0391280224
 20
370.1918046963
 30
0.0
 11
105.865337189
 21
370.1918046963
 31
0.0
 70
   160
  1
<>
  3
SLDDIMSTYLE0
100
AcDbAlignedDimension
 13
157.0391280224
 23
297.9340439614
 33
0.0
 14
54.0391280224
 24
297.9340439614
 34
0.0
100
AcDbRotatedDimension
  0
DIMENSION
  5
26B
330
1F
100
AcDbEntity
  8
RIQUADRO
100
AcDbDimension
  2
_D_3
 10
170.0391280224
 20
162.9633714643
 30
0.0
 11
105.2834046681
 21
162.9633714643
 31
0.0
 70
   160
  1
<>
  3
SLDDIMSTYLE0
100
AcDbAlignedDimension
 13
41.0391280224
 23
180.4340439614
 33
0.0
 14
170.0391280224
 24
180.4340439614
 34
0.0
100
AcDbRotatedDimension
  0
INSERT
  5
27F
330
1F
100
AcDbEntity
  8
RIQUADRO
100
AcDbBlockReference
  2
SW_NOTE_10
 10
138.6649874055
 20
350.360302267
 30
0.0
  0
LEADER
  5
289
330
1F
100
AcDbEntity
  8
RIQUADRO
100
AcDbLeader
  3
SLDDIMSTYLE1
 76
     2
 10
106.0314118889
 20
314.3902461823
 30
0.0
 10
138.6649874055
 20
350.360302267
 30
0.0
1001
ACAD
1000
DSTYLE
1002
{
1070
     6
1000
DOT
1002
}
  0
LINE
  5
28A
330
1F
100
AcDbEntity
  8
RIQUADRO
  6
CENTERX2
100
AcDbLine
 10
105.5391280224
 20
301.9340439614
 30
0.0
 11
105.5391280224
 21
218.9340439614
 31
0.0
  0
LINE
  5
28B
330
1F
100
AcDbEntity
  8
RIQUADRO
  6
CENTERX2
100
AcDbLine
 10
52.0391280224
 20
260.4340439614
 30
0.0
 11
159.0391280224
 21
260.4340439614
 31
0.0
  0
LINE
  5
28C
330
1F
100
AcDbEntity
  8
0
  6
CONTINUOUS
 62
     7
100
AcDbLine
 10
191.801599846
 20
189.9340426501
 30
0.0
 11
191.801599846
 21
180.4340457496
 31
0.0
  0
LINE
  5
28D
330
1F
100
AcDbEntity
  8
0
  6
CONTINUOUS
 62
     7
100
AcDbLine
 10
200.8015999243
 20
189.9340426501
 30
0.0
 11
191.801599846
 21
189.9340426501
 31
0.0
  0
LINE
  5
28E
330
1F
100
AcDbEntity
  8
0
  6
CONTINUOUS
 62
     7
100
AcDbLine
 10
200.8015999243
 20
189.9340426501
 30
0.0
 11
201.3015995406
 21
190.4340436634
 31
0.0
  0
LINE
  5
28F
330
1F
100
AcDbEntity
  8
0
  6
CONTINUOUS
 62
     7
100
AcDbLine
 10
201.3015995406
 20
190.4340436634
 30
0.0
 11
201.8015996225
 21
190.9340446767
 31
0.0
  0
LINE
  5
290
330
1F
100
AcDbEntity
  8
0
  6
CONTINUOUS
 62
     7
100
AcDbLine
 10
201.8015996225
 20
291.3761524435
 30
0.0
 11
201.8015996225
 21
190.9340446767
 31
0.0
  0
LINE
  5
291
330
1F
100
AcDbEntity
  8
0
  6
CONTINUOUS
 62
     7
100
AcDbLine
 10
210.8015997007
 20
180.4340457496
 30
0.0
 11
210.8015997007
 21
291.3761524435
 31
0.0
  0
LINE
  5
292
330
1F
100
AcDbEntity
  8
0
  6
CONTINUOUS
 62
     7
100
AcDbLine
 10
191.801599846
 20
180.4340457496
 30
0.0
 11
210.8015997007
 21
180.4340457496
 31
0.0
  0
LINE
  5
293
330
1F
100
AcDbEntity
  8
0
  6
CONTINUOUS
 62
     7
100
AcDbLine
 10
191.3015988328
 20
180.4340457496
 30
0.0
 11
191.3015988328
 21
189.9340426501
 31
0.0
  0
LINE
  5
294
330
1F
100
AcDbEntity
  8
0
  6
CONTINUOUS
 62
     7
100
AcDbLine
 10
191.3015988328
 20
189.9340426501
 30
0.0
 11
191.801599846
 21
189.9340426501
 31
0.0
  0
LINE
  5
295
330
1F
100
AcDbEntity
  8
0
  6
CONTINUOUS
 62
     7
100
AcDbLine
 10
191.801599846
 20
180.4340457496
 30
0.0
 11
191.3015988328
 21
180.4340457496
 31
0.0
  0
LINE
  5
296
330
1F
100
AcDbEntity
  8
0
  6
CONTINUOUS
 62
     7
100
AcDbLine
 10
191.801599846
 20
190.4340436634
 30
0.0
 11
191.801599846
 21
189.9340426501
 31
0.0
  0
LINE
  5
297
330
1F
100
AcDbEntity
  8
0
  6
CONTINUOUS
 62
     7
100
AcDbLine
 10
191.801599846
 20
190.4340436634
 30
0.0
 11
191.3015988328
 21
189.9340426501
 31
0.0
  0
LINE
  5
298
330
1F
100
AcDbEntity
  8
0
  6
CONTINUOUS
 62
     7
100
AcDbLine
 10
191.801599846
 20
190.4340436634
 30
0.0
 11
200.8015999243
 21
190.4340436634
 31
0.0
  0
LINE
  5
299
330
1F
100
AcDbEntity
  8
0
  6
CONTINUOUS
 62
     7
100
AcDbLine
 10
200.8015999243
 20
190.4340436634
 30
0.0
 11
200.8015999243
 21
189.9340426501
 31
0.0
  0
LINE
  5
29A
330
1F
100
AcDbEntity
  8
0
  6
CONTINUOUS
 62
     7
100
AcDbLine
 10
201.3015995406
 20
190.9340446767
 30
0.0
 11
201.3015995406
 21
291.3761524435
 31
0.0
  0
LINE
  5
29B
330
1F
100
AcDbEntity
  8
0
  6
CONTINUOUS
 62
     7
100
AcDbLine
 10
201.3015995406
 20
190.9340446767
 30
0.0
 11
201.8015996225
 21
190.9340446767
 31
0.0
  0
LINE
  5
29C
330
1F
100
AcDbEntity
  8
0
  6
CONTINUOUS
 62
     7
100
AcDbLine
 10
201.3015995406
 20
190.9340446767
 30
0.0
 11
200.8015999243
 21
190.4340436634
 31
0.0
  0
LINE
  5
29D
330
1F
100
AcDbEntity
  8
0
  6
CONTINUOUS
 62
     7
100
AcDbLine
 10
211.3015997827
 20
291.3761524435
 30
0.0
 11
211.3015997827
 21
180.4340457496
 31
0.0
  0
LINE
  5
29E
330
1F
100
AcDbEntity
  8
0
  6
CONTINUOUS
 62
     7
100
AcDbLine
 10
211.3015997827
 20
180.4340457496
 30
0.0
 11
210.8015997007
 21
180.4340457496
 31
0.0
  0
LINE
  5
29F
330
1F
100
AcDbEntity
  8
0
  6
CONTINUOUS
 62
     7
100
AcDbLine
 10
201.8015996225
 20
325.9340425905
 30
0.0
 11
201.8015996225
 21
291.3761524435
 31
0.0
  0
LINE
  5
2A0
330
1F
100
AcDbEntity
  8
0
  6
CONTINUOUS
 62
     7
100
AcDbLine
 10
201.3015995406
 20
291.3761524435
 30
0.0
 11
201.3015995406
 21
325.4340415772
 31
0.0
  0
LINE
  5
2A1
330
1F
100
AcDbEntity
  8
0
  6
CONTINUOUS
 62
     7
100
AcDbLine
 10
201.8015996225
 20
325.9340425905
 30
0.0
 11
201.3015995406
 21
325.4340415772
 31
0.0
  0
LINE
  5
2A2
330
1F
100
AcDbEntity
  8
0
  6
CONTINUOUS
 62
     7
100
AcDbLine
 10
211.3015997827
 20
325.4340415772
 30
0.0
 11
211.3015997827
 21
291.3761524435
 31
0.0
  0
LINE
  5
2A3
330
1F
100
AcDbEntity
  8
0
  6
CONTINUOUS
 62
     7
100
AcDbLine
 10
210.8015997007
 20
291.3761524435
 30
0.0
 11
210.8015997007
 21
325.9340425905
 31
0.0
  0
LINE
  5
2A4
330
1F
100
AcDbEntity
  8
0
  6
CONTINUOUS
 62
     7
100
AcDbLine
 10
211.3015997827
 20
325.4340415772
 30
0.0
 11
210.8015997007
 21
325.9340425905
 31
0.0
  0
LINE
  5
2A5
330
1F
100
AcDbEntity
  8
0
  6
CONTINUOUS
 62
     7
100
AcDbLine
 10
201.8015996225
 20
325.9340425905
 30
0.0
 11
210.8015997007
 21
325.9340425905
 31
0.0
  0
LINE
  5
2A6
330
1F
100
AcDbEntity
  8
0
  6
CONTINUOUS
 62
     7
100
AcDbLine
 10
213.8015997268
 20
229.4919354793
 30
0.0
 11
213.8015997268
 21
291.3761524435
 31
0.0
  0
LINE
  5
2A7
330
1F
100
AcDbEntity
  8
0
  6
CONTINUOUS
 62
     7
100
AcDbLine
 10
211.8015998647
 20
291.3761524435
 30
0.0
 11
211.8015998647
 21
229.4919354793
 31
0.0
  0
LINE
  5
2A8
330
1F
100
AcDbEntity
  8
0
  6
CONTINUOUS
 62
     7
100
AcDbLine
 10
213.8015997268
 20
291.3761524435
 30
0.0
 11
213.8015997268
 21
325.9340425905
 31
0.0
  0
LINE
  5
2A9
330
1F
100
AcDbEntity
  8
0
  6
CONTINUOUS
 62
     7
100
AcDbLine
 10
211.8015998647
 20
325.9340425905
 30
0.0
 11
211.8015998647
 21
291.3761524435
 31
0.0
  0
LINE
  5
2AA
330
1F
100
AcDbEntity
  8
0
  6
CONTINUOUS
 62
     7
100
AcDbLine
 10
213.8015997268
 20
325.9340425905
 30
0.0
 11
211.8015998647
 21
325.9340425905
 31
0.0
  0
LINE
  5
2AB
330
1F
100
AcDbEntity
  8
0
  6
CONTINUOUS
 62
     7
100
AcDbLine
 10
214.3015998088
 20
325.4340415772
 30
0.0
 11
214.3015998088
 21
291.3761524435
 31
0.0
  0
LINE
  5
2AC
330
1F
100
AcDbEntity
  8
0
  6
CONTINUOUS
 62
     7
100
AcDbLine
 10
214.3015998088
 20
325.4340415772
 30
0.0
 11
213.8015997268
 21
325.9340425905
 31
0.0
  0
LINE
  5
2AD
330
1F
100
AcDbEntity
  8
0
  6
CONTINUOUS
 62
     7
100
AcDbLine
 10
214.3015998088
 20
291.3761524435
 30
0.0
 11
214.3015998088
 21
229.4919354793
 31
0.0
  0
LINE
  5
2AE
330
1F
100
AcDbEntity
  8
0
  6
CONTINUOUS
 62
     7
100
AcDbLine
 10
211.8015998647
 20
325.9340425905
 30
0.0
 11
211.3015997827
 21
325.4340415772
 31
0.0
  0
LINE
  5
2AF
330
1F
100
AcDbEntity
  8
0
  6
CONTINUOUS
 62
     7
100
AcDbLine
 10
211.3015997827
 20
229.4919354793
 30
0.0
 11
211.3015997827
 21
291.3761524435
 31
0.0
  0
LINE
  5
2B0
330
1F
100
AcDbEntity
  8
0
  6
CONTINUOUS
 62
     7
100
AcDbLine
 10
211.8015998647
 20
229.4919354793
 30
0.0
 11
211.8015998647
 21
194.9340453323
 31
0.0
  0
LINE
  5
2B1
330
1F
100
AcDbEntity
  8
0
  6
CONTINUOUS
 62
     7
100
AcDbLine
 10
211.8015998647
 20
194.9340453323
 30
0.0
 11
211.3015997827
 21
195.4340463456
 31
0.0
  0
LINE
  5
2B2
330
1F
100
AcDbEntity
  8
0
  6
CONTINUOUS
 62
     7
100
AcDbLine
 10
213.8015997268
 20
194.9340453323
 30
0.0
 11
213.8015997268
 21
229.4919354793
 31
0.0
  0
LINE
  5
2B3
330
1F
100
AcDbEntity
  8
0
  6
CONTINUOUS
 62
     7
100
AcDbLine
 10
213.8015997268
 20
194.9340453323
 30
0.0
 11
211.8015998647
 21
194.9340453323
 31
0.0
  0
LINE
  5
2B4
330
1F
100
AcDbEntity
  8
0
  6
CONTINUOUS
 62
     7
100
AcDbLine
 10
214.3015998088
 20
229.4919354793
 30
0.0
 11
214.3015998088
 21
195.4340463456
 31
0.0
  0
LINE
  5
2B5
330
1F
100
AcDbEntity
  8
0
  6
CONTINUOUS
 62
     7
100
AcDbLine
 10
214.3015998088
 20
195.4340463456
 30
0.0
 11
213.8015997268
 21
194.9340453323
 31
0.0
  0
DIMENSION
  5
2B6
330
1F
100
AcDbEntity
  8
RIQUADRO
100
AcDbDimension
  2
_D_4
 10
191.3015997566
 20
350.9489387873
 30
0.0
 11
203.9798876994
 21
350.9489387873
 31
0.0
 70
   160
  1
<>
  3
SLDDIMSTYLE0
100
AcDbAlignedDimension
 13
214.3015997566
 23
325.4340439614
 33
0.0
 14
191.3015997566
 24
189.9340439614
 34
0.0
100
AcDbRotatedDimension
  0
DIMENSION
  5
2C0
330
1F
100
AcDbEntity
  8
RIQUADRO
100
AcDbDimension
  2
_D_5
 10
214.3015997566
 20
336.9359656536
 30
0.0
 11
208.0592932551
 21
336.9359656536
 31
0.0
 70
   160
  1
<>
  3
SLDDIMSTYLE0
100
AcDbAlignedDimension
 13
201.3015997566
 23
325.4340439614
 33
0.0
 14
214.3015997566
 24
325.4340439614
 34
0.0
100
AcDbRotatedDimension
  0
DIMENSION
  5
2CA
330
1F
100
AcDbEntity
  8
RIQUADRO
100
AcDbDimension
  2
_D_6
 10
229.8000320523
 20
180.4340439614
 30
0.0
 11
229.8000320523
 21
251.4113542137
 31
0.0
 70
   160
  1
<>
  3
SLDDIMSTYLE0
100
AcDbAlignedDimension
 13
210.8015997566
 23
325.9340439614
 33
0.0
 14
211.3015997566
 24
180.4340439614
 34
0.0
 50
90.0
100
AcDbRotatedDimension
  0
ARC
  5
2D4
330
1F
100
AcDbEntity
  8
0
  6
CONTINUOUS
 62
     7
100
AcDbCircle
 10
270.7590282104
 20
202.1578402
 30
0.0
 40
71.93394920649196
100
AcDbArc
 50
342.4224483055
 51
350.2162011073
  0
LWPOLYLINE
  5
2D5
330
1F
100
AcDbEntity
  8
0
  6
CONTINUOUS
 62
     7
100
AcDbPolyline
 90
        4
 70
   128
 43
0.0
 10
296.7989138506
 20
180.4340457496
 10
294.6462343625
 20
184.4225278076
 10
292.5278573475
 20
188.4709646877
 10
291.7288384579
 20
189.9340426501
  0
LINE
  5
2D6
330
1F
100
AcDbEntity
  8
0
  6
CONTINUOUS
 62
     7
100
AcDbLine
 10
341.646769195
 20
189.9340426501
 30
0.0
 11
291.7288384579
 21
189.9340426501
 31
0.0
  0
LINE
  5
2D7
330
1F
100
AcDbEntity
  8
0
  6
CONTINUOUS
 62
     7
100
AcDbLine
 10
296.7989138506
 20
180.4340457496
 30
0.0
 11
339.3343138687
 21
180.4340457496
 31
0.0
  0
LINE
  5
2D8
330
1F
100
AcDbEntity
  8
0
  6
CONTINUOUS
 62
     7
100
AcDbLine
 10
291.7288384579
 20
189.9340426501
 30
0.0
 11
291.4475753151
 21
190.4340436634
 31
0.0
  0
LINE
  5
2D9
330
1F
100
AcDbEntity
  8
0
  6
CONTINUOUS
 62
     7
100
AcDbLine
 10
291.4475753151
 20
190.4340436634
 30
0.0
 11
341.7505054913
 21
190.4340436634
 31
0.0
  0
LINE
  5
2DA
330
1F
100
AcDbEntity
  8
0
  6
CONTINUOUS
 62
     7
100
AcDbLine
 10
341.7505054913
 20
190.4340436634
 30
0.0
 11
341.646769195
 21
189.9340426501
 31
0.0
  0
LINE
  5
2DB
330
1F
100
AcDbEntity
  8
0
  6
CONTINUOUS
 62
     7
100
AcDbLine
 10
279.1874512277
 20
180.4340457496
 30
0.0
 11
279.1874512277
 21
185.4340409812
 31
0.0
  0
LINE
  5
2DC
330
1F
100
AcDbEntity
  8
0
  6
CONTINUOUS
 62
     7
100
AcDbLine
 10
279.1874512277
 20
185.4340409812
 30
0.0
 11
280.9374510489
 21
185.4340409812
 31
0.0
  0
LINE
  5
2DD
330
1F
100
AcDbEntity
  8
0
  6
CONTINUOUS
 62
     7
100
AcDbLine
 10
280.9374510489
 20
185.4340409812
 30
0.0
 11
280.9374510489
 21
190.4340436634
 31
0.0
  0
LINE
  5
2DE
330
1F
100
AcDbEntity
  8
0
  6
CONTINUOUS
 62
     7
100
AcDbLine
 10
280.9374510489
 20
190.4340436634
 30
0.0
 11
291.4475753151
 21
190.4340436634
 31
0.0
  0
LINE
  5
2DF
330
1F
100
AcDbEntity
  8
0
  6
CONTINUOUS
 62
     7
100
AcDbLine
 10
296.7989138506
 20
180.4340457496
 30
0.0
 11
279.1874512277
 21
180.4340457496
 31
0.0
  0
LINE
  5
2E0
330
1F
100
AcDbEntity
  8
0
  6
CONTINUOUS
 62
     7
100
AcDbLine
 10
272.9374497376
 20
190.4340436634
 30
0.0
 11
272.9374497376
 21
185.4340409812
 31
0.0
  0
LINE
  5
2E1
330
1F
100
AcDbEntity
  8
0
  6
CONTINUOUS
 62
     7
100
AcDbLine
 10
272.9374497376
 20
185.4340409812
 30
0.0
 11
274.6874495588
 21
185.4340409812
 31
0.0
  0
LINE
  5
2E2
330
1F
100
AcDbEntity
  8
0
  6
CONTINUOUS
 62
     7
100
AcDbLine
 10
274.6874495588
 20
185.4340409812
 30
0.0
 11
274.6874495588
 21
180.4340457496
 31
0.0
  0
LINE
  5
2E3
330
1F
100
AcDbEntity
  8
0
  6
CONTINUOUS
 62
     7
100
AcDbLine
 10
258.9374511681
 20
180.4340457496
 30
0.0
 11
258.9374511681
 21
189.9340426501
 31
0.0
  0
LINE
  5
2E4
330
1F
100
AcDbEntity
  8
0
  6
CONTINUOUS
 62
     7
100
AcDbLine
 10
259.4374521814
 20
190.4340436634
 30
0.0
 11
258.9374511681
 21
189.9340426501
 31
0.0
  0
LINE
  5
2E5
330
1F
100
AcDbEntity
  8
0
  6
CONTINUOUS
 62
     7
100
AcDbLine
 10
259.4374521814
 20
190.4340436634
 30
0.0
 11
272.9374497376
 21
190.4340436634
 31
0.0
  0
LINE
  5
2E6
330
1F
100
AcDbEntity
  8
0
  6
CONTINUOUS
 62
     7
100
AcDbLine
 10
274.6874495588
 20
180.4340457496
 30
0.0
 11
258.9374511681
 21
180.4340457496
 31
0.0
  0
LINE
  5
2E7
330
1F
100
AcDbEntity
  8
0
  6
CONTINUOUS
 62
     7
100
AcDbLine
 10
350.9374513469
 20
185.4340409812
 30
0.0
 11
350.9374513469
 21
190.4340436634
 31
0.0
  0
LINE
  5
2E8
330
1F
100
AcDbEntity
  8
0
  6
CONTINUOUS
 62
     7
100
AcDbLine
 10
364.9374499164
 20
189.9340426501
 30
0.0
 11
364.4374489031
 21
190.4340436634
 31
0.0
  0
LINE
  5
2E9
330
1F
100
AcDbEntity
  8
0
  6
CONTINUOUS
 62
     7
100
AcDbLine
 10
364.9374499164
 20
189.9340426501
 30
0.0
 11
364.9374499164
 21
180.4340457496
 31
0.0
  0
LINE
  5
2EA
330
1F
100
AcDbEntity
  8
0
  6
CONTINUOUS
 62
     7
100
AcDbLine
 10
349.1874515257
 20
180.4340457496
 30
0.0
 11
349.1874515257
 21
185.4340409812
 31
0.0
  0
LINE
  5
2EB
330
1F
100
AcDbEntity
  8
0
  6
CONTINUOUS
 62
     7
100
AcDbLine
 10
349.1874515257
 20
185.4340409812
 30
0.0
 11
350.9374513469
 21
185.4340409812
 31
0.0
  0
LINE
  5
2EC
330
1F
100
AcDbEntity
  8
0
  6
CONTINUOUS
 62
     7
100
AcDbLine
 10
350.9374513469
 20
190.4340436634
 30
0.0
 11
364.4374489031
 21
190.4340436634
 31
0.0
  0
LINE
  5
2ED
330
1F
100
AcDbEntity
  8
0
  6
CONTINUOUS
 62
     7
100
AcDbLine
 10
364.9374499164
 20
180.4340457496
 30
0.0
 11
349.1874515257
 21
180.4340457496
 31
0.0
  0
LINE
  5
2EE
330
1F
100
AcDbEntity
  8
0
  6
CONTINUOUS
 62
     7
100
AcDbLine
 10
254.9374505125
 20
189.9340426501
 30
0.0
 11
254.4374494992
 21
190.4340436634
 31
0.0
  0
LINE
  5
2EF
330
1F
100
AcDbEntity
  8
0
  6
CONTINUOUS
 62
     7
100
AcDbLine
 10
254.9374505125
 20
189.9340426501
 30
0.0
 11
254.9374505125
 21
180.4340457496
 31
0.0
  0
LINE
  5
2F0
330
1F
100
AcDbEntity
  8
0
  6
CONTINUOUS
 62
     7
100
AcDbLine
 10
247.4374539397
 20
180.4340457496
 30
0.0
 11
247.4374539397
 21
189.9340426501
 31
0.0
  0
LINE
  5
2F1
330
1F
100
AcDbEntity
  8
0
  6
CONTINUOUS
 62
     7
100
AcDbLine
 10
247.9374475024
 20
190.4340436634
 30
0.0
 11
247.4374539397
 21
189.9340426501
 31
0.0
  0
LINE
  5
2F2
330
1F
100
AcDbEntity
  8
0
  6
CONTINUOUS
 62
     7
100
AcDbLine
 10
247.9374475024
 20
190.4340436634
 30
0.0
 11
254.4374494992
 21
190.4340436634
 31
0.0
  0
LINE
  5
2F3
330
1F
100
AcDbEntity
  8
0
  6
CONTINUOUS
 62
     7
100
AcDbLine
 10
254.9374505125
 20
180.4340457496
 30
0.0
 11
247.4374539397
 21
180.4340457496
 31
0.0
  0
LINE
  5
2F4
330
1F
100
AcDbEntity
  8
0
  6
CONTINUOUS
 62
     7
100
AcDbLine
 10
342.9374500356
 20
190.4340436634
 30
0.0
 11
342.9374500356
 21
185.4340409812
 31
0.0
  0
LINE
  5
2F5
330
1F
100
AcDbEntity
  8
0
  6
CONTINUOUS
 62
     7
100
AcDbLine
 10
350.9374513469
 20
190.4340436634
 30
0.0
 11
342.9374500356
 21
190.4340436634
 31
0.0
  0
LINE
  5
2F6
330
1F
100
AcDbEntity
  8
0
  6
CONTINUOUS
 62
     7
100
AcDbLine
 10
280.9374510489
 20
190.4340436634
 30
0.0
 11
272.9374497376
 21
190.4340436634
 31
0.0
  0
LINE
  5
2F7
330
1F
100
AcDbEntity
  8
0
  6
CONTINUOUS
 62
     7
100
AcDbLine
 10
376.4374471448
 20
189.9340426501
 30
0.0
 11
376.4374471448
 21
180.4340457496
 31
0.0
  0
LINE
  5
2F8
330
1F
100
AcDbEntity
  8
0
  6
CONTINUOUS
 62
     7
100
AcDbLine
 10
368.9374505721
 20
180.4340457496
 30
0.0
 11
368.9374505721
 21
189.9340426501
 31
0.0
  0
LINE
  5
2F9
330
1F
100
AcDbEntity
  8
0
  6
CONTINUOUS
 62
     7
100
AcDbLine
 10
369.4374515853
 20
190.4340436634
 30
0.0
 11
368.9374505721
 21
189.9340426501
 31
0.0
  0
LINE
  5
2FA
330
1F
100
AcDbEntity
  8
0
  6
CONTINUOUS
 62
     7
100
AcDbLine
 10
376.4374471448
 20
189.9340426501
 30
0.0
 11
375.9374535821
 21
190.4340436634
 31
0.0
  0
LINE
  5
2FB
330
1F
100
AcDbEntity
  8
0
  6
CONTINUOUS
 62
     7
100
AcDbLine
 10
369.4374515853
 20
190.4340436634
 30
0.0
 11
375.9374535821
 21
190.4340436634
 31
0.0
  0
LINE
  5
2FC
330
1F
100
AcDbEntity
  8
0
  6
CONTINUOUS
 62
     7
100
AcDbLine
 10
376.4374471448
 20
180.4340457496
 30
0.0
 11
368.9374505721
 21
180.4340457496
 31
0.0
  0
LINE
  5
2FD
330
1F
100
AcDbEntity
  8
0
  6
CONTINUOUS
 62
     7
100
AcDbLine
 10
344.6874498568
 20
185.4340409812
 30
0.0
 11
344.6874498568
 21
180.4340457496
 31
0.0
  0
LINE
  5
2FE
330
1F
100
AcDbEntity
  8
0
  6
CONTINUOUS
 62
     7
100
AcDbLine
 10
342.9374500356
 20
185.4340409812
 30
0.0
 11
344.6874498568
 21
185.4340409812
 31
0.0
  0
LINE
  5
2FF
330
1F
100
AcDbEntity
  8
0
  6
CONTINUOUS
 62
     7
100
AcDbLine
 10
341.7505054913
 20
190.4340436634
 30
0.0
 11
342.9374500356
 21
190.4340436634
 31
0.0
  0
LINE
  5
300
330
1F
100
AcDbEntity
  8
0
  6
CONTINUOUS
 62
     7
100
AcDbLine
 10
344.6874498568
 20
180.4340457496
 30
0.0
 11
339.3343138687
 21
180.4340457496
 31
0.0
  0
LINE
  5
301
330
1F
100
AcDbEntity
  8
0
  6
CONTINUOUS
 62
     7
100
AcDbLine
 10
349.1874515257
 20
185.4340409812
 30
0.0
 11
344.6874498568
 21
185.4340409812
 31
0.0
  0
LINE
  5
302
330
1F
100
AcDbEntity
  8
0
  6
CONTINUOUS
 62
     7
100
AcDbLine
 10
349.1874515257
 20
180.4340457496
 30
0.0
 11
344.6874498568
 21
180.4340457496
 31
0.0
  0
LINE
  5
303
330
1F
100
AcDbEntity
  8
0
  6
CONTINUOUS
 62
     7
100
AcDbLine
 10
258.9374511681
 20
189.9340426501
 30
0.0
 11
254.9374505125
 21
189.9340426501
 31
0.0
  0
LINE
  5
304
330
1F
100
AcDbEntity
  8
0
  6
CONTINUOUS
 62
     7
100
AcDbLine
 10
254.4374494992
 20
190.4340436634
 30
0.0
 11
259.4374521814
 21
190.4340436634
 31
0.0
  0
LINE
  5
305
330
1F
100
AcDbEntity
  8
0
  6
CONTINUOUS
 62
     7
100
AcDbLine
 10
368.9374505721
 20
189.9340426501
 30
0.0
 11
364.9374499164
 21
189.9340426501
 31
0.0
  0
LINE
  5
306
330
1F
100
AcDbEntity
  8
0
  6
CONTINUOUS
 62
     7
100
AcDbLine
 10
364.4374489031
 20
190.4340436634
 30
0.0
 11
369.4374515853
 21
190.4340436634
 31
0.0
  0
LINE
  5
307
330
1F
100
AcDbEntity
  8
0
  6
CONTINUOUS
 62
     7
100
AcDbLine
 10
258.9374511681
 20
180.4340457496
 30
0.0
 11
254.9374505125
 21
180.4340457496
 31
0.0
  0
LINE
  5
308
330
1F
100
AcDbEntity
  8
0
  6
CONTINUOUS
 62
     7
100
AcDbLine
 10
279.1874512277
 20
185.4340409812
 30
0.0
 11
274.6874495588
 21
185.4340409812
 31
0.0
  0
LINE
  5
309
330
1F
100
AcDbEntity
  8
0
  6
CONTINUOUS
 62
     7
100
AcDbLine
 10
279.1874512277
 20
180.4340457496
 30
0.0
 11
274.6874495588
 21
180.4340457496
 31
0.0
  0
LINE
  5
30A
330
1F
100
AcDbEntity
  8
0
  6
CONTINUOUS
 62
     7
100
AcDbLine
 10
368.9374505721
 20
180.4340457496
 30
0.0
 11
364.9374499164
 21
180.4340457496
 31
0.0
  0
LINE
  5
30B
330
1F
100
AcDbEntity
  8
0
  6
CONTINUOUS
 62
     7
100
AcDbLine
 10
247.9374475024
 20
190.9340446767
 30
0.0
 11
247.4374539397
 21
190.9340446767
 31
0.0
  0
LINE
  5
30C
330
1F
100
AcDbEntity
  8
0
  6
CONTINUOUS
 62
     7
100
AcDbLine
 10
247.9374475024
 20
190.9340446767
 30
0.0
 11
247.9374475024
 21
190.4340436634
 31
0.0
  0
LINE
  5
30D
330
1F
100
AcDbEntity
  8
0
  6
CONTINUOUS
 62
     7
100
AcDbLine
 10
247.4374539397
 20
190.9340446767
 30
0.0
 11
247.4374539397
 21
190.4340436634
 31
0.0
  0
LINE
  5
30E
330
1F
100
AcDbEntity
  8
0
  6
CONTINUOUS
 62
     7
100
AcDbLine
 10
247.4374539397
 20
190.4340436634
 30
0.0
 11
247.4374539397
 21
189.9340426501
 31
0.0
  0
LINE
  5
30F
330
1F
100
AcDbEntity
  8
0
  6
CONTINUOUS
 62
     7
100
AcDbLine
 10
247.9374475024
 20
190.9340446767
 30
0.0
 11
375.9374535821
 21
190.9340446767
 31
0.0
  0
LINE
  5
310
330
1F
100
AcDbEntity
  8
0
  6
CONTINUOUS
 62
     7
100
AcDbLine
 10
375.9374535821
 20
190.9340446767
 30
0.0
 11
375.9374535821
 21
190.4340436634
 31
0.0
  0
LINE
  5
311
330
1F
100
AcDbEntity
  8
0
  6
CONTINUOUS
 62
     7
100
AcDbLine
 10
375.9374535821
 20
190.9340446767
 30
0.0
 11
376.4374471448
 21
190.9340446767
 31
0.0
  0
LINE
  5
312
330
1F
100
AcDbEntity
  8
0
  6
CONTINUOUS
 62
     7
100
AcDbLine
 10
376.4374471448
 20
189.9340426501
 30
0.0
 11
376.4374471448
 21
190.4340436634
 31
0.0
  0
LINE
  5
313
330
1F
100
AcDbEntity
  8
0
  6
CONTINUOUS
 62
     7
100
AcDbLine
 10
376.4374471448
 20
190.4340436634
 30
0.0
 11
376.4374471448
 21
190.9340446767
 31
0.0
  0
ARC
  5
314
330
1F
100
AcDbEntity
  8
0
  6
CONTINUOUS
 62
     7
100
AcDbCircle
 10
281.9953420015
 20
291.3761525022
 30
0.0
 40
34.5578914592038
100
AcDbArc
 50
90.0
 51
180.0
  0
ARC
  5
315
330
1F
100
AcDbEntity
  8
0
  6
CONTINUOUS
 62
     7
100
AcDbCircle
 10
281.9953420015
 20
291.3761525022
 30
0.0
 40
34.05789145920374
100
AcDbArc
 50
90.0
 51
180.0
  0
LINE
  5
316
330
1F
100
AcDbEntity
  8
0
  6
CONTINUOUS
 62
     7
100
AcDbLine
 10
247.9374475024
 20
291.3761524435
 30
0.0
 11
247.9374475024
 21
190.9340446767
 31
0.0
  0
LINE
  5
317
330
1F
100
AcDbEntity
  8
0
  6
CONTINUOUS
 62
     7
100
AcDbLine
 10
341.8795588605
 20
325.4340415772
 30
0.0
 11
281.9953422241
 21
325.4340415772
 31
0.0
  0
ARC
  5
318
330
1F
100
AcDbEntity
  8
0
  6
CONTINUOUS
 62
     7
100
AcDbCircle
 10
341.8795590831
 20
291.3761525022
 30
0.0
 40
34.05789145920374
100
AcDbArc
 50
0.0
 51
90.0
  0
LINE
  5
319
330
1F
100
AcDbEntity
  8
0
  6
CONTINUOUS
 62
     7
100
AcDbLine
 10
375.9374535821
 20
190.9340446767
 30
0.0
 11
375.9374535821
 21
291.3761524435
 31
0.0
  0
ARC
  5
31A
330
1F
100
AcDbEntity
  8
0
  6
CONTINUOUS
 62
     7
100
AcDbCircle
 10
261.1874505423
 20
304.8840439614
 30
0.0
 40
7.250000000000057
100
AcDbArc
 50
12.3447309729
 51
180.0
  0
LINE
  5
31B
330
1F
100
AcDbEntity
  8
0
  6
CONTINUOUS
 62
     7
100
AcDbLine
 10
253.9374522112
 20
216.9340452131
 30
0.0
 11
253.9374522112
 21
304.8840438899
 31
0.0
  0
ARC
  5
31C
330
1F
100
AcDbEntity
  8
0
  6
CONTINUOUS
 62
     7
100
AcDbCircle
 10
256.4374505423
 20
216.9340439614
 30
0.0
 40
2.500000000000057
100
AcDbArc
 50
180.0
 51
270.0
  0
LINE
  5
31D
330
1F
100
AcDbEntity
  8
0
  6
CONTINUOUS
 62
     7
100
AcDbLine
 10
304.8550781041
 20
214.434043872
 30
0.0
 11
256.437449827
 21
214.434043872
 31
0.0
  0
ARC
  5
31E
330
1F
100
AcDbEntity
  8
0
  6
CONTINUOUS
 62
     7
100
AcDbCircle
 10
311.9374505423
 20
215.9840439614
 30
0.0
 40
7.250000000000041
100
AcDbArc
 50
192.3447309729
 51
347.6552690271
  0
LINE
  5
31F
330
1F
100
AcDbEntity
  8
0
  6
CONTINUOUS
 62
     7
100
AcDbLine
 10
367.4374512575
 20
214.434043872
 30
0.0
 11
319.0198229804
 21
214.434043872
 31
0.0
  0
ARC
  5
320
330
1F
100
AcDbEntity
  8
0
  6
CONTINUOUS
 62
     7
100
AcDbCircle
 10
367.4374505423
 20
216.9340439614
 30
0.0
 40
2.500000000000057
100
AcDbArc
 50
270.0
 51
0.0
  0
LINE
  5
321
330
1F
100
AcDbEntity
  8
0
  6
CONTINUOUS
 62
     7
100
AcDbLine
 10
369.9374488733
 20
304.8840438899
 30
0.0
 11
369.9374488733
 21
216.9340452131
 31
0.0
  0
ARC
  5
322
330
1F
100
AcDbEntity
  8
0
  6
CONTINUOUS
 62
     7
100
AcDbCircle
 10
362.6874505423
 20
304.8840439614
 30
0.0
 40
7.250000000000057
100
AcDbArc
 50
0.0
 51
167.6552690271
  0
LINE
  5
323
330
1F
100
AcDbEntity
  8
0
  6
CONTINUOUS
 62
     7
100
AcDbLine
 10
268.2698211811
 20
306.4340440508
 30
0.0
 11
355.6050799034
 21
306.4340440508
 31
0.0
  0
LINE
  5
324
330
1F
100
AcDbEntity
  8
0
  6
CONTINUOUS
 62
     7
100
AcDbLine
 10
247.4374539397
 20
190.9340446767
 30
0.0
 11
247.4374539397
 21
291.3761524435
 31
0.0
  0
LINE
  5
325
330
1F
100
AcDbEntity
  8
0
  6
CONTINUOUS
 62
     7
100
AcDbLine
 10
268.2698211811
 20
306.4340440508
 30
0.0
 11
267.8552820526
 21
305.9340430375
 31
0.0
  0
ARC
  5
326
330
1F
100
AcDbEntity
  8
0
  6
CONTINUOUS
 62
     7
100
AcDbCircle
 10
261.1874505423
 20
304.8840439614
 30
0.0
 40
6.75
100
AcDbArc
 50
8.9490180653
 51
180.0
  0
LINE
  5
327
330
1F
100
AcDbEntity
  8
0
  6
CONTINUOUS
 62
     7
100
AcDbLine
 10
254.4374494992
 20
304.8840438899
 30
0.0
 11
254.4374494992
 21
216.9340452131
 31
0.0
  0
ARC
  5
328
330
1F
100
AcDbEntity
  8
0
  6
CONTINUOUS
 62
     7
100
AcDbCircle
 10
256.4374505423
 20
216.9340439614
 30
0.0
 40
2.0
100
AcDbArc
 50
180.0
 51
270.0
  0
LINE
  5
329
330
1F
100
AcDbEntity
  8
0
  6
CONTINUOUS
 62
     7
100
AcDbLine
 10
256.437449827
 20
214.9340448853
 30
0.0
 11
305.2696172326
 21
214.9340448853
 31
0.0
  0
LINE
  5
32A
330
1F
100
AcDbEntity
  8
0
  6
CONTINUOUS
 62
     7
100
AcDbLine
 10
305.2696172326
 20
214.9340448853
 30
0.0
 11
304.8550781041
 21
214.434043872
 31
0.0
  0
LINE
  5
32B
330
1F
100
AcDbEntity
  8
0
  6
CONTINUOUS
 62
     7
100
AcDbLine
 10
355.6050799034
 20
306.4340440508
 30
0.0
 11
356.019619032
 21
305.9340430375
 31
0.0
  0
LINE
  5
32C
330
1F
100
AcDbEntity
  8
0
  6
CONTINUOUS
 62
     7
100
AcDbLine
 10
356.019619032
 20
305.9340430375
 30
0.0
 11
267.8552820526
 21
305.9340430375
 31
0.0
  0
LINE
  5
32D
330
1F
100
AcDbEntity
  8
0
  6
CONTINUOUS
 62
     7
100
AcDbLine
 10
281.9953422241
 20
325.9340425905
 30
0.0
 11
341.8795588605
 21
325.9340425905
 31
0.0
  0
ARC
  5
32E
330
1F
100
AcDbEntity
  8
0
  6
CONTINUOUS
 62
     7
100
AcDbCircle
 10
311.9374505423
 20
215.9840439614
 30
0.0
 40
6.750000000000014
100
AcDbArc
 50
188.9490180653
 51
351.0509819347
  0
LINE
  5
32F
330
1F
100
AcDbEntity
  8
0
  6
CONTINUOUS
 62
     7
100
AcDbLine
 10
318.6052838519
 20
214.9340448853
 30
0.0
 11
319.0198229804
 21
214.434043872
 31
0.0
  0
LINE
  5
330
330
1F
100
AcDbEntity
  8
0
  6
CONTINUOUS
 62
     7
100
AcDbLine
 10
318.6052838519
 20
214.9340448853
 30
0.0
 11
367.4374512575
 21
214.9340448853
 31
0.0
  0
ARC
  5
331
330
1F
100
AcDbEntity
  8
0
  6
CONTINUOUS
 62
     7
100
AcDbCircle
 10
341.8795590831
 20
291.3761525022
 30
0.0
 40
34.5578914592038
100
AcDbArc
 50
0.0
 51
90.0
  0
ARC
  5
332
330
1F
100
AcDbEntity
  8
0
  6
CONTINUOUS
 62
     7
100
AcDbCircle
 10
362.6874505423
 20
304.8840439614
 30
0.0
 40
6.750000000000057
100
AcDbArc
 50
0.0
 51
171.0509819347
  0
LINE
  5
333
330
1F
100
AcDbEntity
  8
0
  6
CONTINUOUS
 62
     7
100
AcDbLine
 10
369.4374515853
 20
216.9340452131
 30
0.0
 11
369.4374515853
 21
304.8840438899
 31
0.0
  0
ARC
  5
334
330
1F
100
AcDbEntity
  8
0
  6
CONTINUOUS
 62
     7
100
AcDbCircle
 10
367.4374505423
 20
216.9340439614
 30
0.0
 40
2.0
100
AcDbArc
 50
270.0
 51
0.0
  0
LINE
  5
335
330
1F
100
AcDbEntity
  8
0
  6
CONTINUOUS
 62
     7
100
AcDbLine
 10
376.4374471448
 20
291.3761524435
 30
0.0
 11
376.4374471448
 21
190.9340446767
 31
0.0
  0
CIRCLE
  5
336
330
1F
100
AcDbEntity
  8
0
  6
CONTINUOUS
 62
     7
100
AcDbCircle
 10
261.1874505423
 20
304.8840439614
 30
0.0
 40
3.250000000000018
  0
CIRCLE
  5
337
330
1F
100
AcDbEntity
  8
0
  6
CONTINUOUS
 62
     7
100
AcDbCircle
 10
261.1874505423
 20
304.8840439614
 30
0.0
 40
3.750000000000045
  0
CIRCLE
  5
338
330
1F
100
AcDbEntity
  8
0
  6
CONTINUOUS
 62
     7
100
AcDbCircle
 10
311.9374505423
 20
215.9840439614
 30
0.0
 40
3.25
  0
CIRCLE
  5
339
330
1F
100
AcDbEntity
  8
0
  6
CONTINUOUS
 62
     7
100
AcDbCircle
 10
311.9374505423
 20
215.9840439614
 30
0.0
 40
3.749999999999983
  0
CIRCLE
  5
33A
330
1F
100
AcDbEntity
  8
0
  6
CONTINUOUS
 62
     7
100
AcDbCircle
 10
362.6874505423
 20
304.8840439614
 30
0.0
 40
3.249999999999971
  0
CIRCLE
  5
33B
330
1F
100
AcDbEntity
  8
0
  6
CONTINUOUS
 62
     7
100
AcDbCircle
 10
362.6874505423
 20
304.8840439614
 30
0.0
 40
3.750000000000026
  0
CIRCLE
  5
33C
330
1F
100
AcDbEntity
  8
0
  6
CONTINUOUS
 62
     7
100
AcDbCircle
 10
261.1874505423
 20
304.8840439614
 30
0.0
 40
2.750000000000039
  0
LINE
  5
33D
330
1F
100
AcDbEntity
  8
0
  6
CONTINUOUS
 62
     7
100
AcDbLine
 10
261.1085838817
 20
306.3252618488
 30
0.0
 11
259.899883642
 21
305.536353397
 31
0.0
  0
LINE
  5
33E
330
1F
100
AcDbEntity
  8
0
  6
CONTINUOUS
 62
     7
100
AcDbLine
 10
259.899883642
 20
305.536353397
 30
0.0
 11
259.9787517629
 21
304.0951317128
 31
0.0
  0
LINE
  5
33F
330
1F
100
AcDbEntity
  8
0
  6
CONTINUOUS
 62
     7
100
AcDbLine
 10
261.2663163982
 20
303.442825931
 30
0.0
 11
259.9787517629
 21
304.0951317128
 31
0.0
  0
LINE
  5
340
330
1F
100
AcDbEntity
  8
0
  6
CONTINUOUS
 62
     7
100
AcDbLine
 10
262.4750166379
 20
304.2317343828
 30
0.0
 11
261.2663163982
 21
303.442825931
 31
0.0
  0
LINE
  5
341
330
1F
100
AcDbEntity
  8
0
  6
CONTINUOUS
 62
     7
100
AcDbLine
 10
262.4750166379
 20
304.2317343828
 30
0.0
 11
262.3961485169
 21
305.672956067
 31
0.0
  0
LINE
  5
342
330
1F
100
AcDbEntity
  8
0
  6
CONTINUOUS
 62
     7
100
AcDbLine
 10
261.1085838817
 20
306.3252618488
 30
0.0
 11
262.3961485169
 21
305.672956067
 31
0.0
  0
LINE
  5
343
330
1F
100
AcDbEntity
  8
0
  6
CONTINUOUS
 62
     7
100
AcDbLine
 10
361.2454376362
 20
304.8213472542
 30
0.0
 11
362.0207413278
 21
303.6038739559
 31
0.0
  0
LINE
  5
344
330
1F
100
AcDbEntity
  8
0
  6
CONTINUOUS
 62
     7
100
AcDbLine
 10
362.0207413278
 20
303.6038739559
 30
0.0
 11
363.4627564989
 21
303.6665743169
 31
0.0
  0
LINE
  5
345
330
1F
100
AcDbEntity
  8
0
  6
CONTINUOUS
 62
     7
100
AcDbLine
 10
364.129464253
 20
304.9467442509
 30
0.0
 11
363.4627564989
 21
303.6665743169
 31
0.0
  0
LINE
  5
346
330
1F
100
AcDbEntity
  8
0
  6
CONTINUOUS
 62
     7
100
AcDbLine
 10
363.3541568361
 20
306.1642138239
 30
0.0
 11
364.129464253
 21
304.9467442509
 31
0.0
  0
LINE
  5
347
330
1F
100
AcDbEntity
  8
0
  6
CONTINUOUS
 62
     7
100
AcDbLine
 10
363.3541568361
 20
306.1642138239
 30
0.0
 11
361.9121453903
 21
306.1015134629
 31
0.0
  0
LINE
  5
348
330
1F
100
AcDbEntity
  8
0
  6
CONTINUOUS
 62
     7
100
AcDbLine
 10
361.2454376362
 20
304.8213472542
 30
0.0
 11
361.9121453903
 21
306.1015134629
 31
0.0
  0
CIRCLE
  5
349
330
1F
100
AcDbEntity
  8
0
  6
CONTINUOUS
 62
     7
100
AcDbCircle
 10
362.6874505423
 20
304.8840439614
 30
0.0
 40
2.750000000000024
  0
LINE
  5
34A
330
1F
100
AcDbEntity
  8
0
  6
CONTINUOUS
 62
     7
100
AcDbLine
 10
311.0660691109
 20
214.8333800908
 30
0.0
 11
312.4982641257
 21
214.6540744182
 31
0.0
  0
LINE
  5
34B
330
1F
100
AcDbEntity
  8
0
  6
CONTINUOUS
 62
     7
100
AcDbLine
 10
312.4982641257
 20
214.6540744182
 30
0.0
 11
313.3696454988
 21
215.8047383603
 31
0.0
  0
LINE
  5
34C
330
1F
100
AcDbEntity
  8
0
  6
CONTINUOUS
 62
     7
100
AcDbLine
 10
312.8088319736
 20
217.134707975
 30
0.0
 11
313.3696454988
 21
215.8047383603
 31
0.0
  0
LINE
  5
34D
330
1F
100
AcDbEntity
  8
0
  6
CONTINUOUS
 62
     7
100
AcDbLine
 10
311.3766369588
 20
217.3140136477
 30
0.0
 11
312.8088319736
 21
217.134707975
 31
0.0
  0
LINE
  5
34E
330
1F
100
AcDbEntity
  8
0
  6
CONTINUOUS
 62
     7
100
AcDbLine
 10
311.3766369588
 20
217.3140136477
 30
0.0
 11
310.5052555857
 21
216.1633497056
 31
0.0
  0
LINE
  5
34F
330
1F
100
AcDbEntity
  8
0
  6
CONTINUOUS
 62
     7
100
AcDbLine
 10
311.0660691109
 20
214.8333800908
 30
0.0
 11
310.5052555857
 21
216.1633497056
 31
0.0
  0
CIRCLE
  5
350
330
1F
100
AcDbEntity
  8
0
  6
CONTINUOUS
 62
     7
100
AcDbCircle
 10
311.9374505423
 20
215.9840439614
 30
0.0
 40
2.749999999999964
  0
LINE
  5
351
330
1F
100
AcDbEntity
  8
0
  6
CONTINUOUS
 62
     7
100
AcDbLine
 10
258.4374501548
 20
301.9340423819
 30
0.0
 11
258.8722846649
 21
301.9340423819
 31
0.0
  0
LINE
  5
352
330
1F
100
AcDbEntity
  8
0
  6
CONTINUOUS
 62
     7
100
AcDbLine
 10
263.5026193402
 20
301.9340423819
 30
0.0
 11
360.3722817443
 21
301.9340423819
 31
0.0
  0
LINE
  5
353
330
1F
100
AcDbEntity
  8
0
  6
CONTINUOUS
 62
     7
100
AcDbLine
 10
365.0026164196
 20
301.9340423819
 30
0.0
 11
365.4374509297
 21
301.9340423819
 31
0.0
  0
LINE
  5
354
330
1F
100
AcDbEntity
  8
0
  6
CONTINUOUS
 62
     7
100
AcDbLine
 10
365.4374509297
 20
301.9340423819
 30
0.0
 11
365.4374509297
 21
218.9340455409
 31
0.0
  0
LINE
  5
355
330
1F
100
AcDbEntity
  8
0
  6
CONTINUOUS
 62
     7
100
AcDbLine
 10
258.4374501548
 20
218.9340455409
 30
0.0
 11
258.4374501548
 21
301.9340423819
 31
0.0
  0
LINE
  5
356
330
1F
100
AcDbEntity
  8
0
  6
CONTINUOUS
 62
     7
100
AcDbLine
 10
365.4374509297
 20
218.9340455409
 30
0.0
 11
314.2526178799
 21
218.9340455409
 31
0.0
  0
LINE
  5
357
330
1F
100
AcDbEntity
  8
0
  6
CONTINUOUS
 62
     7
100
AcDbLine
 10
309.6222832046
 20
218.9340455409
 30
0.0
 11
258.4374501548
 21
218.9340455409
 31
0.0
  0
HATCH
  5
358
330
1F
100
AcDbEntity
  8
0
  6
CONTINUOUS
 62
     7
100
AcDbHatch
 10
0.0
 20
0.0
 30
0.0
210
0.0
220
0.0
230
1.0
  2
ANSI38
 70
     0
 71
     0
 91
        1
 92
        0
 93
        7
 72
     1
 10
272.9374505422648
 20
190.4340439614115
 11
259.4374505422649
 21
190.4340439614115
 72
     1
 10
259.4374505422649
 20
190.4340439614115
 11
258.9374505422648
 21
189.9340439614115
 72
     1
 10
258.9374505422648
 20
189.9340439614115
 11
258.9374505422648
 21
180.4340439614115
 72
     1
 10
258.9374505422648
 20
180.4340439614115
 11
274.6874505422648
 21
180.4340439614115
 72
     1
 10
274.6874505422648
 20
180.4340439614115
 11
274.6874505422648
 21
185.4340439614115
 72
     1
 10
274.6874505422648
 20
185.4340439614115
 11
272.9374505422648
 21
185.4340439614115
 72
     1
 10
272.9374505422648
 20
185.4340439614115
 11
272.9374505422648
 21
190.4340439614115
 97
        0
 75
     0
 76
     1
 52
0.0
 41
2.0
 77
     0
 78
     2
 53
45.0
 43
0.0
 44
0.0
 45
-4.490128060534576
 46
4.490128060534577
 79
     0
 53
135.0
 43
0.0
 44
0.0
 45
-13.47038418160373
 46
4.490128060534578
 79
     2
 49
15.875
 49
-9.525
 98
        1
 10
0.0
 20
0.0
  0
HATCH
  5
359
330
1F
100
AcDbEntity
  8
0
  6
CONTINUOUS
 62
     7
100
AcDbHatch
 10
0.0
 20
0.0
 30
0.0
210
0.0
220
0.0
230
1.0
  2
ANSI38
 70
     0
 71
     0
 91
        1
 92
        0
 93
        6
 72
     1
 10
247.9374505422648
 20
190.4340439614115
 11
247.4374505422648
 21
189.9340439614115
 72
     1
 10
247.4374505422648
 20
189.9340439614115
 11
247.4374505422648
 21
180.4340439614116
 72
     1
 10
247.4374505422648
 20
180.4340439614116
 11
254.9374505422648
 21
180.4340439614115
 72
     1
 10
254.9374505422648
 20
180.4340439614115
 11
254.9374505422648
 21
189.9340439614115
 72
     1
 10
254.9374505422648
 20
189.9340439614115
 11
254.4374505422647
 21
190.4340439614115
 72
     1
 10
254.4374505422647
 20
190.4340439614115
 11
247.9374505422648
 21
190.4340439614115
 97
        0
 75
     0
 76
     1
 52
0.0
 41
2.0
 77
     0
 78
     2
 53
45.0
 43
0.0
 44
0.0
 45
-4.490128060534576
 46
4.490128060534577
 79
     0
 53
135.0
 43
0.0
 44
0.0
 45
-13.47038418160373
 46
4.490128060534578
 79
     2
 49
15.875
 49
-9.525
 98
        1
 10
0.0
 20
0.0
  0
HATCH
  5
35A
330
1F
100
AcDbEntity
  8
0
  6
CONTINUOUS
 62
     7
100
AcDbHatch
 10
0.0
 20
0.0
 30
0.0
210
0.0
220
0.0
230
1.0
  2
ANSI38
 70
     0
 71
     0
 91
        1
 92
        0
 93
        6
 72
     1
 10
376.4374505422648
 20
189.9340439614116
 11
375.9374505422648
 21
190.4340439614116
 72
     1
 10
375.9374505422648
 20
190.4340439614116
 11
369.4374505422649
 21
190.4340439614116
 72
     1
 10
369.4374505422649
 20
190.4340439614116
 11
368.9374505422648
 21
189.9340439614116
 72
     1
 10
368.9374505422648
 20
189.9340439614116
 11
368.9374505422648
 21
180.4340439614115
 72
     1
 10
368.9374505422648
 20
180.4340439614115
 11
376.4374505422649
 21
180.4340439614116
 72
     1
 10
376.4374505422649
 20
180.4340439614116
 11
376.4374505422648
 21
189.9340439614116
 97
        0
 75
     0
 76
     1
 52
0.0
 41
2.0
 77
     0
 78
     2
 53
45.0
 43
0.0
 44
0.0
 45
-4.490128060534576
 46
4.490128060534577
 79
     0
 53
135.0
 43
0.0
 44
0.0
 45
-13.47038418160373
 46
4.490128060534578
 79
     2
 49
15.875
 49
-9.525
 98
        1
 10
0.0
 20
0.0
  0
HATCH
  5
35B
330
1F
100
AcDbEntity
  8
0
  6
CONTINUOUS
 62
     7
100
AcDbHatch
 10
0.0
 20
0.0
 30
0.0
210
0.0
220
0.0
230
1.0
  2
ANSI38
 70
     0
 71
     0
 91
        1
 92
        0
 93
        7
 72
     1
 10
350.9374505422648
 20
185.4340439614116
 11
349.1874505422648
 21
185.4340439614116
 72
     1
 10
349.1874505422648
 20
185.4340439614116
 11
349.1874505422648
 21
180.4340439614116
 72
     1
 10
349.1874505422648
 20
180.4340439614116
 11
364.9374505422648
 21
180.4340439614115
 72
     1
 10
364.9374505422648
 20
180.4340439614115
 11
364.9374505422648
 21
189.9340439614116
 72
     1
 10
364.9374505422648
 20
189.9340439614116
 11
364.4374505422648
 21
190.4340439614116
 72
     1
 10
364.4374505422648
 20
190.4340439614116
 11
350.9374505422648
 21
190.4340439614116
 72
     1
 10
350.9374505422648
 20
190.4340439614116
 11
350.9374505422648
 21
185.4340439614116
 97
        0
 75
     0
 76
     1
 52
0.0
 41
2.0
 77
     0
 78
     2
 53
45.0
 43
0.0
 44
0.0
 45
-4.490128060534576
 46
4.490128060534577
 79
     0
 53
135.0
 43
0.0
 44
0.0
 45
-13.47038418160373
 46
4.490128060534578
 79
     2
 49
15.875
 49
-9.525
 98
        1
 10
0.0
 20
0.0
  0
HATCH
  5
35C
330
1F
100
AcDbEntity
  8
0
  6
CONTINUOUS
 62
     7
100
AcDbHatch
 10
0.0
 20
0.0
 30
0.0
210
0.0
220
0.0
230
1.0
  2
ANSI38
 70
     0
 71
     0
 91
        1
 92
        0
 93
        6
 72
     4
 94
        3
 73
     1
 74
     0
 95
        8
 96
        4
 40
0.3187465032973443
 40
0.3187465032973443
 40
0.3187465032973443
 40
0.3187465032973443
 40
0.3499103610815446
 40
0.3499103610815446
 40
0.3499103610815446
 40
0.3499103610815446
 10
296.7989135159393
 20
180.4340439614052
 42
1.0
 10
294.9515062910497
 20
183.674421846284
 42
1.0
 10
293.305837223845
 20
187.1594641291695
 42
1.0
 10
291.447575011909
 20
190.4340439223743
 42
1.0
 72
     1
 10
291.447575011909
 20
190.4340439223743
 11
280.9374505422648
 21
190.4340439614115
 72
     1
 10
280.9374505422648
 20
190.4340439614115
 11
280.9374505422648
 21
185.4340439614115
 72
     1
 10
280.9374505422648
 20
185.4340439614115
 11
279.1874505422648
 21
185.4340439614115
 72
     1
 10
279.1874505422648
 20
185.4340439614115
 11
279.1874505422648
 21
180.4340439614115
 72
     1
 10
279.1874505422648
 20
180.4340439614115
 11
296.7989135159393
 21
180.4340439614052
 97
        0
 75
     0
 76
     1
 52
0.0
 41
2.0
 77
     0
 78
     2
 53
45.0
 43
0.0
 44
0.0
 45
-4.490128060534576
 46
4.490128060534577
 79
     0
 53
135.0
 43
0.0
 44
0.0
 45
-13.47038418160373
 46
4.490128060534578
 79
     2
 49
15.875
 49
-9.525
 98
        1
 10
0.0
 20
0.0
  0
HATCH
  5
35D
330
1F
100
AcDbEntity
  8
0
  6
CONTINUOUS
 62
     7
100
AcDbHatch
 10
0.0
 20
0.0
 30
0.0
210
0.0
220
0.0
230
1.0
  2
ANSI38
 70
     0
 71
     0
 91
        1
 92
        0
 93
        4
 72
     4
 94
        3
 73
     1
 74
     0
 95
        8
 96
        4
 40
0.3187465032973443
 40
0.3187465032973443
 40
0.3187465032973443
 40
0.3187465032973443
 40
0.3483291782516733
 40
0.3483291782516733
 40
0.3483291782516733
 40
0.3483291782516733
 10
296.7989135159393
 20
180.4340439614052
 42
1.0
 10
295.0452395061094
 20
183.5100124875537
 42
1.0
 10
293.4733515266638
 20
186.8064478316824
 42
1.0
 10
291.7288392011176
 20
189.9340439223626
 42
1.0
 72
     4
 94
        3
 73
     1
 74
     0
 95
        8
 96
        4
 40
0.0
 40
0.0
 40
0.0
 40
0.0
 40
0.0007609924732483
 40
0.0007609924732483
 40
0.0007609924732483
 40
0.0007609924732483
 10
291.7288391793368
 20
189.9340439614116
 42
1.0
 10
291.6357688354875
 20
190.1009023085544
 42
1.0
 10
291.5420411277947
 20
190.2675782687136
 42
1.0
 10
291.4475749897561
 20
190.4340439614115
 42
1.0
 72
     1
 10
291.4475749897561
 20
190.4340439614115
 11
291.447575011909
 21
190.4340439223743
 72
     4
 94
        3
 73
     1
 74
     0
 95
        8
 96
        4
 40
0.6500896389184554
 40
0.6500896389184554
 40
0.6500896389184554
 40
0.6500896389184554
 40
0.6812534967026557
 40
0.6812534967026557
 40
0.6812534967026557
 40
0.6812534967026557
 10
291.447575011909
 20
190.4340439223743
 42
1.0
 10
293.305837223845
 20
187.1594641291695
 42
1.0
 10
294.9515062910497
 20
183.674421846284
 42
1.0
 10
296.7989135159393
 20
180.4340439614052
 42
1.0
 97
        0
 75
     0
 76
     1
 52
0.0
 41
2.0
 77
     0
 78
     2
 53
45.0
 43
0.0
 44
0.0
 45
-4.490128060534576
 46
4.490128060534577
 79
     0
 53
135.0
 43
0.0
 44
0.0
 45
-13.47038418160373
 46
4.490128060534578
 79
     2
 49
15.875
 49
-9.525
 98
        1
 10
0.0
 20
0.0
  0
HATCH
  5
35E
330
1F
100
AcDbEntity
  8
0
  6
CONTINUOUS
 62
     7
100
AcDbHatch
 10
0.0
 20
0.0
 30
0.0
210
0.0
220
0.0
230
1.0
  2
ANSI38
 70
     0
 71
     0
 91
        1
 92
        0
 93
        3
 72
     4
 94
        3
 73
     1
 74
     0
 95
        8
 96
        4
 40
0.8282473629617625
 40
0.8282473629617625
 40
0.8282473629617625
 40
0.8282473629617625
 40
0.8557460329148407
 40
0.8557460329148407
 40
0.8557460329148407
 40
0.8557460329148407
 10
339.3343130599973
 20
180.4340439982758
 42
1.0
 10
340.4460953339202
 20
183.6084455041961
 42
1.0
 10
341.0544073037918
 20
187.1056863389692
 42
1.0
 10
341.7505054827375
 20
190.4340439614121
 42
1.0
 72
     4
 94
        3
 73
     1
 74
     0
 95
        8
 96
        4
 40
0.0
 40
0.0
 40
0.0
 40
0.0
 40
0.0007146755224044
 40
0.0007146755224044
 40
0.0007146755224044
 40
0.0007146755224044
 10
341.7505054827374
 20
190.4340439614115
 42
1.0
 10
341.715654476621
 20
190.2674056690472
 42
1.0
 10
341.6811051854103
 20
190.1007357600117
 42
1.0
 10
341.6467697496258
 20
189.9340439614117
 42
1.0
 72
     4
 94
        3
 73
     1
 74
     0
 95
        8
 96
        4
 40
0.1456276429661092
 40
0.1456276429661092
 40
0.1456276429661092
 40
0.1456276429661092
 40
0.1717526370382375
 40
0.1717526370382375
 40
0.1717526370382375
 40
0.1717526370382375
 10
341.6467697496258
 20
189.9340439614117
 42
1.0
 10
340.9923753732978
 20
186.7570877617498
 42
1.0
 10
340.3905570661727
 20
183.4498706061165
 42
1.0
 10
339.3343130599973
 20
180.4340439982758
 42
1.0
 97
        0
 75
     0
 76
     1
 52
0.0
 41
2.0
 77
     0
 78
     2
 53
45.0
 43
0.0
 44
0.0
 45
-4.490128060534576
 46
4.490128060534577
 79
     0
 53
135.0
 43
0.0
 44
0.0
 45
-13.47038418160373
 46
4.490128060534578
 79
     2
 49
15.875
 49
-9.525
 98
        1
 10
0.0
 20
0.0
  0
HATCH
  5
35F
330
1F
100
AcDbEntity
  8
0
  6
CONTINUOUS
 62
     7
100
AcDbHatch
 10
0.0
 20
0.0
 30
0.0
210
0.0
220
0.0
230
1.0
  2
ANSI38
 70
     0
 71
     0
 91
        1
 92
        0
 93
        6
 72
     1
 10
344.6874505422648
 20
180.4340439614116
 11
344.6874505422648
 21
185.4340439614116
 72
     1
 10
344.6874505422648
 20
185.4340439614116
 11
342.9374505422648
 21
185.4340439614116
 72
     1
 10
342.9374505422648
 20
185.4340439614116
 11
342.9374505422648
 21
190.4340439614116
 72
     1
 10
342.9374505422648
 20
190.4340439614116
 11
341.7505054827375
 21
190.4340439614121
 72
     4
 94
        3
 73
     1
 74
     0
 95
        8
 96
        4
 40
0.1442539670851593
 40
0.1442539670851593
 40
0.1442539670851593
 40
0.1442539670851593
 40
0.1717526370382375
 40
0.1717526370382375
 40
0.1717526370382375
 40
0.1717526370382375
 10
341.7505054827375
 20
190.4340439614121
 42
1.0
 10
341.0544073037918
 20
187.1056863389691
 42
1.0
 10
340.4460953339202
 20
183.6084455041961
 42
1.0
 10
339.3343130599973
 20
180.4340439982758
 42
1.0
 72
     1
 10
339.3343130599973
 20
180.4340439982759
 11
344.6874505422648
 21
180.4340439614116
 97
        0
 75
     0
 76
     1
 52
0.0
 41
2.0
 77
     0
 78
     2
 53
45.0
 43
0.0
 44
0.0
 45
-4.490128060534576
 46
4.490128060534577
 79
     0
 53
135.0
 43
0.0
 44
0.0
 45
-13.47038418160373
 46
4.490128060534578
 79
     2
 49
15.875
 49
-9.525
 98
        1
 10
0.0
 20
0.0
  0
DIMENSION
  5
360
330
1F
100
AcDbEntity
  8
RIQUADRO
100
AcDbDimension
  2
_D_7
 10
258.4374505423
 20
337.6697581374
 30
0.0
 11
302.3890714199
 21
337.6697581374
 31
0.0
 70
   160
  1
<>
  3
SLDDIMSTYLE2
100
AcDbAlignedDimension
 13
365.4374505423
 23
301.9340439614
 33
0.0
 14
258.4374505423
 24
301.9340439614
 34
0.0
100
AcDbRotatedDimension
  0
DIMENSION
  5
36C
330
1F
100
AcDbEntity
  8
RIQUADRO
100
AcDbDimension
  2
_D_8
 10
391.4956951391
 20
218.9340439614
 30
0.0
 11
391.4956951391
 21
257.4964016095
 31
0.0
 70
   160
  1
<>
  3
SLDDIMSTYLE2
100
AcDbAlignedDimension
 13
365.4374505423
 23
301.9340439614
 33
0.0
 14
365.4374505423
 24
218.9340439614
 34
0.0
 50
90.0
100
AcDbRotatedDimension
  0
INSERT
  5
37D
330
1F
100
AcDbEntity
  8
RIQUADRO
100
AcDbBlockReference
  2
SW_NOTE_11
 10
215.7355163728
 20
380.1007556675
 30
0.0
  0
LEADER
  5
37E
330
1F
100
AcDbEntity
  8
RIQUADRO
100
AcDbLeader
  3
SLDDIMSTYLE1
 76
     2
 10
301.6537300844
 20
259.9235187762
 30
0.0
 10
215.7355163728
 20
380.1007556675
 30
0.0
1001
ACAD
1000
DSTYLE
1002
{
1070
     6
1000
DOT
1002
}
  0
INSERT
  5
38A
330
1F
100
AcDbEntity
  8
RIQUADRO
100
AcDbBlockReference
  2
SW_NOTE_12
 10
264.8614609572
 20
156.6750629723
 30
0.0
  0
LEADER
  5
38C
330
1F
100
AcDbEntity
  8
RIQUADRO
100
AcDbLeader
  3
SLDDIMSTYLE3
 76
     2
 10
276.7078230524
 20
185.4340439614
 30
0.0
 10
264.8614609572
 20
156.6750629723
 30
0.0
1001
ACAD
1000
DSTYLE
1002
{
1070
     6
1000

1002
}
  0
INSERT
  5
39A
330
1F
100
AcDbEntity
  8
RIQUADRO
100
AcDbBlockReference
  2
SW_NOTE_13
 10
349.4962216625
 20
155.919395466
 30
0.0
  0
LEADER
  5
39B
330
1F
100
AcDbEntity
  8
RIQUADRO
100
AcDbLeader
  3
SLDDIMSTYLE3
 76
     2
 10
368.9374505423
 20
184.6771822997
 30
0.0
 10
349.4962216625
 20
155.919395466
 30
0.0
1001
ACAD
1000
DSTYLE
1002
{
1070
     6
1000

1002
}
  0
LINE
  5
39C
330
1F
100
AcDbEntity
  8
RIQUADRO
  6
CENTERX2
100
AcDbLine
 10
256.9374505423
 20
176.4340439614
 30
0.0
 11
256.9374505423
 21
193.9340439614
 31
0.0
  0
LINE
  5
39D
330
1F
100
AcDbEntity
  8
RIQUADRO
  6
CENTERX2
100
AcDbLine
 10
276.9374505423
 20
176.4340439614
 30
0.0
 11
276.9374505423
 21
189.4340439614
 31
0.0
  0
LINE
  5
39E
330
1F
100
AcDbEntity
  8
RIQUADRO
  6
CENTERX2
100
AcDbLine
 10
346.9374505423
 20
176.4340439614
 30
0.0
 11
346.9374505423
 21
189.4340439614
 31
0.0
  0
LINE
  5
39F
330
1F
100
AcDbEntity
  8
RIQUADRO
  6
CENTERX2
100
AcDbLine
 10
366.9374505423
 20
176.4340439614
 30
0.0
 11
366.9374505423
 21
193.9340439614
 31
0.0
  0
LINE
  5
3A0
330
1F
100
AcDbEntity
  8
0
  6
CONTINUOUS
 62
     7
100
AcDbLine
 10
170.039124625
 20
469.3282917997
 30
0.0
 11
169.5391310623
 21
469.8282918817
 31
0.0
  0
LINE
  5
3A1
330
1F
100
AcDbEntity
  8
0
  6
CONTINUOUS
 62
     7
100
AcDbLine
 10
170.039124625
 20
450.328291945
 30
0.0
 11
170.039124625
 21
469.3282917997
 31
0.0
  0
LINE
  5
3A2
330
1F
100
AcDbEntity
  8
0
  6
CONTINUOUS
 62
     7
100
AcDbLine
 10
169.5391310623
 20
449.8282909317
 30
0.0
 11
170.039124625
 21
450.328291945
 31
0.0
  0
LINE
  5
3A3
330
1F
100
AcDbEntity
  8
0
  6
CONTINUOUS
 62
     7
100
AcDbLine
 10
169.5391310623
 20
449.8282909317
 30
0.0
 11
41.5391249826
 21
449.8282909317
 31
0.0
  0
LINE
  5
3A4
330
1F
100
AcDbEntity
  8
0
  6
CONTINUOUS
 62
     7
100
AcDbLine
 10
41.0391314199
 20
450.328291945
 30
0.0
 11
41.5391249826
 21
449.8282909317
 31
0.0
  0
LINE
  5
3A5
330
1F
100
AcDbEntity
  8
0
  6
CONTINUOUS
 62
     7
100
AcDbLine
 10
41.0391314199
 20
450.328291945
 30
0.0
 11
41.0391314199
 21
469.3282917997
 31
0.0
  0
LINE
  5
3A6
330
1F
100
AcDbEntity
  8
0
  6
CONTINUOUS
 62
     7
100
AcDbLine
 10
41.5391249826
 20
469.8282918817
 30
0.0
 11
41.0391314199
 21
469.3282917997
 31
0.0
  0
LINE
  5
3A7
330
1F
100
AcDbEntity
  8
0
  6
CONTINUOUS
 62
     7
100
AcDbLine
 10
169.5391310623
 20
469.8282918817
 30
0.0
 11
41.5391249826
 21
469.8282918817
 31
0.0
  0
CIRCLE
  5
3A8
330
1F
100
AcDbEntity
  8
0
  6
CONTINUOUS
 62
     7
100
AcDbCircle
 10
70.5391280224
 20
454.8282918556
 30
0.0
 40
2.250000000000057
  0
CIRCLE
  5
3A9
330
1F
100
AcDbEntity
  8
0
  6
CONTINUOUS
 62
     7
100
AcDbCircle
 10
140.5391280224
 20
454.8282918556
 30
0.0
 40
2.250000000000057
  0
CIRCLE
  5
3AA
330
1F
100
AcDbEntity
  8
0
  6
CONTINUOUS
 62
     7
100
AcDbCircle
 10
50.5391280224
 20
454.8282918556
 30
0.0
 40
2.0
  0
CIRCLE
  5
3AB
330
1F
100
AcDbEntity
  8
0
  6
CONTINUOUS
 62
     7
100
AcDbCircle
 10
160.5391280224
 20
454.8282918556
 30
0.0
 40
2.0
  0
LINE
  5
3AC
330
1F
100
AcDbEntity
  8
0
  6
CONTINUOUS
 62
     7
100
AcDbLine
 10
75.5970197042
 20
472.8282919078
 30
0.0
 11
135.4812363406
 21
472.8282919078
 31
0.0
  0
LINE
  5
3AD
330
1F
100
AcDbEntity
  8
0
  6
CONTINUOUS
 62
     7
100
AcDbLine
 10
135.4812363406
 20
472.3282918258
 30
0.0
 11
75.5970197042
 21
472.3282918258
 31
0.0
  0
LINE
  5
3AE
330
1F
100
AcDbEntity
  8
0
  6
CONTINUOUS
 62
     7
100
AcDbLine
 10
170.039124625
 20
472.3282918258
 30
0.0
 11
135.4812363406
 21
472.3282918258
 31
0.0
  0
LINE
  5
3AF
330
1F
100
AcDbEntity
  8
0
  6
CONTINUOUS
 62
     7
100
AcDbLine
 10
135.4812363406
 20
472.8282919078
 30
0.0
 11
169.5391310623
 21
472.8282919078
 31
0.0
  0
LINE
  5
3B0
330
1F
100
AcDbEntity
  8
0
  6
CONTINUOUS
 62
     7
100
AcDbLine
 10
170.039124625
 20
472.3282918258
 30
0.0
 11
169.5391310623
 21
472.8282919078
 31
0.0
  0
LINE
  5
3B1
330
1F
100
AcDbEntity
  8
0
  6
CONTINUOUS
 62
     7
100
AcDbLine
 10
75.5970197042
 20
470.3282919636
 30
0.0
 11
135.4812363406
 21
470.3282919636
 31
0.0
  0
LINE
  5
3B2
330
1F
100
AcDbEntity
  8
0
  6
CONTINUOUS
 62
     7
100
AcDbLine
 10
75.5970197042
 20
472.3282918258
 30
0.0
 11
41.0391314199
 21
472.3282918258
 31
0.0
  0
LINE
  5
3B3
330
1F
100
AcDbEntity
  8
0
  6
CONTINUOUS
 62
     7
100
AcDbLine
 10
41.0391314199
 20
470.3282919636
 30
0.0
 11
75.5970197042
 21
470.3282919636
 31
0.0
  0
LINE
  5
3B4
330
1F
100
AcDbEntity
  8
0
  6
CONTINUOUS
 62
     7
100
AcDbLine
 10
41.0391314199
 20
472.3282918258
 30
0.0
 11
41.0391314199
 21
470.3282919636
 31
0.0
  0
LINE
  5
3B5
330
1F
100
AcDbEntity
  8
0
  6
CONTINUOUS
 62
     7
100
AcDbLine
 10
170.039124625
 20
472.3282918258
 30
0.0
 11
170.039124625
 21
470.3282919636
 31
0.0
  0
LINE
  5
3B6
330
1F
100
AcDbEntity
  8
0
  6
CONTINUOUS
 62
     7
100
AcDbLine
 10
135.4812363406
 20
470.3282919636
 30
0.0
 11
170.039124625
 21
470.3282919636
 31
0.0
  0
LINE
  5
3B7
330
1F
100
AcDbEntity
  8
0
  6
CONTINUOUS
 62
     7
100
AcDbLine
 10
41.0391314199
 20
470.3282919636
 30
0.0
 11
41.5391249826
 21
469.8282918817
 31
0.0
  0
LINE
  5
3B8
330
1F
100
AcDbEntity
  8
0
  6
CONTINUOUS
 62
     7
100
AcDbLine
 10
169.5391310623
 20
469.8282918817
 30
0.0
 11
170.039124625
 21
470.3282919636
 31
0.0
  0
LINE
  5
3B9
330
1F
100
AcDbEntity
  8
0
  6
CONTINUOUS
 62
     7
100
AcDbLine
 10
41.5391249826
 20
472.8282919078
 30
0.0
 11
75.5970197042
 21
472.8282919078
 31
0.0
  0
LINE
  5
3BA
330
1F
100
AcDbEntity
  8
0
  6
CONTINUOUS
 62
     7
100
AcDbLine
 10
41.5391249826
 20
472.8282919078
 30
0.0
 11
41.0391314199
 21
472.3282918258
 31
0.0
  0
DIMENSION
  5
3BB
330
1F
100
AcDbEntity
  8
RIQUADRO
100
AcDbDimension
  2
_D_9
 10
70.5391280224
 20
433.1264178811
 30
0.0
 11
104.3811077499
 21
433.1264178811
 31
0.0
 70
   160
  1
<>
  3
SLDDIMSTYLE0
100
AcDbAlignedDimension
 13
140.5391280224
 23
450.0782918556
 33
0.0
 14
70.5391280224
 24
450.0782918556
 34
0.0
100
AcDbRotatedDimension
  0
DIMENSION
  5
3C5
330
1F
100
AcDbEntity
  8
RIQUADRO
100
AcDbDimension
  2
_D_10
 10
50.5391280224
 20
413.5907483986
 30
0.0
 11
103.0787297844
 21
413.5907483986
 31
0.0
 70
   160
  1
<>
  3
SLDDIMSTYLE0
100
AcDbAlignedDimension
 13
160.5391280224
 23
450.3282918556
 33
0.0
 14
50.5391280224
 24
450.3282918556
 34
0.0
100
AcDbRotatedDimension
  0
DIMENSION
  5
3CF
330
1F
100
AcDbEntity
  8
RIQUADRO
100
AcDbDimension
  2
_D_11
 10
105.5391280224
 20
488.8030759061
 30
0.0
 11
126.8471276547
 21
488.8030759061
 31
0.0
 70
   160
  1
<>
  3
SLDDIMSTYLE0
100
AcDbAlignedDimension
 13
140.5391280224
 23
459.5782918556
 33
0.0
 14
105.5391280224
 24
473.3282918556
 34
0.0
100
AcDbRotatedDimension
  0
DIMENSION
  5
3D9
330
1F
100
AcDbEntity
  8
RIQUADRO
100
AcDbDimension
  2
_D_12
 10
160.5391280224
 20
507.7631508972
 30
0.0
 11
139.8709073097
 21
507.7631508972
 31
0.0
 70
   160
  1
<>
  3
SLDDIMSTYLE0
100
AcDbAlignedDimension
 13
105.5391280224
 23
473.3282918556
 33
0.0
 14
160.5391280224
 24
459.3282918556
 34
0.0
100
AcDbRotatedDimension
  0
DIMENSION
  5
3E3
330
1F
100
AcDbEntity
  8
RIQUADRO
100
AcDbDimension
  2
_D_13
 10
190.870545229
 20
449.8282918556
 30
0.0
 11
190.870545229
 21
470.8820803342
 31
0.0
 70
   160
  1
<>
  3
SLDDIMSTYLE0
100
AcDbAlignedDimension
 13
165.0391280224
 23
454.8282918556
 33
0.0
 14
169.5391280224
 24
449.8282918556
 34
0.0
 50
90.0
100
AcDbRotatedDimension
  0
INSERT
  5
3F9
330
1F
100
AcDbEntity
  8
RIQUADRO
100
AcDbBlockReference
  2
SW_CENTERMARKSYMBOL_0
 10
140.5391280224
 20
454.8282918556
 30
0.0
  0
INSERT
  5
405
330
1F
100
AcDbEntity
  8
RIQUADRO
100
AcDbBlockReference
  2
SW_CENTERMARKSYMBOL_1
 10
160.5391280224
 20
454.8282918556
 30
0.0
  0
INSERT
  5
411
330
1F
100
AcDbEntity
  8
RIQUADRO
100
AcDbBlockReference
  2
SW_CENTERMARKSYMBOL_2
 10
70.5391280224
 20
454.8282918556
 30
0.0
  0
INSERT
  5
41D
330
1F
100
AcDbEntity
  8
RIQUADRO
100
AcDbBlockReference
  2
SW_CENTERMARKSYMBOL_3
 10
50.5391280224
 20
454.8282918556
 30
0.0
  0
LINE
  5
41E
330
1F
100
AcDbEntity
  8
RIQUADRO
  6
CENTERX2
100
AcDbLine
 10
105.5391280224
 20
446.3282918556
 30
0.0
 11
105.5391280224
 21
473.3282918556
 31
0.0
  0
OLE2FRAME
  5
41F
330
1F
100
AcDbEntity
  8
0
100
AcDbOle2Frame
 70
     2
  3
Picture (Device Independent Bitmap)
 10
53.8557001669
 20
82.9029807692
 30
0.0
 11
133.96002709
 21
42.8508173077
 31
0.0
 71
     3
 72
     0
 90
    41600
310
805501FF439587ED4A40D530DA6FCAB9544000000000000000006556BB8AB8BE
310
6040D530DA6FCAB9544000000000000000006556BB8AB8BE604059B4DF94E76C
310
4540000000000000000001FF439587ED4A4059B4DF94E76C4540000000000000
310
0000000000000100000000010000010000000100000000000100000000A20000
310
D0CF11E0A1B11AE1000000000000000000000000000000003E000300FEFF0900
310
0600000000000000000000000100000001000000000000000010000002000000
310
01000000FEFFFFFF0000000000000000FFFFFFFFFFFFFFFFFFFFFFFFFFFFFFFF
310
FFFFFFFFFFFFFFFFFFFFFFFFFFFFFFFFFFFFFFFFFFFFFFFFFFFFFFFFFFFFFFFF
310
FFFFFFFFFFFFFFFFFFFFFFFFFFFFFFFFFFFFFFFFFFFFFFFFFFFFFFFFFFFFFFFF
310
FFFFFFFFFFFFFFFFFFFFFFFFFFFFFFFFFFFFFFFFFFFFFFFFFFFFFFFFFFFFFFFF
310
FFFFFFFFFFFFFFFFFFFFFFFFFFFFFFFFFFFFFFFFFFFFFFFFFFFFFFFFFFFFFFFF
310
FFFFFFFFFFFFFFFFFFFFFFFFFFFFFFFFFFFFFFFFFFFFFFFFFFFFFFFFFFFFFFFF
310
FFFFFFFFFFFFFFFFFFFFFFFFFFFFFFFFFFFFFFFFFFFFFFFFFFFFFFFFFFFFFFFF
310
FFFFFFFFFFFFFFFFFFFFFFFFFFFFFFFFFFFFFFFFFFFFFFFFFFFFFFFFFFFFFFFF
310
FFFFFFFFFFFFFFFFFFFFFFFFFFFFFFFFFFFFFFFFFFFFFFFFFFFFFFFFFFFFFFFF
310
FFFFFFFFFFFFFFFFFFFFFFFFFFFFFFFFFFFFFFFFFFFFFFFFFFFFFFFFFFFFFFFF
310
FFFFFFFFFFFFFFFFFFFFFFFFFFFFFFFFFFFFFFFFFFFFFFFFFFFFFFFFFFFFFFFF
310
FFFFFFFFFFFFFFFFFFFFFFFFFFFFFFFFFFFFFFFFFFFFFFFFFFFFFFFFFFFFFFFF
310
FFFFFFFFFFFFFFFFFFFFFFFFFFFFFFFFFFFFFFFFFFFFFFFFFFFFFFFFFFFFFFFF
310
FFFFFFFFFFFFFFFFFFFFFFFFFFFFFFFFFFFFFFFFFFFFFFFFFFFFFFFFFFFFFFFF
310
FDFFFFFFFEFFFFFFFEFFFFFFFEFFFFFF05000000060000000700000008000000
310
090000000A0000000B0000000C0000000D0000000E0000000F00000010000000
310
1100000012000000130000001400000015000000160000001700000018000000
310
190000001A0000001B0000001C0000001D0000001E0000001F00000020000000
310
2100000022000000230000002400000025000000260000002700000028000000
310
290000002A0000002B0000002C0000002D0000002E0000002F00000030000000
310
3100000032000000330000003400000035000000360000003700000038000000
310
390000003A0000003B0000003C0000003D0000003E0000003F00000040000000
310
4100000042000000430000004400000045000000460000004700000048000000
310
490000004A0000004B0000004C0000004D0000004E0000004F000000FEFFFFFF
310
FFFFFFFFFFFFFFFFFFFFFFFFFFFFFFFFFFFFFFFFFFFFFFFFFFFFFFFFFFFFFFFF
310
FFFFFFFFFFFFFFFFFFFFFFFFFFFFFFFFFFFFFFFFFFFFFFFFFFFFFFFFFFFFFFFF
310
FFFFFFFFFFFFFFFFFFFFFFFFFFFFFFFFFFFFFFFFFFFFFFFFFFFFFFFFFFFFFFFF
310
FFFFFFFFFFFFFFFFFFFFFFFFFFFFFFFFFFFFFFFFFFFFFFFFFFFFFFFFFFFFFFFF
310
FFFFFFFFFFFFFFFFFFFFFFFFFFFFFFFFFFFFFFFFFFFFFFFFFFFFFFFFFFFFFFFF
310
FFFFFFFFFFFFFFFFFFFFFFFFFFFFFFFFFFFFFFFFFFFFFFFFFFFFFFFFFFFFFFFF
310
52006F006F007400200045006E00740072007900000000000000000000000000
310
0000000000000000000000000000000000000000000000000000000000000000
310
16000500FFFFFFFFFFFFFFFF020000001603000000000000C000000000000046
310
00000000000000000000000090F37F269250CE0103000000C000000000000000
310
01004F006C006500000000000000000000000000000000000000000000000000
310
0000000000000000000000000000000000000000000000000000000000000000
310
0A000200FFFFFFFFFFFFFFFFFFFFFFFF00000000000000000000000000000000
310
0000000000000000000000000000000000000000000000001400000000000000
310
010043006F006D0070004F0062006A0000000000000000000000000000000000
310
0000000000000000000000000000000000000000000000000000000000000000
310
120002010100000003000000FFFFFFFF00000000000000000000000000000000
310
0000000000000000000000000000000000000000010000006B00000000000000
310
43004F004E00540045004E005400530000000000000000000000000000000000
310
0000000000000000000000000000000000000000000000000000000000000000
310
12000200FFFFFFFFFFFFFFFFFFFFFFFF00000000000000000000000000000000
310
000000000000000000000000000000000000000004000000D696000000000000
310
FEFFFFFF02000000FEFFFFFFFFFFFFFFFFFFFFFFFFFFFFFFFFFFFFFFFFFFFFFF
310
FFFFFFFFFFFFFFFFFFFFFFFFFFFFFFFFFFFFFFFFFFFFFFFFFFFFFFFFFFFFFFFF
310
FFFFFFFFFFFFFFFFFFFFFFFFFFFFFFFFFFFFFFFFFFFFFFFFFFFFFFFFFFFFFFFF
310
FFFFFFFFFFFFFFFFFFFFFFFFFFFFFFFFFFFFFFFFFFFFFFFFFFFFFFFFFFFFFFFF
310
FFFFFFFFFFFFFFFFFFFFFFFFFFFFFFFFFFFFFFFFFFFFFFFFFFFFFFFFFFFFFFFF
310
FFFFFFFFFFFFFFFFFFFFFFFFFFFFFFFFFFFFFFFFFFFFFFFFFFFFFFFFFFFFFFFF
310
FFFFFFFFFFFFFFFFFFFFFFFFFFFFFFFFFFFFFFFFFFFFFFFFFFFFFFFFFFFFFFFF
310
FFFFFFFFFFFFFFFFFFFFFFFFFFFFFFFFFFFFFFFFFFFFFFFFFFFFFFFFFFFFFFFF
310
FFFFFFFFFFFFFFFFFFFFFFFFFFFFFFFFFFFFFFFFFFFFFFFFFFFFFFFFFFFFFFFF
310
FFFFFFFFFFFFFFFFFFFFFFFFFFFFFFFFFFFFFFFFFFFFFFFFFFFFFFFFFFFFFFFF
310
FFFFFFFFFFFFFFFFFFFFFFFFFFFFFFFFFFFFFFFFFFFFFFFFFFFFFFFFFFFFFFFF
310
FFFFFFFFFFFFFFFFFFFFFFFFFFFFFFFFFFFFFFFFFFFFFFFFFFFFFFFFFFFFFFFF
310
FFFFFFFFFFFFFFFFFFFFFFFFFFFFFFFFFFFFFFFFFFFFFFFFFFFFFFFFFFFFFFFF
310
FFFFFFFFFFFFFFFFFFFFFFFFFFFFFFFFFFFFFFFFFFFFFFFFFFFFFFFFFFFFFFFF
310
FFFFFFFFFFFFFFFFFFFFFFFFFFFFFFFFFFFFFFFFFFFFFFFFFFFFFFFFFFFFFFFF
310
FFFFFFFFFFFFFFFFFFFFFFFFFFFFFFFFFFFFFFFFFFFFFFFFFFFFFFFFFFFFFFFF
310
0100000200000000000000000000000000000000000000000000000000000000
310
0000000000000000000000000000000000000000000000000000000000000000
310
0100FEFF030A0000FFFFFFFF1603000000000000C00000000000004625000000
310
496D6D6167696E6520284269746D61702044657669636520496E646570656E64
310
656E742900FFFFFFFF080000000A00000053746174696344696200F439B27100
310
0000000000000000000000000000000000000000000000000000000000000000
310
0000000000000000000000000000000000000000000000000000000000000000
310
0000000000000000000000000000000000000000000000000000000000000000
310
0000000000000000000000000000000000000000000000000000000000000000
310
0000000000000000000000000000000000000000000000000000000000000000
310
0000000000000000000000000000000000000000000000000000000000000000
310
0000000000000000000000000000000000000000000000000000000000000000
310
0000000000000000000000000000000000000000000000000000000000000000
310
0000000000000000000000000000000000000000000000000000000000000000
310
0000000000000000000000000000000000000000000000000000000000000000
310
0000000000000000000000000000000000000000000000000000000000000000
310
424DD69600000000000036000000280000009E00000051000000010018000000
310
00000000000074120000741200000000000000000000FFFFFFFFFFFFFFFFFFFF
310
FFFFFFFFFFFFFFFFFFFFFFFFFFFFFFFFFFFFFFFFFFFFFFFFFFFFFFFFFFFFFFFF
310
FFFFFFFFFFFFFFFFFFFFFFFFFFFFFFFFFFFFFFFFFFFFFFFFFFFFFFFFFFFFFFFF
310
FFFFFFFFFFFFFFFFFFFFFFFFFFFFFFFFFFFFFFFFFFFFFFFFFFFCFCFCFFFFFFFE
310
FEFEFEFEFEEAEAEADBDBDBFFFFFFFFFFFFFFFFFFFFFFFFFFFFFFFFFFFFFFFFFF
310
FFFFFFFFFFFFFFFFFFFFFFFFFFFFFFFFFFFFFFFFFFFFFFFFFFFFFFFFFFFFFFFF
310
FFFFFFFFFFFFFFFFFFFFFFFFFFFFFFFFFFFFFFFFFFFFFFFFFFFFFFFFFFFFFFFF
310
FFFFFFFFFFFFFFFFFFFFFFFFFFFEFFFFFFFFFFFEFCFDFBFFFFFEFEFCFB989695
310
2826252A28279E9E9EFFFFFFFEFEFEFEFEFEFEFEFEFFFFFFFDFDFDFFFFFFFFFF
310
FFFFFFFFFFFFFFFFFFFFFFFFFFFFFFFFFFFFFFFFFFFFFFFFFFFFFFFFFFFFFFFF
310
FFFFFFFFFFFFFFFFFFFFFFFFFFFFFFFFFFFFFFFFFFFFFFFFFFFFFFFFFFFFFFFF
310
FFFFFFFFFFFFFFFFFFFFFFFFFFFFFFFFFFFFFFFFFFFFFFFFFFFFFFFFFFFFFEFE
310
FEFEFEFEC0C0C0323232212121787878FEFEFEFFFFFFFBFBFBFEFEFEFFFFFFFF
310
FFFFFFFFFFFEFEFEFFFFFFFFFFFFFFFFFFFFFFFFFFFFFFFFFFFFFFFFFFFFFFFF
310
FFFFFFFFFFFFFFFFFFFFFFFFFFFFFFFFFFFFFFFFFFFFFFFFFFFFFFFFFFFFFFFF
310
FFFFFFFFFFFFFFFFFFFFFFFFFFFFFFFF0000FFFFFFF9F9F9FFFFFFFFFFFFEFEF
310
EFFFFFFFF8F8F8FFFFFFFFFFFFF6F6F6FFFFFFFFFFFFFCFCFCFFFFFFFFFFFFF5
310
F5F5FFFFFFE1E1E1FFFFFFFFFFFFF7F7F7FFFFFFF5F5F5FFFFFFF6F6F6FFFFFF
310
F5F5F5FDFDFDFFFFFFF4F4F4FFFFFFFAFAFAFFFFFFF2F2F2FFFFFFFFFFFFF9F9
310
F9BFBFBF5D5D5DFFFFFFFDFDFDFEFEFEFFFFFFFFFFFFF8F8F8FFFFFFFFFFFFFD
310
FDFDFEFEFEF9F9F9FFFFFFFDFDFDFFFFFFFFFFFFF0F0F0FFFFFFFFFFFFFFFFFF
310
FBFBFBF7F7F7FAFAFAFCFCFCFFFFFFFEFEFEFAFCFCFDFFFFFDFFFFFDFFFFFFFF
310
FEF0F1EFFEFCFBFEFDF9FFFFFEFAF9F5FFFEFAFFFFFC64615C383530DBD8D3D1
310
CECA1B1918949494FFFFFFF9F9F9FDFDFDFFFFFFFDFDFDF7F7F7FFFFFFFFFFFF
310
FCFCFCFFFFFFEFEFEFFFFFFFFFFFFFF6F6F6FFFFFFFAFAFAF7F7F7FFFFFFF2F2
310
F2FFFFFFFBFBFBFFFFFFFAFAFAFFFFFFFCFCFCFFFFFFFDFDFDFFFFFFF2F2F2FF
310
FFFFFFFFFFFAFAFAFFFFFFF2F2F2FFFFFFFFFFFFF5F5F5FFFFFFFDFDFDBABABA
310
000000C8C8C8DDDDDD4A4A4A404040FFFFFFFBFBFBFFFFFFFFFFFFFDFDFDFFFF
310
FFFFFFFFF5F5F5FFFFFFF8F8F8FBFBFBFFFFFFFAFAFAF3F3F3FFFFFFFCFCFCFB
310
FBFBFDFDFDFFFFFFF0F0F0FFFFFFFFFFFFFCFCFCFFFFFFFBFBFBFFFFFFFFFFFF
310
F2F2F2FDFDFDFEFEFEFFFFFF0000FFFFFFFBFBFBFFFFFFFFFFFFFFFFFFFDFDFD
310
FFFFFFFCFCFCFFFFFFFFFFFFFAFAFAFFFFFFFFFFFFFCFCFCFFFFFFFFFFFFF8F8
310
F8FAFAFAFFFFFFF9F9F9FFFFFFFAFAFAFFFFFFFEFEFEFFFFFFECECECFFFFFFFD
310
FDFDFEFEFEFAFAFAF5F5F5FFFFFFF4F4F4FFFFFFFFFFFFF6F6F6FEFEFEBBBBBB
310
646464FFFFFFFFFFFFFFFFFFEBEBEBFFFFFFFCFCFCFFFFFFF6F6F6FDFDFDFFFF
310
FFF6F6F6F4F4F4FFFFFFF5F5F5FFFFFFFDFDFDFEFEFEF6F6F6FAFAFAFDFDFDFF
310
FFFFFFFFFFF3F3F3FFFFFFFCFCFCFAFCFCFDFFFFF4F6F6F6F8F8F2F3F1FFFFFE
310
FFFFFCFFFEFAFFFFFCFFFEFAFFFFFCFFFFFB494641EAE8E0FFFFFBFCF9F4F2F0
310
EF141414FAFAFAF4F4F4FFFFFFEFEFEFFFFFFFFFFFFFF6F6F6E8E8E8FFFFFFF3
310
F3F3FFFFFFFFFFFFEEEEEEFFFFFFFFFFFFF1F1F1FFFFFFFFFFFFFBFBFBFFFFFF
310
FFFFFFF1F1F1FBFBFBEEEEEEFFFFFFF7F7F7F5F5F5FFFFFFFFFFFFFBFBFBF1F1
310
F1FFFFFFF5F5F5FFFFFFF3F3F3FEFEFEFBFBFBFFFFFFFEFEFE484848D9D9D9FF
310
FFFFFEFEFEF0F0F0393939D6D6D6FFFFFFFAFAFAFFFFFFFCFCFCF9F9F9FFFFFF
310
FFFFFFFAFAFAFFFFFFFAFAFAF6F6F6FFFFFFFFFFFFFCFCFCF8F8F8FFFFFFF8F8
310
F8FFFFFFFDFDFDEDEDEDF7F7F7F8F8F8F3F3F3FFFFFFF7F7F7FAFAFAFBFBFBFE
310
FEFEFEFEFEEEEEEE0000FBFBFBFFFFFFB2B2B2E7E7E7FFFFFFFDFDFD9E9E9EF9
310
F9F9F9F9F9FFFFFFFEFEFEA2A2A2FDFDFDF6F6F6FBFBFBA9A9A9F6F6F6FFFFFF
310
FFFFFFF7F7F7A2A2A2FEFEFEFBFBFBEDEDEDC3C3C3FFFFFFF7F7F79F9F9FF2F2
310
F2FFFFFFFFFFFFCECECE5656563232328E8E8EFFFFFFFFFFFFADADAD969696D1
310
D1D13B3B3B2A2A2A9A9A9AFFFFFFFCFCFCFDFDFDB3B3B3E2E2E2F4F4F4FFFFFF
310
E6E6E64F4F4F2222227B7B7BFFFFFFF9F9F9FFFFFFF7F7F7FFFFFFFFFFFFEAEA
310
EAF4F4F4D3D3D34242424647458D8E8CFFFFFEFFFFFED5D6D4B2B3B1F4F5F3FF
310
FFFEF5F6F4B5B6B4C5C6C4F4F3EFFFFFFCC2C2BC3B3834555450FCFDFB5B5B5B
310
D5D5D5D1D1D1BBBBBBF8F8F8989898F2F2F2FFFFFFFFFFFFE6E6E69F9F9FF1F1
310
F1FFFFFFD3D3D33C3C3C272727989898FFFFFFFCFCFCFEFEFEEAEAEAA9A9A938
310
3838444444CACACAF9F9F9F0F0F0BCBCBCD3D3D3F2F2F2D0D0D0BBBBBBF6F6F6
310
9D9D9DFFFFFFF5F5F5FEFEFEDDDDDDAFAFAFFFFFFFE9E9E9E2E2E24242423D3D
310
3DD8D8D8959595929292FDFDFD999999E9E9E9FFFFFFEDEDEDF8F8F86666662B
310
2B2B656565FFFFFFECECECFFFFFFF4F4F4CFCFCF3838382A2A2AA5A5A5F7F7F7
310
F1F1F1E2E2E2BDBDBDFEFEFEFFFFFFF2F2F2B7B7B7D4D4D4FFFFFFFFFFFFF3F3
310
F39898980000F6F6F6FFFFFF3B3B3BABABABF5F5F5FFFFFF0A0A0AEDEDEDFBFB
310
FBFBFBFBFEFEFE151515E3E3E3FDFDFDDBDBDB111111FFFFFFFFFFFFFFFFFFEB
310
EBEB090909FFFFFFF0F0F0B6B6B63D3D3DEFEFEFFFFFFF202020F0F0F0FAFAFA
310
CACACA0000009A9A9AB6B6B62E2E2E707070F4F4F4C2C2C2343434141414B0B0
310
B0D1D1D12626264E4E4EFCFCFCFFFFFF2B2B2BDDDDDDFFFFFFE5E5E508080872
310
7272D9D9D9626262313131FDFDFDFCFCFCFFFFFFE6E6E6FFFFFFFFFFFFB5B5B5
310
171717ACACACB3B4B22122206E6F6DF8F9F7A2A3A17F807EF1F2F0FFFFFEFFFF
310
FE787977B7B8B6FFFFFE797A7820211FC6C7C59394921313133F3F3FCACACACA
310
CACA666666FFFFFF2C2C2CFFFFFFFEFEFEFEFEFEBBBBBB5B5B5BFFFFFFD1D1D1
310
080808B5B5B5C9C9C92F2F2F626262DDDDDDFFFFFF8B8B8B2F2F2FC7C7C7AAAA
310
AA040404ACACACFFFFFF616161B5B5B5FDFDFD9393938A8A8ADEDEDE444444FC
310
FCFCFBFBFBFFFFFFC1C1C1575757EBEBEBDADADA000000919191B0B0B0272727
310
6969696F6F6FFFFFFF383838C9C9C9F8F8F8FCFCFC000000828282C2C2C25F5F
310
5F1C1C1CFFFFFFFBFBFBC5C5C50B0B0BA9A9A9C8C8C81B1B1B8A8A8AFFFFFF94
310
94946A6A6AFBFBFBFFFFFFFFFFFF797979ADADADFFFFFFFFFFFFF1F1F14C4C4C
310
0000FEFEFEFBFBFB111111717171FEFEFED8D8D8000000ACACACFFFFFFFEFEFE
310
D4D4D4040404A4A4A4FFFFFF9B9B9B000000DFDFDFFDFDFDFFFFFFA9A9A90000
310
00DCDCDCFAFAFA686868030303FFFFFFF2F2F2919191FFFFFFF2F2F2121212F4
310
F4F4FAFAFAFFFFFFFFFFFF1D1D1DE0E0E0CBCBCB080808C9C9C9FEFEFEF2F2F2
310
FDFDFD2C2C2CC6C6C6FFFFFF3F3F3FE8E8E8F8F8F83E3E3EB1B1B1FFFFFFFFFF
310
FFEFEFEF3B3B3BABABABFFFFFFFFFFFFFFFFFFFFFFFFFBFBFB1E1E1EE4E4E4FF
310
FFFFFFFFFEFFFFFE050604EEEFED969795868785FDFFFFFDFFFFFDFFFF6F7171
310
B1B3B3E9EBEB0C0E0EFAFCFCFDFFFFFDFFFFDDDDDD040404DBDBDBB3B3B36B6B
310
6BFFFFFF363636F8F8F8F9F9F9FFFFFFE0E0E04C4C4CECECEC2A2A2ADADADAFD
310
FDFDFAFAFAFFFFFF151515DDDDDDD6D6D61E1E1EFFFFFFF5F5F5FFFFFFDDDDDD
310
121212FFFFFF5A5A5AB1B1B1FFFFFF9E9E9E848484F2F2F2333333FFFFFFF7F7
310
F7FEFEFEC9C9C9606060FFFFFF020202DADADAFFFFFFFFFFFFFFFFFF0303038A
310
8A8AEAEAEAB4B4B4D5D5D5FAFAFA6A6A6AA0A0A0F9F9F9FFFFFFFFFFFF5A5A5A
310
858585F7F7F7000000DFDFDFFFFFFFE9E9E9FFFFFF0B0B0BE6E6E6C0C0C08A8A
310
8AF0F0F0FFFFFFFAFAFA737373A9A9A9FFFFFFFFFFFFFCFCFC4242420000FFFF
310
FFC1C1C1575757555555FFFFFF8787877E7E7E525252FFFFFFFFFFFF8787877C
310
7C7C646464FFFFFF5B5B5B7F7F7F8F8F8FFFFFFFFDFDFD5050508A8A8A969696
310
FFFFFF3D3D3D656565BCBCBCFFFFFFF3F3F3FFFFFFE0E0E0323232E4E4E4F6F6
310
F6FBFBFBEFEFEF9F9F9F7E7E7EC1C1C1303030FFFFFFFCFCFCFFFFFFFFFFFF9E
310
9E9E585858FFFFFF565656C6C6C6F8F8F8232323FFFFFFF7F7F7F8F8F8FFFFFF
310
E0E0E0464646FAFAFAEFEFEFFFFFFFFFFFFFBBBBBB676767FFFFFFFFFFFFF5F6
310
F4F6F7F5FFFFFEFCFDFBB6B7B56D6E6CFDFFFFE3E5E5FDFFFF717675BFC3C477
310
7B7C8F9394E8ECEDFBFFFFF9FDFEFDFFFF1C1C1CD2D2D2C6C6C6727272FAFAFA
310
323232FCFCFCFFFFFFF4F4F4CACACA797979EBEBEB535353FFFFFFFEFEFEFAFA
310
FAFFFFFFEFEFEFFBFBFB939393959595FFFFFFFFFFFFFFFFFFF3F3F3EBEBEBF7
310
F7F7636363D6D6D6E8E8E8A6A6A6868686FCFCFC383838FFFFFFFAFAFAFFFFFF
310
CECECE6D6D6DE4E4E43E3E3EFFFFFFF5F5F5F3F3F3F6F6F68888886F6F6FFFFF
310
FFFBFBFBFFFFFFF6F6F6070707FFFFFFE8E8E8FFFFFFF6F6F6E7E7E7F9F9F9D0
310
D0D0484848FFFFFFF6F6F6FFFFFFF2F2F27A7A7AA2A2A2A1A1A1848484FEFEFE
310
F8F8F8FFFFFF7E7E7EB3B3B3FEFEFEFFFFFFFFFFFF4040400000FEFEFE6F6F6F
310
C0C0C05E5E5EECECEC535353E5E5E5343434F0F0F0FFFFFF4A4A4AE3E3E34F4F
310
4FEFEFEF434343EFEFEF464646FFFFFFF0F0F02C2C2CF9F9F9595959E6E6E657
310
5757C4C4C4757575F3F3F3FFFFFFF5F5F5B7B7B7696969FFFFFFFFFFFFFFFFFF
310
FFFFFFB3B3B3575757DADADA565656FBFBFBFFFFFFE6E6E6FFFFFFC5C5C54545
310
45FFFFFF4C4C4CDEDEDEE8E8E82E2E2EFCFCFCFFFFFFFFFFFFFFFFFFDCDCDC2D
310
2D2DE2E2E23737370B0B0B828282BFBFBF3131315F5F5F5959596162605C5D5B
310
686967B2B3B1B5B7B77E8080F3F5F5FDFFFFF0F4F5747879BCBFC3515659BCC1
310
C4FAFFFFEDF2F5FAFFFFF8FAFB858585ABABABB7B7B76B6B6BFFFFFF323232FF
310
FFFFFFFFFFF9F9F9D9D9D9474747C9C9C91E1E1E5B5B5B6E6E6E636363565656
310
7777778F8F8F6060605050505D5D5D5353535959595F5F5F676767E1E1E16767
310
67B8B8B8FFFFFFA0A0A0828282EEEEEE383838FDFDFDFFFFFFFFFFFFC5C5C561
310
6161AEAEAE707070FEFEFEFFFFFFFFFFFFEEEEEEC9C9C9656565EFEFEFFCFCFC
310
F1F1F1FFFFFF373737FFFFFFFFFFFFFDFDFDFFFFFFFFFFFFFEFEFE8F8F8F6D6D
310
6DFFFFFFF2F2F2F4F4F4F6F6F6D8D8D8606060C6C6C6838383FFFFFFFFFFFFF0
310
F0F0787878B7B7B7FBFBFBFFFFFFFCFCFC3535350000FBFBFB383838FFFFFF74
310
7474C0C0C0515151F7F7F74F4F4FDDDDDDF4F4F4343434F6F6F65A5A5AD1D1D1
310
4B4B4BFFFFFF272727FBFBFBE8E8E83A3A3AFFFFFF3C3C3CB4B4B4898989F9F9
310
F9292929FFFFFFEEEEEEFFFFFFB1B1B1535353FEFEFEFEFEFEE8E8E8FFFFFFC0
310
C0C05D5D5DBEBEBE626262FDFDFDF8F8F8FFFFFFFFFFFFC4C4C4595959F2F2F2
310
545454D7D7D7EDEDED2E2E2EFFFFFFF7F7F7FFFFFFF6F6F6F3F3F3313131FFFF
310
FFBEBEBED2D2D2E9E9E9ABABAB3B3B3BCDCDCDB4B4B4B8B9B7CDCECC6D6E6C77
310
7876BBBDBD717373FDFFFFF6F8F8FBFFFF5D6162CED2D362676AA6ABAEEFF4F7
310
FAFFFFEDF2F5FDFFFF444444CFCFCFC2C2C27F7F7FEDEDED2F2F2FF7F7F7F0F0
310
F0FFFFFFCBCBCB5B5B5BDFDFDF333333D1D1D1B5B5B5ABABABC4C4C47C7C7C5A
310
5A5A868686828282B5B5B5BCBCBCB4B4B4CDCDCD373737C3C3C3707070C5C5C5
310
FFFFFF969696888888EFEFEF474747F6F6F6FFFFFFFFFFFFC6C6C6707070C3C3
310
C3636363FCFCFCFCFCFCF8F8F8FDFDFDACACAC5E5E5EFFFFFFFFFFFFF5F5F5ED
310
EDED292929FEFEFEFDFDFDFFFFFFF8F8F8FFFFFFFCFCFCB1B1B1717171F9F9F9
310
F8F8F8FFFFFFFFFFFFAAAAAA797979C0C0C07A7A7AF5F5F5FFFFFFFFFFFF7171
310
71B8B8B8FAFAFAFFFFFFFFFFFF3C3C3C0000FBFBFB2A2A2AFFFFFFCACACA2B2B
310
2B6E6E6EFEFEFE9393938F8F8FDADADA555555FDFDFDA0A0A02D2D2DA4A4A4FF
310
FFFF595959CACACA818181A0A0A0FFFFFF6868682F2F2FDEDEDEF9F9F93D3D3D
310
D7D7D7FFFFFFFEFEFEF5F5F5252525F7F7F7FFFFFFFFFFFFFAFAFA6E6E6EA0A0
310
A0C7C7C7000000FFFFFFFFFFFFF7F7F7FFFFFF4949499F9F9FFFFFFF484848DC
310
DCDCFCFCFC262626E5E5E5FFFFFFF7F7F7FFFFFF999999626262FFFFFFFCFCFC
310
FFFFFFFEFEFEE2E2E2121212FFFFFFFFFFFFFBFCFAFFFFFE545553BABBB9BEC0
310
C0525454F5F7F7FDFFFFF9FBFB585A5AD1D3D3ACB0B155595AF5F9FAF3F7F8FB
310
FFFFFDFFFF000000DADADAB9B9B9787878FCFCFC232323F6F6F6FFFFFFFDFDFD
310
BDBDBD595959FBFBFB1D1D1DF7F7F7FFFFFFFFFFFFF4F4F4585858A9A9A9ADAD
310
AD5F5F5FF4F4F4FFFFFFF8F8F8FFFFFF212121ECECEC5F5F5FB8B8B8FAFAFAA3
310
A3A3888888F1F1F1191919FFFFFFFEFEFEFFFFFFA5A5A57D7D7DF0F0F01C1C1C
310
FEFEFEFBFBFBFCFCFCFFFFFF4646467A7A7AFFFFFFF5F5F5FFFFFFFFFFFF2F2F
310
2FDADADAFFFFFFFDFDFDFFFFFFB7B7B7AAAAAAF1F1F1202020FBFBFBFDFDFDFF
310
FFFFFFFFFF4E4E4EB9B9B9C1C1C15A5A5AF3F3F3FFFFFFFFFFFF555555878787
310
FFFFFFFBFBFBFCFCFC41414100009D9D9D888888FFFFFFFFFFFF080808B5B5B5
310
EFEFEFE1E1E1555555686868C4C4C4FDFDFDE3E3E3000000DDDDDDF8F8F8ABAB
310
AB7979793E3E3EE5E5E5FFFFFFB3B3B30B0B0BF2F2F2FFFFFF626262BFBFBFFF
310
FFFFEEEEEEFBFBFB606060636363FEFEFEF8F8F8CCCCCC050505F1F1F1DCDCDC
310
060606494949FCFCFCFFFFFF989898171717FFFFFFFFFFFF585858C5C5C5FFFF
310
FF858585484848F6F6F6FFFFFFDCDCDC151515EEEEEEECECECFFFFFFF8F8F8FF
310
FFFFFFFFFF555555797979FFFFFFFFFFFEB1B2B00F100EF7F8F6C1C3C3000000
310
DBDDDDF0F2F2DDDFDF050604EFF0EEF4F5F30A0C0CC0C2C2FDFFFFF1F3F36B6B
310
6B0A0A0AC5C5C5D5D5D5616161FFFFFF0000008B8B8BFFFFFFFFFFFF282828C0
310
C0C0FFFFFF525252696969F2F2F2EFEFEFD4D4D40E0E0EFFFFFFFFFFFF171717
310
D9D9D9EDEDEDFAFAFA747474323232FFFFFF6C6C6C1C1C1CEFEFEFA0A0A08B8B
310
8BFEFEFE0202029B9B9BFFFFFFF3F3F31E1E1ED3D3D3FFFFFF343434696969FF
310
FFFFEEEEEEAFAFAF000000777777F2F2F2FFFFFFEEEEEEFAFAFAC1C1C1161616
310
FFFFFFF9F9F9E8E8E8050505D3D3D3F4F4F45353537B7B7BFAFAFAFBFBFBA8A8
310
A8282828FFFFFFA0A0A0000000E7E7E7F2F2F2DBDBDB000000393939E1E1E1F5
310
F5F5BBBBBB3131310000787878BABABAEFEFEFF9F9F9505050E7E7E7F3F3F3FF
310
FFFF2B2B2B3D3D3DEEEEEEFFFFFFFEFEFE434343FFFFFFFFFFFFDCDCDC464646
310
4B4B4BF3F3F3FFFFFFDDDDDD505050FFFFFFFBFBFBC4C4C4515151F9F9F9FFFF
310
FFF9F9F9FFFFFF4242420707072B2B2B050505EFEFEFFFFFFFB8B8B882828266
310
66660000001B1B1B282828ECECECFFFFFF0D0D0D0101010101018C8C8CFFFFFF
310
646464050505353535090909B3B3B3F1F1F1FDFDFDFFFFFFFFFFFFF1F1F1FFFF
310
FFEAEAEA4747471E1E1E1D1F1F1E2020CACCCCFDFFFFAFB0AE5D5E5C2E2F2D15
310
1614070806B3B2AEFFFFFCFDFCF8EFEEEA201F1B0B08032B2A26575856818181
310
BBBBBBB6B6B67B7B7BE6E6E65A5A5A595959151515000000686868FFFFFFE4E4
310
E4FAFAFA6060601A1A1A212121020202D0D0D0F3F3F3F8F8F8DBDBDB0B0B0B26
310
2626212121323232F7F7F7FBFBFB7979795B5B5B404040B7B7B7878787F7F7F7
310
434343555555131313000000888888F0F0F0FEFEFEFFFFFF4949490404042D2D
310
2D242424C3C3C3767676FDFDFDFFFFFFFDFDFDFFFFFFFAFAFA94949404040429
310
2929000000B6B6B6FFFFFFFFFFFFFFFFFF2828281F1F1F202020191919EFEFEF
310
FFFFFFC6C6C65A5A5A1D1D1D1313130D0D0DBBBBBBBBBBBB0F0F0F0E0E0E0505
310
05F5F5F50000F1F1F1FEFEFEFFFFFFFBFBFBF0F0F0FFFFFFFFFFFFFFFFFFFFFF
310
FFF6F6F6F6F6F6F0F0F0FFFFFFF1F1F1FFFFFFF7F7F7FEFEFEE3E3E3FDFDFDF1
310
F1F1FFFFFFFFFFFFFBFBFBF4F4F4FFFFFFFAFAFAF8F8F8FFFFFFF6F6F6FFFFFF
310
FFFFFFFFFFFFDDDDDDC2C2C2FFFFFFF5F5F5FFFFFFFFFFFFE7E7E7FDFDFDEBEB
310
EBE0E0E0FAFAFAEFEFEFFFFFFFFFFFFF4E4E4EE1E1E1FFFFFFF4F4F4FBFBFBE3
310
E3E3C6C6C6EDEDEDFFFFFFFFFFFFFFFFFFF4F4F4FFFFFFFFFFFFF0F0F0FFFFFF
310
FCFCFCDBDBDBD0D2D2F8FAFAFDFFFFFDFFFFF0F1EFFFFFFEFFFFFEDDDCD8FFFF
310
FCF1EEE9FFFFF9F5F2EAFFFFF9FFFFF8DCD7CEEFECE4FFFFFEFFFFFFFFFFFFFD
310
FDFDF7F7F7FFFFFFFFFFFFECECECE7E7E7FFFFFFFDFDFDF1F1F1FFFFFFFFFFFF
310
FFFFFFCBCBCBD0D0D0FFFFFFFFFFFFFDFDFDFFFFFFFFFFFFFFFFFFD5D5D5CDCD
310
CDFFFFFFF4F4F4FFFFFFEDEDEDFCFCFCF2F2F2FCFCFCFAFAFAF7F7F7FFFFFFF7
310
F7F7E1E1E1F5F5F5F8F8F8FFFFFFF3F3F3FFFFFFFFFFFFDBDBDBEAEAEAEEEEEE
310
F5F5F5F8F8F8FFFFFFEBEBEBF5F5F5F1F1F1FFFFFFFBFBFBFFFFFFBDBDBDFFFF
310
FFF0F0F0F5F5F5FEFEFEF5F5F5FFFFFFD0D0D0CBCBCBFAFAFAFDFDFDF1F1F1FB
310
FBFBFBFBFBFFFFFFE8E8E8F8F8F8FFFFFFFFFFFFE5E5E5DFDFDFFFFFFFF3F3F3
310
0000FFFFFFFCFCFCFAFAFAFFFFFFFFFFFFF5F5F5F7F7F7FAFAFAE5E5E5FFFFFF
310
FFFFFFF8F8F8FFFFFFFFFFFFECECECFFFFFFFFFFFFFFFFFFFFFFFFFFFFFFF8F8
310
F8EBEBEBF9F9F9FFFFFFFFFFFFFFFFFFF0F0F0F7F7F7FFFFFFF9F9F9E7E7E7FF
310
FFFFF8F8F8FFFFFFFDFDFDF2F2F2FFFFFFFFFFFFF0F0F0FFFFFFFFFFFFF6F6F6
310
FFFFFFFFFFFFF6F6F6FFFFFF323232D4D4D4FBFBFBE6E6E6FFFFFFFFFFFFFAFA
310
FAF3F3F3FFFFFFECECECFFFFFFF0F0F0F5F5F5FFFFFFFFFFFFFEFEFEFDFDFDFF
310
FFFFF7F9FAFAFEFFECF1F0EEF0F0FFFFFEFFFFFEF9F8F4FFFFFBFFFEF6FFFEF5
310
FFFEF3FFFFF7FFF7EAFFF8EBFFFFF5FAF4E9FFFEFAF1F1F1FBFBFBB8B8B87979
310
79FFFFFFF5F5F5FFFFFFFFFFFFECECECFFFFFFF6F6F6FBFBFBF4F4F4ECECECFF
310
FFFFFDFDFDF1F1F1FEFEFEFBFBFBFDFDFDFFFFFFF4F4F4FEFEFEFFFFFFFFFFFF
310
F2F2F2FFFFFFFFFFFFF5F5F5FFFFFFA4A4A47D7D7DFFFFFFF7F7F7FFFFFFFDFD
310
FDFFFFFFEAEAEAFFFFFFFAFAFAFFFFFFEEEEEEFFFFFFEEEEEEFFFFFFFFFFFFFF
310
FFFFFFFFFFFFFFFFFFFFFFF9F9F9F6F6F6FAFAFAF7F7F7FFFFFFFCFCFCFFFFFF
310
F2F2F2FFFFFFFFFFFFF7F7F7FAFAFAFFFFFFFFFFFFFFFFFFFAFAFAF9F9F9F9F9
310
F9FAFAFAEAEAEAFFFFFFEDEDEDF6F6F6FFFFFFFFFFFFF6F6F6FFFFFF0000F8F8
310
F8F4F4F4F2F2F2FFFFFFFDFDFDFFFFFFFFFFFFFFFFFFFFFFFFFAFAFAFFFFFFED
310
EDEDFBFBFBFFFFFFF7F7F7FFFFFFF3F3F3FFFFFFFFFFFFF1F1F1FEFEFEFFFFFF
310
FFFFFFFFFFFFFFFFFFFAFAFAFFFFFFFFFFFFFFFFFFFFFFFFFFFFFFFFFFFFFFFF
310
FFFCFCFCFFFFFFFFFFFFF4F4F4F8F8F8FEFEFEF2F2F2FDFDFDFFFFFFF9F9F9F7
310
F7F7FCFCFCFFFFFF898989D5D5D5FCFCFCFFFFFFF7F7F7FBFBFBFFFFFFFFFFFF
310
FFFFFFF9F9F9FEFEFEFFFFFFFFFFFFF6F6F6EBEBEBFFFFFFF5F5F5FDFFFFFBFF
310
FFFBFFFFFBFFFFFBFFFFF1F2F0F5F4F0FFFFFAFFFEF6FFFBF2FFFFF7FFFFF5F4
310
EBDDFFFFF4FFFFF2FFFFEFFFFFF5FFFFFCFFFFFFFFFFFFB8B8B8787878FFFFFF
310
FFFFFFFEFEFEFBFBFBFFFFFFFFFFFFFCFCFCFFFFFFFFFFFFFCFCFCFFFFFFFCFC
310
FCFFFFFFFCFCFCFFFFFFFFFFFFFBFBFBFFFFFFFAFAFAF5F5F5FFFFFFFFFFFFEB
310
EBEBFFFFFFFFFFFFF3F3F3ADADADA1A1A1F8F8F8FFFFFFFFFFFFDFDFDFFFFFFF
310
FFFFFFFFFFFFFFFFFFF4F4F4FFFFFFF7F7F7FFFFFFF9F9F9FFFFFFE8E8E8F7F7
310
F7F1F1F1F1F1F1FFFFFFFFFFFFF2F2F2FFFFFFF9F9F9ECECECFFFFFFFFFFFFE5
310
E5E5FFFFFFFFFFFFF4F4F4FFFFFFF3F3F3FCFCFCFFFFFFFFFFFFFFFFFFFFFFFF
310
F7F7F7FEFEFEFFFFFFFCFCFCF4F4F4FAFAFAF7F7F7FFFFFF0000FFFFFFFDFDFD
310
FFFFFFFEFEFEFBFBFBF8F8F8FFFFFFEFEFEFF9F9F9F1F1F1FFFFFFFFFFFFFAFA
310
FAF6F6F6F7F7F7FFFFFFFFFFFFF3F3F3FEFEFEF4F4F4FFFFFFF4F4F4F4F4F4FB
310
FBFBFFFFFFF6F6F6FFFFFFFFFFFFEEEEEEFBFBFBFFFFFFF9F9F9FFFFFFFEFEFE
310
EEEEEEF8F8F8F7F7F7FFFFFFF8F8F8FFFFFFFBFBFBFFFFFFFFFFFFFFFFFFFFFF
310
FFF9F9F9EFEFEFFFFFFFFCFCFCFAFAFAFFFFFFFEFEFEFFFFFFF3F3F3FDFDFDFF
310
FFFFFFFFFFF5F5F5FBFBFBFFFFFFF7F7F7FFFFFFF4F4F4FDFFFFFBFFFFE6EBEC
310
F1F5F6FBFFFFFDFEFCFFFFFCFFFFFBFDFAF2E5DFD4D5CDC0CDC4B6E5DBCAD2C6
310
B4FFFFEFF4E6D3FFFCEEFFFFFAF8F8F8F0F0F0FFFFFFFFFFFFF5F5F5FEFEFEF5
310
F5F5FFFFFFFFFFFFF4F4F4FFFFFFFFFFFFF8F8F8FFFFFFF5F5F5FFFFFFFFFFFF
310
F5F5F5FFFFFFFFFFFFF2F2F2FFFFFFFFFFFFFFFFFFE5E5E5FFFFFFFFFFFFE7E7
310
E7FFFFFFFFFFFFFFFFFFFFFFFFE6E6E6FEFEFEFFFFFFFFFFFFFFFFFFF3F3F3FD
310
FDFDF8F8F8F2F2F2FFFFFFFFFFFFFFFFFFFFFFFFFFFFFFFFFFFFFDFDFDFFFFFF
310
FFFFFFEFEFEFFFFFFFFBFBFBEEEEEEFEFEFEFFFFFFEDEDEDFFFFFFFFFFFFEEEE
310
EEFFFFFFFBFBFBFFFFFFFFFFFFFFFFFFF7F7F7FFFFFFFFFFFFFBFBFBFEFEFEFE
310
FEFEFAFAFAFFFFFFF9F9F9F5F5F5FFFFFFFFFFFF0000FFFFFFF7F7F7FFFFFFFF
310
FFFFFEFEFEFFFFFFFFFFFFFFFFFFFFFFFFFFFFFFFFFFFFEBEBEBFFFFFFFFFFFF
310
FFFFFFF8F8F8F5F5F5FFFFFFF8F8F8FFFFFFFFFFFFF0F0F0FFFFFFFDFDFDFFFF
310
FFFFFFFFF5F5F5FFFFFFFFFFFFF6F6F6FFFFFFF9F9F9F8F8F8FCFCFCFFFFFFFE
310
FEFEFFFFFFF9F9F9FFFFFFF7F7F7FFFFFFFAFAFAF7F7F7FFFFFFFFFFFFFFFFFF
310
FFFFFFFCFCFCFFFFFFFEFEFEFFFFFFF5F5F5FFFFFFF2F2F2FFFFFFF5F5F5F3F3
310
F3FFFFFFFEFEFEF4F4F4FFFFFFF2F2F2FCFCFCFDFFFFF1F5F6FBFFFFF7FBFCFB
310
FFFFFAFCFCF0F1EFFFFFFBFFFFF7F5ECDED0C4B2D2C4AEE0CFB5DCC9AED2BDA1
310
EFD9BDD9C5ACDDD0C0FFF7EDFFFFF6FFFAF3FFFFFBFFFFFCF8F6F5FFFFFFF8FA
310
FBFBFDFEFDFFFFFDFFFFEEF0F0FDFFFFF5F6F4FFFFFEFDFFFFFDFFFFFBFDFDFD
310
FFFFFCFEFEFBFBFBFEFEFEFFFFFFF7F7F7FFFFFFFEFEFEFDFDFDFFFFFFF9F9F9
310
FFFFFFF2F2F2F7F7F7FFFFFFFDFDFDFFFFFFF0F0F0FFFFFFFFFFFFFFFFFFFCFC
310
FCFFFFFFF6F6F6F5F5F5FEFEFEFCFCFCFFFFFFFBFBFBFFFFFFE9E9E9FFFFFFFF
310
FFFFF8F8F8FFFFFFFFFFFFFFFFFFF6F6F6FFFFFFF4F4F4FFFFFFFAFAFAFFFFFF
310
FFFFFFFAFAFAFFFFFFF2F2F2FFFFFFFFFFFFF6F6F6FEFEFEFFFFFFFFFFFFFBFB
310
FBF8F8F8FFFFFFFFFFFFF1F1F1F9F9F90000FDFDFDFFFFFFFFFFFFFFFFFFFCFC
310
FCFCFCFCFFFFFFFFFFFFFFFFFFFFFFFFFFFFFFFFFFFFFFFFFFFFFFFFFFFFFFFF
310
FFFFF5F5F5FFFFFFEBEBEBBABABACBCBCBD6D6D6BABABAD6D6D6D2D2D2CBCBCB
310
CECECED0D0D0CACACACCCCCCD1D1D1CDCDCDCCCCCCCECECEC5C5C5FFFFFFFBFB
310
FBFDFDFDFFFFFFFBFBFBFFFFFFFFFFFFFFFFFFFFFFFFFFFFFFFFFFFFFFFFFFFF
310
FFFFFFFFFFFFFFFFFFFFFFFFFFFFFFFFFFFFFFFFFFFFFFFFFFFFF2F2F2FEFEFE
310
FFFFFFFFFFFFFFFFFFFFFFFFFEFEFEF8F8F8FDFFFFFAFCFCF1F6F7F2F7FAF9FE
310
FFFBFFFFFFFFFCFFFCF1F7E9D6DEC9AEE5CAA8ECCDA6EDCBA0EFCCA0EBC69AF0
310
CCA4F6D3B1E1C3A6DFC4AAFDE8D3FFFFF4FFFFF8FBF6F3FAF9FBEFF4F7F1F7FC
310
F5FBFFF7FEFFFAFFFFFBFFFEFDFFFCFCFFFBF1F6F4FBFFFFF9FEFDF2F7F6F7FC
310
FBFBFDFDF9FBFBFCFEFEFCFCFCFCFCFCFEFCFCFFFDFDFFFDFDFFFDFDFFFDFEFF
310
FEFEFDFDFDFDFDFDFDFDFDFDFDFDFDFDFDFDFDFDFDFDFDFDFDFDFDFDFDFDFDFD
310
FDFDFDFDFDFDFDFDFDFDFDFDFDFDFDFDFDFDFEFEFEFDFDFDFCFCFCFCFCFCFCFC
310
FCFCFCFCFDFDFDFEFEFEFDFDFDFDFDFDFDFDFDFDFDFDFDFDFDFDFDFDFDFDFDFD
310
FDFDFBFBFBFCFCFCFCFCFCFDFDFDFDFDFDFEFEFEFEFEFEFEFEFEFFFFFFF3F3F3
310
FFFFFFFAFAFAF8F8F8FDFDFD0000FBFBFBFDFDFDFFFFFFFFFFFFFFFFFFFFFFFF
310
FEFEFEFDFDFDFFFFFFFFFFFFFFFFFFFFFFFFFFFFFFFFFFFFFFFFFFFFFFFFFFFF
310
FFFDFDFDEAEAEA8F8F8F8080807A7A7A8D8D8D8585858282827E7E7E83838386
310
86868080808282828585857F7F7F8585858585858F8F8FF7F7F7FBFBFBFDFDFD
310
FFFFFFFFFFFFFFFFFFFFFFFFFFFFFFFFFFFFFFFFFFFFFFFFFFFFFFFFFFFFFFFF
310
FFFFFFFFFFFFFFFFFFFFFFFFFFFFFFFFFFFFFFFFFFFFFFFFFFFFFFFFFAFAFAF6
310
F6F6FBFBFBFFFFFFFFFFFFFFFFFFF5F6F4FCFEFEFAFFFFF8FFFFF7FDFFF4F7FB
310
FDFBFAFFFFF7F6E7D4DFC7A9E7C7A3F0CB9FF2C99CF4CA9BECC293F1C79AE9BE
310
93FDD4ADF4CFADDABC9FDDC5B1F3E3D6FFFCF5FFFFFEFBFFFFF6FDFFEDF3F8F2
310
F9FCF7FFFEF7FEFBF9FFFAFBFFFCFBFFFEFAFFFFF2F8F7F5FBFAFBFFFFFBFFFF
310
FDFFFFF2F4F4FEFEFEFEFEFEFFFFFFFFFFFFFFFEFFFFFEFFFFFEFFFFFFFFFFFF
310
FFFFFFFFFFFFFFFFFFFFFFFFFFFFFFFFFFFFFFFFFFFFFEFEFEFEFEFEFEFEFEFE
310
FEFEFEFEFEFEFEFEFEFEFEFEFEFEFFFFFFFFFFFFFFFFFFFEFEFEFEFEFEFFFFFF
310
FFFFFFFFFFFFFCFCFCFCFCFCFCFCFCFCFCFCFCFCFCFCFCFCFCFCFCFCFCFCFEFE
310
FEFEFEFEFEFEFEFFFFFFFFFFFFFFFFFFFFFFFFFFFFFFF6F6F6F1F1F1FFFFFFFF
310
FFFFFFFFFFFEFEFE0000FFFFFFFEFEFEFEFEFEFFFFFFFFFFFFFFFFFFFEFEFEFC
310
FCFCFFFFFFFFFFFFFFFFFFFFFFFFFFFFFFFFFFFFFFFFFFFFFFFFF9F9F9FFFFFF
310
EBEBEBCBCBCB7070708484849494948080808989898686868D8D8D9292928D8D
310
8D8E8E8E9090908989898F8F8F878787919191FFFFFFFFFFFFFFFFFFFAFAFAFA
310
FAFAFFFFFFFFFFFFFFFFFFFFFFFFFFFFFFFFFFFFFFFFFFFFFFFFFFFFFFFFFFFF
310
FFFFFFFFFFFFFFFFFFFFFFFFFFFFFFFFFFFFFBFBFBFEFEFEFFFFFFFFFFFFFFFF
310
FFF8F8F8F6F6F6F9F9F9FFFFFEFFFFFEF6FAFBF0F5F8EEF4F9F6F9FDFFFFFEFF
310
FFF8FAECDADFCAAFE3C7A5E9C8A1EDC9A1F6D3A8F4D0A8FCD5AEEDC399FAD0A6
310
F4CEABE8C9AAE3CAB0DFCBB9DED2C6E8E0D9FEFBF7FBFCFAFAFCFCFAFFFEFBFF
310
FEFBFFFCFDFFFBFAFFFBFBFFFEF7FDFCFBFFFFFBFFFFFBFFFFEAEFEEFDFFFFFD
310
FFFFFDFDFDFDFDFDFFFDFDFFFDFDFFFDFDFFFDFDFFFBFCFEFCFCFFFDFDFDFDFD
310
FDFDFDFDFDFDFDFDFDFDFDFDFDFDFDFDFDFDFDFDFDFDFDFDFDFDFDFDFDFDFDFD
310
FDFDFDFDFDFDFDFDFDFDFDFDFDFDFDFDFDFDFDFDFDFDFDFDFDFDFDFDFDFDFDFD
310
FDFDFFFFFFFFFFFFFFFFFFFFFFFFFFFFFFFFFFFFFFFFFFFFFFFFFCFCFCFCFCFC
310
FCFCFCFDFDFDFDFDFDFDFDFDFEFEFEFEFEFEFFFFFFFFFFFFFDFDFDFFFFFFFAFA
310
FAFAFAFA0000FFFFFFFFFFFFFFFFFFFEFEFEFCFCFCFDFDFDFFFFFFFFFFFFFFFF
310
FFFFFFFFFFFFFFFFFFFFFFFFFFFFFFFFFFFFFFFFFFFFF6F6F6FFFFFFFAFAFAFF
310
FFFF9E9E9E8A8A8A8C8C8C8181818282827F7F7F8585858A8A8A858585878787
310
8A8A8A848484909090898989929292FFFFFFFFFFFFFDFDFDFDFDFDFFFFFFFFFF
310
FFFFFFFFFFFFFFFFFFFFFFFFFFFFFFFFFFFFFFFFFFFFFFFFFFFFFFFFFFFFFFFF
310
FFFFFFFFFFFFFFFFFFFFFFFFFFFFFDFDFDFCFCFCFFFFFFFFFFFFFFFFFFFDFDFD
310
FFFFFFFFFFFEFCFBF7F8F9F7F6FAFBFAFFFFF8FEFFFAFFFFFFFFFFFFFDF6F0E3
310
D5DAC8B1E3CBAFE9CCADEACBAAEBCCABDEBF9EDEBE9BFED7B0F4CBA4E6C19BE8
310
C8A5EBCEB3D8C2A9D0BEADDBD0C2E8E2D7FFFEF6FFFFFBFFFFFCFDFEFAFDFFFC
310
FDFFFCF5FBF6F9FEFCE9EFEEF4F9F8F6FBFAFBFFFFFBFFFFF4F6F6F4F6F6FFFF
310
FFFFFFFFFFFFFFFFFFFFFFFEFEFFFEFEFFFDFEFFFEFEFEFEFEFEFEFEFEFEFEFE
310
FEFEFEFEFEFEFEFEFEFEFEFEFEFEFFFFFFFFFFFFFFFFFFFFFFFFFFFFFFFFFFFF
310
FFFFFFFFFFFFFEFEFEFEFEFEFFFFFFFFFFFFFFFFFFFFFFFFFEFEFEFEFEFEFDFD
310
FDFDFDFDFDFDFDFDFDFDFDFDFDFDFDFDFDFDFDFDFDFDFEFEFEFEFEFEFEFEFEFE
310
FEFEFEFEFEFFFFFFFFFFFFFFFFFFF7F7F7FFFFFFF4F4F4FFFFFFFFFFFFFEFEFE
310
0000F8F8F8FEFEFEFFFFFFFFFFFFFEFEFEFCFCFCFFFFFFFFFFFFFFFFFFFFFFFF
310
FFFFFFFFFFFFFFFFFFFFFFFFFFFFFFFFFFFFFFFFFFF9F9F9FFFFFFF5F5F5DDDD
310
DD7575758585858888888989898383838888888B8B8B8686868A8A8A8F8F8F8A
310
8A8A818181878787929292F7F7F7F7F7F7FAFAFAFFFFFFFFFFFFFFFFFFFFFFFF
310
FFFFFFFFFFFFFFFFFFFFFFFFFFFFFFFFFFFFFFFFFFFFFFFFFFFFFFFFFFFFFFFF
310
FFFFFFFFFFFFFFFFFFFFFFFFFFFFFFFFFAFAFAFEFEFEFFFFFFFFFFFFF8F8F8F4
310
F5F3FFFFFBFFFFFCFDFFFFFAFFFFF2F8FDEEF2F7F3F5F6FFFBF8F6ECE2DDCDBC
310
DEC9B3DBC3ABD9C1A9E5CDB5E4CDB7F0D5BBE1BE9CF1CCA6EDC9A5E1C19EE3C6
310
A7E5CAAFE0CAB1DECDB8D7CBB9E6DDCFF7F1E6FDFAF2FFFFF9FFFFFCFDFFFCFA
310
FFFDFBFFFFFBFFFFFBFFFFF5FAF9F4F6F6FDFFFFEDEFEFFDFFFFFFFFFFFFFFFF
310
FFFFFFFFFFFFFFFFFFFFFFFFFFFFFFFFFFFFFFFFFFFFFFFFFFFFFFFFFFFFFFFF
310
FFFFFFFFFFFFFFFFFFFFFFFFFFFFFFFFFFFFFFFFFFFFFFFFFFFFFFFFFFFFFFFF
310
FFFFFFFFFFFFFFFFFFFFFFFFFFFFFFFFFFFFFFFFFFFFFFFFFFFFFFFFFFFFFFFF
310
FFFFFFFFFFFFFFFFFFFFFFFFFFFFFFFFFFFFFFFFFFFFFFFFFFFFFFFFFFFFFFFF
310
FFFFFFFFFFFFFFFFFFFFFFFFFFFFFFFFFBFBFBFFFFFFFEFEFEF8F8F80000E2E2
310
E2EDEDEDFBFBFBFFFFFFFFFFFFFFFFFFFDFDFDFCFCFCFFFFFFFFFFFFFFFFFFFF
310
FFFFFFFFFFFFFFFFFFFFFFFFFFFFFFFFFFF4F4F4FAFAFAFDFDFDFFFFFFA1A1A1
310
8A8A8A9696968989898282828686868888888282828686868C8C8C8888888585
310
859090909F9F9FFFFFFFFDFDFDFCFCFCFEFEFEF9F9F9FFFFFFFFFFFFFFFFFFFF
310
FFFFFFFFFFFFFFFFFFFFFFFFFFFFFFFFFFFFFFFFFFFFFFFFFFFFFFFFFFFFFFFF
310
FFFFFFFFFFFFFAFAFAFFFFFFFFFFFFFFFFFFFEFEFEFFFFFFFFFFFFFFFFFEFFFC
310
F8FEFDF9FAFCFCF4F7FBECF0F5E1E5EAD8DADBD5D3D2C0B9B0B9ADA1D2C2B2DD
310
CBBAE1CFBEE7D7C7DFCFC2E5D1BFE8CCAEEFCFACEBCAA9EACBAAF0D3B4E7CDAF
310
D7C1A5D3BFA6D5C7B1CBBFADDBD3C6FFFBF2FFFFFBF2F3EFDDE2E0DDE3E2D4D9
310
D8DDE2E1E6EBEAE2E7E6DCDEDEECEEEEEAECECC5C7C7C9C9C9C9C9C9C9C9C9CA
310
CACACCCACACDCBCBCDCBCBCDCBCBCACACACACACACACACACACACACACACACACACA
310
CACACACACACAC8C8C8C8C8C8C8C8C8C8C8C8C8C8C8C8C8C8C8C8C8C8C8C8C8C8
310
C8C9C9C9CBCBCBCCCCCCCCCCCCCBCBCBC9C9C9C8C8C8CCCCCCCCCCCCCCCCCCCC
310
CCCCCCCCCCCCCCCCCCCCCCCCCCCCCBCBCBCBCBCBCBCBCBCACACACACACACACACA
310
C9C9C9C9C9C9CBCBCBBFBFBFF4F4F4FAFAFAFCFCFCF6F6F60000D3D3D3D9D9D9
310
E4E4E4F3F3F3FEFEFEFFFFFFFFFFFFFBFBFBFFFFFFFFFFFFFFFFFFFFFFFFFFFF
310
FFFFFFFFFFFFFFFFFFFFFFFFFFFFFFFFF5F5F5FFFFFFFAFAFADEDEDE8C8C8C7E
310
7E7E8A8A8A8585858A8A8A8C8C8C8787878989898D8D8D8787877E7E7E808080
310
8F8F8FFFFFFFFFFFFFFEFEFEFFFFFFFFFFFFFFFFFFFFFFFFFFFFFFFFFFFFFFFF
310
FFFFFFFFFFFFFFFFFFFFFFFFFFFFFFFFFFFFFFFFFFFFFFFFFFFFFFFFFFFFFFFF
310
FFFFFCFCFCFFFFFFFFFFFFF7F7F7F8F8F8FFFFFFFFFFFFF7F5F4CAC7C295928D
310
4849470E1213000004000004000307060606100C070B02000F0300190D01372B
310
2172675FA49B97D0C4BAE2CAB6E8CDB3E0C5AADEC3A8E3C8ADDFC7ABDCC5ABE3
310
CFB6DAC9B4D6CAB8E4DCCFFDF8EFFFFFFCF7F9F9ECF1F2ECF4F4F2F6F7E6E8E8
310
DDDFDFEDEFEFE5E7E7D2D4D4FDFFFF4D4F4F4242424242424343434444444545
310
4546464647474748484845454545454545454545454545454545454545454545
310
4545434343434343434343434343434343434343434343434343434343444444
310
4646464747474747474646464444444343433D3D3D3D3D3D3D3D3D3D3D3D3D3D
310
3D3D3D3D3D3D3D3D3D3D46464646464645454545454545454544444444444444
310
4444383838434343DEDEDEFFFFFFFFFFFFFEFEFE0000D0D0D0CCCCCCCFCFCFDE
310
DEDEF4F4F4FFFFFFFFFFFFFFFFFFFFFFFFFFFFFFFFFFFFFFFFFFFFFFFFFFFFFF
310
FFFFFFFFFFFFFFFFFFF6F6F6FFFFFFF7F7F7FEFEFEFFFFFFBFBFBF8686868A8A
310
8A8686868C8C8C9090908A8A8A8A8A8A8C8C8C8484849C9C9C8B8B8B909090FF
310
FFFFFFFFFFF9F9F9F9F9F9FFFFFFFFFFFFFFFFFFFFFFFFFFFFFFFFFFFFFFFFFF
310
FFFFFFFFFFFFFFFFFFFFFFFFFFFFFFFFFFFFFFFFFFFFFFFFFFFFFFFFFFFFFFFF
310
FFFDFDFDFAFAFAFFFFFFFFFFFFDFDFDF7373730D0B0A04010004010000010000
310
010200030801050A0003070101010D0805090100170E05120900090100080300
310
0601020F08056A5A4DC6B2A0F5E1CFE2CDB8D8C3ADE9D4BEEFDAC4E0CFBAFFFF
310
F0FFFFF0DFD6CC88857D3E3F3D1B1F20060C110000040000010000000001010A
310
0C0C000000080A0AFDFFFF595B5B4B4B4B4B4B4B4C4C4C4E4E4E505050515151
310
5252525353534F4F4F4F4F4F4F4F4F4F4F4F4F4F4F4F4F4F4F4F4F4F4F4F5151
310
515151515151515151515151515151515151515151514C4C4C4E4E4E50505051
310
51515151515050504E4E4E4C4C4C545454545454545454545454545454545454
310
5454545454545050505050505050504F4F4F4E4E4E4E4E4E4D4D4D4D4D4D4545
310
45404040F3F3F3FCFCFCFDFDFDEEEEEE0000D9D9D9D9D9D9D2D2D2CACACACFCF
310
CFE3E3E3F8F8F8FFFFFFFAFAFAFFFFFFFFFFFFFCFCFCF8F8F8FBFBFBFFFFFFFF
310
FFFFFFFFFFF8F8F8FFFFFFFFFFFFEFEFEFFFFFFFF8F8F89C9C9C858585858585
310
8484849292928181817F7F7F9A9A9A7C7C7C878787888888949494FFFFFFFFFF
310
FFFDFDFDFEFEFEFEFEFEFFFFFFFFFFFFFFFFFFFFFFFFFFFFFFFFFFFFFFFFFFFF
310
FFFFFFFFFFF6F6F6FFFFFFFBFBFBFFFFFFFAFAFAFFFFFFF7F7F7FDFDFDFAFAFA
310
FEFEFEDFDFDF5C5C5C0000000C0C0C0200000401000E0B06070806090D0E050A
310
0D00010605080C030303060100070100160E0719110A0500000D08090A0B0F00
310
0001130A060C0200675B4FCDC0B2CCBDADFFF0E0FFFAE8EADDCD695E502D241A
310
07020007060200020200000300070E0000050408090000000606060606060D0D
310
0D040404EFEFEF6969694C4E4E4D4F4F4F51515153535153534F51514D4F4F4C
310
4E4E5454545252525050505151515252525353535353535252524E4E4E4F4F4F
310
5151515353535353535151514F4F4F4E4E4E4F4F4F5050505050505151515151
310
515252525252525353535454545454545454545454545252525151514F4F4F4E
310
4E4E5454545353535252525151515151515252525353535454545151513D3D3D
310
ECECECFFFFFFF8F8F8FFFFFF0000CCCCCCD8D8D8DCDCDCD1D1D1C7C7C7CFCFCF
310
E4E4E4F5F5F5FFFFFFFFFFFFFAFAFAF8F8F8FEFEFEFFFFFFFFFFFFFBFBFBFFFF
310
FFF7F7F7FFFFFFFFFFFFF7F7F7FFFFFFFFFFFFCBCBCB8181818686867C7C7C86
310
86868787878989897777778F8F8F878787888888949494FFFFFFFFFFFFFDFDFD
310
FEFEFEFEFEFEFFFFFFFFFFFFFFFFFFFFFFFFFFFFFFFFFFFFFFFFFFFFFFFFFCFC
310
FCFFFFFFF8F8F8F4F4F4FBFBFBFFFFFFF6F6F6FFFFFFFFFFFFF5F5F583838301
310
01010000001010100909090806050D0A050B0803000100000203000407000003
310
0204050200000B0702170F080901000901000904010A07090000042021250200
310
001B16130701006A625BFFFFF8D0C7BE4E453B0F06000902000701000703000E
310
0D0906080801060903090E000005090B0C0404040A0A0A000000000000000000
310
FFFFFF626262494B4B4B4D4D4C4E4E4E50504E50504C4E4E4B4D4D494B4B5151
310
514F4F4F4E4E4E4E4E4E4F4F4F5050505050504F4F4F4B4B4B4D4D4D4E4E4E50
310
50505050504E4E4E4D4D4D4B4B4B515151515151515151515151525252525252
310
5252525252525050505151515151515151515050504F4F4F4D4D4D4D4D4D5050
310
504F4F4F4F4F4F4E4E4E4E4E4E4F4F4F4F4F4F5050504545453E3E3EEBEBEBFF
310
FFFFFEFEFEFFFFFF0000D2D2D2D4D4D4D2D2D2CFCFCFCFCFCFD3D3D3D5D5D5D4
310
D4D4E8E8E8F5F5F5FFFFFFFFFFFFFDFDFDFDFDFDFFFFFFFFFFFFFFFFFFF9F9F9
310
FEFEFEFFFFFFFDFDFDFFFFFFFFFFFFFAFAFAA7A7A78181818585858585858F8F
310
8F8B8B8B767676979797878787888888949494FFFFFFFFFFFFFDFDFDFEFEFEFE
310
FEFEFFFFFFFFFFFFFFFFFFFFFFFFFFFFFFFFFFFFFFFFFFFFFFFFFAFAFAFCFCFC
310
FFFFFFF7F7F7FFFFFFF6F6F6FFFFFFFFFFFFD0D0D02323230000000808080707
310
070202020000000405030504001615110A0C0C0105060000030001051010100B
310
08040701001D140A170D030B020017110C040000121115000004000203030303
310
CCCCCCEEECEB5B57560501000E0906050000181511100D090704000200000001
310
000303030608080A0A0A0303030200000A08080200000B0B0B0B0B0BFFFFFF5E
310
5E5E4B4D4D4C4E4E4D4F4F4E50504C51504B504F4A4F4E4B4D4D525252505050
310
4E4E4E4E4E4E5050505151515151515050504D4D4D4E4E4E4F4F4F5050505050
310
504F4F4F4E4E4E4D4D4D5050505050505050505050505050504F4F4F4F4F4F4F
310
4F4F4F4F4F5050505151515151515151515050505050504F4F4F4E4E4E4E4E4E
310
4F4F4F4F4F4F4F4F4F4F4F4F4E4E4E4E4E4E4C4C4C4E4E4EE3E3E3FEFEFEF9F9
310
F9FDFDFD0000D9D9D9D3D3D3CECECED0D0D0D8D8D8D9D9D9D1D1D1C7C7C7CDCD
310
CDE1E1E1F8F8F8FFFFFFFEFEFEFAFAFAFCFCFCFFFFFFFFFFFFFFFFFFFDFDFDFE
310
FEFEFFFFFFFBFBFBFDFDFDFFFFFFE7E7E78383838E8E8E8B8B8B8D8D8D7D7D7D
310
939393878787878787888888949494FFFFFFFFFFFFFDFDFDFEFEFEFEFEFEFFFF
310
FFFFFFFFFFFFFFFFFFFFFFFFFFFFFFFFFFFFFFFFFFFFFDFDFDF5F5F5FFFFFFFB
310
FBFBFFFFFFFFFFFFF7F7F7A7A7A7030303020202121212080808000000020202
310
0000000F100E0001000001000001001317181B2023242829757674C4C0BBAAA1
310
97887C7061544633271B130902070000161113030206101115F7FBFCBEC0C111
310
13140000011416170000010808080402020200000502000E0B071F1B16322C25
310
3E3831544E49605C5B5755555A5858514F4F585858525252EEEEEE5757573F41
310
413F41414042424143433F44433E43423D42413D424143454543434341414141
310
4141434343444444444444434343414141414141424242434343434343424242
310
4141414141414343434343434242424141414141414040404040404040404141
310
414141414343434343434444444444444444444343433F3F3F40404041414142
310
42424242424141414040403F3F3F3A3A3A4C4C4CD2D2D2FDFDFDFFFFFFFFFFFF
310
0000CFCFCFD4D4D4D9D9D9D9D9D9D3D3D3CFCFCFD1D1D1D6D6D6D1D1D1CFCFCF
310
D6D6D6E8E8E8FDFDFDFFFFFFFFFFFFF6F6F6FAFAFAFFFFFFFFFFFFFAFAFAFFFF
310
FFFFFFFFFBFBFBFFFFFFFFFFFFADADAD7F7F7F8989898282827B7B7B9696967D
310
7D7D878787888888949494FFFFFFFFFFFFFDFDFDFEFEFEFEFEFEFFFFFFFFFFFF
310
FFFFFFFFFFFFFFFFFFFFFFFFFFFFFFFFFFFFFEFEFEFFFFFFF3F3F3FBFBFBFEFE
310
FEFFFFFF8D8D8D12121202020200000000000000000007070700000009090902
310
02021C1D1B4043414E53524A4F503D40445B5D5EBEBCBBFFFFF9FAF1E4E5D6C6
310
E8D8C7F6E6D5BDAFA38A81780700003C3738FFFFFF8688890000010004050000
310
03000003000003040509000000393736A39F9AE1DAD1FEF5E8FFFFF2FFFFF1FF
310
FFF4FFFAF5FFFEFFFFFFFFFFFFFFFEFCFCF7F5F5FFFFFFD7D7D7E2E4E4E3E5E5
310
E1E6E5E1E6E5E1E6E5E1E6E5E0E6E5E0E5E4E6E8E8E6E6E6E4E4E4E4E4E4E6E6
310
E6E7E7E7E6E6E6E5E5E5E4E4E4E5E5E5E5E5E5E5E5E5E5E5E5E5E5E5E5E5E5E4
310
E4E4E9E9E9E9E9E9E8E8E8E8E8E8E7E7E7E6E6E6E6E6E6E6E6E6E3E3E3E4E4E4
310
E5E5E5E6E6E6E7E7E7E7E7E7E7E7E7E7E7E7E2E2E2E3E3E3E4E4E4E5E5E5E5E5
310
E5E4E4E4E3E3E3E2E2E2F0F0F0DFDFDFFFFFFFFCFCFCF4F4F4F8F8F80000D3D3
310
D3D1D1D1D2D2D2D5D5D5D5D5D5D3D3D3D4D4D4D7D7D7D6D6D6CECECECBCBCBD6
310
D6D6E7E7E7F4F4F4FAFAFAFDFDFDF7F7F7FFFFFFFFFFFFFBFBFBFFFFFFFFFFFF
310
FFFFFFFAFAFAFFFFFFF2F2F28383838787878080808F8F8F8080808B8B8B8787
310
87888888949494FFFFFFFFFFFFFDFDFDFEFEFEFEFEFEFFFFFFFFFFFFFFFFFFFF
310
FFFFFFFFFFFFFFFFFFFFFFFFFFFFFFFFFFFBFBFBFFFFFFFFFFFFFFFFFF878787
310
1717170000000000002626260909090000000909090000001414143232324A4D
310
4B4E53523E434451565795989CE5E7E7FFFFFCFFFFF8F5E8D8D9CAB7CCB9A4D9
310
C6B1DECEBEC9BBAFF0E6DFFFFCF7757372020301020404000001080D1005090E
310
070B1026292DDDDFE0E4E1DDFFFFF8EEE3D5D0BFACE4D0B7E3CBAFD5C0AAD8CE
310
C7E9E4E5FFFEFEFFFFFFFFFEFEFFFFFFF5F5F5FFFFFFFDFFFFFDFFFFFBFFFFFB
310
FFFFFBFFFFFBFFFFFAFFFFFBFFFFFDFFFFFFFFFFFEFEFEFEFEFEFFFFFFFFFFFF
310
FFFFFFFFFFFFFFFFFFFFFFFFFFFFFFFFFFFFFFFFFFFFFFFFFFFFFFFFFFFFFFFF
310
FFFFFFFFFFFFFFFFFFFFFFFFFFFFFFFFFFFFFFFFFFFFFDFDFDFEFEFEFFFFFFFF
310
FFFFFFFFFFFFFFFFFFFFFFFFFFFFFDFDFDFEFEFEFEFEFEFFFFFFFFFFFFFEFEFE
310
FEFEFEFDFDFDF2F2F2F0F0F0FEFEFEFFFFFFFFFFFFFFFFFF0000DCDCDCD1D1D1
310
CACACAD1D1D1D9D9D9D9D9D9D3D3D3D0D0D0D3D3D3D0D0D0D0D0D0D1D1D1D2D2
310
D2D7D7D7E8E8E8FAFAFAFBFBFBFEFEFEFFFFFFFFFFFFFFFFFFFFFFFFFFFFFFFC
310
FCFCF8F8F8FFFFFFBDBDBD8C8C8C8585859595957E7E7E949494878787888888
310
949494FFFFFFFFFFFFFDFDFDFEFEFEFEFEFEFFFFFFFFFFFFFFFFFFFFFFFFFFFF
310
FFFFFFFFFFFFFFFFFFFFFFFFFFECECECFFFFFFFFFFFFB5B5B512121200000014
310
14141515150000000000000C0C0C060606242424545454515151404242636867
310
A5AAABF9FEFFFBFFFFEEEEEEF4F0EBFFFFF7E8DAC8DFCCB7DEC8AFD7C2ACE4D0
310
BECDBDADFFFDF3736A6105010008070300010004060600000400000491979EFA
310
FEFF848484716D68BBB1A7DCCCBBD7C0A6F0D4B5ECCCA8D9BFA1CCC2B8D9D4D5
310
F8F3F4FFFEFFFBF9F9FCFAFAF0F0F0FFFFFFFCFEFEFBFDFDF9FEFDF8FDFCF7FD
310
FCF8FEFDF8FEFDFAFFFEFDFFFFFDFDFDFBFBFBFBFBFBFDFDFDFEFEFEFEFEFEFD
310
FDFDFEFEFEFDFDFDFDFDFDFCFCFCFCFCFCFDFDFDFDFDFDFEFEFEFAFAFAFAFAFA
310
FBFBFBFBFBFBFBFBFBFBFBFBFCFCFCFCFCFCFCFCFCFCFCFCFDFDFDFEFEFEFEFE
310
FEFEFEFEFDFDFDFDFDFDFDFDFDFDFDFDFCFCFCFCFCFCFCFCFCFCFCFCFDFDFDFD
310
FDFDFFFFFFFFFFFFFBFBFBFCFCFCFEFEFEFBFBFB0000D7D4D6D8D5D7DDDADCDD
310
DADCD3D2D4CBCACCCFCED0D7D9DAD6D8D9C9CDCEC2C5C9C6CBCCCCD1D4D0D5D6
310
D2D9DCD9DEDFFDFFFFFAFBF9FDFEFCFFFFFEFCFDFBFAFBF9FFFFFEFFFFFEFEFC
310
FBFFFFFEFFFFFE918F8E888685878584918F8E8A8B89878787888888949494FF
310
FFFFFFFFFFFDFDFDFEFEFEFEFEFEFFFFFFFFFFFFFFFFFFFFFFFFFFFFFFFFFFFF
310
FFFFFFFFFFFFFFFFFFFFFDFDF3F1F1F4F2F20301010C090B0603050200010200
310
010F0C0E0F0D0D0200003331304F4D4C3E3C3B646563C3C5C5F4F8F9FBFFFFF6
310
FAFBF3F5F5FFFFFEFFFFF9FCF3E6F2E3D3D6C5B2D9C6B1D8C5B0D4C2B1FFFFF4
310
867A700C05000906010506020F0D0C020000191416E0DCE1DDDBE126272B0D0F
310
10020100746F66DCD2C1DFCBB2DFC2A3E5C09AF5D4B3D6C3B4D5C9C3F0E8E1FF
310
FEF9FFFFFCFFFEFDFFFFFFF5F7F8FCFEFFFCFEFFFBFDFEFBFDFEFBFDFDF9FEFD
310
FAFFFEFAFFFEFFFFFFFDFDFDFCFCFCFCFCFCFDFDFDFEFEFEFEFEFEFDFDFDFEFE
310
FEFEFEFEFDFDFDFDFDFDFDFDFDFDFDFDFEFEFEFEFEFEFDFDFDFDFDFDFEFEFEFE
310
FEFEFFFFFFFFFFFFFFFFFFFFFFFFFDFDFDFDFDFDFEFEFEFEFEFEFEFEFEFEFEFE
310
FDFDFDFCFCFCFFFFFFFEFEFEFDFDFDFCFCFCFCFCFCFDFDFDFEFEFEFFFFFFF6F6
310
F6FFFFFFF5F5F5FCFCFCFFFFFFFDFDFD0000DFD4DCDBD3DAD9D0DAD8D0DAD8D3
310
DCD8D5DED6D5DED2D5DDD5DBE2CFD9E0CBD6DEC6D4DAC3D3DAC0D3D8BFD2D9C5
310
D4D7D4D9D8F0EFEBFFFFFCFFFFFBFEFDF9FFFFFCFFFFFCFFFFFCFFFFFBF1F1EB
310
FFFFFBF7F4EF787570918E898E8C8482827C8C8D8B898C8A939694FCFFFDFFFF
310
FEFDFEFCFFFFFFFFFFFFFBF9F9FFFFFFFFFEFFFFFBFDFFFAFCFFFEFFFFFEFFFF
310
F9FAFFFEFFFFF9F9FFFEFF322A2B0E05080700030A000610060C0900050C0208
310
090003292121534C498D8782DED8D3FFFCF8FDFFFFFBFFFFFDFFFFFFFFFFFFFF
310
FEFFFFFBFFFFF8FFFFF7F4E9DBC8BDAFD8CBBDCEC3B5FFFBEEBDB4AA11090202
310
0200000605000707110F0F0B0000F2DFE2D8C3C618090D080207000003081212
310
000200888C81E7DDCBDFC5ADEDC5A8F4C8ABE8C7ADE5CDB7DDCCB9FFFFF2FFFF
310
F8FEFDF9FDFFFFFAFDFFFDFDFFFDFCFFFFFDFFFFFDFFFFFEFFFFFFFFFFFFFEFF
310
FFFEFFFFFFFFFFFFFFFFFFFFFFFFFFFFFFFFFFFFFFFFFFFFFFFFFFFFFFFFFFFF
310
FFFFFFFFFFFFFFFFFFFFFFFFFFFFFFFFFFFFFFFFFFFFFFFFFFFFFFFFFFFFFFFF
310
FFFFFFFFFFFFFFFFFFFFFFFFFFFFFFFFFFFFFFFFFFFFFFFFFFFFFFFFFFFFFFFF
310
FFFFFFFFFFFFFFFFFFFFFFFFFFFFFFFFFFFFFFFFFFFFFFFFFFFFFFFFFFFFFFFF
310
FFFFFFFFFFFFFFFFFFFFFFFF0000D9D5DBD9D5DBD9D5DBD8D6DCD8D6DCD4D2D8
310
CCCDD1C6C9CDCCD1D4CED3D6CFD6D9D1D8DBCED8D8C9D5D5C5D1D1C5D0CECED1
310
CFCECFCDE2E3DFFFFFFCFFFFFCFCFDF9F8F7F3FFFFFBFFFFFBFFFFFAFFFFFBF5
310
F5EFC8C5C07B787394928A8686808A8B87888B89939694FCFFFDFFFFFEFDFEFC
310
FFFFFFFFFFFFFFFFFFFDFBFBFFFDFFFFFEFFFFFBFDF7F2F4FEF7FAFFFEFFF3EE
310
EDFFFFFE8A85840A05061A13160701060B0409040003050004211B20221C1D92
310
8E8DFAF5F2F6F4ECFFFFF9FFFFFBFDFFFFFBFFFFFFFEFFFFFFFEFFFFFCFFFFF9
310
FFFFF8FFFFF7F3E9DFC9C0B6C6BDB3E2DBD2F8F1E82620190501000F100C0410
310
10000101040000F4E2E3FFFBFB2102051300000B0003010609000103000F0E2C
310
3630C3BDB0DFC7B3F0C6AFEFBFA3EFC8A8EDCEAFE1CAB0FFF5DFFFFFF4FCFDF4
310
FCFEFEFBFEFFFDFCFFFFFBFFFFFCFFFFFCFFFFFDFFFFFEFFFFFFFEFFFFFEFFFF
310
FFFFFFFFFFFFFFFFFFFFFFFFFFFFFFFFFFFFFFFFFFFFFFFFFFFFFFFFFFFFFFFF
310
FFFFFFFFFFFFFFFFFFFFFFFFFFFFFFFFFFFFFFFFFFFFFFFFFFFFFFFFFFFFFFFF
310
FFFFFFFFFFFFFFFFFFFFFFFFFFFFFFFFFFFFFFFFFFFFFFFFFFFFFFFFFFFFFFFF
310
FFFFFFFFFFFFFFFFFFFFFFFFFFFFFFFFFFFFFFFFFFFFFFFFFFFFFFFFFFFFFFFF
310
FFFFFFFFFFFFFFFF0000C5D2D0C5D2D0C9D4D2CDD6D3D2D9D6D4D8D3D4D6D0D5
310
D3CBDAD8CEDDD7CCDED4CAE1D3C7E3D3C6E4D4C7E7D7C7E3D7CBD3D0CCCDCFCF
310
CFD1D1D8DADAEAECECFAFCFCFFFFFFFDFDFDFFFFFEFFFFFEFFFFFEF5F6F4FFFF
310
FE8A8B89848583929391888987898A88949593FEFFFDFFFFFEFEFFFDFFFFFFFF
310
FFFFF3F3F3FFFFFFFFFFFFFFFFFFFFFEFEFFFFFFFFFEFFFEFFFDFDFFFCF8FFF9
310
0F151000020004090700040303070800000106090D2B3031FAFFFEFAFFFEDDE3
310
DEFAFFF9FBFFF9F5FCF5FBFFFFFBFFFFFFFEFFFFFFFEFFFFFCFFFFFBFFFFF9FF
310
FFF8EDE4DBCCC3BACEC5BCFFFFF8706A630501000F0B06030400000200000400
310
BCB3AFFFFDF8D9BAB7A98A892E161616090B000001000305000201000802635D
310
52F7E1CFEBC2ACF6C7ACF1C8A8F0CDACE2C7ACEEDEC7FFFFF2FDFBF1FCFDFBFD
310
FFFFFDFDFFFFFCFFFFFCFFFFFCFFFFFDFFFFFFFFFFFFFEFFFFFEFFFFFFFFFFFF
310
FFFFFFFFFFFFFFFFFFFFFFFFFFFFFFFFFFFFFFFFFFFFFFFFFFFFFFFFFFFFFFFF
310
FFFFFFFFFFFFFFFFFFFFFFFFFFFFFFFFFFFFFFFFFFFFFFFFFFFFFFFFFFFFFFFF
310
FFFFFFFFFFFFFFFFFFFFFFFFFFFFFFFFFFFFFFFFFFFFFFFFFFFFFFFFFFFFFFFF
310
FFFFFFFFFFFFFFFFFFFFFFFFFFFFFFFFFFFFFFFFFFFFFFFFFFFFFFFFFFFFFFFF
310
FFFFFFFF0000C9DACFC5D6CBC0D1C6C2D0C5C7D3C7CED6CBD6DACFDBDAD0DEDA
310
CFE2D9CFE4D8CEE5D6CDE8D6CBEBD7CCEDD9CEE9D9D2DBD7D6D6DADBCBCED2BE
310
C2C3CACDD1E9EDEEFDFEFFFBFDFEFDFFFFFDFFFFFDFFFFFAFCFDFBFDFEC9CBCC
310
787A7B979999868785878886939492FEFFFDFFFFFEFEFFFDFFFFFFFFFFFFFFFF
310
FFFCFCFCF2F2F2FBFBFBFFFFFFFFFFFFFAFAFAF7FAF8EBF6EE7D8B8000040004
310
100A000300000502000A08000303000A0AF6FFFFF4FFFCEEF9F6F6FFFCDFECE4
310
F6FFF9F5FFF8FAFFFFFBFEFFFDFFFFFFFFFFFFFFFEFFFFFCFFFFF9FFFFF9E9E1
310
DAC7BFB8F6EEE7D9D3CC050100100D0915120E020100070B05606157FDF1E7E6
310
D0C5E8C7BEF4D2CC664B471203010000000C1616000200000A04100A00D6C1B2
310
EEC9B5F5C7AFF1C5A6F1CBABE4C8AAE0CCB3FFFFF2FFFCF1FCFBF7FFFFFFFFFD
310
FFFFFCFFFFFCFFFFFDFFFFFDFFFFFFFFFDFFFFFBFFFEFFFFFFFFFFFFFFFFFFFF
310
FFFFFFFFFFFFFFFFFFFFFFFFFFFFFFFFFFFFFFFFFFFFFFFFFFFFFFFFFFFFFFFF
310
FFFFFFFFFFFFFFFFFFFFFFFFFFFFFFFFFFFFFFFFFFFFFFFFFFFFFFFFFFFFFFFF
310
FFFFFFFFFFFFFFFFFFFFFFFFFFFFFFFFFFFFFFFFFFFFFFFFFFFFFFFFFFFFFFFF
310
FFFFFFFFFFFFFFFFFFFFFFFFFFFFFFFFFFFFFFFFFFFFFFFFFFFFFFFFFFFFFFFF
310
0000E6F2DCDEEBD5D5E1CDCEDAC8CCD6C6CAD2C7C9D1C7C9CFCAC9CECCCDD1D2
310
D2D5D9D7D9E1D8D9E3D6D7E1D2D2DECFD0DAD4D7DCCCCFD3CFD2D7D8DBDFD4D7
310
DCCBCED2D6D9DEEBEEF2F4F7FBFAFDFFFBFEFFFBFEFFEFF2F6F4F7FB9A9DA183
310
8788838585878886939492FEFFFDFFFFFEFEFFFDFDFFFEFDFFFEF0F3F1FDFFFE
310
FDFFFEFAFDFBF9FCFAFDFFFEFAFDFBE2E8E36A756B000C0100050005120A0005
310
00000906000B08000200A5B0AEF0FBF9F0FBF8E9F4F1F6FFFCF6FFFBF6FFFBF7
310
FFFBFAFFFFFBFEFFFDFFFFFFFFFFFFFFFEFFFFFCFFFFFCFFFFFBE8E2DDC9C5C0
310
FFFFFB5A55520F0C08120E0D0400000D0A05040400FFFFF2ECDCCBD4BAAAEDCA
310
BCE8C6B9DABFB5100000050400091110000705000400070200665548FDDBCBE8
310
BEA7F0C4A5F3CAA9EACBACDAC5AAFFFCEAFFFFF3FDFAF5FFFDFCFFFDFFFFFDFF
310
FFFDFFFFFDFFFFFEFFFDFFFFFAFFFFFAFFFEFDFFFFFFFFFFFFFFFFFFFFFFFFFF
310
FFFFFFFFFFFFFFFFFFFFFFFFFFFFFFFFFFFFFFFFFFFFFFFFFFFFFFFFFFFFFFFF
310
FFFFFFFFFFFFFFFFFFFFFFFFFFFFFFFFFFFFFFFFFFFFFFFFFFFFFFFFFFFFFFFF
310
FFFFFFFFFFFFFFFFFFFFFFFFFFFFFFFFFFFFFFFFFFFFFFFFFFFFFFFFFFFFFFFF
310
FFFFFFFFFFFFFFFFFFFFFFFFFFFFFFFFFFFFFFFFFFFFFFFFFFFFFFFF0000FAFF
310
EFF7FDECF2F9EAEEF5E8E9EFE4E0E8DED7DED9D2D9D6CBD3D3C8CFD2C2CAD1BD
310
C6CFBEC7D1C1CAD7C7D0DDCCD5DFC8CBD3D2D3D7DBDCE0DADBDFD0D1D5C7C8CC
310
CBCBD1D5D6DAE4E4EAF9F9FFF9F9FFFDFDFFFDFDFFF6F9FEDBDEE37E81858385
310
85878886939492FFFFFEFFFFFEFDFEFCFCFFFDFBFEFCFDFFFEFAFFFDF4F9F7FB
310
FFFEFBFFFEF7FCFA9CA19F3C433E1F27200004000109020003000C130E000401
310
0209061F2524FAFFFFECF2F1FAFFFFFAFFFFEDF4F1F2F9F6F1F8F3FAFFFEFBFF
310
FFFBFEFFFDFFFFFDFFFFFFFFFFFFFFFEFFFFFEFFFFFCE4E1DDDDDAD6EDEAE615
310
13120D09080200000B0908050200837F6DFFFFEDD6C1ABF7DAC5EAC7B3EBCAB7
310
EED3C59281780501000001000008070006030D0A021E0E02E8CBBCF0CBB5F2C6
310
A7F4CAA7EDCBADDBC4AAFCEDDAFFFFF4FFFCF4FDFCF8FFFEFFFFFDFFFFFDFFFF
310
FEFFFDFFFFFAFFFFF8FFFFF8FFFEFDFFFFFFFFFFFFFFFFFFFFFFFFFFFFFFFFFF
310
FFFFFFFFFFFFFFFFFFFFFFFFFFFFFFFFFFFFFFFFFFFFFFFFFFFFFFFFFFFFFFFF
310
FFFFFFFFFFFFFFFFFFFFFFFFFFFFFFFFFFFFFFFFFFFFFFFFFFFFFFFFFFFFFFFF
310
FFFFFFFFFFFFFFFFFFFFFFFFFFFFFFFFFFFFFFFFFFFFFFFFFFFFFFFFFFFFFFFF
310
FFFFFFFFFFFFFFFFFFFFFFFFFFFFFFFFFFFFFFFFFFFFFFFF0000FEFDFFFFFEFF
310
FFFEFFFFFEFFFFFEFFFCFEFFF6F8F9F0F5F4E9EEEDE0E5E3D4D9D7C8CFCAC4CB
310
C6C6D1C9CDD8D0D5DCD7C8C8C8DBD8DADCD9DBCCC9CBC9C6C8D7D4D6D8D7DBCD
310
CCCED8D7DBE1E0E4F0EFF3FCFBFFFFFEFFFBFCFFFDFEFFAFB0B4868686878787
310
949494FFFFFFFDFFFEFBFEFCFAFDFBF9FCFAFAFFFBF4FAF5FBFFFCFAFFFCAFB6
310
B1454C472C332E545A552E2F2B1A17120F0C080400000E0A090500010500019A
310
9597FAF5F7FFFBFDFFFBFDFFFCFEFFFCFEFFFEFFFFFEFFFEFBFDFFFEFFFDFEFF
310
FDFFFFFDFFFFFFFFFFFFFFFFFFFFFFFFFFFEE1DFDEF1EFEE9A98971111110200
310
00000000191919090600FFF5E3F4E5CBD5BCA2F3D5BAD8B49CE6C4ADE5C9B8CE
310
BDB0120C050105000002000308060805001509009B8377FDDCC9F4CAADF3C8A7
310
EBC9ABDEC5ABE9D8C3FFFFF4FFFDF4FFFCF7FFFFFFFFFEFFFFFEFFFFFEFFFBFF
310
FFF8FFFFF6FFFFF6FFFFFBFFFFFFFFFFFFFFFFFFFFFFFFFFFFFFFFFFFFFFFFFF
310
FFFFFFFFFFFFFFFFFFFFFFFFFFFFFFFFFFFFFFFFFFFFFFFFFFFFFFFFFFFFFFFF
310
FFFFFFFFFFFFFFFFFFFFFFFFFFFFFFFFFFFFFFFFFFFFFFFFFFFFFFFFFFFFFFFF
310
FFFFFFFFFFFFFFFFFFFFFFFFFFFFFFFFFFFFFFFFFFFFFFFFFFFFFFFFFFFFFFFF
310
FFFFFFFFFFFFFFFFFFFFFFFFFFFFFFFFFFFFFFFF0000FFFDF9FFFEF9FFFCF7FF
310
FCF7FFFFF8FFFFF8FFFFF8FFFFF7FFFFF7FFFFF7FFFFF4FBFEEFF0F5E6E2E9DA
310
D6DDCED0D4C8D2CFCACCC5C2CEC6C6DBD6D5E5DDDDDDD8D7D7D2D1D8D3D4D6D1
310
D2C6C1C2E9E4E6F1ECEEF4F1F3FFFEFFFFFDFFF1EEF0868686888888959595FF
310
FFFFFDFFFEFAFDFBF9FCFAF8FBF9F2F8F3FBFFFCEAF0EB7C837E323934555D56
310
B2B9B4F4FAF53632310500000E0607110B0C070001110A0D070001FFFDFFFFFC
310
FFFFFDFFFBF1F7FFFDFFFFFCFFF8F0F7FFFBFFFFFCFFFFFDFFFDFFFFFDFFFFFD
310
FFFFFFFFFFFFFFFFFFFFFFFFFFFFE6E6E6F7F7F7545454030303090909080808
310
010101312E26FFFFF0D9C6ABF2D7BCE1C3A6E8C5ABEECCB4E9CEBAE6D5C83932
310
290F100C0D1210000100110E09110800513E36F2D6C5F5CEB2F0C7A7E7C7AADE
310
C5ABD8C9B6FFFFF4FFFEF5FFFDF8FFFFFEFFFFFFFFFEFFFDFFFFFBFFFFF8FFFF
310
F4FFFFF6FFFFFBFFFFFFFFFFFFFFFFFFFFFFFFFFFFFFFFFFFFFFFFFFFFFFFFFF
310
FFFFFFFFFFFFFFFFFFFFFFFFFFFFFFFFFFFFFFFFFFFFFFFFFFFFFFFFFFFFFFFF
310
FFFFFFFFFFFFFFFFFFFFFFFFFFFFFFFFFFFFFFFFFFFFFFFFFFFFFFFFFFFFFFFF
310
FFFFFFFFFFFFFFFFFFFFFFFFFFFFFFFFFFFFFFFFFFFFFFFFFFFFFFFFFFFFFFFF
310
FFFFFFFFFFFFFFFFFFFFFFFFFFFFFFFF0000A96C40A66A40B27A51D19D75F1C0
310
9AFFD8B5FFECCCFFFDE0FFFFE5FFFFEBFFFFEFFFFFEFFFFFF2FFFFF5FFFFF7FF
310
FFF8FFF8EFF2E7DFDFD3CDD4CAC3D5C9C3D8CEC7D9CFC8D5CCC8D2C9C5DAD1CD
310
D6CFCCD1CAC7E3DBDBFFFBFBFFFFFEFFFBFABCBABA858585939393FEFEFEFDFF
310
FEF8FBF9FDFFFCFBFFFAFBFFFAB0B4AF31352F4E554EC9D0C9F9FFF7F5FCF5EC
310
F0EB040202040003171015040003171015090308453E43FFFAFFFCF4FBFFFBFF
310
FFFCFFFFFBFFFFFAFFFFFBFFFFFAFFFDF6FDFFFEFFFFFFFFFFFFFFFEFEFEFEFE
310
FEFEFEFEFBFDFEFBFDFEE3E5E6FDFFFF0B0D0E0608090000010403050B0B0B81
310
7E76FFF5E2E7D4B9D9C1A5E7CBADECCEB1E0C2A9DEC5B1E7D7C7857E75020100
310
0C0E0E000101020100120C0522120BDDC6B7E3BFA7FBD4B8ECCEB3DAC3ADDACC
310
B9F2EBDCFEF9F0FFFFFBFFFFFCFFFFFFFFFFFFFFFFFFFBFFFFF8FFFFF4FFFFF6
310
FFFEFBFFFFFFFFFFFFFFFFFFFFFFFFFFFFFFFFFFFFFFFFFFFFFFFFFFFFFFFFFF
310
FFFFFFFFFFFFFFFFFFFFFFFFFFFFFFFFFFFFFFFFFFFFFFFFFFFFFFFFFFFFFFFF
310
FFFFFFFFFFFFFFFFFFFFFFFFFFFFFFFFFFFFFFFFFFFFFFFFFFFFFFFFFFFFFFFF
310
FFFFFDFDFDFDFDFDFDFDFDFDFDFDFDFDFDFDFDFDFDFDFDFDFDFDFFFFFFFFFFFF
310
FFFFFFFFFFFFFFFFFFFFFFFF0000C78C5AAD7240915928844E1F7B491B75481D
310
7A4F287F593681603F8F7355A58E74BDAB94D9C8B5F0E2D0FCF0DEFEF4E3FFFC
310
EEFFFFF3FFFFF5FFFFF5FFFDF1FAEEE4EADED4DDD2CADED3CBD9CFC8DBD1CADF
310
D6D2DFD6D2E3DAD6F4EDEAFFFFFCFFFFFF7575758F8F8FFFFFFFEDF0EEEEF1EF
310
FDFFFCE8ECE75C605B797B75BABCB6FFFFF9F3F8EFF7FCF3FDFFF9C4C8C20C0B
310
0D050309010005000003000003000003939294FFFEFFF9F8FAFCFBFFFBFAFEF6
310
F5F9F7F6FAFEFCFFFFFDFFFFFEFFFFFFFFFFFFFCFFFFFEFFFEFDFDFDFDFCFCFC
310
FBFAFCF8FAFBE1E3E4E1E3E407090A010304080709070707020202C4C0BBF3E6
310
D6E1CFB8D6C1A6DFC7ABE3C8ADDAC1A7D8C3AEDFD0C0AAA39A0A0703080A0A0B
310
0D0E090706060200160C05C9B8ABE0C1ACE6C4ACDCC1ACD4C1ACD1C7B6FFFDF0
310
F8F6ECFFFFFBFFFFFCFFFFFEFFFFFFFFFFFFFBFFFFF8FFFEF6FFFEF6FFFEFBFF
310
FFFFFFFFFFFFFFFFFFFFFFFFFFFFFFFFFFFFFFFFFFFFFFFFFFFFFFFFFFFFFFFF
310
FFFFFFFFFFFFFFFFFFFFFFFFFFFFFFFFFFFFFFFFFFFFFFFFFFFFFFFFFFFFFFFF
310
FFFFFFFFFFFFFFFFFFFFFFFFFFFFFFFFFFFFFFFFFFFFFFFFFFFFFFFFFFFFFFFF
310
FFFFFFFFFFFFFFFFFFFFFFFFFFFFFFFFFFFFFFFFFFFFFFFFFFFFFFFFFEFEFEFD
310
FDFDFDFDFDFDFDFD0000FFFFE9FFFDE1FFFBE0FFFEE2FFF6DAFBE0C5EBCFB1E4
310
C6A9BA9A7DB49275A47F63936C508961458C62458F654888654B816B598F8070
310
AE9E91CBBEB0E4D7C9F8ECE0FFFFF3FFFFF7F4EAE0F8EFE6F6EDE4E5DBD4CCC4
310
BDC3BBB4D2C9C5E2DDDAFFFFFFD1D3D48B8D8DF2F4F4FFFFFEFFFFFE9798946B
310
6C68E0E2DCF0F0EAFFFFFBFFFFF9F7F8EFFEFFF5FFFFF68C8E88000102000409
310
0000030C1414000202000201D7E0DDF0F9F6F8FFFEF8FFFEF8FFFEF8FFFEF8FF
310
FEF8FFFFF7FFFEF6FBFAF9F8F4FEFAF5FFFCF9FFFFFCFFFFFEFFFFFFFFFEFFFF
310
FEFFFDFFFFCCCECF060809000001010101000000020000EEEAE5E8DCD0E1D1C0
310
DDCAB5E0CBB5E0CCB3DDC8B2D9CAB7DBD0C2B3ABA4221E1D0000010000010200
310
0004010019130EA69A8EEBD2C2E1C8B4D8C4B2D5C8B8C8C2B5FFFFF5F3F3EDFF
310
FFFBFFFCFBFFFCFBFFFBFCFEFCFCFAFDFBF7FEFBF5FEFBF5FEFBFAFCFCFCFCFC
310
FCFCFCFCFCFCFCFCFCFCFCFCFCFCFCFCFCFCFCFCFCFCFCFCFCFCFCFCFCFCFCFC
310
FCFCFCFCFCFCFCFCFCFCFCFCFCFCFCFCFCFCFCFCFCFCFCFCFCFCFCFCFCFCFCFC
310
FCFCFBFBFBFBFBFBFBFBFBFBFBFBFBFBFBFBFBFBFBFBFBFBFBFBFDFDFDFDFDFD
310
FDFDFDFDFDFDFDFDFDFDFDFDFDFDFDFDFDFDFFFFFFFFFFFFFFFFFFFFFFFFFFFF
310
FFFFFFFF0000FFFFF5FFFFF3FFFFF3FFFFF4FFFFF4FFFFF2FFFDEBFFFCE9FFFF
310
F0FFFFEEFFFFEEFFFEEAFFF9E6FFF9E4FFF7E2FFF4E0FFF0DEF5E6D6E0D3C3C4
310
B7A9A89D8F988C80948B7E978D83B5ACA2B4ADA4C0B8B1D4CEC7EAE4DFF1EBE6
310
E9E3DEDDDAD6DADADAF3F5F6939595FDFFFFD8D9D7969795EDEEEAFFFFFCFCFC
310
F6FFFFF9FFFFF9FCFAF0FFFFF6FFFFF7FFFFF57C7A7200010000020200010004
310
0D0A000200000400F9FFF8F2FEF2F3FDF1F2FFF1F6FFF4F5FFF5F9FFF7F8FFF8
310
F9FFF8FAFFF6FFFFF8FFFFF9FFFFF9FFFFFAFFFDF9FAF8F7F7F5F5F3F2F4FCFB
310
FDA6A8A90000010000000F0F0F12100F151312E5E1DCFFFFF6FFFFF4FFFFF2FF
310
FDEBFFFBE8FFFDEAFFFDEDFFFCF2FFFFFBE9E5E4F3F2F4FFFEFFFFFEFFFCFAF9
310
E7E3DEFFFDF4FFF6E9FFFDEEFFFFF4FFFFF5F7F6ECF6F8F2FFFFFCF9FAF8FFFF
310
FEFFFFFEFFFEFFFFFFFEFFFFFEFDFFFCFAFFFCFAFFFCFDFFFEFFFFFFFFFFFFFF
310
FFFFFFFFFFFFFFFFFFFFFFFFFFFFFFFFFFFFFFFFFFFFFFFFFFFFFFFFFFFFFFFF
310
FFFFFFFFFFFFFFFFFFFFFFFFFFFFFFFFFFFFFFFFFFFFFFFFFFFFFFFFFFFFFFFF
310
FFFFFFFFFFFFFFFFFFFFFFFFFFFFFFFFFFFFFFFFFFFFFFFFFFFFFFFFFFFFFFFF
310
FFFFFFFFFFFFFFFFFFFFFFFFFFFFFCFCFCFCFCFCFEFEFEFFFFFFFFFFFFFFFFFF
310
0000FAFFF7F7FFF4F0FAEEEEF6EBF1F6EDF5F8EFFCFCF6FFFFFCF5F0EDFCF4F4
310
FFF8F9FFF7FAFFF8FCFFFBFFFFFBFFFFF9FAFFFEF4FFFFF1FFFFF2FFFFF3FFFF
310
F4FFFFF7FFFFF7FFFFF8FFFCF5F8F5EDF4F0EBF1EEE9E4E1DDD1D0CCD0CECDDA
310
DBD9E2E4E5E3E7E8E8EDECC2C4C4E0E1DFEFF0EEECEBE7F8F5F1FFFFFBFEF8F1
310
FFFFF9FFFFF8FFF6EDFFFFF7FFFFF7766F66110D080D0C080A08000E0F050909
310
000E1102F6F8E5FFFFF0FFFFF0FFFFF0FFFFEAF9FFE6FBFEE8FBFFEAFFFFEFFF
310
FFF2FFFFF2FFFFF5FFFFF8FFFFF9FFFFFBFFFFFCFFFFFFFFFFFFFFFFFFA1A1A1
310
040404090909020000040100040100443F3C3A3532443D3A474037433A304239
310
2B463D2F463E313E3930403D393B39393A393D31303435343644424140403A40
310
3D354A3F3750453D39342B33312930342E3A403BE7ECEAF9FBFBFDFDFDFFFCFD
310
FFFDFCFFFDFCFFFDFCFDFEFAF9FFFAF9FFFAFAFDFBFCFCFCFCFCFCFCFCFCFCFC
310
FCFCFCFCFCFCFCFCFCFCFDFDFDFDFDFDFDFDFDFDFDFDFDFDFDFDFDFDFDFDFDFD
310
FDFDFDFDFDFDFDFDFDFDFDFDFDFDFDFDFDFDFDFDFDFDFDFDFDFDFCFCFCFCFCFC
310
FCFCFCFCFCFCFCFCFCFCFCFCFCFCFCFCFCFCF9F9F9F9F9F9F9F9F9F9F9F9F9F9
310
F9F9F9F9F9F9F9F9F9F9F9F9F9FAFAFAFCFCFCFDFDFDFDFDFDFDFDFD0000F2FB
310
F1F5FEF4FAFFFBFAFFFBFAFFFCFAFFFEFAFFFFF9FFFEFAFFFFFAFFFFF8FEFFEF
310
F5FCF0F2FCF6F8FFFAFCFFFDFDFFFFFFF9FFFFF5FFFFF7FFFFF7FFFFF8FFFFF8
310
FFFCF4F8F5F0F1F0ECFFFFFCFFFFFEF5F8F6F7F9F9FBFFFFFBFFFFF5F9FACED2
310
D3D2D6D7A6ABAAEDF2F1E3E4E2D1CFCEEBE8E4D5D1CCCEC8C3CAC2BBC5BCB3B0
310
A69CC2B8AECFC3B9DDCFC372635A3828212A1A131E1004140700180C00352A14
310
F6ECD4FFFFEAFFFFE2FFFEDDFFFFDEFFFFE5FFFFE7FFFFE9FFFFE9FFFFEBFFFA
310
E8FFF9ECFFF9EFFFF9F0FEF8F1FDF9F4FCF8F7FBF9F9FFFFFFA0A0A00707070E
310
0C0B0805010805001B17120E0B070200010605070A08070705000705000B0900
310
0B090005020006040305020408070B0403070302040607050303000604000701
310
00110D08020100000300020B08000200E7EFEEF5FAF9FBFBFBFFFAFBFFFBFAFF
310
FAFAFFFCF8FDFCF8F9FDF7F9FDF8FAFBF9FAFAFAFAFAFAFAFAFAFAFAFAFAFAFA
310
FAFAFAFAFAFAFBFBFBFBFBFBFBFBFBFBFBFBFBFBFBFBFBFBFBFBFBFBFBFBFBFB
310
FBFBFBFBFBFBFBFBFBFBFBFBFBFBFBFBFBFBFBFBFBFBFBFBFBFBFBFBFBFBFBFB
310
FBFBFBFBFBFBFBFBFBFBFBFBFBFBF9F9F9F9F9F9F9F9F9F9F9F9F9F9F9F9F9F9
310
F9F9F9F9F9F9FEFEFEFFFFFFFFFFFFFFFFFFFFFFFFFFFFFF0000FFFFFEFFFFFE
310
FFFFFEF9FCFAF7FAF8F8FBF9F8FEF9F8FFFAECF3EEF2FCF6F6FFFBF6FFFBF4FF
310
FBF4FFFBF1FFF8EDF8F0FFFFF9FFFFF6FFFEF6FFFFF8FFFFFBFFFFFBFFFFFCFF
310
FFFEFDFFFFFBFFFFFAFFFFF6FDFFF8FEFFECF5F9BBC3CA868C91BBC0C3F9FEFF
310
ACB1B0D3D8D7F6F7F5F8F6F5C6C3BFCAC6C1CFC6C2F9EFE8FFFDF5EFE3D9FFF5
310
ECEEE0D4E5D5C98973687A5B5288645A997668A07F6C83634C73553ACAAD8EA6
310
8A68E9CEA9E9CFA7F3D9B1FFECC4FFFCD4FFFFDBFFFFDDFFFFE3FFFFEEFFFFF4
310
FFFFF5FFFFF6FFFEF7FFFFFAFFFFFEFFFFFEFCFCFC9F9F9F0E0C0B0301000401
310
00050100110B0604000002020802040C01050601040204060008090008080205
310
04000707070000030B090F0B0A0E09080A070806000200050500090706090909
310
000100000706000806000808EEF8F8FAFFFFFFFFFFFFFEFFFFFEFEFFFEFEFFFF
310
FCFFFFFCFFFFFBFFFFFCFFFFFEFFFFFFFFFFFFFFFFFFFFFFFFFFFFFFFFFFFFFF
310
FFFFFFFFFFFFFFFFFFFFFFFFFFFFFFFFFFFFFFFFFFFFFFFFFFFFFFFFFFFFFFFF
310
FFFFFFFFFFFFFFFFFFFFFFFFFFFFFFFFFFFFFFFFFFFFFFFFFFFFFFFFFFFFFFFF
310
FFFFFFFFFFFFFFFFFFFFFFFFFFFFFFFFFFFFFFFFFFFFFFFFFFFFFFFFFFFFFFFF
310
FFFFFAFAFAFBFBFBFEFEFEFFFFFFFFFFFFFFFFFF0000FDF8F9FDFBFBFFFDFDFD
310
FBFBFBFCFAFCFDFBFBFFFAF9FFFAFAFFFBFAFFFBF6FFF7EFFDF1EFFDF1F6FFF8
310
F4FFF8F8FFF8FFFFF9FFFFFBFFFFFBFFFEFAFCFDF9FBFCFAF9FBFBFAFCFCFBFF
310
FFEFF4F5FAFFFFF8FFFFB0B6BB5F686C8C9299F7FDFFFAFFFFAAAEAFB5BAB9B2
310
B4B4FFFFFEF2F0EFFFFCFBE3DEDBDFD9D4C3BAB6DDD3CCD7CEC5DFD4CCF6E9E1
310
FFFBF36C59511C00002400002D0A004726173D1D0A65462FDBBDA4B19479967A
310
5C8367487156346B502E6C5031705435775B3C7D63459E866AA28B71AE987FBD
310
A990D0BEA7E4D3BEF5E4CFFDEEDBFFF2DFBAA69448352047321D59442E4E3A21
310
4D39204C392449392D43342B43342445372148391F4B3A1F4A391F4A38214837
310
24402E1D4D3A2B412F1E43321F5240294534194C391E543E254A351F44331E53
310
46303D34203B321EF9EEDAF8E9D6FEEBD6FFEBD5FFEBD5FFEBD5FFEBD6FEEBD6
310
FAEBD8F9EBD8FAECD9FAECD9FAECD9FAECD9FAECD9FAECD9FAECD9FAECD9F9EB
310
D8F9EBD8F9EBD8F9EBD8F9EBD8F9EBD8F9EBD8F9EBD8FAEBD8FAEBD8FAEBD8FA
310
EBD8FAEBD8FAEBD8FAEBD8FAEBD8FCEDDAFCEDDAFCEDDAFCEDDAFCEDDAFCEDDA
310
FCEDDAFCEDDAF9EBD8F9EBD8F9EBD9F9EBD9F9EBD9F7EBD9F7EADAF5EADCF6ED
310
E0F8EFE5F9F4EBFCF8F3FFFCF8FFFFFB0000FFFFFFFFFFFFFFFFFFFFFFFFFFFF
310
FFFFFFFFFFFFFEFDFFFEFDFFFEFBFEFCFAFDFBF8FEF9F6FCF7F5FBF6F9FFFAFD
310
FFFCFCFDFBFFFFFEFFFFFEFFFFFEFDFEFCFDFDFDFDFDFDFAFAFAF8FAFAFDFFFF
310
A9ABAC4C4E4F565859D8DCDDFDFFFFF9FBFCD1D3D4AFB1B1B2B4B4B0B0B0EBEB
310
EBFFFFFFFFFEFEFFFDFCE3E1E0D9D5D4CBC7C6D5D2CEC7C4C0DBD6D3DFDAD769
310
625F0F0603160A080B00001207030F05000C0300FFFEF5FFFFF8FFFFF6FFFFF6
310
FFFFF7FFF7EDEEE5DBCDC4BACFC6BC9A8674A7825C9E7041885F2E7F5723754D
310
186D460F7B4F199061298C571E925B22975D229F652A905A1E9360229867298D
310
5D2385501DA069368F581F8F581BAA702F894F0DA16A27955F1E885516936224
310
92602495642695602197621F99611A985D15A3601B9D5A15A26523965C1BA067
310
298F581B965F22935A1C995C1C985B1B985B1B935A1D8E582189592586582885
310
5A27845C22865D1F865D1F865D1F865D1F865D1F865D1F865D1F845B1D845B1D
310
845B1D845B1D845B1D845B1D845B1D845B1D865A1D8A5D208C5F228B5E21885B
310
1E86591C895C1F8B5E21895C1F885B1E86591C86591C86591C86591C885B1E88
310
5C21855A21855A218458228259228258238059257D59297B5A2D73562F685131
310
F8E7CDFFFFF1FFF7EDFFFFF80000FFFFFFFFFFFFFFFFFFFFFFFFFFFFFFFFFFFF
310
FFFFFFFFFFFFFFFFFFFDFDFDFDFDFDFFFFFFFFFFFFFFFFFFFAFAFAF8F8F8FEFE
310
FEFEFEFEFAFAFAF8F8F8FFFFFFFFFFFFFDFDFDEEEEEE9D9D9D393939444444B0
310
B0B0FFFFFFFDFDFDF5F5F5F4F4F4BFBFBFACACACADADADB1B1B1D0D0D0FEFEFE
310
FCFCFCFEFEFEF7F7F7EFEFEFDADADAD9D9D9C4C4C4CDCDCDD6D6D67C7C7C0000
310
000E0E0E080808080808050505030303C6C6C6EEEEEEFFFFFFFDFDFDFFFFFFFB
310
FBFBFFFFFFF0F0F0FFFFFFFFFFF7FFFFE5FFFFD6FFFDD1FFF6C8FFDFADE3BD87
310
CCA36CC79860D29B62DBA1669C5D23A4682CAB74379562248B5C1FD7A569DCA3
310
6CC3864EDA9B5EE0A05FDB9A55DC9C55DA9C56D29954DDA766C89556D2A163B8
310
8547D7A361E0A966CE924CE3A45AE8A255E6A053E19F58D29551D59858CF9658
310
D59C5ED29A59D69C5AD59B59D39C59CF9A5BC9995FC59964C09868BF9A68C39B
310
61C59C5DC59C5EC59C5DC59C5EC59C5DC59C5EC59C5DC59C5EC59C5DC59C5EC5
310
9C5DC59C5EC59C5DC59C5EC59C5DC6995CC79B5CCA9B5EC89C5DC99A5DC69A5B
310
C99A5DC89C5DD0A164CDA162CE9F62CB9F60CD9E61CCA061CFA063CEA164C79A
310
5DC79A5DC79A5DC79A5DC69A5FC3985FBE9661B89464B7976CA78D69FFEDD2FF
310
FFF1FCF6EBFFFFF90000FFFFFFFFFFFFFFFFFFFFFFFFFFFFFFFFFFFFFFFFFFFF
310
FFFFF6F6F6FFFFFFFFFFFFF3F3F3F5F5F5FFFFFFFFFFFFFBFBFBFFFFFFFDFDFD
310
FDFDFDFFFFFFFFFFFFD7D7D78787874040403A3A3A8D8D8DF2F2F2F7F7F7F8F8
310
F8FDFDFDFDFDFDC0C0C0B2B2B2AFAFAFB0B0B0B8B8B8B6B6B6F6F6F6FFFFFFFF
310
FFFFFFFFFFFFFFFFF1F1F1E9E9E9D2D2D2CCCCCCD4D4D4A0A0A0060606000000
310
0808080909090000000A0A0A8C8C8CD2D2D2CFCFCFCFCFCFE1E1E1E6E6E6FFFF
310
FFFEFEFEF7F7F7FFFFFEFFFFFBFFFFF9FFFFF7FFFEF1FFFEEFFFFFECFFFFEDFF
310
FFEEFFFAE4FFEDD53415002203001E0400210B00201000DFCBB2FFF1D8FFE1C7
310
FFE8C8FFEBC8FFDDB7FFEAC4FFF3CFFFE6C4A28C70634F366B58435F4C37705B
310
45695238654A2FEED2AFFFE8BDFFF0C3FFE7BFF7E1BEF4E2C3FFFCE0FFFFEAFF
310
FFEAFFFFE9FFFFE9FFFFE9FFFFEAFFFFEEFFFFF1FFFFF5FFFFF4FFFFEEFFFFEB
310
FFFFEDFFFFEBFFFFEDFFFFEBFFFFEDFFFFEBFFFFEDFFFFEBFFFFEDFFFFEBFFFF
310
EDFFFFEBFFFFEDFFFFEBFFFFEDFFFFEBFFFFEDFFFFEBFFFFEDFFFFEBFFFFEDFF
310
FFEBFFFFECFFFFEAFFFFEBFFFFE8FFFFEAFFFFE9FFFFECFFFFEAFFFFE9FFFFE7
310
FFFFE6FFFFE6FFFFE6FFFFE6FFFFE4FFFFE5FFFEE7FBEFDDFFFFF5FFFFF9F8FA
310
FAFAFFFF0000FFFFFFFFFFFFFFFFFFFFFFFFFFFFFFFFFFFFFFFFFFFFFFFFFFFF
310
FFF9F9F9FCFCFCFFFFFFFFFFFFF1F1F1F1F1F1FFFFFFFFFFFFFFFFFFFAFAFAC3
310
C3C37373733C3C3C3C3C3C555555C5C5C5F5F5F5FFFFFFFFFFFFFDFDFDFFFFFF
310
D8D8D8ACACACB2B2B2B2B2B2B9B9B9B6B6B6ABABABE5E5E5FFFFFFF9F9F9F9F9
310
F9FFFFFFFDFDFDFBFBFBEBEBEBDADADADADADAC2C2C20B0B0B00000009090900
310
0000010101080808434343DEDEDED2D2D2C5C5C5D5D5D5C5C5C5CACACADFDFDF
310
DADADADCDDE1F0EFF9F4F6FFF6FBFFF4FCFFF5FEFFF6FFFFFAFFFEF9FAF8E8E0
310
E0FFFEFC382B291B0F0D1008081F1D1C000100999691FEECE5E1C9BDE5CCBCD8
310
BEADE2C9B5DEC9B4D5C5B4E9DDD136302902000000000108090D000001040000
310
1B1411E7DBD1D9C5ACE9D4B8D4C6B0CFC7B6CBC9BFF6F8F2FDFFFEFBFFFEFCFF
310
FBFBFFFAFAFEF8F8FEF9F5FDFCF1FDFFEFFDFFF2FEFFF8FEFDF9FEFCFBFEFCF9
310
FEFCFBFEFCF9FEFCFBFEFCF9FEFCFBFEFCF9FEFCFBFEFCF9FEFCFBFEFCF9FEFC
310
FBFEFCFBFEFCFFFFFEFEFFFDFCFDFBFDFEFCFFFFFEFFFFFEFFFFFEFCFDFBFFFF
310
FEFFFFFEFFFFFEFFFFFEFFFFFEFFFFFEFFFFFEFFFFFEFFFFFCFFFFFBFFFFF9FF
310
FFF8FFFFF6FFFFF3FFFFF2FFFFF2FFFFF7FFFFF9F7F6F2FDFFFFEFF5FAF6FEFF
310
0000FFFFFFFFFFFFFFFFFFFFFFFFFFFFFFFFFFFFFFFFFFFFFFFFFFFFFFFFFFFF
310
FEFEFEF6F6F6FDFDFDFFFFFFFFFFFFFFFFFFFCFCFCA7A7A76565655454544141
310
413D3D3D8F8F8FFCFCFCF4F4F4FFFFFFFDFDFDF9F9F9F9F9F9EFEFEFB7B7B7B0
310
B0B0B2B2B2AEAEAEB9B9B9ACACACADADADCFCFCFFFFFFFF3F3F3F6F6F6FFFFFF
310
FFFFFFFFFFFFFEFEFEEFEFEFEAEAEAE1E1E11F1F1F1010100C0C0C0000001313
310
13000000010101D9D9D9E6E6E6CACACAE0E0E0D8D8D8B8B8B8CACACACFCFCFD3
310
D4D8C4C6D1CED4E1DBE3F0E3EDF7E8F5FDF0FFFFF6FFFFFAFFFFD8D7D9FBF6F8
310
716A6D040001000003070C0F0000043D4241FFFFF9C5AFA3E0C9BAD3BCACE4CE
310
BCD7C5B4BFB3A7CAC4BD00000000020700000800000800020D00000854545AD7
310
CCC8E4C5B0F7D2B8DFC1AED7C1B6D5C6C4FFF6F9FFFAFFF9F4FDFFFAFFFFFAFF
310
FFFBFFFFFAFFFEFAFFFDFAFFF9F9FFF9FBFFF6FCFFF4FDFFF6FCFFF4FDFFF6FC
310
FFF4FDFFF6FCFFF4FDFFF8FEFFF6FFFFF8FEFFF6FFFFF8FEFFF6FFFFF8FEFFF8
310
FEFFF8FEFFF6FCFFF4FAFFF5FBFFF8FEFFF8FEFFF7FDFFF4FAFFF8FEFFF8FEFF
310
F8FEFFF8FEFFF8FEFFF8FEFFF8FEFFF6FEFFF3FCFFF0FCFFF1FBFFF1FBFFF5FB
310
FFF9FDFEFDFFFFFFFFFEF2F3F1FBFEFCEAECEDFAFFFFF1F7FCF4FAFF0000FFFF
310
FFFFFFFFFFFFFFFFFFFFFFFFFFFFFFFFFFFFFFFFFFFFF4F4F4FFFFFFFFFFFFF8
310
F8F8FDFDFDFFFFFFE4E4E4ACACAC5151515B5B5B4848483737376D6D6DD4D4D4
310
FFFFFFFFFFFFFFFFFFFEFEFEF6F6F6F3F3F3FFFFFFC2C2C29F9F9FB4B4B4B4B4
310
B4ADADADB6B6B6ACACACB6B6B6C0C0C0FAFAFAFAFAFAFFFFFFFFFFFFFEFEFEFF
310
FFFFFFFFFFFDFDFDFAFAFAF6F6F67E7E7E0000000000000F0F0F040404000000
310
0303036D6D6DEAEAEAC8C8C8CFCFCFE4E4E4D0D0D0D3D3D3CACACAC5C4C6D4D4
310
DACFD1D9C6CCD1BDC6C9BAC6C8C8D2D2E3E9E8F9FCFAE9E5E4EAE5E4D7CFCF07
310
0102090909000001091215000100F5E6DDF5DECEDCC4B2E5CDB9E0C8B4D9C5B3
310
F3E6D6615B5002000002050911141C0000070E10180000049C9799DECDC4F0C9
310
ADFCCFAEEAC4ACE1C4B5E8D4CFFFF7F9FCF4FBEAE2ECF1E9F3F1E9F0F1EAEFF2
310
E9ECF2E9ECF1EAEFF0E9F0EFEBF1EAEBEFE7ECEFE8EBEFE7ECEFE8EBEFE7ECEF
310
E8EBEFE7ECEFE7EAEEE6EBEEE7EAEEE6EBEEE7EAEEE6EBEEE7EAEEE6EBEEE6EB
310
EEE5EAEDE4E9ECE4E9ECE6EBEEE6EBEEE5EAEDE4E9ECE2E7EAE3E8EBE3E8EBE4
310
E9ECE4E9ECE3E8EBE3E8EBDEE6EDD9E8F8D5E7F8D6E6F6D9E7F3DEE7F0E1EAEE
310
E7ECEFE9EDEEE6E8E8F4F5F3F7F8F6FDFFFFFDFFFFF6FBFA0000FFFFFFFFFFFF
310
FFFFFFFFFFFFFFFFFFFFFFFFFFFFFFFFFFFFFFFFFFF5F5F5FAFAFAFFFFFFE3E3
310
E39191915454544545454F4F4F3232324A4A4AA7A7A7F9F9F9FFFFFFFAFAFAF0
310
F0F0F1F1F1FEFEFEFFFFFFF2F2F2D7D7D7AFAFAFBABABAC0C0C0B4B4B4B5B5B5
310
AEAEAEB7B7B7B6B6B6B4B4B4E5E5E5FFFFFFFFFFFFFAFAFAFEFEFEFFFFFFFBFB
310
FBFFFFFFFFFFFFFBFBFBE2E2E20B0B0B00000013131300000003030314141407
310
0707C8C8C8DFDFDFC6C6C6C9C9C9CECECEDEDEDED7D7D7DAD8D7D8D2CDDAD2CB
310
D9D7CDD9D9CDD5D5C9DADACCF3F0E1FFFFF4ECE1D3D0C3B5FFEFE22D1F130D04
310
000703001B1C12070400755F4DFFFFEAEACDB2E8CCAEDCC0A2E6CEB2DAC6AD13
310
0400160D000A0300161009070100110800190B00D4C1B2F2D7BDF2C99CF5C895
310
EBC79FE3C9ABF9E7D6FFF8EFF3F0ECD4D2D2CDCBCBCCCBC7CFCBC6D0CBC2D0CB
310
C2D1CCC3D1CCC3D2CDC4D1CBC4D1CBC4D3CBC4D1CBC4D3CBC4D1CBC4D3CBC4D1
310
CBC4D0C8C1CEC8C1D0C8C1CEC8C1D0C8C1CEC8C1D0C8C1CEC8C1CDCAC2CECBC3
310
CFCCC4CECBC3CDCAC2CCC9C1CDCAC2CFCCC4D0CDC5D1CEC6D2CFC7D3D0C8D3D0
310
C8D2CFC7D1CEC6CBCCCABDC6CFBBC7D3BFC9D3C3CBD2C7CCCFC8CACACAC8C7CB
310
C8C3CCC9C1D2CDC4F2EDE4FFFBF2FFFFF6FFFEF40000FFFFFFFFFFFFFFFFFFFF
310
FFFFFFFFFFFFFFFFFFFFFFFFFFFFFCFCFCFFFFFFDBDBDB838383454545404040
310
4D4D4D4D4D4D3A3A3A878787E1E1E1FFFFFFFFFFFFF7F7F7FBFBFBFFFFFFFFFF
310
FFF8F8F8F8F8F8F9F9F9B0B0B0AEAEAEB3B3B3A9A9A9B0B0B0BABABAA3A3A3BE
310
BEBEACACACA6A6A6CCCCCCFFFFFFFFFFFFF2F2F2FFFFFFFFFFFFF8F8F8FFFFFF
310
FFFFFFF6F6F6FFFFFF5B5B5B0A0A0A0000000A0A0A0000000000000505055353
310
53E4E4E4E4E4E4CACACACACACAD9D9D9D0D0D0DDD9D8E0D8D1DED5CBDDD7CCDB
310
D8CAD0D0C0CDCDBBE9E5D3FFFFF1F8ECDAD9CBB9FFFFF278685B170E01100A00
310
0606000F0C00140400F7DFCBFFEFD9D9C2A8DBC4AAFEE9CE57452E180A00170C
310
00140B000C0300190D0113030076604EFFE5CDDDBD9AFDD5A1F4CC97F1D1A6E6
310
D1B1FFF7E3F9F7ECE6EAE5BEC4C3CBD1D0CBD1CCCED1C8D0D1C7D2D2C6D3D2C4
310
D4D3C5D5D3C8D8D1C8DAD1C8DAD1C8DAD1C8DAD1C8DAD1C8DAD1C8DAD1C8DED5
310
CCDED5CCDED5CCDED5CCDED5CCDED5CCDED5CCDCD5CCD6D1C8D8D3CADBD6CDD9
310
D4CBD6D1C8D5D0C7D7D2C9DAD5CCD0CBC2D1CCC3D3CEC5D3CEC5D3CEC5D3CEC5
310
D1CCC3CDCAC5CBCFD0CBD1D6D1D6D9D7D9D9D8D9D7D7D4CFD2CFC7D0CBC2E1DB
310
D0D8D0C3FFFDF0FFFFF2FFFFF5FFFFF40000F5F5F5FFFFFFFAFAFAFFFFFFFFFF
310
FFF9F9F9FFFFFFFFFFFFCECECE8181814343433B3B3B4747474D4D4D50505052
310
5252CDCDCDF4F4F4FFFFFFFDFDFDFFFFFFFFFFFFF7F7F7FEFEFEF4F4F4FFFFFF
310
F6F6F6C2C2C2AFAFAFB1B1B1B2B2B2B9B9B9B0B0B0ADADADB5B5B5B1B1B1B8B8
310
B8AEAEAEB4B4B4FFFFFFFFFFFFF8F8F8FEFEFEFFFFFFFDFDFDFCFCFCFFFFFFFF
310
FFFFFFFFFFE3E3E30404040909090404040000000B0B0B000000010101949494
310
D9D9D9DADADAD4D4D4E5E5E5D4D4D4C6C4C4D8D4D3DCD9D5D8D7D3D3D5CFDFE4
310
DBCCD2C7EBECE2FEFDF3FDF6EDC4BBB2F2E6E0FDF3EC110D0802020000060100
310
060114100F2E2724FEF6EFDED5CCDED5C8958C7F090300140F060B08000A0601
310
110B04130A00130200DCC4B0DCC1A7E5C4A3F0CDA1EACB9EE2CCA9DFD3BBFFFF
310
F7FBFFFEC0CBCFC8D6DCCAD8DECBD7DBCED8D8D1D8D5D3D9D4D4DBD4D5DCD5D8
310
DCD7D6D4D3D8D6D6D6D4D4D2D0D0D3D1D1D8D6D6DBD9D9D9D7D7D9D7D7D9D7D7
310
D9D7D7D9D7D7D9D7D7D9D7D7D9D7D7D9D7D7D1D1D1D2D4D4D6D8D8D6D8D8D3D5
310
D5CFD1D1CBCDCDC9CBCBD1D3D3D3D5D5D3D5D5D2D4D4D3D5D5D5D7D7D6D8D8D7
310
D8D6D5D4D0D6D5D1DAD7D2D9D6D1D9D6CEDAD5CCDED8CDDFD9CED6CEC1D6CEC1
310
FFFAEDFFFFF4FFFFF8FFFEF50000FFFFFFFAFAFAF7F7F7FFFFFFF8F8F8F9F9F9
310
CBCBCB4C4C4C3F3F3F4343434B4B4B5757574F4F4F4545458A8A8AFBFBFBEAEA
310
EAFFFFFFFFFFFFF9F9F9FFFFFFFFFFFFFBFBFBFFFFFFFFFFFFFBFBFBDCDCDCB7
310
B7B7ADADADB1B1B1B2B2B2B2B2B2B3B3B3AFAFAFB2B2B2AEAEAEB8B8B8B1B1B1
310
B0B0B0EBEBEBFFFFFFFBFBFBFFFFFFFFFFFFFDFDFDFDFDFDFFFFFFFFFFFFFEFE
310
FEFBFBFB7474740000000D0D0D000000191919080808000000181818B0B0B0D9
310
D9D9CFCFCFBDBDBDDADADACFCFCFD4D3D5DEDDDFD7DBDCC9CFCEC9D2CFB8BFBA
310
E2E8E3FFFFFBDBD7D2D3CDC8CDC4C1F0E9E6656362030604000201030D0D0000
310
06000007787B80FEFDFFA5A3A20F0E0A1617130001000002000001000E0B070B
310
02006B5B4BFFEED8DDBFA4FAD9B8EBCAA3EBCDAAE1CCB1F7EADAFFFFFCE1E6E9
310
C0C9D2C5D1DDCAD4DEC9D2DBCBD1D6CCD1D2CDD2D1CFD4D3D1D6D5D3D7D8CFD2
310
D6D2D5D9D3D3D9CDD0D4CFCFD5D1D4D8D5D5DBD1D4D8D0D0D6CED1D5D0D0D6CE
310
D1D5D0D0D6CED1D5D0D0D6CED1D5CBCFD4CCD3D6D1D5DAD1D8DBD2D6DBD0D7DA
310
D3D7DCD1D8DBD0D4D9CFD6D9D1D5DACED5D8D0D4D9CFD6D9D0D4D9D1D5D6D1D0
310
CCD6D3CBD9D6CED9D6CEDAD7CFDAD7CFDDDAD2DFDCD4D0CDC5D0CDC5FBF8F3FE
310
FDF9FFFFFEFCFDFB0000F2F2F2FFFFFFFFFFFFF5F5F5A7A7A74F4F4F44444457
310
57575454545151514C4C4C3E3E3E636363D2D2D2FFFFFFFDFDFDFFFFFFFFFFFF
310
FEFEFEF9F9F9FFFFFFFFFFFFFDFDFDFFFFFFFFFFFFE1E1E1BEBEBEB0B0B0AEAE
310
AEB3B3B3B5B5B5ADADADB3B3B3B2B2B2B1B1B1ACACACB7B7B7B3B3B3ACACACCD
310
CDCDFFFFFFFFFFFFFFFFFFFFFFFFFDFDFDFFFFFFFFFFFFFFFFFFFDFDFDFCFCFC
310
FFFFFF1B1B1B0C0C0C0D0D0D000000080808040404000000030303ADADADEBEB
310
EBCFCFCFBABABADFDEE0C7C6CACCCCD2CACED3C9D0D3DDE5E4CFD8D5EEF3F1FF
310
FFFCF6F1EEC9C2BFCDC4C1EFE8E5F3EFEE131614090F0E000205010A1700010F
310
0000087A8087FAFFFF2E32330000010C111200000101030313100C30271ED9C7
310
B6D2B8A0F2D0B2E2BD9BEDC7A7ECC9AFE5C9B8FFFEF6FFFDFFD5CED5CBC9D5C8
310
C8D6D7D5E1D7D4DDD7D3D8D7D2D4D8D1D4D8D3D5DAD4D9D8D7DBCFD2D7D1D5DA
310
D1D3DBCDD1D6CED0D8D0D4D9D0D2DACCD0D5CED0D8CDD1D6CED0D8CDD1D6CED0
310
D8CDD1D6CED0D8CDD1D6D1D7DED0D9DDD2D8DFCED7DBCED4DBCBD4D8CFD5DCCE
310
D7DBD1D7DECED7DBCFD5DCCDD6DACED4DBCBD4D8CCD2D9CED3D6D0D1CFD4D3CF
310
D4D5D3D5D6D4D5D6D4D3D5D5D5D7D7D5D9DAC7CCCFC6CBCEF0F6FBF2FAFFF4FD
310
FFF0FAFF0000FFFFFFE6E6E69393934D4D4D4242424848484747474545455252
310
524343434D4D4DA4A4A4FFFFFFFFFFFFECECECFFFFFFFFFFFFFFFFFFFCFCFCFE
310
FEFEFFFFFFFFFFFFFDFDFDFEFEFEFAFAFAC7C7C7AFAFAFB5B5B5B2B2B2B3B3B3
310
B6B6B6AFAFAFAFAFAFB5B5B5B2B2B2AFAFAFB6B6B6B4B4B4ACACACB8B8B8F7F7
310
F7FFFFFFFFFFFFFCFCFCFEFEFEFFFFFFFEFEFEFEFEFEFFFFFFFFFFFFF0F0F0E2
310
E2E20606060000001010100000000707070000000303030A0A0A959595EDEDED
310
D6D6D6DCDBDDD2CED3DDDCE0D9DADEC7CBCCC6CDCAB7BDB8E5E7E1FFFFFBEAE2
310
DBCDC1BBCABEB8BEB2ACFFFFF9D4D0CB00020000020100000701091600000700
310
00047F8384FBFFFF686D6C0001000C10110404040D0904B4AAA0E2CEBCE0C5AA
310
FEDBB9ECC7A5EDCBAEE2C6AEF1D8C8FFFFF7FFF9F9D7D1D6D2CFD8CCC9D2DAD6
310
DBDCD7D9DDD8D7DCD7D4DCD7D6DBD6D7D9D6D8D6D5D9D0D1D5D4D5D9D4D5D9D1
310
D2D6D0D1D5D2D3D7D1D2D6CDCED2D5D6DAD5D6DAD5D6DAD5D6DAD5D6DAD5D6DA
310
D5D6DAD3D6DAD3D6DAD3D8DBD3D8DBD0D5D8CDD2D5CBD0D3CCD1D4CDD2D5D2D7
310
DAD0D5D8CFD4D7D1D6D9D0D5D8CED3D6CED3D6D0D4D5D2D4D4D3D5D5D4D6D6D1
310
D5D6D0D4D5CED3D6CDD3D8CCD4DBC1CAD3C0C9D2EAF4FEECF8FFEFFCFFECF9FF
310
00009696964545453131314545454B4B4B5D5D5D6363634C4C4C3F3F3F797979
310
DCDCDCFFFFFFFCFCFCFFFFFFFFFFFFF2F2F2FEFEFEFBFBFBFDFDFDFFFFFFFFFF
310
FFFFFFFFFFFFFFFBFBFBD9D9D9B4B4B4AEAEAEBDBDBDB5B5B5AFAFAFB4B4B4B3
310
B3B3ABABABB6B6B6B5B5B5B3B3B3B4B4B4B1B1B1B1B1B1B1B1B1E7E7E7FEFEFE
310
FFFFFFFAFAFAFFFFFFFFFFFFFDFDFDFFFFFFFFFFFFFAFAFAFFFFFFFFFFFFACAC
310
AC0000000404041111110404040303030C0C0C0505050000005B5B5BEFEFEFC9
310
C7C7D7D1D2E2DDDCDFDCD8D4D4CEE1E2D9D7D6CCFCF6EBFFFFF5F6E6D9E6D3C4
310
E2CDBEE3D0C1E3D3C3F8EBDD7F786917150B0402010000000806051D1A150705
310
0027251DFFFFF9E2E2DC23221E0401008D867DDED1C3E9D2BCD9BB9EE9C3A0EC
310
CAA6DFCBACD9CEB3FFFCE8FFFFF3DFE2D9CFD5D0CAD1CECED5D0CDD5CBD1D7CC
310
D6DBCCD8DDCED6DDD0D0D9CFCBD5CFCBD2CDD3D4D0DAD7D2DAD7D2D7D4CFD7D4
310
CFD9D6D1D7D4CFD4D1CCDBD8D3DBD8D3DBD8D3DBD8D3DBD8D3DBD8D3DBD8D3DB
310
D8D3D0CDC8D3D0CBD7D4CFD9D6D1D9D6D1D8D5D0D9D6D1DAD7D2D9D6D1D5D2CD
310
D6D3CEDAD7D2DBD8D3D7D4CFD7D4CFDAD9D5D2D4D4D2D6D7D3D7D8D1D6D9CFD4
310
D7CBD1D6CCD2D7CCD4DBC2CBD4C1CAD3EAF4FEEEF8FFF1FDFFEDF9FF00006464
310
644C4C4C5959595D5D5D4E4E4E474747414141434343BEBEBEF8F8F8FFFFFFFD
310
FDFDFFFFFFFFFFFFF9F9F9FFFFFFFFFFFFFBFBFBFEFEFEFDFDFDFBFBFBFFFFFF
310
FFFFFFEEEEEEB9B9B9AEAEAEB2B2B2BBBBBBB4B4B4ACACACAFAFAFB3B3B3ACAC
310
ACB6B6B6B3B3B3B7B7B7B3B3B3AEAEAEB7B7B7B1B1B1D0D0D0F7F7F7FFFFFFF9
310
F9F9FFFFFFFFFFFFFBFBFBFFFFFFF2F2F2FFFFFFFFFFFFF5F5F5FFFFFFB2B2B2
310
0000000000000000000E0E0E0000000303030000000E0E0E111111A2A0A0DBD5
310
D6E7DFDFDEDAD9CDCDC7D9D7CFCFCDC3F5EFE4FFFEF0F0E0D0D7C3B2DBC4B4CE
310
B7A7E9D5C4F3E3D2FFFFF2776F62100D050B08030502000702000B0700110F04
310
04020095958FFFFFFCE4E3DFE1DDD8D7CDC3D1BDABF2D7BDE8C5A4EBCEAFD4C7
310
ADDED9C4FFFFF2F5F7EBC5CAC1C4CCC5C2CAC3D0D8CECDD4C7D2D8C7D8DBCBD9
310
DFCED5DED1D0DBD1C9D7D1C9D4D1D4D6D0DBD9D1DCD8D3D7D5CDD8D4CFDAD8D0
310
DBD7D2D7D5CDD7D3CED6D4CCD7D3CED6D4CCD7D3CED6D4CCD7D3CED6D4CCD4D0
310
CBD6D4CCDBD7D2DBD9D1DBD7D2D9D7CFDAD6D1D9D7CFDAD6D1D3D1C9D5D1CCDA
310
D8D0DCD8D3D6D4CCD8D4CFDDDAD5D1D2D0D1D3D3D3D5D5D1D5D6D0D4D5D0D4D5
310
D1D6D9D3D8DBC8CDD0C7CCCFF1F6F9F4F9FCFAFFFFF6FBFE00006565654C4C4C
310
4C4C4C515151515151484848808080FFFFFFFBFBFBF8F8F8FFFFFFFFFFFFF5F5
310
F5FCFCFCFFFFFFF9F9F9FFFFFFFCFCFCFFFFFFFDFDFDF9F9F9FFFFFFF4F4F4CB
310
CBCBACACACB5B5B5B4B4B4B1B1B1B3B3B3B1B1B1AFAFAFB3B3B3B2B2B2B5B5B5
310
ACACACB6B6B6B2B2B2ABABABBABABAB0B0B0B9B9B9EFEFEFFFFFFFF9F9F9FFFF
310
FFFFFFFFFAFAFAFFFFFFFCFCFCFFFFFFFCFCFCFFFFFFFFFFFFF7F7F7ACACAC06
310
06060A0A0A0000000808080606060B0B0B0000001414140000012A262C76747A
310
C1C1C7DDE1E2EBEDEDD4D5D1F6F3EEFFFFF9FFFFF7DAC8BDF2DED3E9D5CACFBD
310
B27E7064423A2DFFFFF7928F870401001411090D0B010403000F1007070B060B
310
11100B1215858B90E6E9EDF9F7F6FFFFF9DFCEC1EFD6C2D4BCA8E5D8CAF4EDE4
310
FFFFFBF7F4F0DBD9D9D7D7D7DBD9D8D9D6D1D7D2C9DBD5CADAD6CBDAD8CED8D8
310
D2D3D8D7D0D7DACFD5DAD1D5D6D5D8D6D6D6D6D1D4D2D3D3D3D5D8D6D9D9D9D5
310
D8D6D2D2D2D0D3D1D2D2D2D0D3D1D2D2D2D0D3D1D2D2D2D0D3D1D7D7D7D6D9D7
310
D9D9D9D5D8D6D4D4D4D0D3D1D3D3D3D2D5D3D7D7D7CED1CFD0D0D0D5D8D6D7D7
310
D7CFD2D0D1D1D1D8D9D7D4D3CFD7D4CFD9D6D1D7D6D2D6D5D1D6D5D1DAD7D2DB
310
D8D3D2CFCAD1CEC6FBF8F0FFFBF2FFFFF8FFFDF400006B6B6B4D4D4D50505042
310
4242646464CDCDCDFFFFFFFFFFFFFFFFFFFEFEFEF9F9F9FFFFFFFFFFFFFFFFFF
310
F9F9F9FFFFFFFBFBFBFAFAFAFFFFFFFFFFFFFDFDFDFFFFFFE5E5E5A7A7A7AEAE
310
AEBFBFBFB6B6B6A8A8A8B4B4B4B9B9B9B2B2B2B3B3B3B9B9B9B4B4B4A6A6A6B5
310
B5B5B2B2B2AAAAAABCBCBCAEAEAEABABABEAEAEAFFFFFFF9F9F9FFFFFFFFFFFF
310
F9F9F9FFFFFFFEFEFEFDFDFDFEFEFEF4F4F4FFFFFFFFFFFFF1F1F1BFBFBF0202
310
020808080404040303030000000D0D0D0000000403050000040200060000050B
310
0E12414546555A597D7E7C84817D766F6C5F54505347411C100A1208010E0600
310
0D0A02232119FEFBF6CBC8C3050200040200171711000200080D0C0000030004
310
0B000710090F162A2D327B7677D0C7C4EFDFD8FFFCF5FFF9F5FFFFFCFAF5F4FF
310
FDFEFFFEFFFBF8FAFFFAFBE1DCD9D6CDC9D6CEC7D5CDC6D3CDC8D2CECDD0CFD1
310
CED2D7D0D3DBD2D5D9D4D8D9D4D6D7CED2D3D1D3D4D4D8D9D9DBDCD5D9DAD5D7
310
D8D3D7D8D5D7D8D3D7D8D5D7D8D3D7D8D5D7D8D3D7D8D0D2D3CFD3D4D0D2D3CE
310
D2D3CFD1D2D0D4D5D7D9DAD8DCDDD7D9DACDD1D2CFD1D2D4D8D9D5D7D8CBCFD0
310
CCCECFD3D5D5D8D7D3DBD8D3DBD8D3DAD7D2D7D4CFD6D3CED7D4CCD8D5CDD5CF
310
C8D3CEC5FFF9EEFFFCF1FFFFF5FFFEF100006868683A3A3A474747A7A7A7F7F7
310
F7FFFFFFF9F9F9FFFFFFFFFFFFFFFFFFFFFFFFFFFFFFFFFFFFFFFFFFFFFFFFFF
310
FFFFFFFFFFFFFFFFF6F6F6FFFFFFFFFFFFEDEDEDB8B8B8B1B1B1B7B7B7B6B6B6
310
B4B4B4B2B2B2B1B1B1B0B0B0B0B0B0B0B0B0B2B2B2B2B2B2B2B2B2B2B2B2B2B2
310
B2B2B2B2B2B2B2B2B2B2B3B3B3BABABAFFFFFFF9F9F9FFFFFFFFFFFFF4F4F4FF
310
FFFFFFFFFFFFFFFFFFFFFFFFFFFFFFFFFFFFFFFFFFFFFFFFFFFFD5D5D5313131
310
0000000808080606060000000A0A0A040404110D0C0B07060402010101010305
310
0504090803070801050600000100010201030403050606080804090800040200
310
0100000100DDDEDCF3F4F24D4E4C09090904060600000102070A00020A01040C
310
00020C00000700000506040A07060A060305020000100E0D100E0E0A08080C0C
310
0C060606F8F6F6E0DEDDDAD6D5DAD6D5DBD7D6D9D7D6D8D6D6D5D5D5D1D3D4D0
310
D2D3CED0D1D0D2D2D3D3D3CFD1D1CFCFCFCED0D0D4D4D4D6D8D8D4D4D4D4D6D6
310
D8D8D8D7D9D9D8D8D8D4D6D6D3D3D3CFD1D1D9D9D9D5D7D7D4D4D4D0D2D2D2D2
310
D2D2D4D4D7D7D7D7D9D9D2D2D2D2D4D4D7D7D7D7D9D9D9D9D9D5D7D7D4D4D4D2
310
D2D2D3D4D2D5D3D2D5D3D2D6D4D3D7D5D4D8D6D5D8D6D5D8D6D5D1CFCECFCECA
310
FCF9F5FFFDF9FFFFFCFFFCF80000575757878787CBCBCBFCFCFCFFFFFFFEFEFE
310
F8F8F8FAFAFAFFFFFFFFFFFFFFFFFFFFFFFFFFFFFFFFFFFFFFFFFFFFFFFFFFFF
310
FFF5F5F5FFFFFFF7F7F7FFFFFFC5C5C5B8B8B8B0B0B0B3B3B3B3B3B3B2B2B2B2
310
B2B2B2B2B2B2B2B2B3B3B3B3B3B3B2B2B2B2B2B2B2B2B2B2B2B2B2B2B2B2B2B2
310
B2B2B2B2B2B2B1B1B1B8B8B8F5F5F5FEFEFEFFFFFFFFFFFFF7F7F7FFFFFFFFFF
310
FFFFFFFFFFFFFFFFFFFFFFFFFFFFFFFFFFFFFFFFFFFFF4F4F4FFFFFF8B8B8B00
310
00000202021313130000000806050401000401000C09050D0C08060606000100
310
000001000003070E11060D1004090C000304000001000403060B0A0D100E1411
310
0D0501007A7671FEFBF7B8B5B12F2D2C0705050D0C0E00000300000400000601
310
030B03050D02040C00020C00020A0406070D0D0D0505050101010C0C0C040404
310
F7F7F7D3D3D3D5D5D5D6D6D6D8D8D8D9D9D9DADADAD8D8D8D7D7D7D5D5D5D5D5
310
D5D7D7D7D9D9D9D9D9D9D8D8D8D7D7D7D8D8D8D9D9D9D5D5D5D5D5D5D6D6D6D7
310
D7D7D8D8D8D8D8D8D9D9D9D9D9D9D7D7D7D6D6D6D5D5D5D3D3D3D3D3D3D5D5D5
310
D6D6D6D7D7D7D1D1D1D3D3D3D5D5D5D7D7D7D7D7D7D5D5D5D3D3D3D1D1D1D4D4
310
D4D4D4D4D4D4D4D4D4D4D4D4D4D4D4D4D3D3D3D3D3D3CACACAC8C8C8F3F3F3F7
310
F7F7FFFFFFFCFCFC0000BEBEBEEBEBEBFFFFFFFFFFFFF6F6F6F7F7F7FFFFFFFF
310
FFFFFFFFFFFFFFFFFFFFFFFFFFFFFFFFFFFFFFFFFFFFFFFFFFFFFEFEFEFDFDFD
310
FFFFFFFFFFFFDADADAB8B8B8AEAEAEB9B9B9B0B0B0B0B0B0B0B0B0B1B1B1B2B2
310
B2B3B3B3B5B5B5B6B6B6B2B2B2B2B2B2B2B2B2B2B2B2B2B2B2B2B2B2B2B2B2B2
310
B2B2B0B0B0B4B4B4DBDBDBFFFFFFFEFEFEFEFEFEFEFEFEFCFCFCFFFFFFFFFFFF
310
FFFFFFFFFFFFFFFFFFFFFFFFFFFFFFFFFFFFFFFFFFDADADAF9F9F9E0E0E04848
310
48000000101010060705090804090804090804070602030303020404050A090A
310
0E0F0000010000000808080A08070403000401000502000A050012060026190B
310
7F7264D0C4B8F6EAE0FFFFF8CAC0B9362D29120B080C07060B06070B080A0403
310
07000003000003090A0E050406050505000000000000080808030303FFFFFFDF
310
DFDFCCCCCCCFCFCFD2D2D2D4D4D4D5D5D5D4D4D4D2D2D2D1D1D1D2D2D2D2D2D2
310
D3D3D3D5D5D5D6D6D6D5D5D5D2D2D2CFCFCFD2D2D2D1D1D1D0D0D0D0D0D0D0D0
310
D0D2D2D2D4D4D4D5D5D5D4D4D4D3D3D3D3D3D3D3D3D3D3D3D3D3D3D3D3D3D3D4
310
D4D4CFCFCFD0D0D0D2D2D2D4D4D4D4D4D4D2D2D2D0D0D0CFCFCFD9D9D9D9D9D9
310
D8D8D8D8D8D8D7D7D7D6D6D6D5D5D5D5D5D5D5D5D5D1D1D1F8F8F8FAFAFAFFFF
310
FFFCFCFC0000FFFFFFFFFFFFFFFFFFFFFFFFFFFFFFFEFEFEFBFBFBF9F9F9FFFF
310
FFFFFFFFFFFFFFFFFFFFFFFFFFFFFFFFFFFFFFFFFFFFFFFFFFFFFFFFFDFDFDFA
310
FAFAB7B7B7B2B2B2AFAFAFBBBBBBB0B0B0B0B0B0B0B0B0B0B0B0B1B1B1B3B3B3
310
B4B4B4B5B5B5B2B2B2B2B2B2B2B2B2B2B2B2B2B2B2B2B2B2B2B2B2B2B2B2B0B0
310
B0B4B4B4C2C2C2FFFFFFFDFDFDFDFDFDFFFFFFF8F8F8FFFFFFFFFFFFFFFFFFFF
310
FFFFFFFFFFFFFFFFFFFFFFFFFFFFFEFEFEFFFFFFFFFFFFFFFFFFFFFFFFCECECE
310
6060600202020809070001000201000001000506040608080000000001000F0D
310
0C0C09050903000901000B0200120900281D0F3E2E1DBCA58FD7BFA7E1C9B3E3
310
CBB7E5CFBDE0CCBBF6E6D6FFFFF5F2E6DC9C928B3E35310F0805050000050001
310
030101040202030303060606070707020202090909000000EDEDEDD0D0D0CECE
310
CED1D1D1D4D4D4D7D7D7D7D7D7D6D6D6D3D3D3D1D1D1D4D4D4D2D2D2D1D1D1D2
310
D2D2D5D5D5D4D4D4D1D1D1CDCDCDD6D6D6D5D5D5D4D4D4D3D3D3D2D2D2D2D2D2
310
D2D2D2D2D2D2D4D4D4D5D5D5D6D6D6D7D7D7D7D7D7D6D6D6D5D5D5D4D4D4D2D2
310
D2D3D3D3D5D5D5D6D6D6D6D6D6D5D5D5D3D3D3D2D2D2CCCCCCCCCCCCCCCCCCCB
310
CBCBCBCBCBCACACACACACACACACAD7D7D7D2D2D2F9F9F9FCFCFCFFFFFFFDFDFD
310
0000FEFEFEF6F6F6F8F8F8FFFFFFFFFFFFFCFCFCFBFBFBFFFFFFFFFFFFFFFFFF
310
FFFFFFFFFFFFFFFFFFFFFFFFFFFFFFFFFFFFFFFFFFF6F6F6FBFBFBC7C7C7B1B1
310
B1A2A2A2BEBEBEAFAFAFB2B2B2B1B1B1B1B1B1B0B0B0B1B1B1B1B1B1B2B2B2B3
310
B3B3B2B2B2B2B2B2B2B2B2B2B2B2B2B2B2B2B2B2B2B2B2B2B2B2B1B1B1B5B5B5
310
B3B3B3F7F7F7FDFDFDFEFEFEFFFFFFF8F8F8FFFFFFFFFFFFFFFFFFFFFFFFFFFF
310
FFFFFFFFFFFFFFFFFFFFFFFFFFF6F6F6EFEFEFFAFAFAFFFFFFFFFFFFFBFBFBFF
310
FFFFA6A7A5797C7A40413F1314120001000001000705040C07040701000B0200
310
1E120847372A786655A99381D4BCA8F4D9BFEECCAEF1CCAAF3D0AFF2D0B2E7C9
310
AEE1C3AADABFAAD0BBA6EEDBCCF9E9DCFFFEF4FFFEF5D9D0CC968F8C6964615C
310
58573937372D2D2D2828282121212E2E2E2F2F2FECECECD7D7D7CBCBCBCCCCCC
310
CFCFCFD0D0D0D0D0D0CDCDCDCACACAC8C8C8CFCFCFCBCBCBC8C8C8C7C7C7CACA
310
CACBCBCBCACACAC7C7C7CCCCCCCDCDCDCFCFCFCFCFCFCFCFCFCDCDCDCACACAC9
310
C9C9C8C8C8C9C9C9CBCBCBCCCCCCCCCCCCCBCBCBC9C9C9C8C8C8C9C9C9C9C9C9
310
CBCBCBCBCBCBCBCBCBCBCBCBC9C9C9C9C9C9D0D0D0D0D0D0D0D0D0D1D1D1D1D1
310
D1D2D2D2D2D2D2D2D2D2CBCBCBC7C7C7F0F0F0F6F6F6FFFFFFFFFFFF0000F9F9
310
F9FFFFFFFFFFFFFAFAFAF5F5F5FBFBFBFFFFFFFFFFFFFFFFFFFFFFFFFFFFFFFF
310
FFFFFFFFFFFFFFFFFFFFFFFFFFFFFFFFFFF4F4F4DDDDDDB6B6B6A9A9A9B1B1B1
310
BCBCBCAFAFAFB3B3B3B3B3B3B1B1B1B0B0B0B0B0B0B0B0B0B0B0B0B0B0B0B2B2
310
B2B2B2B2B2B2B2B2B2B2B2B2B2B2B2B2B2B2B2B2B2B2B2B2B2B6B6B6AEAEAEE0
310
E0E0FDFDFDFFFFFFFFFFFFFBFBFBFFFFFFFFFFFFFFFFFFFFFFFFFFFFFFFFFFFF
310
FFFFFFFFFFFFF8F8F8FBFBFBFFFFFFFFFFFFFCFCFCFDFDFDFFFFFFF5F5F5FDFF
310
FFFDFFFEFAFDFBF0F3F1E6E7E5DEDCDBDCD7D4DED5D1D4C9C1D1C1B5D5C2B3E9
310
D1BFF5DAC5F4D6BDEFCEB4EECBAAFBCFAAF9CCA6F8CCA7EFC5A2E7C0A0F3CFB1
310
F5D7BCE2C8B0E5CDBBD6C3B4D7CABCECE2D8FFFAF3FFFFFBFFFCF9FBF7F6F5F3
310
F3F3F3F3FFFFFFFFFFFFFFFFFFE0E0E0FFFFFFD1D1D1DADADADADADADBDBDBDB
310
DBDBDADADAD8D8D8D7D7D7D5D5D5DCDCDCD9D9D9D6D6D6D5D5D5D6D6D6D8D8D8
310
D9D9D9D9D9D9D4D4D4D6D6D6D9D9D9DCDCDCDDDDDDDBDBDBD9D9D9D8D8D8D6D6
310
D6D7D7D7D8D8D8D9D9D9D9D9D9D8D8D8D7D7D7D6D6D6D7D7D7D7D7D7D8D8D8D8
310
D8D8D8D8D8D8D8D8D7D7D7D7D7D7D2D2D2D2D2D2D3D3D3D3D3D3D4D4D4D5D5D5
310
D6D6D6D6D6D6DCDCDCD4D4D4F7F7F7F8F8F8FFFFFFFFFFFF0000FAFAFAFFFFFF
310
FFFFFFFFFFFFFFFFFFFFFFFFFFFFFFF0F0F0FFFFFFFFFFFFFFFFFFFFFFFFFFFF
310
FFFFFFFFFFFFFFFFFFFFFFFFFFEEEEEEB7B7B7B9B9B9A9A9A9C2C2C2AEAEAEB5
310
B5B5B3B3B3B2B2B2B1B1B1B0B0B0B0B0B0B0B0B0B0B0B0B0B0B0B2B2B2B2B2B2
310
B2B2B2B2B2B2B2B2B2B2B2B2B2B2B2B2B2B2B0B0B0B7B7B7AFAFAFC5C5C5FBFB
310
FBFFFFFFFDFDFDFFFFFFFFFFFFFFFFFFFFFFFFFFFFFFFFFFFFFFFFFFFFFFFFFF
310
FFFFFFFFFFF5F5F5F9F9F9FDFDFDEDEDEDF5F5F5FFFFFFFDFFFFEBF0EFF3F8F7
310
FBFFFFFDFFFFFFFFFEFFFFFBFFFFFBFFFFF8F5E7DBE4D1C2D9C0ACDEBFA8E5C4
310
AAE9C3A5ECC3A2F4C8A3F4C39BFFD0A6FAC9A1F4C7A1FBD1AEECC5A5DFBDA0EE
310
D0B7D3BBA7DCCAB9ECDED2FBF2E8FFFCF5FFFFFAFFFFFCFFFFFEFFFFFFFFFFFF
310
FBFBFBF7F7F7FDFDFDFFFFFFFFFFFFFFFFFFFDFDFDFDFDFDFDFDFDFCFCFCFCFC
310
FCFCFCFCFCFCFCFDFDFDFBFBFBFCFCFCFDFDFDFDFDFDFCFCFCFCFCFCFDFDFDFF
310
FFFFF9F9F9FAFAFAFCFCFCFEFEFEFEFEFEFEFEFEFEFEFEFDFDFDFEFEFEFEFEFE
310
FFFFFFFFFFFFFFFFFFFFFFFFFEFEFEFEFEFEFDFDFDFEFEFEFEFEFEFEFEFEFEFE
310
FEFEFEFEFEFEFEFDFDFDFFFFFFFFFFFFFFFFFFFFFFFFFFFFFFFFFFFFFFFFFFFF
310
FFFFFDFDFDEEEEEEFFFFFFFEFEFEFFFFFFFCFCFC0000FFFFFFFFFFFFFAFAFAFA
310
FAFAFDFDFDFFFFFFFFFFFFFFFFFFFFFFFFFFFFFFFFFFFFFFFFFFFFFFFFFFFFFF
310
FFFFFFFFFFFFFBFBFBD3D3D3B0B0B0A1A1A1C3C3C3B0B0B0ABABABB1B1B1B1B1
310
B1B1B1B1B0B0B0B0B0B0B0B0B0B0B0B0B1B1B1B2B2B2B2B2B2B2B2B2B2B2B2B2
310
B2B2B2B2B2B2B2B2B2B2B2B2B2B2AFAFAFB6B6B6B2B2B2B3B3B3F9F9F9FEFEFE
310
F8F8F8FFFFFFFFFFFFFFFFFFFFFFFFFFFFFFFFFFFFFFFFFFFFFFFFFFFFFFF9F9
310
F9FDFDFDFFFFFFFFFFFFFFFFFFFEFEFEFDFDFDFDFFFFFBFFFFFAFFFFF7FCFBFA
310
FCFCFFFFFEFFFFFCFFFDF9FFFBF1EFDED1E2CCBADEC1ACE6C5ABF0CAACF0C7A6
310
F3C6A1F9CAA4F8C59DFFCDA5FFCEA8F5C8A3F0C5A4F0CAACEAC9AFE0C4ACE4CE
310
BCF4E4D4FFF9EFFFFEF7FFFCF7FCFAF9FBFBFBFAFCFCF6F6F6FCFCFCFFFFFFFF
310
FFFFF8F8F8FFFFFFEDEDEDFEFEFEFFFFFFFFFFFFFEFEFEFEFEFEFFFFFFFFFFFF
310
FFFFFFFFFFFFF9F9F9FDFDFDFFFFFFFFFFFFFFFFFFFEFEFEFFFFFFFFFFFFFFFF
310
FFFFFFFFFFFFFFFFFFFFFEFEFEFEFEFEFFFFFFFFFFFFFFFFFFFFFFFFFFFFFFFF
310
FFFFFFFFFFFFFFFFFFFFFFFFFFFFFEFEFEFEFEFEFEFEFEFEFEFEFEFEFEFEFEFE
310
FEFEFEFEFEFEFFFFFFFEFEFEFEFEFEFDFDFDFCFCFCFCFCFCFBFBFBFBFBFBFFFF
310
FFF5F5F5FFFFFFFBFBFBFFFFFFFBFBFB0000FFFFFFFFFFFFFFFFFFFFFFFFFFFF
310
FFFFFFFFFFFFFFFFFFFFFFFFFFFFFFFFFFFFFFFFFFFFFFFFFFFFFFFFFFFFFFFF
310
FFFFDDDDDDC6C6C6B7B7B7BCBCBCC4C4C4C2C2C2BDBDBDBDBDBDC0C0C0C0C0C0
310
C0C0C0C0C0C0C0C0C0C0C0C0C0C0C0C0C0C0C0C0C0C0C0C0C0C0C0C0C0C0C0C0
310
C0C0C0C0C0C0C0C0C0C0C1C1C1BFBFBFBBBBBBC0C0C0DADADAF8F8F8FFFFFFFB
310
FBFBFFFFFFFFFFFFFFFFFFFFFFFFFFFFFFFFFFFFFFFFFFFFFFFFFFFFFFFFFFFF
310
FFFFFFFFFFFFFFFFFFFFFFFFFFFFFFFDFFFFFAFFFFFAFFFFFBFFFFFDFFFFFFFF
310
FEFFFFFCFFFFF9FFFFF7F2E1D4DDC7B5E4C8B0E6C6A9EDC6A6FBD1AEFBCCA6FC
310
CDA7F3C6A1F7CAA8FACFAEF5CEAEEFCAAEE8C9B0E5CAB5E4CEBCFFFAEDFFFBF1
310
FFFDF6FFFFFBFFFFFFFBFFFFF9FEFFF8FDFEFDFFFFFFFFFFFFFFFFFFFFFFFFFF
310
FFFFFFFFFFFFFFFFFFFFFFFFFFFFFFFFFFFFFFFFFFFFFFFFFFFFFFFFFFFFFFFF
310
FFFFFFFFFFFFFFFFFFFFFFFFFFFFFFFFFFFFFFFFFFFFFFFFFFFFFFFFFFFFFFFF
310
FFFFFFFFFFFFFFFFFFFFFFFFFFFFFFFFFFFFFFFFFFFFFFFFFFFFFFFFFFFFFFFF
310
FFFFFFFFFFFFFFFFFFFFFFFFFFFFFFFFFFFFFFFFFFFFFFFFFFFFFFFFFFFFFFFF
310
FFFFFFFFFFFFFFFFFFFFFFFFFFFFFFFFFFFFFFFFFFFFFFFFFFFFFFFFFFFFFFFF
310
FFFFFFFFFFFFFFFFFFFFFFFF0000FFFFFFFFFFFFFFFFFFFFFFFFFFFFFFFFFFFF
310
FFFFFFFFFFFFFFFFFFFFFFFFFFFFFFFFFFFFFFFFFFFFFFFFFFFFFFFFFFFFFFFF
310
FFF9F9F9F4F4F4FBFBFBFFFFFFFBFBFBFAFAFAFEFEFEFBFBFBFBFBFBFBFBFBFB
310
FBFBFBFBFBFBFBFBFBFBFBFBFBFBFBFBFBFBFBFBFBFBFBFBFBFBFBFBFBFBFBFB
310
FBFBFBFBFBFBFDFDFDFEFEFEF8F8F8F2F2F2F8F8F8FFFFFFFFFFFFFEFEFEFFFF
310
FFFFFFFFFFFFFFFFFFFFFFFFFFFFFFFFFFFFFFFFFFFFFFFFFFFFFFFFFFFFFFFF
310
FFFFFFFFFFFFFFFFFFFFFFFDFFFFFAFFFFFAFFFFFBFFFFFDFFFFFFFFFEFFFFFC
310
FFFFF9FFFFF7FCECDFE3CDBBE6CCB4E7C9AEEAC4A4F0C8A5EDC19CF1C5A0F7D0
310
B0EFCAAEE5C2A8DDBBA3DCBFAAEAD1BDFEEAD9FFFCEFFFFAF0FFFBF4FFFDF9FE
310
FEFEFBFEFFFAFEFFF5FEFFF6FCFFFDFFFFFFFFFFFFFFFFFFFFFFFFFFFFFFFFFF
310
FFFFFFFFFFFFFFFFFFFFFFFFFFFFFFFFFFFFFFFFFFFFFFFFFFFFFFFFFFFFFFFF
310
FFFFFFFFFFFFFFFFFFFFFFFFFFFFFFFFFFFFFFFFFFFFFFFFFFFFFFFFFFFFFFFF
310
FFFFFFFFFFFFFFFFFFFFFFFFFFFFFFFFFFFFFFFFFFFFFFFFFFFFFFFFFFFFFFFF
310
FFFFFFFFFFFFFFFFFFFFFFFFFFFFFFFFFFFFFFFFFFFFFFFFFFFFFFFFFFFFFFFF
310
FFFFFFFFFFFFFFFFFFFFFFFFFFFFFFFFFFFFFFFFFFFFFFFFFFFFFFFFFFFFFFFF
310
FFFFFFFFFFFFFFFF0000FFFFFFFFFFFFFFFFFFFFFFFFFFFFFFFFFFFFFFFFFFFF
310
FFFFFFFFFFFFFFFFFFFFFFFFFFFFFFFFFFFFFFFFFFFFFFFFFFFFFFFFFFFCFCFC
310
FFFFFFFFFFFFFFFFFFFFFFFFFFFFFFFFFFFFFFFFFFFFFFFFFFFFFFFFFFFFFFFF
310
FFFFFFFFFFFFFFFFFFFFFFFFFFFFFFFFFFFFFFFFFFFFFFFFFFFFFFFFFFFFFFFF
310
FFFFFFFFFFFFFFFFFFFFFFFEFEFEF9F9F9FBFBFBFBFBFBF7F7F7FFFFFFFFFFFF
310
FFFFFFFFFFFFFFFFFFFFFFFFFFFFFFFFFFFFFFFFFFFFFFFFFFFFFFFFFFFFFFFF
310
FFFFFFFFFFFFFFFDFFFFFBFFFFFBFFFFFBFFFFFDFFFFFFFFFEFFFFFCFFFFFBFF
310
FFF8F1E3D7D5C3B2DCC4B0E6CAB2E8CAADF2CFAEF2CDABFAD7B6E0C2A9DFC4B0
310
E1C7B6E4CDBDECD7C8F8E7DAFFF9F0FFFFF8FFF9F5FFFBFAFDFDFDFAFDFFFAFE
310
FFF6FEFFF5FDFFF6FCFFFDFFFFFFFFFFFFFFFFFFFFFFFFFFFFFFFFFFFFFFFFFF
310
FFFFFFFFFFFFFFFFFFFFFFFFFFFFFFFFFFFFFFFFFFFFFFFFFFFFFFFFFFFFFFFF
310
FFFFFFFFFFFFFFFFFFFFFFFFFFFFFFFFFFFFFFFFFFFFFFFFFFFFFFFFFFFFFFFF
310
FFFFFFFFFFFFFFFFFFFFFFFFFFFFFFFFFFFFFFFFFFFFFFFFFFFFFFFFFFFFFFFF
310
FFFFFFFFFFFFFFFFFFFFFFFFFFFFFFFFFFFFFFFFFFFFFFFFFFFFFFFFFFFFFFFF
310
FFFFFFFFFFFFFFFFFFFFFFFFFFFFFFFFFFFFFFFFFFFFFFFFFFFFFFFFFFFFFFFF
310
FFFFFFFF0000FFFFFFFFFFFFFFFFFFFFFFFFFFFFFFFFFFFFFFFFFFFFFFFFFFFF
310
FFFFFFFFFFFFFFFFFFFFFFFFFFFFFFFFFFFFFFFFFFFFF8F8F8F8F8F8FCFCFCFF
310
FFFFFCFCFCF6F6F6F6F6F6FCFCFCFCFCFCFCFCFCFCFCFCFCFCFCFCFCFCFCFCFC
310
FCFCFCFCFCFCFCFCFCFCFCFCFCFCFCFCFCFCFCFCFCFCFCFCFCFCFCFCFCFCF5F5
310
F5FDFDFDFFFFFFFDFDFDFBFBFBFFFFFFFFFFFFFFFFFFFFFFFFFFFFFFFFFFFFFF
310
FFFFFFFFFFFFFFFFFFFFFFFFFFFFFFFFFFFFFFFFFFFFFFFFFFFFFFFFFFFFFFFF
310
FFFFFFFFFFFFFDFFFFFBFFFFFBFFFFFDFFFFFFFFFEFFFFFEFFFFFCFFFFF9F3EA
310
E0D3C6B8D8C6B5DFCAB5DDC5ADDEC3A8DDC0A1E6CBB0D8C4B2E1D1C4F5E5D9FF
310
F4EBFFFCF4FFFDF6FFFBF4FEF8F3FFFBFAFCFCFCFBFDFEF9FEFFF8FEFFF8FEFF
310
F5FDFFF6FCFFFDFFFFFFFFFFFFFFFFFFFFFFFFFFFFFFFFFFFFFFFFFFFFFFFFFF
310
FFFFFFFFFFFFFFFFFFFFFFFFFFFFFFFFFFFFFFFFFFFFFFFFFFFFFFFFFFFFFFFF
310
FFFFFFFFFFFFFFFFFFFFFFFFFFFFFFFFFFFFFFFFFFFFFFFFFFFFFFFFFFFFFFFF
310
FFFFFFFFFFFFFFFFFFFFFFFFFFFFFFFFFFFFFFFFFFFFFFFFFFFFFFFFFFFFFFFF
310
FFFFFFFFFFFFFFFFFFFFFFFFFFFFFFFFFFFFFFFFFFFFFFFFFFFFFFFFFFFFFFFF
310
FFFFFFFFFFFFFFFFFFFFFFFFFFFFFFFFFFFFFFFFFFFFFFFFFFFFFFFFFFFFFFFF
310
0000FFFFFFFFFFFFFFFFFFFFFFFFFFFFFFFFFFFFFFFFFFFFFFFFFFFFFFFFFFFF
310
FFFFFFFFFFFFFFFFFFFFFFFFFFFFFFFFFFFFFFFFFFFFFFFFFFFFFFFFFFFFFFFF
310
FFFEFEFEFDFDFDFFFFFFFFFFFFFFFFFFFFFFFFFFFFFFFFFFFFFFFFFFFFFFFFFF
310
FFFFFFFFFFFFFFFFFFFFFFFFFFFFFFFFFFFFFFFFFFFFFFFFFFFFFEFEFEFFFFFF
310
FFFFFFFEFEFEFFFFFFFFFFFFFFFFFFFFFFFFFFFFFFFFFFFFFFFFFFFFFFFFFFFF
310
FFFFFFFFFFFFFFFFFFFFFFFFFFFFFFFFFFFFFFFFFFFFFFFFFFFFFFFFFFFFFFFF
310
FFFFFDFFFFFDFFFFFDFFFFFDFFFFFFFFFFFFFFFEFFFFFCFFFFFBE8E2DBCCC3B9
310
D3C7BBDBCCBCDBCAB7DECCB5DECAB1E5D4BFF6EDE0F8F2EBFFFBF4FFFFFBFFFF
310
FBFFFFFCFFFFFCFFFEFDFCFDFBFBFDFDF9FEFDFAFEFFF9FEFFF9FEFFF9FEFFFA
310
FEFFFDFFFFFFFFFFFFFFFFFFFFFFFFFFFFFFFFFFFFFFFFFFFFFFFFFFFFFFFFFF
310
FFFFFFFFFFFFFFFFFFFFFFFFFFFFFFFFFFFFFFFFFFFFFFFFFFFFFFFFFFFFFFFF
310
FFFFFFFFFFFFFFFFFFFFFFFFFFFFFFFFFFFFFFFFFFFFFFFFFFFFFFFFFFFFFFFF
310
FFFFFFFFFFFFFFFFFFFFFFFFFFFFFFFFFFFFFFFFFFFFFFFFFFFFFFFFFFFFFFFF
310
FFFFFFFFFFFFFFFFFFFFFFFFFFFFFFFFFFFFFFFFFFFFFFFFFFFFFFFFFFFFFFFF
310
FFFFFFFFFFFFFFFFFFFFFFFFFFFFFFFFFFFFFFFFFFFFFFFFFFFFFFFF0000FFFF
310
FFFFFFFFFFFFFFFFFFFFFFFFFFFFFFFFFFFFFFFFFFFFFFFFFFFFFFFFFFFFFFFF
310
FFFFFFFFFFFFFFFFFFFFFFFFFFFFFFFFFFFDFDFDFAFAFAFAFAFAFDFDFDFFFFFF
310
FEFEFEFDFDFDFDFDFDFDFDFDFDFDFDFDFDFDFDFDFDFDFDFDFDFDFDFDFDFDFDFD
310
FDFDFDFDFDFDFDFDFDFDFDFDFDFDFDFDFDFDFDFDFDFDFFFFFFFDFDFDFAFAFAF9
310
F9F9FCFCFCFEFEFEFDFDFDFAFAFAFFFFFFFFFFFFFFFFFFFFFFFFFFFFFFFFFFFF
310
FFFFFFFFFFFFFFFFFFFFFFFFFFFFFFFFFFFFFFFFFFFFFFFFFFFFFFFFFFFFFFFF
310
FEFDFFFEFDFFFFFDFFFFFFFFFFFFFFFFFFFFFEFFFFFCEAE7E2D6D3CBE5DED5EE
310
E6D9F4EAD9FFF6E4FFF7E4FFFFEFFFFFF9FFFFFEFFFFFEFEFFFDFEFFFDFEFFFD
310
FFFFFEFDFFFEFCFEFEFCFEFEFCFEFEFCFEFEFCFEFEFCFEFEFCFEFEFCFEFEFFFF
310
FFFFFFFFFFFFFFFFFFFFFFFFFFFFFFFFFFFFFFFFFFFFFFFFFFFFFFFFFFFFFFFF
310
FFFFFFFFFFFFFFFFFFFFFFFFFFFFFFFFFFFFFFFFFFFFFFFFFFFFFFFFFFFFFFFF
310
FFFFFFFFFFFFFFFFFFFFFFFFFFFFFFFFFFFFFFFFFFFFFFFFFFFFFFFFFFFFFFFF
310
FFFFFFFFFFFFFFFFFFFFFFFFFFFFFFFFFFFFFFFFFFFFFFFFFFFFFFFFFFFFFFFF
310
FFFFFFFFFFFFFFFFFFFFFFFFFFFFFFFFFFFFFFFFFFFFFFFFFFFFFFFFFFFFFFFF
310
FFFFFFFFFFFFFFFFFFFFFFFFFFFFFFFFFFFFFFFFFFFFFFFF0000FFFFFFFFFFFF
310
FFFFFFFFFFFFFFFFFFFFFFFFFFFFFFFFFFFFFFFFFFFFFFFFFFFFFFFFFFFFFFFF
310
FFFFFFFFFFFFFFFFFFFFFFFFFFFEFEFEFDFDFDFDFDFDFEFEFEFFFFFFFFFFFFFF
310
FFFFFFFFFFFFFFFFFFFFFFFFFFFFFFFFFFFFFFFFFFFFFFFFFFFFFFFFFFFFFFFF
310
FFFFFFFFFFFFFFFFFFFFFFFFFFFFFFFFFFFFFFFFFFFFFFFFFEFEFEFFFFFFFFFF
310
FFFFFFFFFFFFFFFFFFFFFFFFFFFFFFFFFFFFFFFFFFFFFFFFFFFFFFFFFFFFFFFF
310
FFFFFFFFFFFFFFFFFFFFFFFFFFFFFFFFFFFFFFFFFFFFFFFFFFFFFFFFFEFFFFFC
310
FFFFFEFFFFFEFDFFFFFDFFFFFDFFFFFFFFFEFFFFFEFAF9F5FFFFFBFFFFF5FFFC
310
F1FFFFF4FFFFF2FFFFF5F9FDF8F7FDFCF7FDFCF8FEFDFAFFFEF9FEFDF7FCFAF7
310
FAF8FDFFFEFFFFFEFEFFFDFEFFFBFFFFFBFFFFFBFFFFFBFFFFFCFFFFFFFFFFFF
310
FFFFFFFFFFFFFFFFFFFFFFFFFFFFFFFFFFFFFFFFFFFFFFFFFFFFFFFFFFFFFFFF
310
FFFFFFFFFFFFFFFFFFFFFFFFFFFFFFFFFFFFFFFFFFFFFFFFFFFFFFFFFFFFFFFF
310
FFFFFFFFFFFFFFFFFFFFFFFFFFFFFFFFFFFFFFFFFFFFFFFFFFFFFFFFFFFFFFFF
310
FFFFFFFFFFFFFFFFFFFFFFFFFFFFFFFFFFFFFFFFFFFFFFFFFFFFFFFFFFFFFFFF
310
FFFFFFFFFFFFFFFFFFFFFFFFFFFFFFFFFFFFFFFFFFFFFFFFFFFFFFFFFFFFFFFF
310
FFFFFFFFFFFFFFFFFFFFFFFFFFFFFFFFFFFFFFFF0000FFFFFFFFFFFFFFFFFFFF
310
FFFFFFFFFFFFFFFFFFFFFFFFFFFFFFFFFFFFFFFFFFFFFFFFFFFFFFFFFFFFFFFF
310
FFFFFFFFFFFFFCFCFCFFFFFFFFFFFFFFFFFFFDFDFDFDFDFDFDFDFDFCFCFCFFFF
310
FFFFFFFFFFFFFFFFFFFFFFFFFFFFFFFFFFFFFFFFFFFFFFFFFFFFFFFFFFFFFFFF
310
FFFFFFFFFFFFFFFFFFFFFFFFFFFFFAFAFAFBFBFBFEFEFEFFFFFFFFFFFFFCFCFC
310
FCFCFCFDFDFDFFFFFFFFFFFFFFFFFFFFFFFFFFFFFFFFFFFFFFFFFFFFFFFFFFFF
310
FFFFFFFFFFFFFFFFFFFFFFFFFFFFFFFFFFFFFFFFFFFEFFFFFEFFFFFCFFFFFEFF
310
FFFEFDFFFFFDFFFFFDFFFFFDFFFFFAFDFBF2F6F1FFFFFCFAFBF2FAF8EEFFFFF5
310
FFFFF5FEFEF2FAFFFEF5FFFFF6FEFEF6FEFEFAFFFFFAFFFFFBFFFEFBFFFEFFFF
310
FEFFFFFEFFFFFBFFFFFBFFFFFAFFFFFAFFFFFBFFFFFCFFFFFEFFFFFFFFFFFFFF
310
FFFFFFFFFFFFFFFFFFFFFFFFFFFFFFFFFFFFFFFFFFFFFFFFFFFFFFFFFFFFFFFF
310
FFFFFFFFFFFFFFFFFFFFFFFFFFFFFFFFFFFFFFFFFFFFFFFFFFFFFFFFFFFFFFFF
310
FFFFFFFFFFFFFFFFFFFFFFFFFFFFFFFFFFFFFFFFFFFFFFFFFFFFFFFFFFFFFFFF
310
FFFFFFFFFFFFFFFFFFFFFFFFFFFFFFFFFFFFFFFFFFFFFFFFFFFFFFFFFFFFFFFF
310
FFFFFFFFFFFFFFFFFFFFFFFFFFFFFFFFFFFFFFFFFFFFFFFFFFFFFFFFFFFFFFFF
310
FFFFFFFFFFFFFFFFFFFFFFFFFFFFFFFF00000000000000000000000000000000
310
0000000000000000000000000000000000000000000000000000000000000000
310
0000000000000000000000000000000000000000000000000000000000000000
310
0000000000000000000000000000000000000000000000000000000000000000
310
0000000000000000000000000000000000000000000000000000000000000000
310
0000000000000000000000000000000000000000000000000000000000000000
310
0000000000000000000000000000000000000000000000000000000000000000
310
0000000000000000000000000000000000000000000000000000000000000000
310
0000000000000000000000000000000000000000000000000000000000000000
310
0000000000000000000000000000000000000000000000000000000000000000
  1
OLE
  0
ENDSEC
  0
SECTION
  2
OBJECTS
  0
DICTIONARY
  5
C
330
0
100
AcDbDictionary
  3
ACAD_GROUP
350
D
  3
ACAD_MLINESTYLE
350
17
  0
DICTIONARY
  5
D
102
{ACAD_REACTORS
330
C
102
}
330
C
100
AcDbDictionary
  0
DICTIONARY
  5
17
102
{ACAD_REACTORS
330
C
102
}
330
C
100
AcDbDictionary
  3
STANDARD
350
18
  0
MLINESTYLE
  5
18
102
{ACAD_REACTORS
330
17
102
}
330
17
100
AcDbMlineStyle
  2
Standard
 70
     0
  3

 62
   256
 51
90.0
 52
90.0
 71
     2
 49
0.5
 62
   256
  6
BYLAYER
 49
-0.5
 62
   256
  6
BYLAYER
  0
ENDSEC
  0
EOF
