  0
SECTION
  2
HEADER
  9
$ACADVER
  1
AC1014
  9
$ACADMAINTVER
 70
     9
  9
$DWGCODEPAGE
  3
ANSI_1252
  9
$INSBASE
 10
0.0
 20
0.0
 30
0.0
  9
$EXTMIN
 10
0.0
 20
0.0
 30
0.0
  9
$EXTMAX
 10
210.0
 20
297.0
 30
0.0
  9
$LIMMIN
 10
0.0
 20
0.0
  9
$LIMMAX
 10
210.0
 20
297.0
  9
$ORTHOMODE
 70
     0
  9
$REGENMODE
 70
     1
  9
$FILLMODE
 70
     1
  9
$QTEXTMODE
 70
     0
  9
$MIRRTEXT
 70
     1
  9
$DRAGMODE
 70
     2
  9
$LTSCALE
 40
1.0
  9
$OSMODE
 70
    37
  9
$ATTMODE
 70
     1
  9
$TEXTSIZE
 40
3.5
  9
$TRACEWID
 40
1.0
  9
$TEXTSTYLE
  7
STANDARD
  9
$CLAYER
  8
0
  9
$CELTYPE
  6
BYLAYER
  9
$CECOLOR
 62
   256
  9
$CELTSCALE
 40
1.0
  9
$DELOBJ
 70
     1
  9
$DISPSILH
 70
     0
  9
$DIMSCALE
 40
1.0
  9
$DIMASZ
 40
2.5
  9
$DIMEXO
 40
1.0
  9
$DIMDLI
 40
3.75
  9
$DIMRND
 40
0.0
  9
$DIMDLE
 40
0.0
  9
$DIMEXE
 40
1.0
  9
$DIMTP
 40
0.0
  9
$DIMTM
 40
0.0
  9
$DIMTXT
 40
3.5
  9
$DIMCEN
 40
2.5
  9
$DIMTSZ
 40
0.0
  9
$DIMTOL
 70
     0
  9
$DIMLIM
 70
     0
  9
$DIMTIH
 70
     1
  9
$DIMTOH
 70
     1
  9
$DIMSE1
 70
     0
  9
$DIMSE2
 70
     0
  9
$DIMTAD
 70
     1
  9
$DIMZIN
 70
     0
  9
$DIMBLK
  1

  9
$DIMASO
 70
     1
  9
$DIMSHO
 70
     1
  9
$DIMPOST
  1

  9
$DIMAPOST
  1

  9
$DIMALT
 70
     0
  9
$DIMALTD
 70
     3
  9
$DIMALTF
 40
0.0393700787
  9
$DIMLFAC
 40
1.0
  9
$DIMTOFL
 70
     1
  9
$DIMTVP
 40
0.0
  9
$DIMTIX
 70
     0
  9
$DIMSOXD
 70
     0
  9
$DIMSAH
 70
     0
  9
$DIMBLK1
  1

  9
$DIMBLK2
  1

  9
$DIMSTYLE
  2
ISO-25
  9
$DIMCLRD
 70
     0
  9
$DIMCLRE
 70
     0
  9
$DIMCLRT
 70
     0
  9
$DIMTFAC
 40
1.0
  9
$DIMGAP
 40
1.524
  9
$DIMJUST
 70
     0
  9
$DIMSD1
 70
     0
  9
$DIMSD2
 70
     0
  9
$DIMTOLJ
 70
     0
  9
$DIMTZIN
 70
     0
  9
$DIMALTZ
 70
     0
  9
$DIMALTTZ
 70
     0
  9
$DIMFIT
 70
     3
  9
$DIMUPT
 70
     0
  9
$DIMUNIT
 70
     2
  9
$DIMDEC
 70
     2
  9
$DIMTDEC
 70
     2
  9
$DIMALTU
 70
     2
  9
$DIMALTTD
 70
     3
  9
$DIMTXSTY
  7
STANDARD
  9
$DIMAUNIT
 70
     0
  9
$LUNITS
 70
     2
  9
$LUPREC
 70
     2
  9
$SKETCHINC
 40
1.0
  9
$FILLETRAD
 40
10.0
  9
$AUNITS
 70
     0
  9
$AUPREC
 70
     2
  9
$MENU
  1
.
  9
$ELEVATION
 40
0.0
  9
$PELEVATION
 40
0.0
  9
$THICKNESS
 40
0.0
  9
$LIMCHECK
 70
     0
  9
$CHAMFERA
 40
10.0
  9
$CHAMFERB
 40
10.0
  9
$CHAMFERC
 40
20.0
  9
$CHAMFERD
 40
0.0
  9
$SKPOLY
 70
     0
  9
$TDCREATE
 40
2456427.539033912
  9
$TDUPDATE
 40
2456427.539037963
  9
$TDINDWG
 40
0.0000000116
  9
$TDUSRTIMER
 40
0.0000000116
  9
$USRTIMER
 70
     1
  9
$ANGBASE
 50
0.0
  9
$ANGDIR
 70
     0
  9
$PDMODE
 70
     0
  9
$PDSIZE
 40
-1.0
  9
$PLINEWID
 40
0.0
  9
$COORDS
 70
     1
  9
$SPLFRAME
 70
     0
  9
$SPLINETYPE
 70
     6
  9
$SPLINESEGS
 70
     8
  9
$ATTDIA
 70
     0
  9
$ATTREQ
 70
     1
  9
$HANDLING
 70
     1
  9
$HANDSEED
  5
441
  9
$SURFTAB1
 70
     6
  9
$SURFTAB2
 70
     6
  9
$SURFTYPE
 70
     6
  9
$SURFU
 70
     6
  9
$SURFV
 70
     6
  9
$UCSNAME
  2

  9
$UCSORG
 10
0.0
 20
0.0
 30
0.0
  9
$UCSXDIR
 10
1.0
 20
0.0
 30
0.0
  9
$UCSYDIR
 10
0.0
 20
1.0
 30
0.0
  9
$PUCSNAME
  2

  9
$PUCSORG
 10
0.0
 20
0.0
 30
0.0
  9
$PUCSXDIR
 10
1.0
 20
0.0
 30
0.0
  9
$PUCSYDIR
 10
0.0
 20
1.0
 30
0.0
  9
$USERI1
 70
     0
  9
$USERI2
 70
     0
  9
$USERI3
 70
     0
  9
$USERI4
 70
     0
  9
$USERI5
 70
     0
  9
$USERR1
 40
0.0
  9
$USERR2
 40
0.0
  9
$USERR3
 40
0.0
  9
$USERR4
 40
0.0
  9
$USERR5
 40
0.0
  9
$WORLDVIEW
 70
     1
  9
$SHADEDGE
 70
     3
  9
$SHADEDIF
 70
    70
  9
$TILEMODE
 70
     1
  9
$MAXACTVP
 70
    64
  9
$PINSBASE
 10
0.0
 20
0.0
 30
0.0
  9
$PLIMCHECK
 70
     0
  9
$PEXTMIN
 10
1.0000000000E+20
 20
1.0000000000E+20
 30
1.0000000000E+20
  9
$PEXTMAX
 10
-1.0000000000E+20
 20
-1.0000000000E+20
 30
-1.0000000000E+20
  9
$PLIMMIN
 10
0.0
 20
0.0
  9
$PLIMMAX
 10
420.0
 20
297.0
  9
$UNITMODE
 70
     0
  9
$VISRETAIN
 70
     1
  9
$PLINEGEN
 70
     0
  9
$PSLTSCALE
 70
     1
  9
$TREEDEPTH
 70
  3020
  9
$PICKSTYLE
 70
     1
  9
$CMLSTYLE
  2
STANDARD
  9
$CMLJUST
 70
     0
  9
$CMLSCALE
 40
20.0
  9
$PROXYGRAPHICS
 70
     1
  9
$MEASUREMENT
 70
     1
  0
ENDSEC
  0
SECTION
  2
CLASSES
  0
CLASS
  1
ACDBDICTIONARYWDFLT
  2
AcDbDictionaryWithDefault
  3
ObjectDBX Classes
 90
        0
280
     0
281
     0
  0
CLASS
  1
VISUALSTYLE
  2
AcDbVisualStyle
  3
ObjectDBX Classes
 90
     4095
280
     0
281
     0
  0
CLASS
  1
MATERIAL
  2
AcDbMaterial
  3
ObjectDBX Classes
 90
     1153
280
     0
281
     0
  0
CLASS
  1
XRECORD
  2
AcDbXrecord
  3
AutoCAD 2000
 90
        0
280
     0
281
     0
  0
CLASS
  1
LWPOLYLINE
  2
AcDbPolyline
  3
AutoCAD 2000
 90
        0
280
     0
281
     1
  0
CLASS
  1
HATCH
  2
AcDbHatch
  3
AutoCAD 2000
 90
        0
280
     0
281
     1
  0
ENDSEC
  0
SECTION
  2
TABLES
  0
TABLE
  2
VPORT
  5
8
330
0
100
AcDbSymbolTable
 70
     1
  0
VPORT
  5
29
330
8
100
AcDbSymbolTableRecord
100
AcDbViewportTableRecord
  2
*ACTIVE
 70
     0
 10
0.0
 20
0.0
 11
1.0
 21
1.0
 12
105.0
 22
148.5
 13
0.0
 23
0.0
 14
10.0
 24
10.0
 15
10.0
 25
10.0
 16
0.0
 26
0.0
 36
1.0
 17
0.0
 27
0.0
 37
0.0
 40
297.0
 41
0.7070707071
 42
50.0
 43
0.0
 44
0.0
 50
0.0
 51
0.0
 71
     0
 72
  2000
 73
     1
 74
     3
 75
     0
 76
     0
 77
     0
 78
     0
  0
ENDTAB
  0
TABLE
  2
LTYPE
  5
5
330
0
100
AcDbSymbolTable
 70
     6
  0
LTYPE
  5
14
330
5
100
AcDbSymbolTableRecord
100
AcDbLinetypeTableRecord
  2
BYBLOCK
 70
     0
  3

 72
    65
 73
     0
 40
0.0
  0
LTYPE
  5
15
330
5
100
AcDbSymbolTableRecord
100
AcDbLinetypeTableRecord
  2
BYLAYER
 70
     0
  3

 72
    65
 73
     0
 40
0.0
  0
LTYPE
  5
16
330
5
100
AcDbSymbolTableRecord
100
AcDbLinetypeTableRecord
  2
CONTINUOUS
 70
     0
  3
Solid line
 72
    65
 73
     0
 40
0.0
  0
LTYPE
  5
3F
330
5
100
AcDbSymbolTableRecord
100
AcDbLinetypeTableRecord
  2
HIDDEN
 70
     0
  3
Hidden __ __ __ __ __ __ __ __ __ __ __ __ __ __
 72
    65
 73
     2
 40
1.905
 49
1.27
 74
     0
 49
-0.635
 74
     0
  0
LTYPE
  5
40
330
5
100
AcDbSymbolTableRecord
100
AcDbLinetypeTableRecord
  2
PHANTOM
 70
     0
  3
Phantom ______  __  __  ______  __  __  ______
 72
    65
 73
     6
 40
12.7
 49
6.35
 74
     0
 49
-1.27
 74
     0
 49
1.27
 74
     0
 49
-1.27
 74
     0
 49
1.27
 74
     0
 49
-1.27
 74
     0
  0
LTYPE
  5
41
330
5
100
AcDbSymbolTableRecord
100
AcDbLinetypeTableRecord
  2
CENTER
 70
     0
  3
Center ____ _ ____ _ ____ _ ____ _ ____ _ ____
 72
    65
 73
     4
 40
10.16
 49
6.35
 74
     0
 49
-1.27
 74
     0
 49
1.27
 74
     0
 49
-1.27
 74
     0
  0
LTYPE
  5
42
330
5
100
AcDbSymbolTableRecord
100
AcDbLinetypeTableRecord
  2
CENTERX2
 70
     0
  3
Center (2x) ________  __  ________  __  _____
 72
    65
 73
     4
 40
20.32
 49
12.7
 74
     0
 49
-2.54
 74
     0
 49
2.54
 74
     0
 49
-2.54
 74
     0
  0
LTYPE
  5
43
330
5
100
AcDbSymbolTableRecord
100
AcDbLinetypeTableRecord
  2
DOT2
 70
     0
  3
Dot (.5x) ........................................
 72
    65
 73
     2
 40
0.635
 49
0.0
 74
     0
 49
-0.635
 74
     0
  0
ENDTAB
  0
TABLE
  2
LAYER
  5
2
330
0
100
AcDbSymbolTable
 70
     8
  0
LAYER
  5
10
330
2
100
AcDbSymbolTableRecord
100
AcDbLayerTableRecord
  2
0
 70
     0
 62
     7
  6
CONTINUOUS
  0
LAYER
  5
44
330
2
100
AcDbSymbolTableRecord
100
AcDbLayerTableRecord
  2
SLD-0
 70
     0
 62
     7
  6
CONTINUOUS
  0
LAYER
  5
45
330
2
100
AcDbSymbolTableRecord
100
AcDbLayerTableRecord
  2
CONTORNO
 70
     0
 62
     7
  6
CONTINUOUS
  0
LAYER
  5
46
330
2
100
AcDbSymbolTableRecord
100
AcDbLayerTableRecord
  2
RIQUADRO
 70
     0
 62
     5
  6
CONTINUOUS
  0
LAYER
  5
47
330
2
100
AcDbSymbolTableRecord
100
AcDbLayerTableRecord
  2
LOGO
 70
     0
 62
   176
  6
CONTINUOUS
  0
LAYER
  5
48
330
2
100
AcDbSymbolTableRecord
100
AcDbLayerTableRecord
  2
PROIEZ
 70
     0
 62
    16
  6
CONTINUOUS
  0
LAYER
  5
49
330
2
100
AcDbSymbolTableRecord
100
AcDbLayerTableRecord
  2
CARTIGLIO
 70
     0
 62
     5
  6
CONTINUOUS
  0
LAYER
  5
4A
330
2
100
AcDbSymbolTableRecord
100
AcDbLayerTableRecord
  2
TABELLA_REV
 70
     0
 62
   136
  6
CONTINUOUS
  0
ENDTAB
  0
TABLE
  2
STYLE
  5
3
330
0
100
AcDbSymbolTable
 70
     6
  0
STYLE
  5
11
330
3
100
AcDbSymbolTableRecord
100
AcDbTextStyleTableRecord
  2
STANDARD
 70
     0
 40
0.0
 41
1.0
 50
0.0
 71
     0
 42
3.5
  3
txt
  4

  0
STYLE
  5
A5
330
3
100
AcDbSymbolTableRecord
100
AcDbTextStyleTableRecord
  2
SLDTEXTSTYLE0
 70
     0
 40
0.0
 41
0.6375
 50
0.0
 71
     0
 42
0.2
  3
TXT
  4

  0
STYLE
  5
AA
330
3
100
AcDbSymbolTableRecord
100
AcDbTextStyleTableRecord
  2
SLDTEXTSTYLE1
 70
     0
 40
0.0
 41
0.75
 50
0.0
 71
     0
 42
0.2
  3
TXT
  4

  0
STYLE
  5
AF
330
3
100
AcDbSymbolTableRecord
100
AcDbTextStyleTableRecord
  2
SLDTEXTSTYLE2
 70
     0
 40
0.0
 41
0.6530726257
 50
0.0
 71
     0
 42
0.2
  3
TXT
  4

  0
STYLE
  5
C4
330
3
100
AcDbSymbolTableRecord
100
AcDbTextStyleTableRecord
  2
SLDTEXTSTYLE3
 70
     0
 40
0.0
 41
0.7
 50
0.0
 71
     0
 42
0.2
  3
TXT
  4

  0
STYLE
  5
41E
330
3
100
AcDbSymbolTableRecord
100
AcDbTextStyleTableRecord
  2
SLDTEXTSTYLE4
 70
     0
 40
0.0
 41
0.6875
 50
0.0
 71
     0
 42
0.2
  3
TXT
  4

  0
ENDTAB
  0
TABLE
  2
VIEW
  5
6
330
0
100
AcDbSymbolTable
 70
     0
  0
ENDTAB
  0
TABLE
  2
UCS
  5
7
330
0
100
AcDbSymbolTable
 70
     0
  0
ENDTAB
  0
TABLE
  2
APPID
  5
9
330
0
100
AcDbSymbolTable
 70
     1
  0
APPID
  5
12
330
9
100
AcDbSymbolTableRecord
100
AcDbRegAppTableRecord
  2
ACAD
 70
     0
  0
ENDTAB
  0
TABLE
  2
DIMSTYLE
  5
A
330
0
100
AcDbSymbolTable
 70
     5
  0
DIMSTYLE
105
27
330
A
100
AcDbSymbolTableRecord
100
AcDbDimStyleTableRecord
  2
ISO-25
 70
     0
  3

  4

  5

  6

  7

 40
1.0
 41
2.5
 42
0.625
 43
3.75
 44
1.25
 45
0.0
 46
0.0
 47
0.0
 48
0.0
140
2.5
141
2.5
142
0.0
143
0.0393700787
144
1.0
145
0.0
146
1.0
147
0.625
 71
     0
 72
     0
 73
     0
 74
     0
 75
     0
 76
     0
 77
     1
 78
     8
170
     0
171
     3
172
     1
173
     0
174
     0
175
     0
176
     0
177
     0
178
     0
270
     2
271
     2
272
     2
273
     2
274
     3
340
11
275
     0
280
     0
281
     0
282
     0
283
     0
284
     8
285
     0
286
     0
287
     3
288
     0
  0
DIMSTYLE
105
25D
102
{ACAD_REACTORS
330
25C
330
26E
330
278
330
282
330
2C1
330
2CA
330
2D4
330
2DF
330
2E9
330
350
330
35A
330
364
102
}
330
A
100
AcDbSymbolTableRecord
100
AcDbDimStyleTableRecord
  2
SLDDIMSTYLE0
 70
     0
  3

  4

  5

  6
CLOSED
  7
CLOSED
 40
1.0
 41
2.5
 42
0.0625
 43
0.38
 44
0.0
 45
0.000000001
 46
0.0
 47
0.0
 48
0.0
140
3.5
141
0.09
142
0.0
143
25.4
144
1.0
145
0.0
146
1.0
147
0.875
 71
     0
 72
     0
 73
     0
 74
     0
 75
     0
 76
     0
 77
     1
 78
    12
170
     0
171
     2
172
     0
173
     1
174
     0
175
     0
176
     0
177
     0
178
     0
270
     2
271
     2
272
     2
273
     2
274
     2
340
AA
275
     0
280
     0
281
     0
282
     0
283
     1
284
    12
285
     0
286
     0
287
     3
288
     0
  0
DIMSTYLE
105
298
330
A
100
AcDbSymbolTableRecord
100
AcDbDimStyleTableRecord
  2
SLDDIMSTYLE1
 70
     0
  3

  4

  5

  6
DOT
  7
DOT
 40
1.0
 41
0.62
 42
0.0625
 43
0.38
 44
0.0
 45
0.000000001
 46
0.0
 47
0.0
 48
0.0
140
0.0
141
0.09
142
0.0
143
25.4
144
1.0
145
0.0
146
0.62
147
0.0
 71
     0
 72
     0
 73
     1
 74
     1
 75
     0
 76
     0
 77
     0
 78
     0
170
     0
171
     2
172
     0
173
     1
174
     0
175
     0
176
     0
177
     0
178
     0
270
     2
271
     0
272
     0
273
     2
274
     2
340
11
275
     0
280
     0
281
     0
282
     0
283
     1
284
     0
285
     0
286
     0
287
     3
288
     0
  0
DIMSTYLE
105
3FE
102
{ACAD_REACTORS
330
3FD
330
409
102
}
330
A
100
AcDbSymbolTableRecord
100
AcDbDimStyleTableRecord
  2
SLDDIMSTYLE2
 70
     0
  3

  4

  5

  6
CLOSED
  7
CLOSED
 40
1.0
 41
2.5
 42
0.0625
 43
0.38
 44
0.0
 45
0.000000001
 46
0.0
 47
0.2
 48
0.2
140
3.5
141
0.09
142
0.0
143
25.4
144
1.0
145
0.0
146
1.0
147
0.875
 71
     1
 72
     0
 73
     0
 74
     0
 75
     0
 76
     0
 77
     1
 78
    12
170
     0
171
     2
172
     0
173
     1
174
     0
175
     0
176
     0
177
     0
178
     0
270
     2
271
     2
272
     2
273
     2
274
     2
340
AA
275
     0
280
     0
281
     0
282
     0
283
     1
284
     8
285
     0
286
     0
287
     3
288
     0
  0
DIMSTYLE
105
423
330
A
100
AcDbSymbolTableRecord
100
AcDbDimStyleTableRecord
  2
SLDDIMSTYLE3
 70
     0
  3

  4

  5

  6

  7

 40
1.0
 41
2.5
 42
0.0625
 43
0.38
 44
0.0
 45
0.000000001
 46
0.0
 47
0.0
 48
0.0
140
0.0
141
0.09
142
0.0
143
25.4
144
1.0
145
0.0
146
2.5
147
0.0
 71
     0
 72
     0
 73
     1
 74
     1
 75
     0
 76
     0
 77
     0
 78
     0
170
     0
171
     2
172
     0
173
     1
174
     0
175
     0
176
     0
177
     0
178
     0
270
     2
271
     0
272
     0
273
     2
274
     2
340
11
275
     0
280
     0
281
     0
282
     0
283
     1
284
     0
285
     0
286
     0
287
     3
288
     0
  0
ENDTAB
  0
TABLE
  2
BLOCK_RECORD
  5
1
330
0
100
AcDbSymbolTable
 70
    35
  0
BLOCK_RECORD
  5
1F
330
1
100
AcDbSymbolTableRecord
100
AcDbBlockTableRecord
  2
*MODEL_SPACE
  0
BLOCK_RECORD
  5
1B
330
1
100
AcDbSymbolTableRecord
100
AcDbBlockTableRecord
  2
*PAPER_SPACE
  0
BLOCK_RECORD
  5
23
330
1
100
AcDbSymbolTableRecord
100
AcDbBlockTableRecord
  2
*PAPER_SPACE0
  0
BLOCK_RECORD
  5
B8
330
1
100
AcDbSymbolTableRecord
100
AcDbBlockTableRecord
  2
SW_NOTE_0
  0
BLOCK_RECORD
  5
BE
330
1
100
AcDbSymbolTableRecord
100
AcDbBlockTableRecord
  2
SW_NOTE_1
  0
BLOCK_RECORD
  5
C9
330
1
100
AcDbSymbolTableRecord
100
AcDbBlockTableRecord
  2
SW_NOTE_2
  0
BLOCK_RECORD
  5
CF
330
1
100
AcDbSymbolTableRecord
100
AcDbBlockTableRecord
  2
SW_NOTE_3
  0
BLOCK_RECORD
  5
D5
330
1
100
AcDbSymbolTableRecord
100
AcDbBlockTableRecord
  2
SW_NOTE_4
  0
BLOCK_RECORD
  5
DB
330
1
100
AcDbSymbolTableRecord
100
AcDbBlockTableRecord
  2
SW_NOTE_5
  0
BLOCK_RECORD
  5
E1
330
1
100
AcDbSymbolTableRecord
100
AcDbBlockTableRecord
  2
SW_NOTE_6
  0
BLOCK_RECORD
  5
E7
330
1
100
AcDbSymbolTableRecord
100
AcDbBlockTableRecord
  2
SW_NOTE_7
  0
BLOCK_RECORD
  5
ED
330
1
100
AcDbSymbolTableRecord
100
AcDbBlockTableRecord
  2
SW_NOTE_8
  0
BLOCK_RECORD
  5
F3
330
1
100
AcDbSymbolTableRecord
100
AcDbBlockTableRecord
  2
SW_NOTE_9
  0
BLOCK_RECORD
  5
25E
330
1
100
AcDbSymbolTableRecord
100
AcDbBlockTableRecord
  2
_CLOSED
  0
BLOCK_RECORD
  5
265
330
1
100
AcDbSymbolTableRecord
100
AcDbBlockTableRecord
  2
_D
  0
BLOCK_RECORD
  5
26F
330
1
100
AcDbSymbolTableRecord
100
AcDbBlockTableRecord
  2
_D_1
  0
BLOCK_RECORD
  5
279
330
1
100
AcDbSymbolTableRecord
100
AcDbBlockTableRecord
  2
_D_2
  0
BLOCK_RECORD
  5
283
330
1
100
AcDbSymbolTableRecord
100
AcDbBlockTableRecord
  2
_D_3
  0
BLOCK_RECORD
  5
28C
330
1
100
AcDbSymbolTableRecord
100
AcDbBlockTableRecord
  2
SW_NOTE_10
  0
BLOCK_RECORD
  5
299
330
1
100
AcDbSymbolTableRecord
100
AcDbBlockTableRecord
  2
_DOT
  0
BLOCK_RECORD
  5
2C2
330
1
100
AcDbSymbolTableRecord
100
AcDbBlockTableRecord
  2
_D_4
  0
BLOCK_RECORD
  5
2CB
330
1
100
AcDbSymbolTableRecord
100
AcDbBlockTableRecord
  2
_D_5
  0
BLOCK_RECORD
  5
2D5
330
1
100
AcDbSymbolTableRecord
100
AcDbBlockTableRecord
  2
_D_6
  0
BLOCK_RECORD
  5
2E0
330
1
100
AcDbSymbolTableRecord
100
AcDbBlockTableRecord
  2
_D_7
  0
BLOCK_RECORD
  5
2EA
330
1
100
AcDbSymbolTableRecord
100
AcDbBlockTableRecord
  2
_D_8
  0
BLOCK_RECORD
  5
2F3
330
1
100
AcDbSymbolTableRecord
100
AcDbBlockTableRecord
  2
SW_CENTERMARKSYMBOL_0
  0
BLOCK_RECORD
  5
2FF
330
1
100
AcDbSymbolTableRecord
100
AcDbBlockTableRecord
  2
SW_CENTERMARKSYMBOL_1
  0
BLOCK_RECORD
  5
30B
330
1
100
AcDbSymbolTableRecord
100
AcDbBlockTableRecord
  2
SW_CENTERMARKSYMBOL_2
  0
BLOCK_RECORD
  5
317
330
1
100
AcDbSymbolTableRecord
100
AcDbBlockTableRecord
  2
SW_CENTERMARKSYMBOL_3
  0
BLOCK_RECORD
  5
351
330
1
100
AcDbSymbolTableRecord
100
AcDbBlockTableRecord
  2
_D_9
  0
BLOCK_RECORD
  5
35B
330
1
100
AcDbSymbolTableRecord
100
AcDbBlockTableRecord
  2
_D_10
  0
BLOCK_RECORD
  5
365
330
1
100
AcDbSymbolTableRecord
100
AcDbBlockTableRecord
  2
_D_11
  0
BLOCK_RECORD
  5
3FF
330
1
100
AcDbSymbolTableRecord
100
AcDbBlockTableRecord
  2
_D_12
  0
BLOCK_RECORD
  5
40A
330
1
100
AcDbSymbolTableRecord
100
AcDbBlockTableRecord
  2
_D_13
  0
BLOCK_RECORD
  5
414
330
1
100
AcDbSymbolTableRecord
100
AcDbBlockTableRecord
  2
SW_NOTE_11
  0
BLOCK_RECORD
  5
426
330
1
100
AcDbSymbolTableRecord
100
AcDbBlockTableRecord
  2
SW_NOTE_12
  0
BLOCK_RECORD
  5
434
330
1
100
AcDbSymbolTableRecord
100
AcDbBlockTableRecord
  2
SW_NOTE_13
  0
ENDTAB
  0
ENDSEC
  0
SECTION
  2
BLOCKS
  0
BLOCK
  5
20
330
1F
100
AcDbEntity
  8
0
100
AcDbBlockBegin
  2
*MODEL_SPACE
 70
     0
 10
0.0
 20
0.0
 30
0.0
  3
*MODEL_SPACE
  1

  0
ENDBLK
  5
21
330
1F
100
AcDbEntity
  8
0
100
AcDbBlockEnd
  0
BLOCK
  5
1C
330
1B
100
AcDbEntity
 67
     1
  8
0
100
AcDbBlockBegin
  2
*PAPER_SPACE
 70
     0
 10
0.0
 20
0.0
 30
0.0
  3
*PAPER_SPACE
  1

  0
ENDBLK
  5
1D
330
1B
100
AcDbEntity
 67
     1
  8
0
100
AcDbBlockEnd
  0
BLOCK
  5
24
330
23
100
AcDbEntity
  8
0
100
AcDbBlockBegin
  2
*PAPER_SPACE0
 70
     0
 10
0.0
 20
0.0
 30
0.0
  3
*PAPER_SPACE0
  1

  0
ENDBLK
  5
25
330
23
100
AcDbEntity
  8
0
100
AcDbBlockEnd
  0
BLOCK
  5
B9
330
B8
100
AcDbEntity
  8
0
100
AcDbBlockBegin
  2
SW_NOTE_0
 70
     0
 10
0.0
 20
0.0
 30
0.0
  3
SW_NOTE_0
  1

  0
MTEXT
  5
BB
330
B8
100
AcDbEntity
  8
CARTIGLIO
 62
     0
100
AcDbMText
 10
0.0
 20
2.5781354795
 30
0.0
 40
2.0
 41
0.0
 71
     1
 72
     1
  1
Undimensioned
  7
SLDTEXTSTYLE1
  0
MTEXT
  5
BC
330
B8
100
AcDbEntity
  8
CARTIGLIO
 62
     0
100
AcDbMText
 10
0.0
 20
-0.4218645465
 30
0.0
 40
2.0
 41
0.0
 71
     1
 72
     1
  1
radii
  7
SLDTEXTSTYLE1
  0
ENDBLK
  5
BA
330
B8
100
AcDbEntity
  8
0
100
AcDbBlockEnd
  0
BLOCK
  5
BF
330
BE
100
AcDbEntity
  8
0
100
AcDbBlockBegin
  2
SW_NOTE_1
 70
     0
 10
0.0
 20
0.0
 30
0.0
  3
SW_NOTE_1
  1

  0
MTEXT
  5
C1
330
BE
100
AcDbEntity
  8
CARTIGLIO
 62
     0
100
AcDbMText
 10
0.0
 20
2.5781354795
 30
0.0
 40
2.0
 41
0.0
 71
     1
 72
     1
  1
Undimensioned
  7
SLDTEXTSTYLE1
  0
MTEXT
  5
C2
330
BE
100
AcDbEntity
  8
CARTIGLIO
 62
     0
100
AcDbMText
 10
0.0
 20
-0.4218645465
 30
0.0
 40
2.0
 41
0.0
 71
     1
 72
     1
  1
bevels
  7
SLDTEXTSTYLE1
  0
ENDBLK
  5
C0
330
BE
100
AcDbEntity
  8
0
100
AcDbBlockEnd
  0
BLOCK
  5
CA
330
C9
100
AcDbEntity
  8
0
100
AcDbBlockBegin
  2
SW_NOTE_2
 70
     0
 10
0.0
 20
0.0
 30
0.0
  3
SW_NOTE_2
  1

  0
MTEXT
  5
CC
330
C9
100
AcDbEntity
  8
CARTIGLIO
 62
     0
100
AcDbMText
 10
3.5625
 20
2.5781354795
 30
0.0
 40
2.0
 41
0.0
 71
     3
 72
     1
  1
0.5
  7
SLDTEXTSTYLE1
  0
MTEXT
  5
CD
330
C9
100
AcDbEntity
  8
CARTIGLIO
 62
     0
100
AcDbMText
 10
3.5065974854
 20
-0.4218645465
 30
0.0
 40
2.0
 41
0.0
 71
     3
 72
     1
  1
÷3
  7
SLDTEXTSTYLE1
  0
ENDBLK
  5
CB
330
C9
100
AcDbEntity
  8
0
100
AcDbBlockEnd
  0
BLOCK
  5
D0
330
CF
100
AcDbEntity
  8
0
100
AcDbBlockBegin
  2
SW_NOTE_3
 70
     0
 10
0.0
 20
0.0
 30
0.0
  3
SW_NOTE_3
  1

  0
MTEXT
  5
D2
330
CF
100
AcDbEntity
  8
CARTIGLIO
 62
     0
100
AcDbMText
 10
4.375
 20
2.5781354795
 30
0.0
 40
2.0
 41
0.0
 71
     3
 72
     1
  1
>3÷
  7
SLDTEXTSTYLE1
  0
MTEXT
  5
D3
330
CF
100
AcDbEntity
  8
CARTIGLIO
 62
     0
100
AcDbMText
 10
4.4781248989
 20
-0.4218645465
 30
0.0
 40
2.0
 41
0.0
 71
     3
 72
     1
  1
6
  7
SLDTEXTSTYLE1
  0
ENDBLK
  5
D1
330
CF
100
AcDbEntity
  8
0
100
AcDbBlockEnd
  0
BLOCK
  5
D6
330
D5
100
AcDbEntity
  8
0
100
AcDbBlockBegin
  2
SW_NOTE_4
 70
     0
 10
0.0
 20
0.0
 30
0.0
  3
SW_NOTE_4
  1

  0
MTEXT
  5
D8
330
D5
100
AcDbEntity
  8
CARTIGLIO
 62
     0
100
AcDbMText
 10
4.375
 20
2.5781354795
 30
0.0
 40
2.0
 41
0.0
 71
     3
 72
     1
  1
>6÷
  7
SLDTEXTSTYLE1
  0
MTEXT
  5
D9
330
D5
100
AcDbEntity
  8
CARTIGLIO
 62
     0
100
AcDbMText
 10
4.4340279363
 20
-0.4218645465
 30
0.0
 40
2.0
 41
0.0
 71
     3
 72
     1
  1
30
  7
SLDTEXTSTYLE1
  0
ENDBLK
  5
D7
330
D5
100
AcDbEntity
  8
0
100
AcDbBlockEnd
  0
BLOCK
  5
DC
330
DB
100
AcDbEntity
  8
0
100
AcDbBlockBegin
  2
SW_NOTE_5
 70
     0
 10
0.0
 20
0.0
 30
0.0
  3
SW_NOTE_5
  1

  0
MTEXT
  5
DE
330
DB
100
AcDbEntity
  8
CARTIGLIO
 62
     0
100
AcDbMText
 10
5.8125
 20
2.5781354795
 30
0.0
 40
2.0
 41
0.0
 71
     3
 72
     1
  1
>30÷
  7
SLDTEXTSTYLE1
  0
MTEXT
  5
DF
330
DB
100
AcDbEntity
  8
CARTIGLIO
 62
     0
100
AcDbMText
 10
5.9836805947
 20
-0.4218645465
 30
0.0
 40
2.0
 41
0.0
 71
     3
 72
     1
  1
120
  7
SLDTEXTSTYLE1
  0
ENDBLK
  5
DD
330
DB
100
AcDbEntity
  8
0
100
AcDbBlockEnd
  0
BLOCK
  5
E2
330
E1
100
AcDbEntity
  8
0
100
AcDbBlockBegin
  2
SW_NOTE_6
 70
     0
 10
0.0
 20
0.0
 30
0.0
  3
SW_NOTE_6
  1

  0
MTEXT
  5
E4
330
E1
100
AcDbEntity
  8
CARTIGLIO
 62
     0
100
AcDbMText
 10
5.875
 20
2.5781354795
 30
0.0
 40
2.0
 41
0.0
 71
     3
 72
     1
  1
>120
  7
SLDTEXTSTYLE1
  0
MTEXT
  5
E5
330
E1
100
AcDbEntity
  8
CARTIGLIO
 62
     0
100
AcDbMText
 10
5.717708379
 20
-0.4218645465
 30
0.0
 40
2.0
 41
0.0
 71
     3
 72
     1
  1
÷400
  7
SLDTEXTSTYLE1
  0
ENDBLK
  5
E3
330
E1
100
AcDbEntity
  8
0
100
AcDbBlockEnd
  0
BLOCK
  5
E8
330
E7
100
AcDbEntity
  8
0
100
AcDbBlockBegin
  2
SW_NOTE_7
 70
     0
 10
0.0
 20
0.0
 30
0.0
  3
SW_NOTE_7
  1

  0
MTEXT
  5
EA
330
E7
100
AcDbEntity
  8
CARTIGLIO
 62
     0
100
AcDbMText
 10
7.25
 20
2.5781354795
 30
0.0
 40
2.0
 41
0.0
 71
     3
 72
     1
  1
>400÷
  7
SLDTEXTSTYLE1
  0
MTEXT
  5
EB
330
E7
100
AcDbEntity
  8
CARTIGLIO
 62
     0
100
AcDbMText
 10
7.4274307005
 20
-0.4218645465
 30
0.0
 40
2.0
 41
0.0
 71
     3
 72
     1
  1
1000
  7
SLDTEXTSTYLE1
  0
ENDBLK
  5
E9
330
E7
100
AcDbEntity
  8
0
100
AcDbBlockEnd
  0
BLOCK
  5
EE
330
ED
100
AcDbEntity
  8
0
100
AcDbBlockBegin
  2
SW_NOTE_8
 70
     0
 10
0.0
 20
0.0
 30
0.0
  3
SW_NOTE_8
  1

  0
MTEXT
  5
F0
330
ED
100
AcDbEntity
  8
CARTIGLIO
 62
     0
100
AcDbMText
 10
7.3125
 20
2.5781354795
 30
0.0
 40
2.0
 41
0.0
 71
     3
 72
     1
  1
>1000
  7
SLDTEXTSTYLE1
  0
MTEXT
  5
F1
330
ED
100
AcDbEntity
  8
CARTIGLIO
 62
     0
100
AcDbMText
 10
7.1611115672
 20
-0.4218645465
 30
0.0
 40
2.0
 41
0.0
 71
     3
 72
     1
  1
÷2000
  7
SLDTEXTSTYLE1
  0
ENDBLK
  5
EF
330
ED
100
AcDbEntity
  8
0
100
AcDbBlockEnd
  0
BLOCK
  5
F4
330
F3
100
AcDbEntity
  8
0
100
AcDbBlockBegin
  2
SW_NOTE_9
 70
     0
 10
0.0
 20
0.0
 30
0.0
  3
SW_NOTE_9
  1

  0
MTEXT
  5
F6
330
F3
100
AcDbEntity
  8
CARTIGLIO
 62
     0
100
AcDbMText
 10
7.3125
 20
2.5781354795
 30
0.0
 40
2.0
 41
0.0
 71
     3
 72
     1
  1
>2000
  7
SLDTEXTSTYLE1
  0
MTEXT
  5
F7
330
F3
100
AcDbEntity
  8
CARTIGLIO
 62
     0
100
AcDbMText
 10
7.2572915778
 20
-0.4218645465
 30
0.0
 40
2.0
 41
0.0
 71
     3
 72
     1
  1
÷4000
  7
SLDTEXTSTYLE1
  0
ENDBLK
  5
F5
330
F3
100
AcDbEntity
  8
0
100
AcDbBlockEnd
  0
BLOCK
  5
25F
330
25E
100
AcDbEntity
  8
0
100
AcDbBlockBegin
  2
_CLOSED
 70
     0
 10
0.0
 20
0.0
 30
0.0
  3
_CLOSED
  1

  0
LINE
  5
261
330
25E
100
AcDbEntity
  8
0
  6
BYBLOCK
 62
     0
100
AcDbLine
 10
-1.0
 20
0.166667
 30
0.0
 11
0.0
 21
0.0
 31
0.0
  0
LINE
  5
262
330
25E
100
AcDbEntity
  8
0
  6
BYBLOCK
 62
     0
100
AcDbLine
 10
0.0
 20
0.0
 30
0.0
 11
-1.0
 21
-0.166667
 31
0.0
  0
LINE
  5
263
330
25E
100
AcDbEntity
  8
0
  6
BYBLOCK
 62
     0
100
AcDbLine
 10
-1.0
 20
0.166667
 30
0.0
 11
-1.0
 21
-0.166667
 31
0.0
  0
LINE
  5
264
330
25E
100
AcDbEntity
  8
0
  6
BYBLOCK
 62
     0
100
AcDbLine
 10
0.0
 20
0.0
 30
0.0
 11
-1.0
 21
0.0
 31
0.0
  0
ENDBLK
  5
260
330
25E
100
AcDbEntity
  8
0
100
AcDbBlockEnd
  0
BLOCK
  5
266
330
265
100
AcDbEntity
  8
0
100
AcDbBlockBegin
  2
_D
 70
     0
 10
0.0
 20
0.0
 30
0.0
  3
_D
  1

  0
INSERT
  5
268
330
265
100
AcDbEntity
  8
RIQUADRO
100
AcDbBlockReference
  2
_CLOSED
 10
34.4905953986
 20
193.1460653848
 30
6.101
 41
2.5
 42
2.5
 50
180.0
  0
INSERT
  5
269
330
265
100
AcDbEntity
  8
RIQUADRO
100
AcDbBlockReference
  2
_CLOSED
 10
63.4905953986
 20
193.1460653848
 30
6.101
 41
2.5
 42
2.5
 50
0.0
  0
LINE
  5
26A
330
265
100
AcDbEntity
  8
RIQUADRO
100
AcDbLine
 10
34.4905953986
 20
159.4055587499
 30
0.0
 11
34.4905953986
 21
194.1460653848
 31
0.0
  0
LINE
  5
26B
330
265
100
AcDbEntity
  8
RIQUADRO
100
AcDbLine
 10
63.4905953986
 20
159.4055587499
 30
0.0
 11
63.4905953986
 21
194.1460653848
 31
0.0
  0
LINE
  5
26C
330
265
100
AcDbEntity
  8
RIQUADRO
100
AcDbLine
 10
34.4905953986
 20
193.1460653848
 30
0.0
 11
63.4905953986
 21
193.1460653848
 31
0.0
  0
MTEXT
  5
26D
330
265
100
AcDbEntity
  8
RIQUADRO
100
AcDbMText
 10
46.6052332299
 20
197.6578022994
 30
0.0
 40
3.5
 41
0.0
 71
     1
 72
     1
  1
29
  7
SLDTEXTSTYLE1
  0
ENDBLK
  5
267
330
265
100
AcDbEntity
  8
0
100
AcDbBlockEnd
  0
BLOCK
  5
270
330
26F
100
AcDbEntity
  8
0
100
AcDbBlockBegin
  2
_D_1
 70
     0
 10
0.0
 20
0.0
 30
0.0
  3
_D_1
  1

  0
INSERT
  5
272
330
26F
100
AcDbEntity
  8
RIQUADRO
100
AcDbBlockReference
  2
_CLOSED
 10
80.633833387
 20
160.4055587499
 30
6.101
 41
2.5
 42
2.5
 50
90.0
  0
INSERT
  5
273
330
26F
100
AcDbEntity
  8
RIQUADRO
100
AcDbBlockReference
  2
_CLOSED
 10
80.633833387
 20
138.4055587499
 30
6.101
 41
2.5
 42
2.5
 50
270.0
  0
LINE
  5
274
330
26F
100
AcDbEntity
  8
RIQUADRO
100
AcDbLine
 10
62.4905953986
 20
160.4055587499
 30
0.0
 11
81.633833387
 21
160.4055587499
 31
0.0
  0
LINE
  5
275
330
26F
100
AcDbEntity
  8
RIQUADRO
100
AcDbLine
 10
62.4905953986
 20
138.4055587499
 30
0.0
 11
81.633833387
 21
138.4055587499
 31
0.0
  0
LINE
  5
276
330
26F
100
AcDbEntity
  8
RIQUADRO
100
AcDbLine
 10
80.633833387
 20
160.4055587499
 30
0.0
 11
80.633833387
 21
138.4055587499
 31
0.0
  0
MTEXT
  5
277
330
26F
100
AcDbEntity
  8
RIQUADRO
100
AcDbMText
 10
76.1220964725
 20
148.4550272346
 30
0.0
 40
3.5
 41
0.0
 71
     1
 72
     1
  1
22
  7
SLDTEXTSTYLE1
 11
-7.044195017643634E-15
 21
1.0
 31
0.0
  0
ENDBLK
  5
271
330
26F
100
AcDbEntity
  8
0
100
AcDbBlockEnd
  0
BLOCK
  5
27A
330
279
100
AcDbEntity
  8
0
100
AcDbBlockBegin
  2
_D_2
 70
     0
 10
0.0
 20
0.0
 30
0.0
  3
_D_2
  1

  0
INSERT
  5
27C
330
279
100
AcDbEntity
  8
RIQUADRO
100
AcDbBlockReference
  2
_CLOSED
 10
71.4905953986
 20
91.9194215415
 30
6.101
 41
2.5
 42
2.5
 50
0.0
  0
INSERT
  5
27D
330
279
100
AcDbEntity
  8
RIQUADRO
100
AcDbBlockReference
  2
_CLOSED
 10
26.4905953986
 20
91.9194215415
 30
6.101
 41
2.5
 42
2.5
 50
180.0
  0
LINE
  5
27E
330
279
100
AcDbEntity
  8
RIQUADRO
100
AcDbLine
 10
71.4905953986
 20
108.4055587499
 30
0.0
 11
71.4905953986
 21
90.9194215415
 31
0.0
  0
LINE
  5
27F
330
279
100
AcDbEntity
  8
RIQUADRO
100
AcDbLine
 10
26.4905953986
 20
108.4055587499
 30
0.0
 11
26.4905953986
 21
90.9194215415
 31
0.0
  0
LINE
  5
280
330
279
100
AcDbEntity
  8
RIQUADRO
100
AcDbLine
 10
71.4905953986
 20
91.9194215415
 30
0.0
 11
26.4905953986
 21
91.9194215415
 31
0.0
  0
MTEXT
  5
281
330
279
100
AcDbEntity
  8
RIQUADRO
100
AcDbMText
 10
42.4358986975
 20
96.4311584561
 30
0.0
 40
3.5
 41
0.0
 71
     1
 72
     1
  1
45
  7
SLDTEXTSTYLE1
  0
ENDBLK
  5
27B
330
279
100
AcDbEntity
  8
0
100
AcDbBlockEnd
  0
BLOCK
  5
284
330
283
100
AcDbEntity
  8
0
100
AcDbBlockBegin
  2
_D_3
 70
     0
 10
0.0
 20
0.0
 30
0.0
  3
_D_3
  1

  0
INSERT
  5
286
330
283
100
AcDbEntity
  8
RIQUADRO
100
AcDbBlockReference
  2
_CLOSED
 10
17.979163448
 20
149.4055587499
 30
6.101
 41
2.5
 42
2.5
 50
90.0
  0
INSERT
  5
287
330
283
100
AcDbEntity
  8
RIQUADRO
100
AcDbBlockReference
  2
_CLOSED
 10
17.979163448
 20
109.4055587499
 30
6.101
 41
2.5
 42
2.5
 50
270.0
  0
LINE
  5
288
330
283
100
AcDbEntity
  8
RIQUADRO
100
AcDbLine
 10
31.4905953986
 20
149.4055587499
 30
0.0
 11
16.979163448
 21
149.4055587499
 31
0.0
  0
LINE
  5
289
330
283
100
AcDbEntity
  8
RIQUADRO
100
AcDbLine
 10
25.9905953986
 20
109.4055587499
 30
0.0
 11
16.979163448
 21
109.4055587499
 31
0.0
  0
LINE
  5
28A
330
283
100
AcDbEntity
  8
RIQUADRO
100
AcDbLine
 10
17.979163448
 20
149.4055587499
 30
0.0
 11
17.979163448
 21
109.4055587499
 31
0.0
  0
MTEXT
  5
28B
330
283
100
AcDbEntity
  8
RIQUADRO
100
AcDbMText
 10
13.4674265334
 20
125.3808616897
 30
0.0
 40
3.5
 41
0.0
 71
     1
 72
     1
  1
40
  7
SLDTEXTSTYLE1
 11
-7.044195017643634E-15
 21
1.0
 31
0.0
  0
ENDBLK
  5
285
330
283
100
AcDbEntity
  8
0
100
AcDbBlockEnd
  0
BLOCK
  5
28D
330
28C
100
AcDbEntity
  8
0
100
AcDbBlockBegin
  2
SW_NOTE_10
 70
     0
 10
0.0
 20
0.0
 30
0.0
  3
SW_NOTE_10
  1

  0
LINE
  5
28F
330
28C
100
AcDbEntity
  8
RIQUADRO
 62
     0
100
AcDbLine
 10
-22.1662468514
 20
0.0
 30
0.0
 11
0.0
 21
0.0
 31
0.0
  0
LINE
  5
290
330
28C
100
AcDbEntity
  8
RIQUADRO
 62
     0
100
AcDbLine
 10
0.0
 20
0.0
 30
0.0
 11
-22.1662468514
 21
0.0
 31
0.0
  0
LINE
  5
291
330
28C
100
AcDbEntity
  8
RIQUADRO
 62
     0
100
AcDbLine
 10
-22.1662468514
 20
0.0
 30
0.0
 11
0.0
 21
0.0
 31
0.0
  0
LINE
  5
292
330
28C
100
AcDbEntity
  8
RIQUADRO
 62
     0
100
AcDbLine
 10
0.0
 20
0.0
 30
0.0
 11
-22.1662468514
 21
0.0
 31
0.0
  0
LINE
  5
293
330
28C
100
AcDbEntity
  8
RIQUADRO
 62
     0
100
AcDbLine
 10
-22.1662468514
 20
0.0
 30
0.0
 11
0.0
 21
0.0
 31
0.0
  0
LINE
  5
294
330
28C
100
AcDbEntity
  8
RIQUADRO
 62
     0
100
AcDbLine
 10
0.0
 20
0.0
 30
0.0
 11
-22.1662468514
 21
0.0
 31
0.0
  0
MTEXT
  5
295
330
28C
100
AcDbEntity
  8
RIQUADRO
 62
     0
100
AcDbMText
 10
-22.0976311539
 20
9.1225276794
 30
0.0
 40
3.5
 41
0.0
 71
     1
 72
     1
  1
magnetic
  7
SLDTEXTSTYLE1
  0
MTEXT
  5
296
330
28C
100
AcDbEntity
  8
RIQUADRO
 62
     0
100
AcDbMText
 10
-22.0976311539
 20
4.5968331489
 30
0.0
 40
3.5
 41
0.0
 71
     1
 72
     1
  1
holder
  7
SLDTEXTSTYLE1
  0
ENDBLK
  5
28E
330
28C
100
AcDbEntity
  8
0
100
AcDbBlockEnd
  0
BLOCK
  5
29A
330
299
100
AcDbEntity
  8
0
100
AcDbBlockBegin
  2
_DOT
 70
     0
 10
0.0
 20
0.0
 30
0.0
  3
_DOT
  1

  0
POLYLINE
  5
29C
330
299
100
AcDbEntity
  8
0
  6
BYBLOCK
 62
     0
100
AcDb2dPolyline
 66
     1
 10
0.0
 20
0.0
 30
0.0
 70
     1
 40
0.5
 41
0.5
  0
VERTEX
  5
29E
330
29C
100
AcDbEntity
  8
0
  6
BYBLOCK
 62
     0
100
AcDbVertex
100
AcDb2dVertex
 10
-0.25
 20
0.0
 30
0.0
 42
1.0
  0
VERTEX
  5
29F
330
29C
100
AcDbEntity
  8
0
  6
BYBLOCK
 62
     0
100
AcDbVertex
100
AcDb2dVertex
 10
0.25
 20
0.0
 30
0.0
 42
1.0
  0
SEQEND
  5
2A0
330
29C
100
AcDbEntity
  8
0
  6
BYBLOCK
 62
     0
  0
LINE
  5
29D
330
299
100
AcDbEntity
  8
0
  6
BYBLOCK
 62
     0
100
AcDbLine
 10
-0.5
 20
0.0
 30
0.0
 11
-1.0
 21
0.0
 31
0.0
  0
ENDBLK
  5
29B
330
299
100
AcDbEntity
  8
0
100
AcDbBlockEnd
  0
BLOCK
  5
2C3
330
2C2
100
AcDbEntity
  8
0
100
AcDbBlockBegin
  2
_D_4
 70
     0
 10
0.0
 20
0.0
 30
0.0
  3
_D_4
  1

  0
INSERT
  5
2C5
330
2C2
100
AcDbEntity
  8
RIQUADRO
100
AcDbBlockReference
  2
_CLOSED
 10
48.9905953986
 20
238.9609537559
 30
0.1
 41
2.5
 42
2.5
 50
180.0
  0
INSERT
  5
2C6
330
2C2
100
AcDbEntity
  8
RIQUADRO
100
AcDbBlockReference
  2
_CLOSED
 10
58.9905953986
 20
238.9609537559
 30
0.1
 41
2.5
 42
2.5
 50
0.0
  0
LINE
  5
2C7
330
2C2
100
AcDbEntity
  8
RIQUADRO
100
AcDbLine
 10
58.9905953986
 20
229.6372511746
 30
0.0
 11
58.9905953986
 21
239.9609537559
 31
0.0
  0
LINE
  5
2C8
330
2C2
100
AcDbEntity
  8
RIQUADRO
100
AcDbLine
 10
48.9905953986
 20
238.9609537559
 30
0.0
 11
58.9905953986
 21
238.9609537559
 31
0.0
  0
MTEXT
  5
2C9
330
2C2
100
AcDbEntity
  8
RIQUADRO
100
AcDbMText
 10
51.923613421
 20
243.4726906705
 30
0.0
 40
3.5
 41
0.0
 71
     1
 72
     1
  1
10
  7
SLDTEXTSTYLE1
  0
ENDBLK
  5
2C4
330
2C2
100
AcDbEntity
  8
0
100
AcDbBlockEnd
  0
BLOCK
  5
2CC
330
2CB
100
AcDbEntity
  8
0
100
AcDbBlockBegin
  2
_D_5
 70
     0
 10
0.0
 20
0.0
 30
0.0
  3
_D_5
  1

  0
INSERT
  5
2CE
330
2CB
100
AcDbEntity
  8
RIQUADRO
100
AcDbBlockReference
  2
_CLOSED
 10
48.9905953986
 20
249.3139230487
 30
0.1
 41
2.5
 42
2.5
 50
180.0
  0
INSERT
  5
2CF
330
2CB
100
AcDbEntity
  8
RIQUADRO
100
AcDbBlockReference
  2
_CLOSED
 10
66.4905953986
 20
249.3139230487
 30
0.1
 41
2.5
 42
2.5
 50
0.0
  0
LINE
  5
2D0
330
2CB
100
AcDbEntity
  8
RIQUADRO
100
AcDbLine
 10
48.9905953986
 20
246.3943160037
 30
0.0
 11
48.9905953986
 21
250.3139230487
 31
0.0
  0
LINE
  5
2D1
330
2CB
100
AcDbEntity
  8
RIQUADRO
100
AcDbLine
 10
66.4905953986
 20
229.3872511746
 30
0.0
 11
66.4905953986
 21
250.3139230487
 31
0.0
  0
LINE
  5
2D2
330
2CB
100
AcDbEntity
  8
RIQUADRO
100
AcDbLine
 10
48.9905953986
 20
249.3139230487
 30
0.0
 11
66.4905953986
 21
249.3139230487
 31
0.0
  0
MTEXT
  5
2D3
330
2CB
100
AcDbEntity
  8
RIQUADRO
100
AcDbMText
 10
52.4831143484
 20
253.8256599633
 30
0.0
 40
3.5
 41
0.0
 71
     1
 72
     1
  1
17,50
  7
SLDTEXTSTYLE1
  0
ENDBLK
  5
2CD
330
2CB
100
AcDbEntity
  8
0
100
AcDbBlockEnd
  0
BLOCK
  5
2D6
330
2D5
100
AcDbEntity
  8
0
100
AcDbBlockBegin
  2
_D_6
 70
     0
 10
0.0
 20
0.0
 30
0.0
  3
_D_6
  1

  0
INSERT
  5
2D8
330
2D5
100
AcDbEntity
  8
RIQUADRO
100
AcDbBlockReference
  2
_CLOSED
 10
97.7741818572
 20
218.8872511746
 30
-5.65
 41
2.5
 42
2.5
 50
270.0
  0
INSERT
  5
2D9
330
2D5
100
AcDbEntity
  8
RIQUADRO
100
AcDbBlockReference
  2
_CLOSED
 10
97.7741818572
 20
223.8872511746
 30
-5.65
 41
2.5
 42
2.5
 50
90.0
  0
LINE
  5
2DA
330
2D5
100
AcDbEntity
  8
RIQUADRO
100
AcDbLine
 10
71.9905953986
 20
218.8872511746
 30
0.0
 11
98.7741818572
 21
218.8872511746
 31
0.0
  0
LINE
  5
2DB
330
2D5
100
AcDbEntity
  8
RIQUADRO
100
AcDbLine
 10
67.4905953986
 20
223.8872511746
 30
0.0
 11
98.7741818572
 21
223.8872511746
 31
0.0
  0
LINE
  5
2DC
330
2D5
100
AcDbEntity
  8
RIQUADRO
100
AcDbLine
 10
97.7741818572
 20
218.8872511746
 30
0.0
 11
97.7741818572
 21
223.8872511746
 31
0.0
  0
LINE
  5
2DD
330
2D5
100
AcDbEntity
  8
RIQUADRO
100
AcDbLine
 10
97.7741818572
 20
223.8872511746
 30
0.0
 11
97.7741818572
 21
232.2284490599
 31
0.0
  0
MTEXT
  5
2DE
330
2D5
100
AcDbEntity
  8
RIQUADRO
100
AcDbMText
 10
93.2624449426
 20
228.0572839694
 30
0.0
 40
3.5
 41
0.0
 71
     1
 72
     1
  1
5
  7
SLDTEXTSTYLE1
 11
6.123233995736766E-17
 21
1.0
 31
0.0
  0
ENDBLK
  5
2D7
330
2D5
100
AcDbEntity
  8
0
100
AcDbBlockEnd
  0
BLOCK
  5
2E1
330
2E0
100
AcDbEntity
  8
0
100
AcDbBlockBegin
  2
_D_7
 70
     0
 10
0.0
 20
0.0
 30
0.0
  3
_D_7
  1

  0
INSERT
  5
2E3
330
2E0
100
AcDbEntity
  8
RIQUADRO
100
AcDbBlockReference
  2
_CLOSED
 10
38.9905953986
 20
209.3602105667
 30
-5.65
 41
2.5
 42
2.5
 50
180.0
  0
INSERT
  5
2E4
330
2E0
100
AcDbEntity
  8
RIQUADRO
100
AcDbBlockReference
  2
_CLOSED
 10
58.9905953986
 20
209.3602105667
 30
-5.65
 41
2.5
 42
2.5
 50
0.0
  0
LINE
  5
2E5
330
2E0
100
AcDbEntity
  8
RIQUADRO
100
AcDbLine
 10
38.9905953986
 20
218.1372511746
 30
0.0
 11
38.9905953986
 21
208.3602105667
 31
0.0
  0
LINE
  5
2E6
330
2E0
100
AcDbEntity
  8
RIQUADRO
100
AcDbLine
 10
58.9905953986
 20
218.1372511746
 30
0.0
 11
58.9905953986
 21
208.3602105667
 31
0.0
  0
LINE
  5
2E7
330
2E0
100
AcDbEntity
  8
RIQUADRO
100
AcDbLine
 10
38.9905953986
 20
209.3602105667
 30
0.0
 11
58.9905953986
 21
209.3602105667
 31
0.0
  0
MTEXT
  5
2E8
330
2E0
100
AcDbEntity
  8
RIQUADRO
100
AcDbMText
 10
45.5076887889
 20
213.8719474813
 30
0.0
 40
3.5
 41
0.0
 71
     1
 72
     1
  1
20
  7
SLDTEXTSTYLE1
  0
ENDBLK
  5
2E2
330
2E0
100
AcDbEntity
  8
0
100
AcDbBlockEnd
  0
BLOCK
  5
2EB
330
2EA
100
AcDbEntity
  8
0
100
AcDbBlockBegin
  2
_D_8
 70
     0
 10
0.0
 20
0.0
 30
0.0
  3
_D_8
  1

  0
INSERT
  5
2ED
330
2EA
100
AcDbEntity
  8
RIQUADRO
100
AcDbBlockReference
  2
_CLOSED
 10
31.4905953986
 20
203.6733682791
 30
-5.65
 41
2.5
 42
2.5
 50
180.0
  0
INSERT
  5
2EE
330
2EA
100
AcDbEntity
  8
RIQUADRO
100
AcDbBlockReference
  2
_CLOSED
 10
66.4905953986
 20
203.6733682791
 30
-5.65
 41
2.5
 42
2.5
 50
0.0
  0
LINE
  5
2EF
330
2EA
100
AcDbEntity
  8
RIQUADRO
100
AcDbLine
 10
31.4905953986
 20
218.3872511746
 30
0.0
 11
31.4905953986
 21
202.6733682791
 31
0.0
  0
LINE
  5
2F0
330
2EA
100
AcDbEntity
  8
RIQUADRO
100
AcDbLine
 10
66.4905953986
 20
218.3872511746
 30
0.0
 11
66.4905953986
 21
202.6733682791
 31
0.0
  0
LINE
  5
2F1
330
2EA
100
AcDbEntity
  8
RIQUADRO
100
AcDbLine
 10
31.4905953986
 20
203.6733682791
 30
0.0
 11
66.4905953986
 21
203.6733682791
 31
0.0
  0
MTEXT
  5
2F2
330
2EA
100
AcDbEntity
  8
RIQUADRO
100
AcDbMText
 10
45.5076887889
 20
208.1851051937
 30
0.0
 40
3.5
 41
0.0
 71
     1
 72
     1
  1
35
  7
SLDTEXTSTYLE1
  0
ENDBLK
  5
2EC
330
2EA
100
AcDbEntity
  8
0
100
AcDbBlockEnd
  0
BLOCK
  5
2F4
330
2F3
100
AcDbEntity
  8
0
100
AcDbBlockBegin
  2
SW_CENTERMARKSYMBOL_0
 70
     0
 10
0.0
 20
0.0
 30
0.0
  3
SW_CENTERMARKSYMBOL_0
  1

  0
LINE
  5
2F6
330
2F3
100
AcDbEntity
  8
RIQUADRO
 62
     0
100
AcDbLine
 10
0.0
 20
0.0
 30
0.0
 11
0.0
 21
2.5
 31
0.0
  0
LINE
  5
2F7
330
2F3
100
AcDbEntity
  8
RIQUADRO
 62
     0
100
AcDbLine
 10
0.0
 20
0.0
 30
0.0
 11
-2.5
 21
0.0
 31
0.0
  0
LINE
  5
2F8
330
2F3
100
AcDbEntity
  8
RIQUADRO
 62
     0
100
AcDbLine
 10
0.0
 20
0.0
 30
0.0
 11
0.0
 21
-2.5
 31
0.0
  0
LINE
  5
2F9
330
2F3
100
AcDbEntity
  8
RIQUADRO
 62
     0
100
AcDbLine
 10
0.0
 20
0.0
 30
0.0
 11
2.5
 21
0.0
 31
0.0
  0
LINE
  5
2FA
330
2F3
100
AcDbEntity
  8
RIQUADRO
 62
     0
100
AcDbLine
 10
0.0
 20
2.5
 30
0.0
 11
0.0
 21
4.75
 31
0.0
  0
LINE
  5
2FB
330
2F3
100
AcDbEntity
  8
RIQUADRO
 62
     0
100
AcDbLine
 10
-2.5
 20
0.0
 30
0.0
 11
-4.75
 21
0.0
 31
0.0
  0
LINE
  5
2FC
330
2F3
100
AcDbEntity
  8
RIQUADRO
 62
     0
100
AcDbLine
 10
0.0
 20
-2.5
 30
0.0
 11
0.0
 21
-4.75
 31
0.0
  0
LINE
  5
2FD
330
2F3
100
AcDbEntity
  8
RIQUADRO
 62
     0
100
AcDbLine
 10
2.5
 20
0.0
 30
0.0
 11
4.75
 21
0.0
 31
0.0
  0
ENDBLK
  5
2F5
330
2F3
100
AcDbEntity
  8
0
100
AcDbBlockEnd
  0
BLOCK
  5
300
330
2FF
100
AcDbEntity
  8
0
100
AcDbBlockBegin
  2
SW_CENTERMARKSYMBOL_1
 70
     0
 10
0.0
 20
0.0
 30
0.0
  3
SW_CENTERMARKSYMBOL_1
  1

  0
LINE
  5
302
330
2FF
100
AcDbEntity
  8
RIQUADRO
 62
     0
100
AcDbLine
 10
0.0
 20
0.0
 30
0.0
 11
0.0
 21
2.5
 31
0.0
  0
LINE
  5
303
330
2FF
100
AcDbEntity
  8
RIQUADRO
 62
     0
100
AcDbLine
 10
0.0
 20
0.0
 30
0.0
 11
-2.5
 21
0.0
 31
0.0
  0
LINE
  5
304
330
2FF
100
AcDbEntity
  8
RIQUADRO
 62
     0
100
AcDbLine
 10
0.0
 20
0.0
 30
0.0
 11
0.0
 21
-2.5
 31
0.0
  0
LINE
  5
305
330
2FF
100
AcDbEntity
  8
RIQUADRO
 62
     0
100
AcDbLine
 10
0.0
 20
0.0
 30
0.0
 11
2.5
 21
0.0
 31
0.0
  0
LINE
  5
306
330
2FF
100
AcDbEntity
  8
RIQUADRO
 62
     0
100
AcDbLine
 10
0.0
 20
2.5
 30
0.0
 11
0.0
 21
4.5
 31
0.0
  0
LINE
  5
307
330
2FF
100
AcDbEntity
  8
RIQUADRO
 62
     0
100
AcDbLine
 10
-2.5
 20
0.0
 30
0.0
 11
-4.5
 21
0.0
 31
0.0
  0
LINE
  5
308
330
2FF
100
AcDbEntity
  8
RIQUADRO
 62
     0
100
AcDbLine
 10
0.0
 20
-2.5
 30
0.0
 11
0.0
 21
-4.5
 31
0.0
  0
LINE
  5
309
330
2FF
100
AcDbEntity
  8
RIQUADRO
 62
     0
100
AcDbLine
 10
2.5
 20
0.0
 30
0.0
 11
4.5
 21
0.0
 31
0.0
  0
ENDBLK
  5
301
330
2FF
100
AcDbEntity
  8
0
100
AcDbBlockEnd
  0
BLOCK
  5
30C
330
30B
100
AcDbEntity
  8
0
100
AcDbBlockBegin
  2
SW_CENTERMARKSYMBOL_2
 70
     0
 10
0.0
 20
0.0
 30
0.0
  3
SW_CENTERMARKSYMBOL_2
  1

  0
LINE
  5
30E
330
30B
100
AcDbEntity
  8
RIQUADRO
 62
     0
100
AcDbLine
 10
0.0
 20
0.0
 30
0.0
 11
0.0
 21
2.5
 31
0.0
  0
LINE
  5
30F
330
30B
100
AcDbEntity
  8
RIQUADRO
 62
     0
100
AcDbLine
 10
0.0
 20
0.0
 30
0.0
 11
-2.5
 21
0.0
 31
0.0
  0
LINE
  5
310
330
30B
100
AcDbEntity
  8
RIQUADRO
 62
     0
100
AcDbLine
 10
0.0
 20
0.0
 30
0.0
 11
0.0
 21
-2.5
 31
0.0
  0
LINE
  5
311
330
30B
100
AcDbEntity
  8
RIQUADRO
 62
     0
100
AcDbLine
 10
0.0
 20
0.0
 30
0.0
 11
2.5
 21
0.0
 31
0.0
  0
LINE
  5
312
330
30B
100
AcDbEntity
  8
RIQUADRO
 62
     0
100
AcDbLine
 10
0.0
 20
2.5
 30
0.0
 11
0.0
 21
4.75
 31
0.0
  0
LINE
  5
313
330
30B
100
AcDbEntity
  8
RIQUADRO
 62
     0
100
AcDbLine
 10
-2.5
 20
0.0
 30
0.0
 11
-4.75
 21
0.0
 31
0.0
  0
LINE
  5
314
330
30B
100
AcDbEntity
  8
RIQUADRO
 62
     0
100
AcDbLine
 10
0.0
 20
-2.5
 30
0.0
 11
0.0
 21
-4.75
 31
0.0
  0
LINE
  5
315
330
30B
100
AcDbEntity
  8
RIQUADRO
 62
     0
100
AcDbLine
 10
2.5
 20
0.0
 30
0.0
 11
4.75
 21
0.0
 31
0.0
  0
ENDBLK
  5
30D
330
30B
100
AcDbEntity
  8
0
100
AcDbBlockEnd
  0
BLOCK
  5
318
330
317
100
AcDbEntity
  8
0
100
AcDbBlockBegin
  2
SW_CENTERMARKSYMBOL_3
 70
     0
 10
0.0
 20
0.0
 30
0.0
  3
SW_CENTERMARKSYMBOL_3
  1

  0
LINE
  5
31A
330
317
100
AcDbEntity
  8
RIQUADRO
 62
     0
100
AcDbLine
 10
0.0
 20
0.0
 30
0.0
 11
0.0
 21
2.5
 31
0.0
  0
LINE
  5
31B
330
317
100
AcDbEntity
  8
RIQUADRO
 62
     0
100
AcDbLine
 10
0.0
 20
0.0
 30
0.0
 11
-2.5
 21
0.0
 31
0.0
  0
LINE
  5
31C
330
317
100
AcDbEntity
  8
RIQUADRO
 62
     0
100
AcDbLine
 10
0.0
 20
0.0
 30
0.0
 11
0.0
 21
-2.5
 31
0.0
  0
LINE
  5
31D
330
317
100
AcDbEntity
  8
RIQUADRO
 62
     0
100
AcDbLine
 10
0.0
 20
0.0
 30
0.0
 11
2.5
 21
0.0
 31
0.0
  0
LINE
  5
31E
330
317
100
AcDbEntity
  8
RIQUADRO
 62
     0
100
AcDbLine
 10
0.0
 20
2.5
 30
0.0
 11
0.0
 21
4.5
 31
0.0
  0
LINE
  5
31F
330
317
100
AcDbEntity
  8
RIQUADRO
 62
     0
100
AcDbLine
 10
-2.5
 20
0.0
 30
0.0
 11
-4.5
 21
0.0
 31
0.0
  0
LINE
  5
320
330
317
100
AcDbEntity
  8
RIQUADRO
 62
     0
100
AcDbLine
 10
0.0
 20
-2.5
 30
0.0
 11
0.0
 21
-4.5
 31
0.0
  0
LINE
  5
321
330
317
100
AcDbEntity
  8
RIQUADRO
 62
     0
100
AcDbLine
 10
2.5
 20
0.0
 30
0.0
 11
4.5
 21
0.0
 31
0.0
  0
ENDBLK
  5
319
330
317
100
AcDbEntity
  8
0
100
AcDbBlockEnd
  0
BLOCK
  5
352
330
351
100
AcDbEntity
  8
0
100
AcDbBlockBegin
  2
_D_9
 70
     0
 10
0.0
 20
0.0
 30
0.0
  3
_D_9
  1

  0
INSERT
  5
354
330
351
100
AcDbEntity
  8
RIQUADRO
100
AcDbBlockReference
  2
_CLOSED
 10
117.8121298177
 20
177.9055587499
 30
0.1
 41
2.5
 42
2.5
 50
90.0
  0
INSERT
  5
355
330
351
100
AcDbEntity
  8
RIQUADRO
100
AcDbBlockReference
  2
_CLOSED
 10
117.8121298177
 20
109.4055587499
 30
0.1
 41
2.5
 42
2.5
 50
270.0
  0
LINE
  5
356
330
351
100
AcDbEntity
  8
RIQUADRO
100
AcDbLine
 10
106.2260670674
 20
177.9055587499
 30
0.0
 11
118.8121298177
 21
177.9055587499
 31
0.0
  0
LINE
  5
357
330
351
100
AcDbEntity
  8
RIQUADRO
100
AcDbLine
 10
106.7260670674
 20
109.4055587499
 30
0.0
 11
118.8121298177
 21
109.4055587499
 31
0.0
  0
LINE
  5
358
330
351
100
AcDbEntity
  8
RIQUADRO
100
AcDbLine
 10
117.8121298177
 20
177.9055587499
 30
0.0
 11
117.8121298177
 21
109.4055587499
 31
0.0
  0
MTEXT
  5
359
330
351
100
AcDbEntity
  8
RIQUADRO
100
AcDbMText
 10
113.3003929031
 20
136.7465853792
 30
0.0
 40
3.5
 41
0.0
 71
     1
 72
     1
  1
68,50
  7
SLDTEXTSTYLE1
 11
-7.044195017643634E-15
 21
1.0
 31
0.0
  0
ENDBLK
  5
353
330
351
100
AcDbEntity
  8
0
100
AcDbBlockEnd
  0
BLOCK
  5
35C
330
35B
100
AcDbEntity
  8
0
100
AcDbBlockBegin
  2
_D_10
 70
     0
 10
0.0
 20
0.0
 30
0.0
  3
_D_10
  1

  0
INSERT
  5
35E
330
35B
100
AcDbEntity
  8
RIQUADRO
100
AcDbBlockReference
  2
_CLOSED
 10
90.7260670674
 20
189.2661383166
 30
0.1
 41
2.5
 42
2.5
 50
180.0
  0
INSERT
  5
35F
330
35B
100
AcDbEntity
  8
RIQUADRO
100
AcDbBlockReference
  2
_CLOSED
 10
108.7260670674
 20
189.2661383166
 30
0.1
 41
2.5
 42
2.5
 50
0.0
  0
LINE
  5
360
330
35B
100
AcDbEntity
  8
RIQUADRO
100
AcDbLine
 10
90.7260670674
 20
119.9055587499
 30
0.0
 11
90.7260670674
 21
190.2661383166
 31
0.0
  0
LINE
  5
361
330
35B
100
AcDbEntity
  8
RIQUADRO
100
AcDbLine
 10
108.7260670674
 20
158.9055587499
 30
0.0
 11
108.7260670674
 21
190.2661383166
 31
0.0
  0
LINE
  5
362
330
35B
100
AcDbEntity
  8
RIQUADRO
100
AcDbLine
 10
90.7260670674
 20
189.2661383166
 30
0.0
 11
108.7260670674
 21
189.2661383166
 31
0.0
  0
MTEXT
  5
363
330
35B
100
AcDbEntity
  8
RIQUADRO
100
AcDbMText
 10
96.3714466272
 20
193.7778752312
 30
0.0
 40
3.5
 41
0.0
 71
     1
 72
     1
  1
18
  7
SLDTEXTSTYLE1
  0
ENDBLK
  5
35D
330
35B
100
AcDbEntity
  8
0
100
AcDbBlockEnd
  0
BLOCK
  5
366
330
365
100
AcDbEntity
  8
0
100
AcDbBlockBegin
  2
_D_11
 70
     0
 10
0.0
 20
0.0
 30
0.0
  3
_D_11
  1

  0
INSERT
  5
368
330
365
100
AcDbEntity
  8
RIQUADRO
100
AcDbBlockReference
  2
_CLOSED
 10
100.7260670674
 20
163.1672627929
 30
0.1
 41
2.5
 42
2.5
 50
180.0
  0
INSERT
  5
369
330
365
100
AcDbEntity
  8
RIQUADRO
100
AcDbBlockReference
  2
_CLOSED
 10
108.7260670674
 20
163.1672627929
 30
0.1
 41
2.5
 42
2.5
 50
0.0
  0
LINE
  5
36A
330
365
100
AcDbEntity
  8
RIQUADRO
100
AcDbLine
 10
100.7260670674
 20
158.9055587499
 30
0.0
 11
100.7260670674
 21
164.1672627929
 31
0.0
  0
LINE
  5
36B
330
365
100
AcDbEntity
  8
RIQUADRO
100
AcDbLine
 10
100.7260670674
 20
163.1672627929
 30
0.0
 11
108.7260670674
 21
163.1672627929
 31
0.0
  0
MTEXT
  5
36C
330
365
100
AcDbEntity
  8
RIQUADRO
100
AcDbMText
 10
103.8476157755
 20
167.6789997075
 30
0.0
 40
3.5
 41
0.0
 71
     1
 72
     1
  1
8
  7
SLDTEXTSTYLE1
  0
ENDBLK
  5
367
330
365
100
AcDbEntity
  8
0
100
AcDbBlockEnd
  0
BLOCK
  5
400
330
3FF
100
AcDbEntity
  8
0
100
AcDbBlockBegin
  2
_D_12
 70
     0
 10
0.0
 20
0.0
 30
0.0
  3
_D_12
  1

  0
INSERT
  5
402
330
3FF
100
AcDbEntity
  8
RIQUADRO
100
AcDbBlockReference
  2
_CLOSED
 10
135.7934237075
 20
182.5828540151
 30
-5.901
 41
2.5
 42
2.5
 50
180.0
  0
INSERT
  5
403
330
3FF
100
AcDbEntity
  8
RIQUADRO
100
AcDbBlockReference
  2
_CLOSED
 10
168.7934237075
 20
182.5828540151
 30
-5.901
 41
2.5
 42
2.5
 50
0.0
  0
LINE
  5
404
330
3FF
100
AcDbEntity
  8
RIQUADRO
100
AcDbLine
 10
135.7934237075
 20
163.4055587499
 30
0.0
 11
135.7934237075
 21
183.5828540151
 31
0.0
  0
LINE
  5
405
330
3FF
100
AcDbEntity
  8
RIQUADRO
100
AcDbLine
 10
168.7934237075
 20
163.4055587499
 30
0.0
 11
168.7934237075
 21
183.5828540151
 31
0.0
  0
LINE
  5
406
330
3FF
100
AcDbEntity
  8
RIQUADRO
100
AcDbLine
 10
135.7934237075
 20
182.5828540151
 30
0.0
 11
168.7934237075
 21
182.5828540151
 31
0.0
  0
MTEXT
  5
407
330
3FF
100
AcDbEntity
  8
RIQUADRO
100
AcDbMText
 10
144.3409778366
 20
187.0945909297
 30
0.0
 40
3.5
 41
0.0
 71
     1
 72
     1
  1
33
  7
SLDTEXTSTYLE1
  0
MTEXT
  5
408
330
3FF
100
AcDbEntity
  8
RIQUADRO
100
AcDbMText
 10
150.8044323654
 20
186.3853747979
 30
0.0
 40
2.8
 41
0.0
 71
     1
 72
     1
  1
±0,20
  7
SLDTEXTSTYLE1
  0
ENDBLK
  5
401
330
3FF
100
AcDbEntity
  8
0
100
AcDbBlockEnd
  0
BLOCK
  5
40B
330
40A
100
AcDbEntity
  8
0
100
AcDbBlockBegin
  2
_D_13
 70
     0
 10
0.0
 20
0.0
 30
0.0
  3
_D_13
  1

  0
INSERT
  5
40D
330
40A
100
AcDbEntity
  8
RIQUADRO
100
AcDbBlockReference
  2
_CLOSED
 10
125.0075137064
 20
162.4055587499
 30
-5.901
 41
2.5
 42
2.5
 50
90.0
  0
INSERT
  5
40E
330
40A
100
AcDbEntity
  8
RIQUADRO
100
AcDbBlockReference
  2
_CLOSED
 10
125.0075137064
 20
136.4055587499
 30
-5.901
 41
2.5
 42
2.5
 50
270.0
  0
LINE
  5
40F
330
40A
100
AcDbEntity
  8
RIQUADRO
100
AcDbLine
 10
134.7934237075
 20
162.4055587499
 30
0.0
 11
124.0075137064
 21
162.4055587499
 31
0.0
  0
LINE
  5
410
330
40A
100
AcDbEntity
  8
RIQUADRO
100
AcDbLine
 10
134.7934237075
 20
136.4055587499
 30
0.0
 11
124.0075137064
 21
136.4055587499
 31
0.0
  0
LINE
  5
411
330
40A
100
AcDbEntity
  8
RIQUADRO
100
AcDbLine
 10
125.0075137064
 20
162.4055587499
 30
0.0
 11
125.0075137064
 21
136.4055587499
 31
0.0
  0
MTEXT
  5
412
330
40A
100
AcDbEntity
  8
RIQUADRO
100
AcDbMText
 10
120.4957767918
 20
140.5007937689
 30
0.0
 40
3.5
 41
0.0
 71
     1
 72
     1
  1
26
  7
SLDTEXTSTYLE1
 11
-7.044195017643634E-15
 21
1.0
 31
0.0
  0
MTEXT
  5
413
330
40A
100
AcDbEntity
  8
RIQUADRO
100
AcDbMText
 10
121.2049929236
 20
146.9642482977
 30
0.0
 40
2.8
 41
0.0
 71
     1
 72
     1
  1
±0,20
  7
SLDTEXTSTYLE1
 11
-7.044195017643634E-15
 21
1.0
 31
0.0
  0
ENDBLK
  5
40C
330
40A
100
AcDbEntity
  8
0
100
AcDbBlockEnd
  0
BLOCK
  5
415
330
414
100
AcDbEntity
  8
0
100
AcDbBlockBegin
  2
SW_NOTE_11
 70
     0
 10
0.0
 20
0.0
 30
0.0
  3
SW_NOTE_11
  1

  0
LINE
  5
417
330
414
100
AcDbEntity
  8
RIQUADRO
 62
     0
100
AcDbLine
 10
0.0
 20
0.0
 30
0.0
 11
21.9143576826
 21
0.0
 31
0.0
  0
LINE
  5
418
330
414
100
AcDbEntity
  8
RIQUADRO
 62
     0
100
AcDbLine
 10
21.9143576826
 20
0.0
 30
0.0
 11
0.0
 21
0.0
 31
0.0
  0
LINE
  5
419
330
414
100
AcDbEntity
  8
RIQUADRO
 62
     0
100
AcDbLine
 10
0.0
 20
0.0
 30
0.0
 11
21.9143576826
 21
0.0
 31
0.0
  0
LINE
  5
41A
330
414
100
AcDbEntity
  8
RIQUADRO
 62
     0
100
AcDbLine
 10
21.9143576826
 20
0.0
 30
0.0
 11
0.0
 21
0.0
 31
0.0
  0
LINE
  5
41B
330
414
100
AcDbEntity
  8
RIQUADRO
 62
     0
100
AcDbLine
 10
0.0
 20
0.0
 30
0.0
 11
21.9143576826
 21
0.0
 31
0.0
  0
LINE
  5
41C
330
414
100
AcDbEntity
  8
RIQUADRO
 62
     0
100
AcDbLine
 10
21.9143576826
 20
0.0
 30
0.0
 11
0.0
 21
0.0
 31
0.0
  0
MTEXT
  5
41D
330
414
100
AcDbEntity
  8
RIQUADRO
 62
     0
100
AcDbMText
 10
0.0464101764
 20
13.6556574617
 30
0.0
 40
3.5
 41
0.0
 71
     1
 72
     1
  1
%%c
  7
SLDTEXTSTYLE1
  0
MTEXT
  5
41F
330
414
100
AcDbEntity
  8
RIQUADRO
 62
     0
100
AcDbMText
 10
5.3248475748
 20
13.6556574617
 30
0.0
 40
3.5
 41
0.0
 71
     1
 72
     1
  1
4 F6
  7
SLDTEXTSTYLE4
  0
MTEXT
  5
420
330
414
100
AcDbEntity
  8
RIQUADRO
 62
     0
100
AcDbMText
 10
0.0464101764
 20
9.1299629312
 30
0.0
 40
3.5
 41
0.0
 71
     1
 72
     1
  1
dowelling
  7
SLDTEXTSTYLE1
  0
MTEXT
  5
421
330
414
100
AcDbEntity
  8
RIQUADRO
 62
     0
100
AcDbMText
 10
1.3589101764
 20
4.6042684007
 30
0.0
 40
3.5
 41
0.0
 71
     1
 72
     1
  1
holes
  7
SLDTEXTSTYLE1
  0
ENDBLK
  5
416
330
414
100
AcDbEntity
  8
0
100
AcDbBlockEnd
  0
BLOCK
  5
427
330
426
100
AcDbEntity
  8
0
100
AcDbBlockBegin
  2
SW_NOTE_12
 70
     0
 10
0.0
 20
0.0
 30
0.0
  3
SW_NOTE_12
  1

  0
LINE
  5
429
330
426
100
AcDbEntity
  8
RIQUADRO
 62
     0
100
AcDbLine
 10
-44.5843828715
 20
0.0
 30
0.0
 11
0.0
 21
0.0
 31
0.0
  0
LINE
  5
42A
330
426
100
AcDbEntity
  8
RIQUADRO
 62
     0
100
AcDbLine
 10
0.0
 20
0.0
 30
0.0
 11
-44.5843828715
 21
0.0
 31
0.0
  0
LINE
  5
42B
330
426
100
AcDbEntity
  8
RIQUADRO
 62
     0
100
AcDbLine
 10
-44.5843828715
 20
0.0
 30
0.0
 11
0.0
 21
0.0
 31
0.0
  0
LINE
  5
42C
330
426
100
AcDbEntity
  8
RIQUADRO
 62
     0
100
AcDbLine
 10
0.0
 20
0.0
 30
0.0
 11
-44.5843828715
 21
0.0
 31
0.0
  0
LINE
  5
42D
330
426
100
AcDbEntity
  8
RIQUADRO
 62
     0
100
AcDbLine
 10
-44.5843828715
 20
0.0
 30
0.0
 11
0.0
 21
0.0
 31
0.0
  0
LINE
  5
42E
330
426
100
AcDbEntity
  8
RIQUADRO
 62
     0
100
AcDbLine
 10
0.0
 20
0.0
 30
0.0
 11
-44.5843828715
 21
0.0
 31
0.0
  0
MTEXT
  5
42F
330
426
100
AcDbEntity
  8
RIQUADRO
 62
     0
100
AcDbMText
 10
-44.5048848032
 20
9.0339186884
 30
0.0
 40
3.5
 41
0.0
 71
     1
 72
     1
  1
counterbored holes
  7
SLDTEXTSTYLE1
  0
MTEXT
  5
430
330
426
100
AcDbEntity
  8
RIQUADRO
 62
     0
100
AcDbMText
 10
-44.5048848032
 20
4.508224158
 30
0.0
 40
3.5
 41
0.0
 71
     1
 72
     1
  1
for M4 screws
  7
SLDTEXTSTYLE1
  0
ENDBLK
  5
428
330
426
100
AcDbEntity
  8
0
100
AcDbBlockEnd
  0
BLOCK
  5
435
330
434
100
AcDbEntity
  8
0
100
AcDbBlockBegin
  2
SW_NOTE_13
 70
     0
 10
0.0
 20
0.0
 30
0.0
  3
SW_NOTE_13
  1

  0
MTEXT
  5
437
330
434
100
AcDbEntity
  8
RIQUADRO
 62
     0
100
AcDbMText
 10
-17.2394137622
 20
10.9428887812
 30
0.0
 40
3.5
 41
0.0
 71
     1
 72
     1
  1
removable
  7
SLDTEXTSTYLE1
  0
MTEXT
  5
438
330
434
100
AcDbEntity
  8
RIQUADRO
 62
     0
100
AcDbMText
 10
-17.2394137622
 20
6.4171942507
 30
0.0
 40
3.5
 41
0.0
 71
     1
 72
     1
  1
chrome on glass
  7
SLDTEXTSTYLE1
  0
MTEXT
  5
439
330
434
100
AcDbEntity
  8
RIQUADRO
 62
     0
100
AcDbMText
 10
-17.2394137622
 20
1.8914997203
 30
0.0
 40
3.5
 41
0.0
 71
     1
 72
     1
  1
pattern
  7
SLDTEXTSTYLE1
  0
ENDBLK
  5
436
330
434
100
AcDbEntity
  8
0
100
AcDbBlockEnd
  0
ENDSEC
  0
SECTION
  2
ENTITIES
  0
LINE
  5
4B
330
1F
100
AcDbEntity
  8
RIQUADRO
100
AcDbLine
 10
200.0917715947
 20
149.1494282774
 30
0.0
 11
205.0917715947
 21
149.1494282774
 31
0.0
  0
LINE
  5
4C
330
1F
100
AcDbEntity
  8
RIQUADRO
100
AcDbLine
 10
56.6072614286
 20
282.6494282774
 30
0.0
 11
56.6072614286
 21
288.6494282774
 31
0.0
  0
LINE
  5
4D
330
1F
100
AcDbEntity
  8
RIQUADRO
100
AcDbLine
 10
105.0434171846
 20
282.6494282774
 30
0.0
 11
105.0434171846
 21
288.6494282774
 31
0.0
  0
LINE
  5
4E
330
1F
100
AcDbEntity
  8
RIQUADRO
100
AcDbLine
 10
153.2664538338
 20
282.6494282774
 30
0.0
 11
153.2664538338
 21
288.6494282774
 31
0.0
  0
LINE
  5
4F
330
1F
100
AcDbEntity
  8
RIQUADRO
100
AcDbLine
 10
199.8803741219
 20
282.6494282774
 30
0.0
 11
199.8803741219
 21
288.6494282774
 31
0.0
  0
LINE
  5
50
330
1F
100
AcDbEntity
  8
RIQUADRO
100
AcDbLine
 10
9.0917715947
 20
282.6494282774
 30
0.0
 11
205.0917715947
 21
282.6494282774
 31
0.0
  0
LINE
  5
51
330
1F
100
AcDbEntity
  8
RIQUADRO
100
AcDbLine
 10
199.8803741219
 20
15.6494351702
 30
0.0
 11
199.8803741219
 21
10.6494282774
 31
0.0
  0
LINE
  5
52
330
1F
100
AcDbEntity
  8
RIQUADRO
100
AcDbLine
 10
71.5685815124
 20
41.6494282774
 30
0.0
 11
71.5685815124
 21
20.6494282774
 31
0.0
  0
LINE
  5
53
330
1F
100
AcDbEntity
  8
RIQUADRO
100
AcDbLine
 10
9.0917715947
 20
15.6494351702
 30
0.0
 11
199.8803741219
 21
15.6494351702
 31
0.0
  0
LINE
  5
54
330
1F
100
AcDbEntity
  8
RIQUADRO
100
AcDbLine
 10
105.1381156977
 20
37.1494282774
 30
0.0
 11
105.1381156977
 21
20.6494282774
 31
0.0
  0
LINE
  5
55
330
1F
100
AcDbEntity
  8
RIQUADRO
  6
CONTINUOUS
 62
     7
100
AcDbLine
 10
209.0917715947
 20
5.6494282774
 30
0.0
 11
199.0917715947
 21
5.6494282774
 31
0.0
  0
LINE
  5
56
330
1F
100
AcDbEntity
  8
RIQUADRO
  6
CONTINUOUS
 62
     7
100
AcDbLine
 10
209.0917715947
 20
5.6494282774
 30
0.0
 11
209.0917715947
 21
15.6494282774
 31
0.0
  0
LINE
  5
57
330
1F
100
AcDbEntity
  8
CONTORNO
  6
CONTINUOUS
 62
     7
100
AcDbLine
 10
209.0917715947
 20
292.6494282774
 30
0.0
 11
209.0917715947
 21
282.6494282774
 31
0.0
  0
LINE
  5
58
330
1F
100
AcDbEntity
  8
CONTORNO
  6
CONTINUOUS
 62
     7
100
AcDbLine
 10
209.0917715947
 20
292.6494282774
 30
0.0
 11
199.0917715947
 21
292.6494282774
 31
0.0
  0
LINE
  5
59
330
1F
100
AcDbEntity
  8
RIQUADRO
100
AcDbLine
 10
9.0917715947
 20
282.6494282774
 30
0.0
 11
9.0917715947
 21
288.6494282774
 31
0.0
  0
LINE
  5
5A
330
1F
100
AcDbEntity
  8
RIQUADRO
100
AcDbLine
 10
4.0917715947
 20
10.6494282774
 30
0.0
 11
205.0917715947
 21
10.6494282774
 31
0.0
  0
LINE
  5
5B
330
1F
100
AcDbEntity
  8
RIQUADRO
100
AcDbLine
 10
205.0917715947
 20
288.6494282774
 30
0.0
 11
205.0917715947
 21
10.6494282774
 31
0.0
  0
LINE
  5
5C
330
1F
100
AcDbEntity
  8
RIQUADRO
100
AcDbLine
 10
4.0917715947
 20
288.6494282774
 30
0.0
 11
205.0917715947
 21
288.6494282774
 31
0.0
  0
LINE
  5
5D
330
1F
100
AcDbEntity
  8
CONTORNO
100
AcDbLine
 10
9.0917715947
 20
282.6494282774
 30
0.0
 11
9.0917715947
 21
15.6494351702
 31
0.0
  0
LINE
  5
5E
330
1F
100
AcDbEntity
  8
CARTIGLIO
100
AcDbLine
 10
20.0917715947
 20
15.6494282774
 30
0.0
 11
205.0917715947
 21
15.6494282774
 31
0.0
  0
LINE
  5
5F
330
1F
100
AcDbEntity
  8
RIQUADRO
100
AcDbLine
 10
200.0917715947
 20
215.8994282774
 30
0.0
 11
199.8803741219
 21
215.8994282774
 31
0.0
  0
LINE
  5
60
330
1F
100
AcDbEntity
  8
RIQUADRO
100
AcDbLine
 10
9.0917715947
 20
282.6494282774
 30
0.0
 11
4.0917715947
 21
282.6494282774
 31
0.0
  0
LINE
  5
61
330
1F
100
AcDbEntity
  8
CARTIGLIO
100
AcDbLine
 10
199.8803741219
 20
75.6494282774
 30
0.0
 11
20.0917715947
 21
75.6494282774
 31
0.0
  0
LINE
  5
62
330
1F
100
AcDbEntity
  8
CARTIGLIO
100
AcDbLine
 10
20.0917715947
 20
75.6494282774
 30
0.0
 11
20.0917715947
 21
15.6494282774
 31
0.0
  0
LINE
  5
63
330
1F
100
AcDbEntity
  8
CARTIGLIO
100
AcDbLine
 10
200.0917715947
 20
58.6494282774
 30
0.0
 11
20.0917715947
 21
58.6494282774
 31
0.0
  0
LINE
  5
64
330
1F
100
AcDbEntity
  8
CARTIGLIO
100
AcDbLine
 10
200.0917715947
 20
20.6494282774
 30
0.0
 11
20.0917715947
 21
20.6494282774
 31
0.0
  0
LINE
  5
65
330
1F
100
AcDbEntity
  8
CARTIGLIO
100
AcDbLine
 10
200.0917715947
 20
26.1494282774
 30
0.0
 11
130.0659876174
 21
26.1494282774
 31
0.0
  0
LINE
  5
66
330
1F
100
AcDbEntity
  8
CARTIGLIO
100
AcDbLine
 10
130.0659876174
 20
75.6494282774
 30
0.0
 11
130.0659876174
 21
20.6494282774
 31
0.0
  0
LINE
  5
67
330
1F
100
AcDbEntity
  8
CARTIGLIO
100
AcDbLine
 10
200.0917715947
 20
41.6494282774
 30
0.0
 11
20.0917715947
 21
41.6494282774
 31
0.0
  0
LINE
  5
68
330
1F
100
AcDbEntity
  8
CARTIGLIO
100
AcDbLine
 10
190.3914376631
 20
41.6494282774
 30
0.0
 11
190.3914376631
 21
26.1494282774
 31
0.0
  0
LINE
  5
69
330
1F
100
AcDbEntity
  8
RIQUADRO
100
AcDbLine
 10
106.3014163872
 20
75.6494282774
 30
0.0
 11
106.3014163872
 21
58.6494282774
 31
0.0
  0
LINE
  5
6A
330
1F
100
AcDbEntity
  8
CARTIGLIO
100
AcDbLine
 10
199.8803741219
 20
75.6494282774
 30
0.0
 11
199.8803741219
 21
15.6494351702
 31
0.0
  0
LINE
  5
6B
330
1F
100
AcDbEntity
  8
RIQUADRO
100
AcDbLine
 10
9.0917715947
 20
15.6494351702
 30
0.0
 11
9.0917715947
 21
10.6494282774
 31
0.0
  0
LINE
  5
6C
330
1F
100
AcDbEntity
  8
PROIEZ
  6
CENTERX2
100
AcDbLine
 10
118.2014738576
 20
66.9422976321
 30
0.0
 11
129.5857357586
 21
66.9422976321
 31
0.0
  0
LINE
  5
6D
330
1F
100
AcDbEntity
  8
PROIEZ
  6
CENTERX2
100
AcDbLine
 10
123.8936048081
 20
72.6344285826
 30
0.0
 11
123.8936048081
 21
61.2501666817
 31
0.0
  0
LINE
  5
6E
330
1F
100
AcDbEntity
  8
CONTORNO
  6
CONTINUOUS
 62
     7
100
AcDbLine
 10
1.0759991219
 20
5.6494282774
 30
0.0
 11
1.0759991219
 21
15.6494282774
 31
0.0
  0
LINE
  5
6F
330
1F
100
AcDbEntity
  8
CONTORNO
  6
CONTINUOUS
 62
     7
100
AcDbLine
 10
1.0759991219
 20
5.6494282774
 30
0.0
 11
11.0759991219
 21
5.6494282774
 31
0.0
  0
LINE
  5
70
330
1F
100
AcDbEntity
  8
PROIEZ
  6
CONTINUOUS
 62
    16
100
AcDbLine
 10
114.8566080693
 20
62.7455701356
 30
0.0
 11
114.8566080693
 21
71.1390251287
 31
0.0
  0
LINE
  5
71
330
1F
100
AcDbEntity
  8
PROIEZ
  6
CENTERX2
100
AcDbLine
 10
116.1844481322
 20
66.9422976321
 30
0.0
 11
107.8566080693
 21
66.9422976321
 31
0.0
  0
LINE
  5
72
330
1F
100
AcDbEntity
  8
PROIEZ
  6
CONTINUOUS
 62
    16
100
AcDbLine
 10
107.8566080693
 20
64.7455701356
 30
0.0
 11
107.8566080693
 21
69.1390251287
 31
0.0
  0
LINE
  5
73
330
1F
100
AcDbEntity
  8
PROIEZ
100
AcDbLine
 10
107.8566080693
 20
64.7455701356
 30
0.0
 11
114.8566080693
 21
62.7455701356
 31
0.0
  0
LINE
  5
74
330
1F
100
AcDbEntity
  8
PROIEZ
  6
CONTINUOUS
 62
    16
100
AcDbLine
 10
107.8566080693
 20
69.1390251287
 30
0.0
 11
114.8566080693
 21
71.1390251287
 31
0.0
  0
LINE
  5
75
330
1F
100
AcDbEntity
  8
RIQUADRO
100
AcDbLine
 10
9.0917715947
 20
15.6494351702
 30
0.0
 11
4.0917715947
 21
15.6494351702
 31
0.0
  0
LINE
  5
76
330
1F
100
AcDbEntity
  8
RIQUADRO
100
AcDbLine
 10
200.0917715947
 20
149.1494282774
 30
0.0
 11
199.8803741219
 21
149.1494282774
 31
0.0
  0
LINE
  5
77
330
1F
100
AcDbEntity
  8
RIQUADRO
100
AcDbLine
 10
200.0917715947
 20
82.3994282774
 30
0.0
 11
199.8803741219
 21
82.3994282774
 31
0.0
  0
LINE
  5
78
330
1F
100
AcDbEntity
  8
RIQUADRO
100
AcDbLine
 10
56.6072614286
 20
15.6494351702
 30
0.0
 11
56.6072614286
 21
10.6494282774
 31
0.0
  0
LINE
  5
79
330
1F
100
AcDbEntity
  8
RIQUADRO
100
AcDbLine
 10
104.5917715947
 20
15.6494351702
 30
0.0
 11
104.5917715947
 21
10.6494282774
 31
0.0
  0
LINE
  5
7A
330
1F
100
AcDbEntity
  8
RIQUADRO
100
AcDbLine
 10
153.2664538338
 20
15.6494351702
 30
0.0
 11
153.2664538338
 21
10.6494282774
 31
0.0
  0
LINE
  5
7B
330
1F
100
AcDbEntity
  8
RIQUADRO
100
AcDbLine
 10
9.0917715947
 20
215.8994282774
 30
0.0
 11
4.0917715947
 21
215.8994282774
 31
0.0
  0
LINE
  5
7C
330
1F
100
AcDbEntity
  8
RIQUADRO
100
AcDbLine
 10
9.0917715947
 20
149.1494282774
 30
0.0
 11
4.0917715947
 21
149.1494282774
 31
0.0
  0
LINE
  5
7D
330
1F
100
AcDbEntity
  8
RIQUADRO
100
AcDbLine
 10
9.0917715947
 20
82.3994282774
 30
0.0
 11
4.0917715947
 21
82.3994282774
 31
0.0
  0
LINE
  5
7E
330
1F
100
AcDbEntity
  8
CARTIGLIO
100
AcDbLine
 10
130.0659876174
 20
68.1004373158
 30
0.0
 11
200.0917715947
 21
68.1004373158
 31
0.0
  0
LINE
  5
7F
330
1F
100
AcDbEntity
  8
CARTIGLIO
100
AcDbLine
 10
106.3014163872
 20
67.1494282774
 30
0.0
 11
20.0917715947
 21
67.1494282774
 31
0.0
  0
LINE
  5
80
330
1F
100
AcDbEntity
  8
CARTIGLIO
100
AcDbLine
 10
96.0917715947
 20
58.6494282774
 30
0.0
 11
96.0917715947
 21
41.6494282774
 31
0.0
  0
LINE
  5
81
330
1F
100
AcDbEntity
  8
CARTIGLIO
100
AcDbLine
 10
96.0917715947
 20
50.1494282774
 30
0.0
 11
130.0659876174
 21
50.1494282774
 31
0.0
  0
LINE
  5
82
330
1F
100
AcDbEntity
  8
CARTIGLIO
100
AcDbLine
 10
117.1984737673
 20
58.6494282774
 30
0.0
 11
117.1984737673
 21
41.6494282774
 31
0.0
  0
LINE
  5
83
330
1F
100
AcDbEntity
  8
CARTIGLIO
100
AcDbLine
 10
96.0917715947
 20
51.6494282774
 30
0.0
 11
20.0917715947
 21
51.6494282774
 31
0.0
  0
LINE
  5
84
330
1F
100
AcDbEntity
  8
CARTIGLIO
100
AcDbLine
 10
96.0917715947
 20
45.6494282774
 30
0.0
 11
20.0917715947
 21
45.6494282774
 31
0.0
  0
LINE
  5
85
330
1F
100
AcDbEntity
  8
CARTIGLIO
100
AcDbLine
 10
29.5917715947
 20
51.6494282774
 30
0.0
 11
29.5917715947
 21
41.6494282774
 31
0.0
  0
LINE
  5
86
330
1F
100
AcDbEntity
  8
CARTIGLIO
100
AcDbLine
 10
39.0917715947
 20
51.6494282774
 30
0.0
 11
39.0917715947
 21
41.6494282774
 31
0.0
  0
LINE
  5
87
330
1F
100
AcDbEntity
  8
CARTIGLIO
100
AcDbLine
 10
48.5917715947
 20
51.6494282774
 30
0.0
 11
48.5917715947
 21
41.6494282774
 31
0.0
  0
LINE
  5
88
330
1F
100
AcDbEntity
  8
CARTIGLIO
100
AcDbLine
 10
58.0917715947
 20
51.6494282774
 30
0.0
 11
58.0917715947
 21
41.6494282774
 31
0.0
  0
LINE
  5
89
330
1F
100
AcDbEntity
  8
CARTIGLIO
100
AcDbLine
 10
67.5917715947
 20
51.6494282774
 30
0.0
 11
67.5917715947
 21
41.6494282774
 31
0.0
  0
LINE
  5
8A
330
1F
100
AcDbEntity
  8
CARTIGLIO
100
AcDbLine
 10
77.0917715947
 20
51.6494282774
 30
0.0
 11
77.0917715947
 21
41.6494282774
 31
0.0
  0
LINE
  5
8B
330
1F
100
AcDbEntity
  8
CARTIGLIO
100
AcDbLine
 10
86.5917715947
 20
51.6494282774
 30
0.0
 11
86.5917715947
 21
20.6494282774
 31
0.0
  0
LINE
  5
8C
330
1F
100
AcDbEntity
  8
CARTIGLIO
100
AcDbLine
 10
20.0917715947
 20
55.1494282774
 30
0.0
 11
96.0917715947
 21
55.1494282774
 31
0.0
  0
LINE
  5
8D
330
1F
100
AcDbEntity
  8
CARTIGLIO
100
AcDbLine
 10
80.0783417743
 20
58.6494282774
 30
0.0
 11
80.0783417743
 21
51.6494282774
 31
0.0
  0
LINE
  5
8E
330
1F
100
AcDbEntity
  8
CARTIGLIO
100
AcDbLine
 10
88.8664874481
 20
58.6494282774
 30
0.0
 11
88.8664874481
 21
51.6494282774
 31
0.0
  0
LINE
  5
8F
330
1F
100
AcDbEntity
  8
CARTIGLIO
100
AcDbLine
 10
130.0659876174
 20
26.1494282774
 30
0.0
 11
71.5685815124
 21
26.1494282774
 31
0.0
  0
LINE
  5
90
330
1F
100
AcDbEntity
  8
CARTIGLIO
100
AcDbLine
 10
130.0659876174
 20
31.6494282774
 30
0.0
 11
71.5685815124
 21
31.6494282774
 31
0.0
  0
LINE
  5
91
330
1F
100
AcDbEntity
  8
CARTIGLIO
100
AcDbLine
 10
130.0659876174
 20
37.1494282774
 30
0.0
 11
71.5685815124
 21
37.1494282774
 31
0.0
  0
LINE
  5
92
330
1F
100
AcDbEntity
  8
CARTIGLIO
100
AcDbLine
 10
171.526925038
 20
68.1004373158
 30
0.0
 11
171.526925038
 21
75.6494282774
 31
0.0
  0
LINE
  5
93
330
1F
100
AcDbEntity
  8
CONTORNO
  6
CONTINUOUS
 62
     7
100
AcDbLine
 10
1.0759991219
 20
292.6494282774
 30
0.0
 11
11.0759991219
 21
292.6494282774
 31
0.0
  0
LINE
  5
94
330
1F
100
AcDbEntity
  8
TABELLA_REV
100
AcDbLine
 10
200.0917715947
 20
261.6494282774
 30
0.0
 11
20.0917715947
 21
261.6494282774
 31
0.0
  0
LINE
  5
95
330
1F
100
AcDbEntity
  8
CONTORNO
  6
CONTINUOUS
 62
     7
100
AcDbLine
 10
1.0759991219
 20
292.6494282774
 30
0.0
 11
1.0759991219
 21
282.6494282774
 31
0.0
  0
LINE
  5
96
330
1F
100
AcDbEntity
  8
CONTORNO
100
AcDbLine
 10
9.0917715947
 20
282.6494282774
 30
0.0
 11
199.8803741219
 21
282.6494282774
 31
0.0
  0
LINE
  5
97
330
1F
100
AcDbEntity
  8
RIQUADRO
100
AcDbLine
 10
200.0917715947
 20
82.3994282774
 30
0.0
 11
205.0917715947
 21
82.3994282774
 31
0.0
  0
LINE
  5
98
330
1F
100
AcDbEntity
  8
RIQUADRO
100
AcDbLine
 10
200.0917715947
 20
215.8994282774
 30
0.0
 11
205.0917715947
 21
215.8994282774
 31
0.0
  0
LINE
  5
99
330
1F
100
AcDbEntity
  8
CONTORNO
100
AcDbLine
 10
199.8803741219
 20
282.6494282774
 30
0.0
 11
199.8803741219
 21
15.6494351702
 31
0.0
  0
LINE
  5
9A
330
1F
100
AcDbEntity
  8
CONTORNO
100
AcDbLine
 10
199.8803741219
 20
15.6494351702
 30
0.0
 11
9.0917715947
 21
15.6494351702
 31
0.0
  0
LINE
  5
9B
330
1F
100
AcDbEntity
  8
RIQUADRO
100
AcDbLine
 10
4.0917715947
 20
288.6494282774
 30
0.0
 11
4.0917715947
 21
10.6494282774
 31
0.0
  0
LINE
  5
9C
330
1F
100
AcDbEntity
  8
TABELLA_REV
100
AcDbLine
 10
20.0917715947
 20
261.6494282774
 30
0.0
 11
20.0917715947
 21
282.6494282774
 31
0.0
  0
LINE
  5
9D
330
1F
100
AcDbEntity
  8
TABELLA_REV
100
AcDbLine
 10
200.0917715947
 20
267.1494282774
 30
0.0
 11
20.0917715947
 21
267.1494282774
 31
0.0
  0
LINE
  5
9E
330
1F
100
AcDbEntity
  8
TABELLA_REV
100
AcDbLine
 10
200.0917715947
 20
272.6494282774
 30
0.0
 11
20.0917715947
 21
272.6494282774
 31
0.0
  0
LINE
  5
9F
330
1F
100
AcDbEntity
  8
TABELLA_REV
100
AcDbLine
 10
200.0917715947
 20
278.1494282774
 30
0.0
 11
20.0917715947
 21
278.1494282774
 31
0.0
  0
LINE
  5
A0
330
1F
100
AcDbEntity
  8
TABELLA_REV
100
AcDbLine
 10
36.0917715947
 20
282.6494282774
 30
0.0
 11
36.0917715947
 21
261.6494282774
 31
0.0
  0
LINE
  5
A1
330
1F
100
AcDbEntity
  8
TABELLA_REV
100
AcDbLine
 10
147.0917715947
 20
282.6494282774
 30
0.0
 11
147.0917715947
 21
261.6494282774
 31
0.0
  0
LINE
  5
A2
330
1F
100
AcDbEntity
  8
TABELLA_REV
100
AcDbLine
 10
170.0917715947
 20
282.6494282774
 30
0.0
 11
170.0917715947
 21
261.6494282774
 31
0.0
  0
CIRCLE
  5
A3
330
1F
100
AcDbEntity
  8
PROIEZ
100
AcDbCircle
 10
123.8936048081
 20
66.9422976321
 30
0.0
 40
4.0
  0
CIRCLE
  5
A4
330
1F
100
AcDbEntity
  8
PROIEZ
100
AcDbCircle
 10
123.8936048081
 20
66.9422976321
 30
0.0
 40
1.999999999999991
  0
MTEXT
  5
A6
330
1F
100
AcDbEntity
  8
CARTIGLIO
100
AcDbMText
 10
130.6394191004
 20
74.5254647666
 30
0.0
 40
2.0
 41
0.0
 71
     1
 72
     1
  1
Mass
  7
SLDTEXTSTYLE0
  0
MTEXT
  5
A7
330
1F
100
AcDbEntity
  8
CARTIGLIO
100
AcDbMText
 10
131.9238267175
 20
40.7795742388
 30
0.0
 40
2.0
 41
0.0
 71
     1
 72
     1
  1
Drawing No.
  7
SLDTEXTSTYLE0
  0
MTEXT
  5
A8
330
1F
100
AcDbEntity
  8
CARTIGLIO
100
AcDbMText
 10
175.3198896767
 20
74.6508508118
 30
0.0
 40
2.0
 41
0.0
 71
     1
 72
     1
  1
Scale
  7
SLDTEXTSTYLE0
  0
MTEXT
  5
A9
330
1F
100
AcDbEntity
  8
CARTIGLIO
100
AcDbMText
 10
192.0228404747
 20
40.458464005
 30
0.0
 40
2.0
 41
0.0
 71
     1
 72
     1
  1
Sheet
  7
SLDTEXTSTYLE0
  0
MTEXT
  5
AB
330
1F
100
AcDbEntity
  8
CARTIGLIO
100
AcDbMText
 10
184.7137585365
 20
73.8234400606
 30
0.0
 40
3.5
 41
0.0
 71
     1
 72
     1
  1
1:1
  7
SLDTEXTSTYLE1
  0
MTEXT
  5
AC
330
1F
100
AcDbEntity
  8
CARTIGLIO
100
AcDbMText
 10
143.4766497986
 20
35.1255576374
 30
0.0
 40
4.5
 41
0.0
 71
     1
 72
     1
  1
18938-0-A
  7
SLDTEXTSTYLE1
  0
MTEXT
  5
AD
330
1F
100
AcDbEntity
  8
CARTIGLIO
100
AcDbMText
 10
142.5687327747
 20
74.0478509875
 30
0.0
 40
3.5
 41
0.0
 71
     1
 72
     1
  1
78,4 g
  7
SLDTEXTSTYLE1
  0
MTEXT
  5
AE
330
1F
100
AcDbEntity
  8
CARTIGLIO
100
AcDbMText
 10
192.1022012103
 20
33.0109045789
 30
0.0
 40
3.5
 41
0.0
 71
     1
 72
     1
  1
1/1
  7
SLDTEXTSTYLE1
  0
MTEXT
  5
B0
330
1F
100
AcDbEntity
  8
CARTIGLIO
100
AcDbMText
 10
23.8091575814
 20
19.4834325512
 30
0.0
 40
2.0
 41
0.0
 71
     1
 72
     1
  1
OPTO  ENGINEERING S.r.l.    -   46100 Mantova Italy   -   Via Cremona, 29/2 -   Tel.    +39 0376 229585    - e-mai: info@opto-engineering.com   -   http://www.opto-engineering.com
  7
SLDTEXTSTYLE2
  0
MTEXT
  5
B1
330
1F
100
AcDbEntity
  8
CARTIGLIO
100
AcDbMText
 10
131.7843950233
 20
24.1840198317
 30
0.0
 40
1.9
 41
0.0
 71
     1
 72
     1
  1
Reproduction forbidden without specific authorization
  7
SLDTEXTSTYLE1
  0
MTEXT
  5
B2
330
1F
100
AcDbEntity
  8
CARTIGLIO
100
AcDbMText
 10
131.1648567563
 20
56.6568828428
 30
0.0
 40
2.0
 41
0.0
 71
     1
 72
     1
  1
Description
  7
SLDTEXTSTYLE1
  0
MTEXT
  5
B3
330
1F
100
AcDbEntity
  8
CARTIGLIO
100
AcDbMText
 10
149.0585958367
 20
50.6159295252
 30
0.0
 40
3.5
 41
0.0
 71
     1
 72
     1
  1
CMHO004-024
  7
SLDTEXTSTYLE1
  0
MTEXT
  5
B4
330
1F
100
AcDbEntity
  8
CARTIGLIO
100
AcDbMText
 10
130.6021382658
 20
67.2685895059
 30
0.0
 40
2.0
 41
0.0
 71
     1
 72
     1
  1
Project-Prod.item/Instrument
  7
SLDTEXTSTYLE1
  0
MTEXT
  5
B5
330
1F
100
AcDbEntity
  8
CARTIGLIO
100
AcDbMText
 10
151.4593836004
 20
64.0323032084
 30
0.0
 40
3.5
 41
0.0
 71
     1
 72
     1
  1
CMPH004-024
  7
SLDTEXTSTYLE1
  0
MTEXT
  5
B6
330
1F
100
AcDbEntity
  8
CARTIGLIO
100
AcDbMText
 10
20.6833429915
 20
74.8467236945
 30
0.0
 40
2.0
 41
0.0
 71
     1
 72
     1
  1
Material
  7
SLDTEXTSTYLE1
  0
MTEXT
  5
B7
330
1F
100
AcDbEntity
  8
CARTIGLIO
100
AcDbMText
 10
21.1983559672
 20
66.1743593613
 30
0.0
 40
2.0
 41
0.0
 71
     1
 72
     1
  1
Surface treatment
  7
SLDTEXTSTYLE1
  0
INSERT
  5
BD
330
1F
100
AcDbEntity
  8
CARTIGLIO
100
AcDbBlockReference
  2
SW_NOTE_0
 10
96.744477682
 20
45.9941839755
 30
0.0
  0
INSERT
  5
C3
330
1F
100
AcDbEntity
  8
CARTIGLIO
100
AcDbBlockReference
  2
SW_NOTE_1
 10
96.6393693109
 20
53.7100550769
 30
0.0
  0
MTEXT
  5
C5
330
1F
100
AcDbEntity
  8
CARTIGLIO
100
AcDbMText
 10
118.5873323899
 20
47.7732862018
 30
0.0
 40
3.0
 41
0.0
 71
     1
 72
     1
  1
R 0.5
  7
SLDTEXTSTYLE3
  0
MTEXT
  5
C6
330
1F
100
AcDbEntity
  8
CARTIGLIO
100
AcDbMText
 10
118.1089976447
 20
55.4022891197
 30
0.0
 40
3.0
 41
0.0
 71
     1
 72
     1
  1
0.5x45°
  7
SLDTEXTSTYLE1
  0
MTEXT
  5
C7
330
1F
100
AcDbEntity
  8
CARTIGLIO
100
AcDbMText
 10
21.651701234
 20
57.3619796497
 30
0.0
 40
1.5
 41
0.0
 71
     1
 72
     1
  1
Geometrical tolerance (ISO 2768-2)
  7
SLDTEXTSTYLE1
  0
MTEXT
  5
C8
330
1F
100
AcDbEntity
  8
CARTIGLIO
100
AcDbMText
 10
21.8273424041
 20
54.2772408043
 30
0.0
 40
1.5
 41
0.0
 71
     1
 72
     1
  1
Linear tolerance (ISO 2768-2)
  7
SLDTEXTSTYLE1
  0
INSERT
  5
CE
330
1F
100
AcDbEntity
  8
CARTIGLIO
100
AcDbBlockReference
  2
SW_NOTE_2
 10
22.6701998524
 20
48.7259084616
 30
0.0
  0
INSERT
  5
D4
330
1F
100
AcDbEntity
  8
CARTIGLIO
100
AcDbBlockReference
  2
SW_NOTE_3
 10
31.6684610402
 20
48.3867685771
 30
0.0
  0
INSERT
  5
DA
330
1F
100
AcDbEntity
  8
CARTIGLIO
100
AcDbBlockReference
  2
SW_NOTE_4
 10
41.4864037185
 20
48.7949258522
 30
0.0
  0
INSERT
  5
E0
330
1F
100
AcDbEntity
  8
CARTIGLIO
100
AcDbBlockReference
  2
SW_NOTE_5
 10
50.3183552873
 20
48.5765035486
 30
0.0
  0
INSERT
  5
E6
330
1F
100
AcDbEntity
  8
CARTIGLIO
100
AcDbBlockReference
  2
SW_NOTE_6
 10
59.6941301757
 20
48.4707714807
 30
0.0
  0
INSERT
  5
EC
330
1F
100
AcDbEntity
  8
CARTIGLIO
100
AcDbBlockReference
  2
SW_NOTE_7
 10
68.4290297565
 20
48.4211349626
 30
0.0
  0
INSERT
  5
F2
330
1F
100
AcDbEntity
  8
CARTIGLIO
100
AcDbBlockReference
  2
SW_NOTE_8
 10
78.3275272129
 20
48.6064573664
 30
0.0
  0
INSERT
  5
F8
330
1F
100
AcDbEntity
  8
CARTIGLIO
100
AcDbBlockReference
  2
SW_NOTE_9
 10
87.5268202113
 20
48.5346455831
 30
0.0
  0
MTEXT
  5
F9
330
1F
100
AcDbEntity
  8
CARTIGLIO
100
AcDbMText
 10
21.7136391915
 20
44.5848363517
 30
0.0
 40
2.0
 41
0.0
 71
     1
 72
     1
  1
±0.1
  7
SLDTEXTSTYLE1
  0
MTEXT
  5
FA
330
1F
100
AcDbEntity
  8
CARTIGLIO
100
AcDbMText
 10
31.6079587382
 20
44.4591371684
 30
0.0
 40
2.0
 41
0.0
 71
     1
 72
     1
  1
±0.1
  7
SLDTEXTSTYLE1
  0
MTEXT
  5
FB
330
1F
100
AcDbEntity
  8
CARTIGLIO
100
AcDbMText
 10
41.8068869963
 20
44.6192710193
 30
0.0
 40
2.0
 41
0.0
 71
     1
 72
     1
  1
±0.2
  7
SLDTEXTSTYLE1
  0
MTEXT
  5
FC
330
1F
100
AcDbEntity
  8
CARTIGLIO
100
AcDbMText
 10
50.8467609012
 20
44.5076964617
 30
0.0
 40
2.0
 41
0.0
 71
     1
 72
     1
  1
±0.3
  7
SLDTEXTSTYLE1
  0
MTEXT
  5
FD
330
1F
100
AcDbEntity
  8
CARTIGLIO
100
AcDbMText
 10
60.3612263582
 20
44.6197191143
 30
0.0
 40
2.0
 41
0.0
 71
     1
 72
     1
  1
±0.5
  7
SLDTEXTSTYLE1
  0
MTEXT
  5
FE
330
1F
100
AcDbEntity
  8
CARTIGLIO
100
AcDbMText
 10
69.7126820867
 20
44.7764064604
 30
0.0
 40
2.0
 41
0.0
 71
     1
 72
     1
  1
±0.8
  7
SLDTEXTSTYLE1
  0
MTEXT
  5
FF
330
1F
100
AcDbEntity
  8
CARTIGLIO
100
AcDbMText
 10
79.5297217215
 20
44.686857116
 30
0.0
 40
2.0
 41
0.0
 71
     1
 72
     1
  1
±1.2
  7
SLDTEXTSTYLE1
  0
MTEXT
  5
100
330
1F
100
AcDbEntity
  8
CARTIGLIO
100
AcDbMText
 10
89.8897599461
 20
44.6498475368
 30
0.0
 40
2.0
 41
0.0
 71
     1
 72
     1
  1
±2
  7
SLDTEXTSTYLE1
  0
MTEXT
  5
101
330
1F
100
AcDbEntity
  8
CARTIGLIO
100
AcDbMText
 10
80.9192725506
 20
57.5459287807
 30
0.0
 40
1.5
 41
0.0
 71
     1
 72
     1
  1
Class
  7
SLDTEXTSTYLE1
  0
MTEXT
  5
102
330
1F
100
AcDbEntity
  8
CARTIGLIO
100
AcDbMText
 10
80.7262815812
 20
53.8930514393
 30
0.0
 40
1.5
 41
0.0
 71
     1
 72
     1
  1
Class
  7
SLDTEXTSTYLE1
  0
MTEXT
  5
103
330
1F
100
AcDbEntity
  8
CARTIGLIO
100
AcDbMText
 10
90.7165129289
 20
54.1526123472
 30
0.0
 40
2.0
 41
0.0
 71
     1
 72
     1
  1
m
  7
SLDTEXTSTYLE1
  0
MTEXT
  5
104
330
1F
100
AcDbEntity
  8
CARTIGLIO
100
AcDbMText
 10
90.9932353885
 20
57.9728501047
 30
0.0
 40
2.0
 41
0.0
 71
     1
 72
     1
  1
K
  7
SLDTEXTSTYLE1
  0
MTEXT
  5
105
330
1F
100
AcDbEntity
  8
CARTIGLIO
100
AcDbMText
 10
73.1973398133
 20
35.8538911122
 30
0.0
 40
2.0
 41
0.0
 71
     1
 72
     1
  1
Designed
  7
SLDTEXTSTYLE1
  0
MTEXT
  5
106
330
1F
100
AcDbEntity
  8
CARTIGLIO
100
AcDbMText
 10
73.1902529844
 20
30.4182176787
 30
0.0
 40
2.0
 41
0.0
 71
     1
 72
     1
  1
Draw
  7
SLDTEXTSTYLE1
  0
MTEXT
  5
107
330
1F
100
AcDbEntity
  8
CARTIGLIO
100
AcDbMText
 10
72.996989314
 20
24.7778016827
 30
0.0
 40
2.0
 41
0.0
 71
     1
 72
     1
  1
Checked
  7
SLDTEXTSTYLE1
  0
MTEXT
  5
108
330
1F
100
AcDbEntity
  8
CARTIGLIO
100
AcDbMText
 10
108.3603568078
 20
36.2146884111
 30
0.0
 40
3.0
 41
0.0
 71
     1
 72
     1
  1
N. Santini
  7
SLDTEXTSTYLE1
  0
MTEXT
  5
109
330
1F
100
AcDbEntity
  8
CARTIGLIO
100
AcDbMText
 10
87.2418030865
 20
36.1671785778
 30
0.0
 40
3.0
 41
0.0
 71
     1
 72
     1
  1
17/09/09
  7
SLDTEXTSTYLE1
  0
MTEXT
  5
10A
330
1F
100
AcDbEntity
  8
CARTIGLIO
100
AcDbMText
 10
94.567866123
 20
25.651093815
 30
0.0
 40
3.0
 41
0.0
 71
     1
 72
     1
  1
x
  7
SLDTEXTSTYLE1
  0
MTEXT
  5
10B
330
1F
100
AcDbEntity
  8
CARTIGLIO
100
AcDbMText
 10
113.677094359
 20
40.9169042552
 30
0.0
 40
2.0
 41
0.0
 71
     1
 72
     1
  1
Name
  7
SLDTEXTSTYLE1
  0
MTEXT
  5
10C
330
1F
100
AcDbEntity
  8
CARTIGLIO
100
AcDbMText
 10
89.4193353782
 20
40.6742617667
 30
0.0
 40
2.0
 41
0.0
 71
     1
 72
     1
  1
Date
  7
SLDTEXTSTYLE1
  0
MTEXT
  5
10D
330
1F
100
AcDbEntity
  8
RIQUADRO
100
AcDbMText
 10
200.8912127049
 20
253.6561299891
 30
0.0
 40
3.5
 41
0.0
 71
     1
 72
     1
  1
D
  7
SLDTEXTSTYLE1
  0
MTEXT
  5
10E
330
1F
100
AcDbEntity
  8
RIQUADRO
100
AcDbMText
 10
200.8627138527
 20
185.5617677694
 30
0.0
 40
3.5
 41
0.0
 71
     1
 72
     1
  1
C
  7
SLDTEXTSTYLE1
  0
MTEXT
  5
10F
330
1F
100
AcDbEntity
  8
RIQUADRO
100
AcDbMText
 10
201.2834620231
 20
119.40837709
 30
0.0
 40
3.5
 41
0.0
 71
     1
 72
     1
  1
B
  7
SLDTEXTSTYLE1
  0
MTEXT
  5
110
330
1F
100
AcDbEntity
  8
RIQUADRO
100
AcDbMText
 10
201.3305745717
 20
52.6910955012
 30
0.0
 40
3.5
 41
0.0
 71
     1
 72
     1
  1
A
  7
SLDTEXTSTYLE1
  0
MTEXT
  5
111
330
1F
100
AcDbEntity
  8
TABELLA_REV
100
AcDbMText
 10
83.0451321092
 20
281.1935560825
 30
0.0
 40
2.0
 41
0.0
 71
     1
 72
     1
  1
Description
  7
SLDTEXTSTYLE1
  0
MTEXT
  5
112
330
1F
100
AcDbEntity
  8
TABELLA_REV
100
AcDbMText
 10
154.8999472314
 20
281.491656455
 30
0.0
 40
2.0
 41
0.0
 71
     1
 72
     1
  1
Date
  7
SLDTEXTSTYLE1
  0
MTEXT
  5
113
330
1F
100
AcDbEntity
  8
TABELLA_REV
100
AcDbMText
 10
180.417268587
 20
281.5051455648
 30
0.0
 40
2.0
 41
0.0
 71
     1
 72
     1
  1
Name
  7
SLDTEXTSTYLE1
  0
MTEXT
  5
114
330
1F
100
AcDbEntity
  8
TABELLA_REV
100
AcDbMText
 10
22.2615742615
 20
281.4639104008
 30
0.0
 40
2.0
 41
0.0
 71
     1
 72
     1
  1
Rev No.
  7
SLDTEXTSTYLE1
  0
MTEXT
  5
115
330
1F
100
AcDbEntity
  8
RIQUADRO
100
AcDbMText
 10
31.6714647964
 20
287.3985889038
 30
0.0
 40
3.5
 41
0.0
 71
     1
 72
     1
  1
1
  7
SLDTEXTSTYLE1
  0
MTEXT
  5
116
330
1F
100
AcDbEntity
  8
RIQUADRO
100
AcDbMText
 10
78.6610550936
 20
287.5537385924
 30
0.0
 40
3.5
 41
0.0
 71
     1
 72
     1
  1
2
  7
SLDTEXTSTYLE1
  0
MTEXT
  5
117
330
1F
100
AcDbEntity
  8
RIQUADRO
100
AcDbMText
 10
126.0395836765
 20
287.346792476
 30
0.0
 40
3.5
 41
0.0
 71
     1
 72
     1
  1
3
  7
SLDTEXTSTYLE1
  0
MTEXT
  5
118
330
1F
100
AcDbEntity
  8
RIQUADRO
100
AcDbMText
 10
173.8111001917
 20
287.6260340383
 30
0.0
 40
3.5
 41
0.0
 71
     1
 72
     1
  1
4
  7
SLDTEXTSTYLE1
  0
MTEXT
  5
119
330
1F
100
AcDbEntity
  8
CARTIGLIO
100
AcDbMText
 10
105.7759003608
 20
25.4689937074
 30
0.0
 40
3.0
 41
0.0
 71
     1
 72
     1
  1
C. Sedazzari
  7
SLDTEXTSTYLE1
  0
MTEXT
  5
11A
330
1F
100
AcDbEntity
  8
RIQUADRO
100
AcDbMText
 10
174.4499772594
 20
15.3915817225
 30
0.0
 40
3.5
 41
0.0
 71
     1
 72
     1
  1
4
  7
SLDTEXTSTYLE1
  0
MTEXT
  5
11B
330
1F
100
AcDbEntity
  8
RIQUADRO
100
AcDbMText
 10
126.6784607441
 20
15.1123401602
 30
0.0
 40
3.5
 41
0.0
 71
     1
 72
     1
  1
3
  7
SLDTEXTSTYLE1
  0
MTEXT
  5
11C
330
1F
100
AcDbEntity
  8
RIQUADRO
100
AcDbMText
 10
79.2999321612
 20
15.3192862766
 30
0.0
 40
3.5
 41
0.0
 71
     1
 72
     1
  1
2
  7
SLDTEXTSTYLE1
  0
MTEXT
  5
11D
330
1F
100
AcDbEntity
  8
RIQUADRO
100
AcDbMText
 10
32.3103418641
 20
15.164136588
 30
0.0
 40
3.5
 41
0.0
 71
     1
 72
     1
  1
1
  7
SLDTEXTSTYLE1
  0
MTEXT
  5
11E
330
1F
100
AcDbEntity
  8
RIQUADRO
100
AcDbMText
 10
5.2764607527
 20
54.9545518392
 30
0.0
 40
3.5
 41
0.0
 71
     1
 72
     1
  1
A
  7
SLDTEXTSTYLE1
  0
MTEXT
  5
11F
330
1F
100
AcDbEntity
  8
RIQUADRO
100
AcDbMText
 10
5.2293482042
 20
121.3077228511
 30
0.0
 40
3.5
 41
0.0
 71
     1
 72
     1
  1
B
  7
SLDTEXTSTYLE1
  0
MTEXT
  5
120
330
1F
100
AcDbEntity
  8
RIQUADRO
100
AcDbMText
 10
4.8086000337
 20
187.4611135305
 30
0.0
 40
3.5
 41
0.0
 71
     1
 72
     1
  1
C
  7
SLDTEXTSTYLE1
  0
MTEXT
  5
121
330
1F
100
AcDbEntity
  8
RIQUADRO
100
AcDbMText
 10
4.8370988859
 20
255.5554757502
 30
0.0
 40
3.5
 41
0.0
 71
     1
 72
     1
  1
D
  7
SLDTEXTSTYLE1
  0
MTEXT
  5
122
330
1F
100
AcDbEntity
  8
RIQUADRO
100
AcDbMText
 10
171.9742994819
 20
277.3242597605
 30
0.0
 40
3.0
 41
0.0
 71
     1
 72
     1
  1
N. Santini
  7
SLDTEXTSTYLE1
  0
MTEXT
  5
123
330
1F
100
AcDbEntity
  8
RIQUADRO
100
AcDbMText
 10
150.6388610732
 20
277.3150319732
 30
0.0
 40
3.0
 41
0.0
 71
     1
 72
     1
  1
17/09/09
  7
SLDTEXTSTYLE1
  0
MTEXT
  5
124
330
1F
100
AcDbEntity
  8
RIQUADRO
100
AcDbMText
 10
37.2343973545
 20
277.2861679355
 30
0.0
 40
3.0
 41
0.0
 71
     1
 72
     1
  1
New Part
  7
SLDTEXTSTYLE1
  0
MTEXT
  5
125
330
1F
100
AcDbEntity
  8
RIQUADRO
100
AcDbMText
 10
26.0430271807
 20
277.2739138851
 30
0.0
 40
3.0
 41
0.0
 71
     1
 72
     1
  1
A
  7
SLDTEXTSTYLE1
  0
MTEXT
  5
126
330
1F
100
AcDbEntity
  8
CARTIGLIO
100
AcDbMText
 10
108.0912537256
 20
30.8672544894
 30
0.0
 40
3.0
 41
0.0
 71
     1
 72
     1
  1
N. Santini
  7
SLDTEXTSTYLE1
  0
MTEXT
  5
127
330
1F
100
AcDbEntity
  8
CARTIGLIO
100
AcDbMText
 10
87.7938501211
 20
30.8392181632
 30
0.0
 40
3.0
 41
0.0
 71
     1
 72
     1
  1
17/09/09
  7
SLDTEXTSTYLE1
  0
MTEXT
  5
128
330
1F
100
AcDbEntity
  8
CARTIGLIO
100
AcDbMText
 10
66.2466856591
 20
64.8965868945
 30
0.0
 40
3.5
 41
0.0
 71
     2
 72
     1
  1
N.A.
  7
SLDTEXTSTYLE1
  0
MTEXT
  5
129
330
1F
100
AcDbEntity
  8
RIQUADRO
100
AcDbMText
 10
64.1659716441
 20
72.5042162521
 30
0.0
 40
3.5
 41
0.0
 71
     2
 72
     1
  1
N.A.
  7
SLDTEXTSTYLE1
  0
LINE
  5
12A
330
1F
100
AcDbEntity
  8
0
  6
CONTINUOUS
 62
     7
100
AcDbLine
 10
158.8457324271
 20
237.1552835361
 30
0.0
 11
158.7257430427
 21
237.4209811002
 31
0.0
  0
LINE
  5
12B
330
1F
100
AcDbEntity
  8
0
  6
CONTINUOUS
 62
     7
100
AcDbLine
 10
157.3037944903
 20
238.8466879253
 30
0.0
 11
155.5349582144
 21
239.3274197235
 31
0.0
  0
LINE
  5
12C
330
1F
100
AcDbEntity
  8
0
  6
CONTINUOUS
 62
     7
100
AcDbLine
 10
153.5869723666
 20
238.8175893638
 30
0.0
 11
153.3490011154
 21
238.6491773906
 31
0.0
  0
LINE
  5
12D
330
1F
100
AcDbEntity
  8
0
  6
CONTINUOUS
 62
     7
100
AcDbLine
 10
156.5209737012
 20
214.3663339891
 30
0.0
 11
155.1943465072
 21
214.7268828343
 31
0.0
  0
LINE
  5
12E
330
1F
100
AcDbEntity
  8
0
  6
CONTINUOUS
 62
     7
100
AcDbLine
 10
154.3813244596
 20
211.735395836
 30
0.0
 11
155.7079516536
 21
211.3748469908
 31
0.0
  0
LINE
  5
12F
330
1F
100
AcDbEntity
  8
0
  6
CONTINUOUS
 62
     7
100
AcDbLine
 10
160.9961036654
 20
218.6238397037
 30
0.0
 11
159.6694766773
 21
218.9843884929
 31
0.0
  0
LINE
  5
130
330
1F
100
AcDbEntity
  8
0
  6
CONTINUOUS
 62
     7
100
AcDbLine
 10
158.8564546297
 20
215.9929014946
 30
0.0
 11
160.1830816178
 21
215.6323527054
 31
0.0
  0
LINE
  5
131
330
1F
100
AcDbEntity
  8
0
  6
CONTINUOUS
 62
     7
100
AcDbLine
 10
158.7143178795
 20
234.5504773098
 30
0.0
 11
157.3876906855
 21
234.911026155
 31
0.0
  0
LINE
  5
132
330
1F
100
AcDbEntity
  8
0
  6
CONTINUOUS
 62
     7
100
AcDbLine
 10
156.5746685835
 20
231.9195391036
 30
0.0
 11
157.9012957776
 21
231.5589902585
 31
0.0
  0
LINE
  5
133
330
1F
100
AcDbEntity
  8
0
  6
CONTINUOUS
 62
     7
100
AcDbLine
 10
158.0389977695
 20
224.7681501742
 30
0.0
 11
159.8962759648
 21
224.2633817574
 31
0.0
  0
LINE
  5
134
330
1F
100
AcDbEntity
  8
0
  6
CONTINUOUS
 62
     7
100
AcDbLine
 10
160.8797704771
 20
227.8821160627
 30
0.0
 11
159.0224922819
 21
228.3868844795
 31
0.0
  0
LINE
  5
135
330
1F
100
AcDbEntity
  8
0
  6
CONTINUOUS
 62
     7
100
AcDbLine
 10
160.0274086968
 20
224.745879659
 30
0.0
 11
161.1329311183
 21
224.4454223534
 31
0.0
  0
LINE
  5
136
330
1F
100
AcDbEntity
  8
0
  6
CONTINUOUS
 62
     7
100
AcDbLine
 10
161.8541603838
 20
227.0991606684
 30
0.0
 11
160.7486379624
 21
227.3996179741
 31
0.0
  0
LINE
  5
137
330
1F
100
AcDbEntity
  8
0
  6
CONTINUOUS
 62
     7
100
AcDbLine
 10
164.3393856835
 20
230.9175219256
 30
0.0
 11
166.1966638787
 21
230.4127535088
 31
0.0
  0
LINE
  5
138
330
1F
100
AcDbEntity
  8
0
  6
CONTINUOUS
 62
     7
100
AcDbLine
 10
167.1801583911
 20
234.0314878141
 30
0.0
 11
165.3228801958
 21
234.5362562309
 31
0.0
  0
LINE
  5
139
330
1F
100
AcDbEntity
  8
0
  6
CONTINUOUS
 62
     7
100
AcDbLine
 10
166.3277963935
 20
230.8952511983
 30
0.0
 11
167.4333188149
 21
230.5947938926
 31
0.0
  0
LINE
  5
13A
330
1F
100
AcDbEntity
  8
0
  6
CONTINUOUS
 62
     7
100
AcDbLine
 10
168.1545480805
 20
233.2485322077
 30
0.0
 11
167.049025659
 21
233.5489895134
 31
0.0
  0
LINE
  5
13B
330
1F
100
AcDbEntity
  8
0
  6
CONTINUOUS
 62
     7
100
AcDbLine
 10
161.1891917265
 20
214.3853095381
 30
0.0
 11
163.0464699217
 21
213.8805411213
 31
0.0
  0
LINE
  5
13C
330
1F
100
AcDbEntity
  8
0
  6
CONTINUOUS
 62
     7
100
AcDbLine
 10
164.0299644341
 20
217.4992754266
 30
0.0
 11
162.1726862389
 21
218.0040438434
 31
0.0
  0
LINE
  5
13D
330
1F
100
AcDbEntity
  8
0
  6
CONTINUOUS
 62
     7
100
AcDbLine
 10
163.1776025451
 20
214.363039316
 30
0.0
 11
164.2831249666
 21
214.0625820103
 31
0.0
  0
LINE
  5
13E
330
1F
100
AcDbEntity
  8
0
  6
CONTINUOUS
 62
     7
100
AcDbLine
 10
165.0043542322
 20
216.7163203254
 30
0.0
 11
163.8988318107
 21
217.0167776311
 31
0.0
  0
LINE
  5
13F
330
1F
100
AcDbEntity
  8
0
  6
CONTINUOUS
 62
     7
100
AcDbLine
 10
162.3273639642
 20
224.846416005
 30
0.0
 11
162.5653357358
 21
225.0148279723
 31
0.0
  0
LINE
  5
140
330
1F
100
AcDbEntity
  8
0
  6
CONTINUOUS
 62
     7
100
AcDbLine
 10
162.8012989385
 20
225.8830466489
 30
0.0
 11
162.6813090942
 21
226.1487451364
 31
0.0
  0
LINE
  5
141
330
1F
100
AcDbEntity
  8
0
  6
CONTINUOUS
 62
     7
100
AcDbLine
 10
161.1228645424
 20
225.0958297389
 30
0.0
 11
162.181265137
 21
224.8081791361
 31
0.0
  0
LINE
  5
142
330
1F
100
AcDbEntity
  8
0
  6
CONTINUOUS
 62
     7
100
AcDbLine
 10
162.5746628984
 20
226.2556728158
 30
0.0
 11
161.5162623038
 21
226.5433234186
 31
0.0
  0
LINE
  5
143
330
1F
100
AcDbEntity
  8
0
  6
CONTINUOUS
 62
     7
100
AcDbLine
 10
168.6277518781
 20
230.9957877564
 30
0.0
 11
168.8657234325
 21
231.1641995116
 31
0.0
  0
LINE
  5
144
330
1F
100
AcDbEntity
  8
0
  6
CONTINUOUS
 62
     7
100
AcDbLine
 10
169.1016868525
 20
232.0324184003
 30
0.0
 11
168.9816967908
 21
232.2981166756
 31
0.0
  0
LINE
  5
145
330
1F
100
AcDbEntity
  8
0
  6
CONTINUOUS
 62
     7
100
AcDbLine
 10
167.423252239
 20
231.2452012782
 30
0.0
 11
168.4816528336
 21
230.9575506754
 31
0.0
  0
LINE
  5
146
330
1F
100
AcDbEntity
  8
0
  6
CONTINUOUS
 62
     7
100
AcDbLine
 10
168.8750505951
 20
232.4050443551
 30
0.0
 11
167.8166500005
 21
232.6926949579
 31
0.0
  0
LINE
  5
147
330
1F
100
AcDbEntity
  8
0
  6
CONTINUOUS
 62
     7
100
AcDbLine
 10
165.4775579144
 20
214.4635757614
 30
0.0
 11
165.7155295434
 21
214.6319867912
 31
0.0
  0
LINE
  5
148
330
1F
100
AcDbEntity
  8
0
  6
CONTINUOUS
 62
     7
100
AcDbLine
 10
165.9514928684
 20
215.5002059863
 30
0.0
 11
165.8315029153
 21
215.7659039685
 31
0.0
  0
LINE
  5
149
330
1F
100
AcDbEntity
  8
0
  6
CONTINUOUS
 62
     7
100
AcDbLine
 10
164.2730583771
 20
214.7129885844
 30
0.0
 11
165.3314589717
 21
214.4253379815
 31
0.0
  0
LINE
  5
14A
330
1F
100
AcDbEntity
  8
0
  6
CONTINUOUS
 62
     7
100
AcDbLine
 10
165.7248567603
 20
215.8728316877
 30
0.0
 11
164.6664561657
 21
216.1604822906
 31
0.0
  0
LINE
  5
14B
330
1F
100
AcDbEntity
  8
0
  6
CONTINUOUS
 62
     7
100
AcDbLine
 10
186.4973604907
 20
229.6401635311
 30
0.0
 11
186.3773722937
 21
229.9058607725
 31
0.0
  0
LINE
  5
14C
330
1F
100
AcDbEntity
  8
0
  6
CONTINUOUS
 62
     7
100
AcDbLine
 10
184.9554237413
 20
231.3315675976
 30
0.0
 11
184.0710054747
 21
231.5719335317
 31
0.0
  0
LINE
  5
14D
330
1F
100
AcDbEntity
  8
0
  6
CONTINUOUS
 62
     7
100
AcDbLine
 10
182.1230196269
 20
231.062103172
 30
0.0
 11
181.8850479638
 21
230.8936913108
 31
0.0
  0
LINE
  5
14E
330
1F
100
AcDbEntity
  8
0
  6
CONTINUOUS
 62
     7
100
AcDbLine
 10
179.4932953673
 20
203.5487111449
 30
0.0
 11
179.7312652743
 21
203.7171233478
 31
0.0
  0
LINE
  5
14F
330
1F
100
AcDbEntity
  8
0
  6
CONTINUOUS
 62
     7
100
AcDbLine
 10
177.1478875246
 20
203.406703924
 30
0.0
 11
178.0323057913
 21
203.16633799
 31
0.0
  0
LINE
  5
150
330
1F
100
AcDbEntity
  8
0
  6
CONTINUOUS
 62
     7
100
AcDbLine
 10
175.9614361573
 20
204.7416820251
 30
0.0
 11
176.0814264363
 21
204.4759839618
 31
0.0
  0
LWPOLYLINE
  5
151
330
1F
100
AcDbEntity
  8
0
  6
CONTINUOUS
 62
     7
100
AcDbPolyline
 90
       21
 70
   128
 43
0.0
 10
148.8474500089
 20
223.5028665757
 10
148.8618367236
 20
224.1894340632
 10
148.9049082006
 20
224.8998523916
 10
148.9763984377
 20
225.6297415131
 10
149.0758671406
 20
226.374601159
 10
149.2027010266
 20
227.1298396539
 10
149.3561177367
 20
227.8908000858
 10
149.5351719203
 20
228.6527905935
 10
149.738759147
 20
229.4111145287
 10
149.9656245998
 20
230.1610953056
 10
150.2143691599
 20
230.8981094818
 10
150.4834600552
 20
231.6176139169
 10
150.7712373807
 20
232.3151712942
 10
151.0759273542
 20
232.9864814212
 10
151.3956514447
 20
233.6274053057
 10
151.7284381072
 20
234.2339925758
 10
152.0722360395
 20
234.8025016036
 10
152.4249253745
 20
235.3294287901
 10
152.7843316971
 20
235.8115254392
 10
153.1482390838
 20
236.2458176697
 10
153.5144041198
 20
236.6296296756
  0
LWPOLYLINE
  5
152
330
1F
100
AcDbEntity
  8
0
  6
CONTINUOUS
 62
     7
100
AcDbPolyline
 90
       21
 70
   128
 43
0.0
 10
153.7355086384
 20
236.355246744
 10
153.3784977472
 20
235.9810296576
 10
153.0236880017
 20
235.5575943912
 10
152.6732668562
 20
235.0875509552
 10
152.3293947084
 20
234.5737966838
 10
151.9941918602
 20
234.0195003146
 10
151.6697247176
 20
233.4280781419
 10
151.3579937294
 20
232.803176656
 10
151.0609211084
 20
232.1486493829
 10
150.780338227
 20
231.4685310105
 10
150.5179747507
 20
230.7670140102
 10
150.2754486417
 20
230.0484253087
 10
150.0542548578
 20
229.3171937039
 10
149.8557573117
 20
228.5778284458
 10
149.6811795262
 20
227.8348869648
 10
149.5315981144
 20
227.092950946
 10
149.4079349559
 20
226.3565935463
 10
149.3109532858
 20
225.6303552201
 10
149.2412498699
 20
224.9187133315
 10
149.1992554407
 20
224.2260554364
 10
149.1852286111
 20
223.5566525878
  0
LWPOLYLINE
  5
153
330
1F
100
AcDbEntity
  8
0
  6
CONTINUOUS
 62
     7
100
AcDbPolyline
 90
       21
 70
   128
 43
0.0
 10
151.7455678439
 20
237.1103614738
 10
151.3794028079
 20
236.7265494679
 10
151.0154954212
 20
236.2922572375
 10
150.6560890986
 20
235.8101605883
 10
150.3033997636
 20
235.2832334019
 10
149.9596018313
 20
234.714724374
 10
149.6268151688
 20
234.1081371039
 10
149.3070910783
 20
233.4672132194
 10
149.0024011048
 20
232.7959030924
 10
148.7146237793
 20
232.0983457151
 10
148.445532884
 20
231.37884128
 10
148.1967883239
 20
230.6418271038
 10
147.9699228711
 20
229.891846327
 10
147.7663356444
 20
229.1335223917
 10
147.5872814608
 20
228.371531884
 10
147.4338647507
 20
227.6105714521
 10
147.3070308647
 20
226.8553329572
 10
147.2075621618
 20
226.1104733113
 10
147.1360719247
 20
225.3805841898
 10
147.0930004477
 20
224.6701658614
 10
147.078613733
 20
223.983598374
  0
LINE
  5
154
330
1F
100
AcDbEntity
  8
0
  6
CONTINUOUS
 62
     7
100
AcDbLine
 10
149.1852286111
 20
223.5566525878
 30
0.0
 11
149.1852286111
 21
202.770345731
 31
0.0
  0
LINE
  5
155
330
1F
100
AcDbEntity
  8
0
  6
CONTINUOUS
 62
     7
100
AcDbLine
 10
154.9022470846
 20
237.4940192355
 30
0.0
 11
153.7355086384
 21
236.355246744
 31
0.0
  0
LWPOLYLINE
  5
156
330
1F
100
AcDbEntity
  8
0
  6
CONTINUOUS
 62
     7
100
AcDbPolyline
 90
       21
 70
   128
 43
0.0
 10
159.4525271119
 20
233.5778506832
 10
159.4385002823
 20
234.2198723004
 10
159.396505853
 20
234.8305544947
 10
159.3268024372
 20
235.406131042
 10
159.2298207671
 20
235.9430552018
 10
159.1061576086
 20
236.4380145341
 10
158.9565761968
 20
236.8879584657
 10
158.7819984113
 20
237.2901134055
 10
158.5835008652
 20
237.6419992833
 10
158.3623070813
 20
237.9414470599
 10
158.1197809723
 20
238.1866099266
 10
157.857417496
 20
238.3759773349
 10
157.5768346146
 20
238.5083807194
 10
157.2797619936
 20
238.583004022
 10
156.9680310054
 20
238.5993875058
 10
156.6435638628
 20
238.5574299221
 10
156.3083610146
 20
238.4573897794
 10
155.9644888668
 20
238.2998845346
 10
155.6140677212
 20
238.0858844092
 10
155.2592579757
 20
237.816709298
 10
154.9022470846
 20
237.4940192355
  0
LINE
  5
157
330
1F
100
AcDbEntity
  8
0
  6
CONTINUOUS
 62
     7
100
AcDbLine
 10
159.4525271119
 20
212.7915438264
 30
0.0
 11
159.4525271119
 21
215.8309022025
 31
0.0
  0
LINE
  5
158
330
1F
100
AcDbEntity
  8
0
  6
CONTINUOUS
 62
     7
100
AcDbLine
 10
159.4525271119
 20
218.9558430489
 30
0.0
 11
159.4525271119
 21
224.3839834266
 31
0.0
  0
LINE
  5
159
330
1F
100
AcDbEntity
  8
0
  6
CONTINUOUS
 62
     7
100
AcDbLine
 10
159.4525271119
 20
228.2700104113
 30
0.0
 11
159.4525271119
 21
233.5778506832
 31
0.0
  0
LINE
  5
15A
330
1F
100
AcDbEntity
  8
0
  6
CONTINUOUS
 62
     7
100
AcDbLine
 10
159.4525271119
 20
212.7915438264
 30
0.0
 11
149.1852286111
 21
202.770345731
 31
0.0
  0
LINE
  5
15B
330
1F
100
AcDbEntity
  8
0
  6
CONTINUOUS
 62
     7
100
AcDbLine
 10
153.0354655489
 20
217.0285941757
 30
0.0
 11
149.8852718092
 21
213.9539085122
 31
0.0
  0
LINE
  5
15C
330
1F
100
AcDbEntity
  8
0
  6
CONTINUOUS
 62
     7
100
AcDbLine
 10
153.0354655489
 20
216.9428775913
 30
0.0
 11
153.0354655489
 21
217.0285941757
 31
0.0
  0
LWPOLYLINE
  5
15D
330
1F
100
AcDbEntity
  8
0
  6
CONTINUOUS
 62
     7
100
AcDbPolyline
 90
       22
 70
   128
 43
0.0
 10
155.6022901741
 20
219.4481771151
 10
155.5879555079
 20
219.082861723
 10
155.5452717333
 20
218.6977256103
 10
155.4751924592
 20
218.301370386
 10
155.3792828383
 20
217.9026512762
 10
155.2596856654
 20
217.5104739967
 10
155.1190723708
 20
217.1336000343
 10
154.9605840178
 20
216.7804485579
 10
154.7877610529
 20
216.4589065111
 10
154.6044639566
 20
216.1761577635
 10
154.4147873873
 20
215.9385186851
 10
154.2229683357
 20
215.7512974103
 10
154.0332917664
 20
215.6186761958
 10
153.8499946701
 20
215.5436177728
 10
153.6771717052
 20
215.527798796
 10
153.5186833522
 20
215.5715712899
 10
153.3780700576
 20
215.6739594799
 10
153.2584728847
 20
215.8326757451
 10
153.1625632638
 20
216.0441733944
 10
153.0924839896
 20
216.3037295788
 10
153.0498002151
 20
216.6055443464
 10
153.0354655489
 20
216.9428775913
  0
LINE
  5
15E
330
1F
100
AcDbEntity
  8
0
  6
CONTINUOUS
 62
     7
100
AcDbLine
 10
155.6022901741
 20
219.5338936996
 30
0.0
 11
155.6022901741
 21
219.4481771151
 31
0.0
  0
LINE
  5
15F
330
1F
100
AcDbEntity
  8
0
  6
CONTINUOUS
 62
     7
100
AcDbLine
 10
158.7524839138
 20
222.6085793631
 30
0.0
 11
155.6022901741
 21
219.5338936996
 31
0.0
  0
LINE
  5
160
330
1F
100
AcDbEntity
  8
0
  6
CONTINUOUS
 62
     7
100
AcDbLine
 10
158.7524839138
 20
235.9803888913
 30
0.0
 11
158.7524839138
 21
234.5366830453
 31
0.0
  0
LINE
  5
161
330
1F
100
AcDbEntity
  8
0
  6
CONTINUOUS
 62
     7
100
AcDbLine
 10
158.7524839138
 20
232.4408207907
 30
0.0
 11
158.7524839138
 21
228.3486735365
 31
0.0
  0
LINE
  5
162
330
1F
100
AcDbEntity
  8
0
  6
CONTINUOUS
 62
     7
100
AcDbLine
 10
158.7524839138
 20
224.5742400067
 30
0.0
 11
158.7524839138
 21
222.6085793631
 31
0.0
  0
LWPOLYLINE
  5
163
330
1F
100
AcDbEntity
  8
0
  6
CONTINUOUS
 62
     7
100
AcDbPolyline
 90
       22
 70
   128
 43
0.0
 10
156.1856595059
 20
233.4750895796
 10
156.1999940634
 20
233.8404048657
 10
156.242677838
 20
234.2255409784
 10
156.3127572208
 20
234.6218963087
 10
156.4086666244
 20
235.0206152064
 10
156.5282639059
 20
235.412792592
 10
156.6688773091
 20
235.7896666604
 10
156.8273656622
 20
236.1428181368
 10
157.0001885727
 20
236.4643601306
 10
157.1834855332
 20
236.7471087456
 10
157.3731621976
 20
236.9847479168
 10
157.564981222
 20
237.1719691651
 10
157.7546578864
 20
237.3045904724
 10
157.9379548469
 20
237.3796487628
 10
158.1107777575
 20
237.3954676866
 10
158.2692663278
 20
237.3516954048
 10
158.409879731
 20
237.2493073209
 10
158.5294767953
 20
237.0905909496
 10
158.6253861989
 20
236.8790930882
 10
158.6954655817
 20
236.6195370099
 10
158.7381493563
 20
236.3177222422
 10
158.7524839138
 20
235.9803888913
  0
LINE
  5
164
330
1F
100
AcDbEntity
  8
0
  6
CONTINUOUS
 62
     7
100
AcDbLine
 10
156.1856595059
 20
233.3893729952
 30
0.0
 11
156.1856595059
 21
233.4750895796
 31
0.0
  0
LINE
  5
165
330
1F
100
AcDbEntity
  8
0
  6
CONTINUOUS
 62
     7
100
AcDbLine
 10
152.4520962171
 20
229.7453007676
 30
0.0
 11
156.1856595059
 21
233.3893729952
 31
0.0
  0
LINE
  5
166
330
1F
100
AcDbEntity
  8
0
  6
CONTINUOUS
 62
     7
100
AcDbLine
 10
152.4520962171
 20
229.8310173521
 30
0.0
 11
152.4520962171
 21
229.7453007676
 31
0.0
  0
LWPOLYLINE
  5
167
330
1F
100
AcDbEntity
  8
0
  6
CONTINUOUS
 62
     7
100
AcDbPolyline
 90
       22
 70
   128
 43
0.0
 10
149.8852718092
 20
227.3257180404
 10
149.8996063667
 20
227.6910333264
 10
149.9422901413
 20
228.0761694391
 10
150.0123695241
 20
228.4725247694
 10
150.1082789277
 20
228.8712436671
 10
150.2278759919
 20
229.2634208406
 10
150.3684893952
 20
229.640294909
 10
150.5269779655
 20
229.9934465976
 10
150.6998008761
 20
230.3149885914
 10
150.8830978366
 20
230.5977372063
 10
151.0727745009
 20
230.8353763775
 10
151.2645935254
 20
231.0225976259
 10
151.4542701898
 20
231.1552189332
 10
151.6375671503
 20
231.2302772235
 10
151.8103900608
 20
231.2460961474
 10
151.9688784138
 20
231.2023236534
 10
152.1094918171
 20
231.0999355695
 10
152.2290890986
 20
230.9412194104
 10
152.3249985022
 20
230.7297215489
 10
152.395077885
 20
230.4701654706
 10
152.4377616596
 20
230.168350703
 10
152.4520962171
 20
229.8310173521
  0
LINE
  5
168
330
1F
100
AcDbEntity
  8
0
  6
CONTINUOUS
 62
     7
100
AcDbLine
 10
149.8852718092
 20
213.9539085122
 30
0.0
 11
149.8852718092
 21
227.3257180404
 31
0.0
  0
LWPOLYLINE
  5
169
330
1F
100
AcDbEntity
  8
0
  6
CONTINUOUS
 62
     7
100
AcDbPolyline
 90
       34
 70
   128
 43
0.0
 10
155.0889252491
 20
234.8904290622
 10
155.075009471
 20
234.6091834816
 10
155.0337651828
 20
234.310939026
 10
154.9666829417
 20
234.006473862
 10
154.8761873546
 20
233.7067936748
 10
154.7655491714
 20
233.4227281457
 10
154.6387671167
 20
233.1645441939
 10
154.5004234106
 20
232.9415742529
 10
154.3555181904
 20
232.7618766391
 10
154.2092886915
 20
232.6319465075
 10
154.0670200283
 20
232.5564784799
 10
153.9338541677
 20
232.5382017514
 10
153.814604058
 20
232.5777761093
 10
153.7135797101
 20
232.6737706672
 10
153.6344324592
 20
232.8227178202
 10
153.5800228057
 20
233.0192317269
 10
153.5523172964
 20
233.2562118138
 10
153.5523172964
 20
233.5250925748
 10
153.5800228057
 20
233.8161555147
 10
153.6344324592
 20
234.1188811992
 10
153.7135797101
 20
234.4223278404
 10
153.814604058
 20
234.7155281195
 10
153.9338541677
 20
234.9878860032
 10
154.0670200283
 20
235.2295571993
 10
154.2092886915
 20
235.4318071235
 10
154.3555181904
 20
235.5873251411
 10
154.5004234106
 20
235.6904914017
 10
154.6387671167
 20
235.7375768572
 10
154.7655491714
 20
235.726880048
 10
154.8761873546
 20
235.6587870359
 10
154.9666829417
 20
235.5357589851
 10
155.0337651828
 20
235.3622424687
 10
155.075009471
 20
235.1445093925
 10
155.0889252491
 20
234.8904290622
  0
LWPOLYLINE
  5
16A
330
1F
100
AcDbEntity
  8
0
  6
CONTINUOUS
 62
     7
100
AcDbPolyline
 90
       34
 70
   128
 43
0.0
 10
157.2822694545
 20
218.9878280842
 10
157.2683536765
 20
218.7065833019
 10
157.2271094427
 20
218.4083381011
 10
157.1600271472
 20
218.1038736823
 10
157.0695316687
 20
217.8041928029
 10
156.9588932683
 20
217.5201270617
 10
156.8321113222
 20
217.2619440143
 10
156.6937676297
 20
217.0389740865
 10
156.5488623347
 20
216.8592763997
 10
156.402632897
 20
216.7293455296
 10
156.2603641523
 20
216.6538782207
 10
156.1271983732
 20
216.6356015717
 10
156.0079482635
 20
216.6751751313
 10
155.9069239699
 20
216.7711705405
 10
155.8277766103
 20
216.9201167892
 10
155.7733670112
 20
217.1166315473
 10
155.7456615019
 20
217.3536116341
 10
155.7456615019
 20
217.6224923951
 10
155.7733670112
 20
217.9135545367
 10
155.8277766103
 20
218.2162801682
 10
155.9069239699
 20
218.5197269155
 10
156.0079482635
 20
218.8129279398
 10
156.1271983732
 20
219.0852858235
 10
156.2603641523
 20
219.3269569401
 10
156.402632897
 20
219.5292061455
 10
156.5488623347
 20
219.6847249018
 10
156.6937676297
 20
219.7878912353
 10
156.8321113222
 20
219.8349766775
 10
156.9588932683
 20
219.824278964
 10
157.0695316687
 20
219.756186164
 10
157.1600271472
 20
219.6331580071
 10
157.2271094427
 20
219.4596423421
 10
157.2683536765
 20
219.2419092128
 10
157.2822694545
 20
218.9878280842
  0
LWPOLYLINE
  5
16B
330
1F
100
AcDbEntity
  8
0
  6
CONTINUOUS
 62
     7
100
AcDbPolyline
 90
       34
 70
   128
 43
0.0
 10
152.8955810436
 20
214.7062857149
 10
152.8816652655
 20
214.4250409326
 10
152.840420923
 20
214.1267956258
 10
152.7733387362
 20
213.8223313131
 10
152.6828431491
 20
213.5226503276
 10
152.5722049659
 20
213.2385847985
 10
152.4454229112
 20
212.980401645
 10
152.3070792187
 20
212.7574317172
 10
152.1621739238
 20
212.5777340305
 10
152.0159444861
 20
212.4478031603
 10
151.8736757414
 20
212.3723358515
 10
151.7405099622
 20
212.3540592024
 10
151.6212599612
 20
212.3936328681
 10
151.5202354503
 20
212.4896280652
 10
151.441088308
 20
212.638574526
 10
151.3866784916
 20
212.8350890719
 10
151.3589731995
 20
213.0720693709
 10
151.3589731995
 20
213.3409501319
 10
151.3866784916
 20
213.6320120614
 10
151.441088308
 20
213.934737905
 10
151.5202354503
 20
214.2381844402
 10
151.6212599612
 20
214.5313856767
 10
151.7405099622
 20
214.8037434543
 10
151.8736757414
 20
215.0454145709
 10
152.0159444861
 20
215.2476637763
 10
152.1621739238
 20
215.4031825326
 10
152.3070792187
 20
215.5063488661
 10
152.4454229112
 20
215.5534343083
 10
152.5722049659
 20
215.5427367008
 10
152.6828431491
 20
215.4746436887
 10
152.7733387362
 20
215.3516156378
 10
152.840420923
 20
215.1780998668
 10
152.8816652655
 20
214.9603668435
 10
152.8955810436
 20
214.7062857149
  0
LWPOLYLINE
  5
16C
330
1F
100
AcDbEntity
  8
0
  6
CONTINUOUS
 62
     7
100
AcDbPolyline
 90
       21
 70
   128
 43
0.0
 10
146.97418325
 20
224.15756734
 10
146.9882100796
 20
224.8269701886
 10
147.0302045088
 20
225.5196280837
 10
147.0999079247
 20
226.2312699723
 10
147.1968895948
 20
226.9575082985
 10
147.3205527533
 20
227.6938656982
 10
147.4701341651
 20
228.435801717
 10
147.6447119506
 20
229.178743198
 10
147.8432094967
 20
229.9181084561
 10
148.0644032806
 20
230.6493400609
 10
148.3069293896
 20
231.3679287624
 10
148.5692928659
 20
232.0694457627
 10
148.8498757473
 20
232.7495641351
 10
149.1469483683
 20
233.4040914082
 10
149.4586793565
 20
234.0289928941
 10
149.7831464991
 20
234.6204150668
 10
150.1183493473
 20
235.1747114359
 10
150.4622214951
 20
235.6884657074
 10
150.8126426406
 20
236.1585091434
 10
151.1674523861
 20
236.5819444098
 10
151.5244632773
 20
236.9561614962
  0
LWPOLYLINE
  5
16D
330
1F
100
AcDbEntity
  8
0
  6
CONTINUOUS
 62
     7
100
AcDbPolyline
 90
       10
 70
   128
 43
0.0
 10
152.1143178322
 20
229.7772315522
 10
152.0999535016
 20
230.0984381391
 10
152.0572136579
 20
230.3836941427
 10
151.9871510089
 20
230.6259777867
 10
151.8914906563
 20
230.8193211249
 10
151.7725881531
 20
230.9589654854
 10
151.6333710436
 20
231.0414704583
 10
151.4772675819
 20
231.0648055794
 10
151.3081215419
 20
231.0283957077
 10
151.2315344525
 20
230.9940933856
  0
LINE
  5
16E
330
1F
100
AcDbEntity
  8
0
  6
CONTINUOUS
 62
     7
100
AcDbLine
 10
148.8474500089
 20
202.7165597189
 30
0.0
 11
148.8474500089
 21
223.5028665757
 31
0.0
  0
LINE
  5
16F
330
1F
100
AcDbEntity
  8
0
  6
CONTINUOUS
 62
     7
100
AcDbLine
 10
149.1852286111
 20
202.770345731
 30
0.0
 11
148.8474500089
 21
202.7165597189
 31
0.0
  0
LINE
  5
170
330
1F
100
AcDbEntity
  8
0
  6
CONTINUOUS
 62
     7
100
AcDbLine
 10
142.6565232234
 20
208.470665112
 30
0.0
 11
142.6565232234
 21
204.3991209637
 31
0.0
  0
LINE
  5
171
330
1F
100
AcDbEntity
  8
0
  6
CONTINUOUS
 62
     7
100
AcDbLine
 10
147.078613733
 20
207.2688356654
 30
0.0
 11
142.6565232234
 21
208.470665112
 31
0.0
  0
LINE
  5
172
330
1F
100
AcDbEntity
  8
0
  6
CONTINUOUS
 62
     7
100
AcDbLine
 10
147.078613733
 20
223.983598374
 30
0.0
 11
147.078613733
 21
207.2688356654
 31
0.0
  0
LINE
  5
173
330
1F
100
AcDbEntity
  8
0
  6
CONTINUOUS
 62
     7
100
AcDbLine
 10
142.6565232234
 20
204.3991209637
 30
0.0
 11
148.8474500089
 21
202.7165597189
 31
0.0
  0
LINE
  5
174
330
1F
100
AcDbEntity
  8
0
  6
CONTINUOUS
 62
     7
100
AcDbLine
 10
147.078613733
 20
207.2688356654
 30
0.0
 11
146.97418325
 21
207.6570968909
 31
0.0
  0
LINE
  5
175
330
1F
100
AcDbEntity
  8
0
  6
CONTINUOUS
 62
     7
100
AcDbLine
 10
146.97418325
 20
207.6570968909
 30
0.0
 11
146.97418325
 21
224.15756734
 31
0.0
  0
LINE
  5
176
330
1F
100
AcDbEntity
  8
0
  6
CONTINUOUS
 62
     7
100
AcDbLine
 10
153.5144041198
 20
236.6296296756
 30
0.0
 11
154.6811425661
 21
237.7684021671
 31
0.0
  0
LINE
  5
177
330
1F
100
AcDbEntity
  8
0
  6
CONTINUOUS
 62
     7
100
AcDbLine
 10
152.9123062902
 20
238.2491339653
 30
0.0
 11
151.7455678439
 21
237.1103614738
 31
0.0
  0
LWPOLYLINE
  5
178
330
1F
100
AcDbEntity
  8
0
  6
CONTINUOUS
 62
     7
100
AcDbPolyline
 90
        8
 70
   128
 43
0.0
 10
154.9538139218
 20
234.8689147756
 10
154.9390063087
 20
235.1219091067
 10
154.8951897976
 20
235.3356403916
 10
154.8241581643
 20
235.5013585817
 10
154.7288194482
 20
235.6122793136
 10
154.613076888
 20
235.6638612593
 10
154.481668972
 20
235.6539924813
 10
154.3816346615
 20
235.6097126533
  0
LWPOLYLINE
  5
179
330
1F
100
AcDbEntity
  8
0
  6
CONTINUOUS
 62
     7
100
AcDbPolyline
 90
       14
 70
   128
 43
0.0
 10
153.628489708
 20
232.838541868
 10
153.681567232
 20
232.7617427449
 10
153.7876521394
 20
232.6800730526
 10
153.9118646606
 20
232.6591088311
 10
154.0491195565
 20
232.6997087275
 10
154.1937975598
 20
232.80021122
 10
154.3399755465
 20
232.9565012085
 10
154.481668972
 20
233.1621803811
 10
154.613076888
 20
233.408827912
 10
154.7288194482
 20
233.6863464318
 10
154.8241581643
 20
233.9833741829
 10
154.8951897976
 20
234.2877504765
 10
154.9390063087
 20
234.5870150757
 10
154.9538139218
 20
234.8689147756
  0
LINE
  5
17A
330
1F
100
AcDbEntity
  8
0
  6
CONTINUOUS
 62
     7
100
AcDbLine
 10
151.5244632773
 20
236.9561614962
 30
0.0
 11
152.6912017235
 21
238.0949339877
 31
0.0
  0
LINE
  5
17B
330
1F
100
AcDbEntity
  8
0
  6
CONTINUOUS
 62
     7
100
AcDbLine
 10
152.1143178322
 20
229.4772231074
 30
0.0
 11
152.1143178322
 21
229.7772315522
 31
0.0
  0
LINE
  5
17C
330
1F
100
AcDbEntity
  8
0
  6
CONTINUOUS
 62
     7
100
AcDbLine
 10
152.1143178322
 20
229.4772231074
 30
0.0
 11
152.4520962171
 21
229.7453007676
 31
0.0
  0
LINE
  5
17D
330
1F
100
AcDbEntity
  8
0
  6
CONTINUOUS
 62
     7
100
AcDbLine
 10
150.4908659705
 20
229.9184425371
 30
0.0
 11
152.1143178322
 21
229.4772231074
 31
0.0
  0
LWPOLYLINE
  5
17E
330
1F
100
AcDbEntity
  8
0
  6
CONTINUOUS
 62
     7
100
AcDbPolyline
 90
       15
 70
   128
 43
0.0
 10
154.6811425661
 20
237.7684021671
 10
155.0473076021
 20
238.0993667622
 10
155.4112149888
 20
238.3754440628
 10
155.7706213114
 20
238.5949305916
 10
156.1233106464
 20
238.7564746114
 10
156.4671085787
 20
238.8590802267
 10
156.7998952412
 20
238.9021129258
 10
157.1196193317
 20
238.8853100692
 10
157.4243093052
 20
238.8087734519
 10
157.7120866307
 20
238.6729750583
 10
157.981177526
 20
238.4787525497
 10
158.2299220861
 20
238.2273030059
 10
158.4567875389
 20
237.9201775027
 10
158.6603747656
 20
237.5592683166
 10
158.7257430427
 20
237.4209811002
  0
ARC
  5
17F
330
1F
100
AcDbEntity
  8
0
  6
CONTINUOUS
 62
     7
100
AcDbCircle
 10
155.1689320885
 20
236.4890788668
 30
0.0
 40
2.861844500218461
100
AcDbArc
 50
82.6518182705
 51
142.047553355
  0
LWPOLYLINE
  5
180
330
1F
100
AcDbEntity
  8
0
  6
CONTINUOUS
 62
     7
100
AcDbPolyline
 90
        3
 70
   128
 43
0.0
 10
152.6912017235
 20
238.0949339877
 10
153.0482126146
 20
238.4176240502
 10
153.3490011154
 20
238.6491773906
  0
ELLIPSE
  5
181
330
1F
100
AcDbEntity
  8
0
  6
CONTINUOUS
 62
     7
100
AcDbEllipse
 10
149.5719796171
 20
215.1186899161
 30
0.0
 11
-0.4285575585080323
 21
0.5605757733717951
 31
0.0
210
0.0
220
0.0
230
1.0
 40
0.4594605561
 41
2.78911216288294
 42
3.197195435317326
  0
LINE
  5
182
330
1F
100
AcDbEntity
  8
0
  6
CONTINUOUS
 62
     7
100
AcDbLine
 10
150.0141886724
 20
214.5699234419
 30
0.0
 11
152.9310348967
 21
217.4168547768
 31
0.0
  0
LINE
  5
183
330
1F
100
AcDbEntity
  8
0
  6
CONTINUOUS
 62
     7
100
AcDbLine
 10
153.0354655489
 20
217.0285941757
 30
0.0
 11
152.9310348967
 21
217.4168547768
 31
0.0
  0
LINE
  5
184
330
1F
100
AcDbEntity
  8
0
  6
CONTINUOUS
 62
     7
100
AcDbLine
 10
151.1621986208
 20
217.897586575
 30
0.0
 11
152.9310348967
 21
217.4168547768
 31
0.0
  0
LINE
  5
185
330
1F
100
AcDbEntity
  8
0
  6
CONTINUOUS
 62
     7
100
AcDbLine
 10
151.1621986208
 20
217.897586575
 30
0.0
 11
149.8852716306
 21
216.6512666866
 31
0.0
  0
LINE
  5
186
330
1F
100
AcDbEntity
  8
0
  6
CONTINUOUS
 62
     7
100
AcDbLine
 10
150.8244201878
 20
217.6295089279
 30
0.0
 11
151.1621986208
 21
217.897586575
 31
0.0
  0
LINE
  5
187
330
1F
100
AcDbEntity
  8
0
  6
CONTINUOUS
 62
     7
100
AcDbLine
 10
149.8852715285
 20
216.7128710455
 30
0.0
 11
150.8244201878
 21
217.6295089279
 31
0.0
  0
LWPOLYLINE
  5
188
330
1F
100
AcDbEntity
  8
0
  6
CONTINUOUS
 62
     7
100
AcDbPolyline
 90
       10
 70
   128
 43
0.0
 10
158.4147057462
 20
235.9266033035
 10
158.4003411982
 20
236.2478096783
 10
158.3576013546
 20
236.533065682
 10
158.2875389229
 20
236.7753495381
 10
158.1918785703
 20
236.9686928763
 10
158.0729760671
 20
237.1083372367
 10
157.9337587402
 20
237.1908419976
 10
157.7776554959
 20
237.2141773308
 10
157.6085092385
 20
237.1777672469
 10
157.5319221491
 20
237.1434649249
  0
LWPOLYLINE
  5
189
330
1F
100
AcDbEntity
  8
0
  6
CONTINUOUS
 62
     7
100
AcDbPolyline
 90
        8
 70
   128
 43
0.0
 10
152.760469662
 20
214.6847713754
 10
152.7456621032
 20
214.9377657595
 10
152.7018455378
 20
215.1514977897
 10
152.6308139588
 20
215.3172160328
 10
152.5354752427
 20
215.4281367647
 10
152.4197327097
 20
215.4797187369
 10
152.2883247394
 20
215.4698499059
 10
152.1882905647
 20
215.4255702105
  0
LWPOLYLINE
  5
18A
330
1F
100
AcDbEntity
  8
0
  6
CONTINUOUS
 62
     7
100
AcDbPolyline
 90
       14
 70
   128
 43
0.0
 10
151.4351456111
 20
212.6543986269
 10
151.4882230265
 20
212.577600196
 10
151.5943078796
 20
212.4959296524
 10
151.718520428
 20
212.4749654574
 10
151.8557753374
 20
212.5155661654
 10
152.0004533135
 20
212.6160686313
 10
152.1466312459
 20
212.7723585668
 10
152.2883247394
 20
212.9780378056
 10
152.4197327097
 20
213.2246853896
 10
152.5354752427
 20
213.5022038828
 10
152.6308139588
 20
213.799231634
 10
152.7018455378
 20
214.1036078746
 10
152.7456621032
 20
214.4028717285
 10
152.760469662
 20
214.6847713754
  0
LINE
  5
18B
330
1F
100
AcDbEntity
  8
0
  6
CONTINUOUS
 62
     7
100
AcDbLine
 10
142.6565232234
 20
208.470665112
 30
0.0
 11
142.7731973071
 21
208.7988348539
 31
0.0
  0
LINE
  5
18C
330
1F
100
AcDbEntity
  8
0
  6
CONTINUOUS
 62
     7
100
AcDbLine
 10
142.7731973071
 20
208.7988348539
 30
0.0
 11
146.97418325
 21
207.6570968909
 31
0.0
  0
LINE
  5
18D
330
1F
100
AcDbEntity
  8
0
  6
CONTINUOUS
 62
     7
100
AcDbLine
 10
153.0404958079
 20
218.8200329493
 30
0.0
 11
151.8921412796
 21
217.6992037252
 31
0.0
  0
LINE
  5
18E
330
1F
100
AcDbEntity
  8
0
  6
CONTINUOUS
 62
     7
100
AcDbLine
 10
146.9741833293
 20
212.8991259987
 30
0.0
 11
142.7731973071
 21
208.7988348539
 31
0.0
  0
LINE
  5
18F
330
1F
100
AcDbEntity
  8
0
  6
CONTINUOUS
 62
     7
100
AcDbLine
 10
153.2345161761
 20
218.7673023706
 30
0.0
 11
153.0404958079
 21
218.8200329493
 31
0.0
  0
LWPOLYLINE
  5
190
330
1F
100
AcDbEntity
  8
0
  6
CONTINUOUS
 62
     7
100
AcDbPolyline
 90
       12
 70
   128
 43
0.0
 10
145.7944742317
 20
211.471797435
 10
145.6592651902
 20
211.3062974956
 10
145.5819094254
 20
211.1312191317
 10
145.564757678
 20
210.9518825631
 10
145.6083310295
 20
210.7737364717
 10
145.7113053788
 20
210.6021938203
 10
145.8705519149
 20
210.4424668245
 10
146.0812324536
 20
210.2994087083
 10
146.3369448088
 20
210.1773662672
 10
146.6299194223
 20
210.0800475158
 10
146.9512549882
 20
210.0104099235
 10
146.974183368
 20
210.0066920149
  0
ARC
  5
191
330
1F
100
AcDbEntity
  8
0
  6
CONTINUOUS
 62
     7
100
AcDbCircle
 10
147.2211500358
 20
209.7634836083
 30
0.0
 40
2.225699885512494
100
AcDbArc
 50
96.3707336306
 51
129.8665004918
  0
LWPOLYLINE
  5
192
330
1F
100
AcDbEntity
  8
0
  6
CONTINUOUS
 62
     7
100
AcDbPolyline
 90
       27
 70
   128
 43
0.0
 10
145.2998376501
 20
208.7818469306
 10
145.0819344946
 20
208.8596824273
 10
144.9065300569
 20
208.9621144081
 10
144.7838177782
 20
209.083189446
 10
144.7209301184
 20
209.2158715179
 10
144.7215213676
 20
209.3524493426
 10
144.7855563644
 20
209.4849853816
 10
144.9093151445
 20
209.605777745
 10
145.0856047851
 20
209.7078059195
 10
145.3041788365
 20
209.785140147
 10
145.5523360884
 20
209.8332868768
 10
145.815654164
 20
209.8494474072
 10
146.0788295146
 20
209.832682528
 10
146.3265675001
 20
209.7839667401
 10
146.5444706556
 20
209.7061312434
 10
146.7198753106
 20
209.6036994746
 10
146.842587372
 20
209.4826242246
 10
146.9054750318
 20
209.3499421528
 10
146.9048842172
 20
209.2133647523
 10
146.8408487858
 20
209.080828289
 10
146.7170900057
 20
208.9600359257
 10
146.5408007997
 20
208.8580081753
 10
146.3222263137
 20
208.7806735236
 10
146.0740690618
 20
208.7325267939
 10
145.8107512035
 20
208.7163664756
 10
145.5475756356
 20
208.7331311426
 10
145.2998376501
 20
208.7818469306
  0
LWPOLYLINE
  5
193
330
1F
100
AcDbEntity
  8
0
  6
CONTINUOUS
 62
     7
100
AcDbPolyline
 90
       16
 70
   128
 43
0.0
 10
146.7886749679
 20
209.0210698587
 10
146.8130561619
 20
209.1432496351
 10
146.7773905935
 20
209.2710389954
 10
146.6811412469
 20
209.3902451675
 10
146.5303564504
 20
209.4933783252
 10
146.3345102623
 20
209.5739581404
 10
146.1059082442
 20
209.6269215094
 10
145.8589144465
 20
209.6489405696
 10
145.6090479299
 20
209.6386313659
 10
145.3720100252
 20
209.5966424982
 10
145.1626934686
 20
209.5256114798
 10
144.9942510392
 20
209.430001877
 10
144.8772661851
 20
209.315821073
 10
144.8190891702
 20
209.1902431509
 10
144.8233763514
 20
209.0611592135
 10
144.8377298786
 20
209.0210697462
  0
LWPOLYLINE
  5
194
330
1F
100
AcDbEntity
  8
0
  6
CONTINUOUS
 62
     7
100
AcDbPolyline
 90
       18
 70
   128
 43
0.0
 10
153.1503151606
 20
216.0803100581
 10
153.1538620726
 20
216.0747567594
 10
153.2727646845
 20
215.9351125049
 10
153.4119816853
 20
215.8526074259
 10
153.568085147
 20
215.8292723049
 10
153.7372313229
 20
215.8656823091
 10
153.9152552373
 20
215.9609399463
 10
154.0977733429
 20
216.1127002206
 10
154.2802914486
 20
216.3172264793
 10
154.458315363
 20
216.5694824382
 10
154.6274615389
 20
216.86325614
 10
154.7835650006
 20
217.1913147895
 10
154.9227820014
 20
217.5455799899
 10
155.0416846133
 20
217.917329433
 10
155.1373449659
 20
218.2974076446
 10
155.2074076149
 20
218.6764578752
 10
155.2501473499
 20
219.0451445681
 10
155.2645117892
 20
219.3943913152
  0
LINE
  5
195
330
1F
100
AcDbEntity
  8
0
  6
CONTINUOUS
 62
     7
100
AcDbLine
 10
142.5520927404
 20
208.644634078
 30
0.0
 11
142.7731973071
 21
208.7988348539
 31
0.0
  0
LINE
  5
196
330
1F
100
AcDbEntity
  8
0
  6
CONTINUOUS
 62
     7
100
AcDbLine
 10
142.5520927404
 20
208.644634078
 30
0.0
 11
142.6565232234
 21
208.470665112
 31
0.0
  0
LINE
  5
197
330
1F
100
AcDbEntity
  8
0
  6
CONTINUOUS
 62
     7
100
AcDbLine
 10
142.5520927404
 20
204.5730899297
 30
0.0
 11
142.5520927404
 21
208.644634078
 31
0.0
  0
LINE
  5
198
330
1F
100
AcDbEntity
  8
0
  6
CONTINUOUS
 62
     7
100
AcDbLine
 10
142.6565232234
 20
204.3991209637
 30
0.0
 11
142.5520927404
 21
204.5730899297
 31
0.0
  0
ARC
  5
199
330
1F
100
AcDbEntity
  8
0
  6
CONTINUOUS
 62
     7
100
AcDbCircle
 10
147.7030421012
 20
219.9859948923
 30
0.0
 40
5.793694365280862
100
AcDbArc
 50
333.7692881631
 51
358.9034849979
  0
LINE
  5
19A
330
1F
100
AcDbEntity
  8
0
  6
CONTINUOUS
 62
     7
100
AcDbLine
 10
142.5520927404
 20
208.644634078
 30
0.0
 11
146.9741833359
 21
212.9607300646
 31
0.0
  0
LINE
  5
19B
330
1F
100
AcDbEntity
  8
0
  6
CONTINUOUS
 62
     7
100
AcDbLine
 10
151.8427714923
 20
217.7126213587
 30
0.0
 11
152.8193912413
 21
218.6658321734
 31
0.0
  0
LINE
  5
19C
330
1F
100
AcDbEntity
  8
0
  6
CONTINUOUS
 62
     7
100
AcDbLine
 10
152.8193912413
 20
218.6658321734
 30
0.0
 11
153.0404958079
 21
218.8200329493
 31
0.0
  0
LINE
  5
19D
330
1F
100
AcDbEntity
  8
0
  6
CONTINUOUS
 62
     7
100
AcDbLine
 10
158.7524839138
 20
222.6085793631
 30
0.0
 11
158.2168396672
 21
222.8631075641
 31
0.0
  0
ELLIPSE
  5
19E
330
1F
100
AcDbEntity
  8
0
  6
CONTINUOUS
 62
     7
100
AcDbEllipse
 10
157.7391489234
 20
223.0900975352
 30
0.0
 11
0.6672658027139846
 21
0.1731912904341754
 31
0.0
210
0.0
220
0.0
230
1.0
 40
0.6092358932
 41
5.340956306065824
 42
6.126354469463314
  0
LINE
  5
19F
330
1F
100
AcDbEntity
  8
0
  6
CONTINUOUS
 62
     7
100
AcDbLine
 10
158.4147057462
 20
223.1976689571
 30
0.0
 11
158.4147057462
 21
224.6660410528
 31
0.0
  0
LINE
  5
1A0
330
1F
100
AcDbEntity
  8
0
  6
CONTINUOUS
 62
     7
100
AcDbLine
 10
158.4147057462
 20
228.0572539179
 30
0.0
 11
158.4147057462
 21
231.8450478839
 31
0.0
  0
LINE
  5
1A1
330
1F
100
AcDbEntity
  8
0
  6
CONTINUOUS
 62
     7
100
AcDbLine
 10
158.4147057462
 20
234.6319052028
 30
0.0
 11
158.4147057462
 21
235.9266033035
 31
0.0
  0
ARC
  5
1A2
330
1F
100
AcDbEntity
  8
0
  6
CONTINUOUS
 62
     7
100
AcDbCircle
 10
147.0632627404
 20
220.1600590306
 30
0.0
 40
6.328954955044988
100
AcDbArc
 50
334.710382639
 51
358.9953671712
  0
LINE
  5
1A3
330
1F
100
AcDbEntity
  8
0
  6
CONTINUOUS
 62
     7
100
AcDbLine
 10
156.6458694703
 20
235.7327027772
 30
0.0
 11
156.6458694703
 21
234.2652622968
 31
0.0
  0
LINE
  5
1A4
330
1F
100
AcDbEntity
  8
0
  6
CONTINUOUS
 62
     7
100
AcDbLine
 10
156.6458694703
 20
231.9001879871
 30
0.0
 11
156.6458694703
 21
223.6784007553
 31
0.0
  0
ELLIPSE
  5
1A5
330
1F
100
AcDbEntity
  8
0
  6
CONTINUOUS
 62
     7
100
AcDbEllipse
 10
156.8547308017
 20
223.3304634298
 30
0.0
 11
-0.1429152564355149
 21
0.5506192780622428
 31
0.0
210
0.0
220
0.0
230
1.0
 40
0.2766155982
 41
0.817209327718734
 42
1.602607491116168
  0
LINE
  5
1A6
330
1F
100
AcDbEntity
  8
0
  6
CONTINUOUS
 62
     7
100
AcDbLine
 10
156.5414385527
 20
223.2094941153
 30
0.0
 11
156.7070434008
 21
223.2734378383
 31
0.0
  0
LINE
  5
1A7
330
1F
100
AcDbEntity
  8
0
  6
CONTINUOUS
 62
     7
100
AcDbLine
 10
156.5414385527
 20
223.2094941153
 30
0.0
 11
156.5414385527
 21
231.9311470046
 31
0.0
  0
LINE
  5
1A8
330
1F
100
AcDbEntity
  8
0
  6
CONTINUOUS
 62
     7
100
AcDbLine
 10
156.5414385527
 20
234.0410160183
 30
0.0
 11
156.5414385527
 21
235.4513417792
 31
0.0
  0
LINE
  5
1A9
330
1F
100
AcDbEntity
  8
0
  6
CONTINUOUS
 62
     7
100
AcDbLine
 10
155.6022901741
 20
219.5338936996
 30
0.0
 11
155.2645117892
 21
219.6943997599
 31
0.0
  0
LINE
  5
1AA
330
1F
100
AcDbEntity
  8
0
  6
CONTINUOUS
 62
     7
100
AcDbLine
 10
155.2645117892
 20
219.6943997599
 30
0.0
 11
158.1813580135
 21
222.5413310949
 31
0.0
  0
ELLIPSE
  5
1AB
330
1F
100
AcDbEntity
  8
0
  6
CONTINUOUS
 62
     7
100
AcDbEllipse
 10
157.7391489234
 20
223.0900975352
 30
0.0
 11
-0.428557558508004
 21
0.5605757733717668
 31
0.0
210
0.0
220
0.0
230
1.0
 40
0.4594605561
 41
3.197195435317352
 42
3.982593598714752
  0
LINE
  5
1AC
330
1F
100
AcDbEntity
  8
0
  6
CONTINUOUS
 62
     7
100
AcDbLine
 10
155.2645117892
 20
219.3943913152
 30
0.0
 11
155.2645117892
 21
219.6943997599
 31
0.0
  0
LINE
  5
1AD
330
1F
100
AcDbEntity
  8
0
  6
CONTINUOUS
 62
     7
100
AcDbLine
 10
153.4956755133
 20
220.1751315582
 30
0.0
 11
155.2645117892
 21
219.6943997599
 31
0.0
  0
LINE
  5
1AE
330
1F
100
AcDbEntity
  8
0
  6
CONTINUOUS
 62
     7
100
AcDbLine
 10
156.4125217376
 20
223.0220628931
 30
0.0
 11
153.4956755133
 21
220.1751315582
 31
0.0
  0
LINE
  5
1AF
330
1F
100
AcDbEntity
  8
0
  6
CONTINUOUS
 62
     7
100
AcDbLine
 10
153.4956755133
 20
220.1751315582
 30
0.0
 11
153.4956755133
 21
219.8751231134
 31
0.0
  0
ELLIPSE
  5
1B0
330
1F
100
AcDbEntity
  8
0
  6
CONTINUOUS
 62
     7
100
AcDbEllipse
 10
156.8547308017
 20
223.3304634298
 30
0.0
 11
0.4992272817792411
 21
0.3816569234397207
 31
0.0
210
0.0
220
0.0
230
1.0
 40
0.0728064026
 41
1.81504111055993
 42
2.600439273957551
  0
LINE
  5
1B1
330
1F
100
AcDbEntity
  8
0
  6
CONTINUOUS
 62
     7
100
AcDbLine
 10
153.391244813
 20
220.1348084517
 30
0.0
 11
153.4956755133
 21
220.1751315582
 31
0.0
  0
LINE
  5
1B2
330
1F
100
AcDbEntity
  8
0
  6
CONTINUOUS
 62
     7
100
AcDbLine
 10
153.391244813
 20
220.1348084517
 30
0.0
 11
156.5414385527
 21
223.2094941153
 31
0.0
  0
LINE
  5
1B3
330
1F
100
AcDbEntity
  8
0
  6
CONTINUOUS
 62
     7
100
AcDbLine
 10
153.391244813
 20
220.0490918673
 30
0.0
 11
153.391244813
 21
220.1348084517
 31
0.0
  0
LWPOLYLINE
  5
1B4
330
1F
100
AcDbEntity
  8
0
  6
CONTINUOUS
 62
     7
100
AcDbPolyline
 90
        8
 70
   128
 43
0.0
 10
157.1471581816
 20
218.9663138507
 10
157.1323505142
 20
219.2193081288
 10
157.0885340575
 20
219.433040265
 10
157.0175023697
 20
219.598758402
 10
156.9221636537
 20
219.709679134
 10
156.806421012
 20
219.7612610001
 10
156.6750131503
 20
219.7513922751
 10
156.5749789757
 20
219.7071125797
  0
LWPOLYLINE
  5
1B5
330
1F
100
AcDbEntity
  8
0
  6
CONTINUOUS
 62
     7
100
AcDbPolyline
 90
       14
 70
   128
 43
0.0
 10
155.8218339134
 20
216.9359408901
 10
155.8749114375
 20
216.8591425652
 10
155.9809962906
 20
216.7774720216
 10
156.1052088389
 20
216.7565078266
 10
156.2424637484
 20
216.7971085346
 10
156.3871417245
 20
216.8976110006
 10
156.5333196569
 20
217.0539009361
 10
156.6750131503
 20
217.2595801749
 10
156.806421012
 20
217.5062276528
 10
156.9221636537
 20
217.7837462521
 10
157.0175023697
 20
218.0807740032
 10
157.0885340575
 20
218.3851503499
 10
157.1323505142
 20
218.6844140978
 10
157.1471581816
 20
218.9663138507
  0
LWPOLYLINE
  5
1B6
330
1F
100
AcDbEntity
  8
0
  6
CONTINUOUS
 62
     7
100
AcDbPolyline
 90
       32
 70
   128
 43
0.0
 10
155.4155494992
 20
211.845822113
 10
155.3923066966
 20
212.088551769
 10
155.3986290275
 20
212.3632975701
 10
155.4342576615
 20
212.6588127126
 10
155.4977339334
 20
212.9629978385
 10
155.5864591071
 20
213.26339923
 10
155.696800863
 20
213.5477198772
 10
155.8242417293
 20
213.8043179977
 10
155.96356424
 20
214.0226895141
 10
156.1090645625
 20
214.1938944966
 10
156.2547859015
 20
214.3109222798
 10
156.3947625513
 20
214.3689839496
 10
156.5232634055
 20
214.3656997232
 10
156.6350280771
 20
214.3012064717
 10
156.7254806345
 20
214.1781436072
 10
156.7909181286
 20
214.0015489052
 10
156.8286614141
 20
213.7786536608
 10
156.8371653316
 20
213.5185815007
 10
156.8160817315
 20
213.231980411
 10
156.7662737079
 20
212.9305839949
 10
156.6897805016
 20
212.6267317654
 10
156.5897337223
 20
212.3328626809
 10
156.4702293459
 20
212.061008623
 10
156.3361597247
 20
211.8222991397
 10
156.1930138685
 20
211.6265062678
 10
156.0466520817
 20
211.4816465509
 10
155.9030663658
 20
211.3936505911
 10
155.7681354976
 20
211.3661208041
 10
155.6473831497
 20
211.4001839492
 10
155.5457529625
 20
211.4944456214
 10
155.4674059997
 20
211.6450472196
 10
155.4155494992
 20
211.845822113
  0
LWPOLYLINE
  5
1B7
330
1F
100
AcDbEntity
  8
0
  6
CONTINUOUS
 62
     7
100
AcDbPolyline
 90
       13
 70
   128
 43
0.0
 10
154.0889223052
 20
212.2063709582
 10
154.0656795025
 20
212.4491006142
 10
154.0720018335
 20
212.7238464153
 10
154.1076304674
 20
213.0193615577
 10
154.1711067393
 20
213.3235466836
 10
154.259831913
 20
213.6239480752
 10
154.370173669
 20
213.9082687224
 10
154.4976145353
 20
214.1648668429
 10
154.636937046
 20
214.3832383593
 10
154.7824373685
 20
214.5544433418
 10
154.9281587074
 20
214.6714711249
 10
155.0681353572
 20
214.7295327947
 10
155.1943465072
 20
214.7268828343
  0
ARC
  5
1B8
330
1F
100
AcDbEntity
  8
0
  6
CONTINUOUS
 62
     7
100
AcDbCircle
 10
154.6017178113
 20
212.1984814076
 30
0.0
 40
0.5128561943617338
100
AcDbArc
 50
179.1185525544
 51
244.5491207613
  0
LWPOLYLINE
  5
1B9
330
1F
100
AcDbEntity
  8
0
  6
CONTINUOUS
 62
     7
100
AcDbPolyline
 90
       19
 70
   128
 43
0.0
 10
159.8662148767
 20
216.4220573298
 10
159.8810224355
 20
216.7039569766
 10
159.9248390008
 20
217.0032216288
 10
159.9958705799
 20
217.3075978694
 10
160.091209296
 20
217.6046256206
 10
160.206951829
 20
217.8821441138
 10
160.3383597993
 20
218.1287916978
 10
160.4800532927
 20
218.3344709366
 10
160.6262312252
 20
218.4907608721
 10
160.7709092013
 20
218.5912633381
 10
160.9081641107
 20
218.6318632477
 10
161.0323766591
 20
218.6108990527
 10
161.1384615122
 20
218.5292285091
 10
161.2220757076
 20
218.3901957972
 10
161.2797959897
 20
218.1994924704
 10
161.3092591992
 20
217.9649264646
 10
161.3092591992
 20
217.696099988
 10
161.2797959897
 20
217.4040191924
 10
161.2285538584
 20
217.1288841125
  0
LWPOLYLINE
  5
1BA
330
1F
100
AcDbEntity
  8
0
  6
CONTINUOUS
 62
     7
100
AcDbPolyline
 90
       12
 70
   128
 43
0.0
 10
160.9305782646
 20
216.2891681692
 10
160.9081641107
 20
216.2462002014
 10
160.7709092013
 20
216.0188709108
 10
160.6262312252
 20
215.8369530967
 10
160.4800532927
 20
215.7078947455
 10
160.3383597993
 20
215.6369795975
 10
160.206951829
 20
215.6271107665
 10
160.091209296
 20
215.6786927387
 10
159.9958705799
 20
215.7896134707
 10
159.9248390008
 20
215.9553317138
 10
159.8810224355
 20
216.1690629456
 10
159.8662148767
 20
216.4220573298
  0
LWPOLYLINE
  5
1BB
330
1F
100
AcDbEntity
  8
0
  6
CONTINUOUS
 62
     7
100
AcDbPolyline
 90
       12
 70
   128
 43
0.0
 10
158.5395878886
 20
216.782606119
 10
158.5543954473
 20
217.0645057658
 10
158.5982120127
 20
217.363770418
 10
158.6692435918
 20
217.6681466586
 10
158.7645823078
 20
217.9651744098
 10
158.8803248409
 20
218.242692903
 10
159.0117328112
 20
218.489340487
 10
159.1534263046
 20
218.6950197258
 10
159.299604237
 20
218.8513096613
 10
159.4442822132
 20
218.9518121272
 10
159.5815371226
 20
218.9924120369
 10
159.6694766773
 20
218.9843884929
  0
ARC
  5
1BC
330
1F
100
AcDbEntity
  8
0
  6
CONTINUOUS
 62
     7
100
AcDbCircle
 10
159.3078918453
 20
216.63246265
 30
0.0
 40
0.7828371677711562
100
AcDbArc
 50
168.94250168
 51
234.7834664383
  0
LWPOLYLINE
  5
1BD
330
1F
100
AcDbEntity
  8
0
  6
CONTINUOUS
 62
     7
100
AcDbPolyline
 90
       32
 70
   128
 43
0.0
 10
157.5844289549
 20
232.3486948033
 10
157.5992365681
 20
232.6305945032
 10
157.6430530791
 20
232.9298583041
 10
157.7140847125
 20
233.2342345977
 10
157.8094234285
 20
233.5312623489
 10
157.9251659887
 20
233.8087808686
 10
158.0565739047
 20
234.0554283996
 10
158.1982673303
 20
234.2611075721
 10
158.344445317
 20
234.4173975606
 10
158.4891233203
 20
234.5179000531
 10
158.6263782161
 20
234.5585007478
 10
158.7505907373
 20
234.5375365263
 10
158.8566756447
 20
234.4558660357
 10
158.9402897859
 20
234.3168332708
 10
158.9980100136
 20
234.1261298909
 10
159.0274732775
 20
233.8915631399
 10
159.0274732775
 20
233.6227366632
 10
158.9980100136
 20
233.3306566129
 10
158.9402897859
 20
233.0272798096
 10
158.8566756447
 20
232.7250263162
 10
158.7505907373
 20
232.4362723803
 10
158.6263782161
 20
232.1728377015
 10
158.4891233203
 20
231.9455076258
 10
158.344445317
 20
231.7635897853
 10
158.1982673303
 20
231.634531381
 10
158.0565739047
 20
231.5636162993
 10
157.9251659887
 20
231.5537475213
 10
157.8094234285
 20
231.605329467
 10
157.7140847125
 20
231.716250199
 10
157.6430530791
 20
231.881968389
 10
157.5992365681
 20
232.0957004722
 10
157.5844289549
 20
232.3486948033
  0
LWPOLYLINE
  5
1BE
330
1F
100
AcDbEntity
  8
0
  6
CONTINUOUS
 62
     7
100
AcDbPolyline
 90
       12
 70
   128
 43
0.0
 10
156.2578017609
 20
232.7092436485
 10
156.272609374
 20
232.9911433484
 10
156.3164258851
 20
233.2904071493
 10
156.3874575185
 20
233.5947834429
 10
156.4827962345
 20
233.891811194
 10
156.5985387947
 20
234.1693297138
 10
156.7299467107
 20
234.4159772447
 10
156.8716401362
 20
234.6216564173
 10
157.0178181229
 20
234.7779464058
 10
157.1624961262
 20
234.8784488983
 10
157.2997510221
 20
234.919049593
 10
157.3876906855
 20
234.911026155
  0
ARC
  5
1BF
330
1F
100
AcDbEntity
  8
0
  6
CONTINUOUS
 62
     7
100
AcDbCircle
 10
157.0261031156
 20
232.5590992465
 30
0.0
 40
0.7828347930025831
100
AcDbArc
 50
168.9423981318
 51
234.7835841611
  0
LWPOLYLINE
  5
1C0
330
1F
100
AcDbEntity
  8
0
  6
CONTINUOUS
 62
     7
100
AcDbPolyline
 90
       28
 70
   128
 43
0.0
 10
160.519506276
 20
224.6121381765
 10
160.4477148306
 20
224.5275648224
 10
160.2908726916
 20
224.3806740946
 10
160.1371530346
 20
224.2881680338
 10
159.9914964576
 20
224.2530199537
 10
159.8585845106
 20
224.2763593193
 10
159.7426893089
 20
224.3574363268
 10
159.6475357512
 20
224.4936450889
 10
159.5761819923
 20
224.680606946
 10
159.5309212137
 20
224.9123136824
 10
159.5132086034
 20
225.1813176986
 10
159.5236135449
 20
225.4789731343
 10
159.5618009279
 20
225.7957129964
 10
159.6265437522
 20
226.1213568331
 10
159.7157613775
 20
226.4454390455
 10
159.8265860229
 20
226.7575424218
 10
159.9554557812
 20
227.0476355961
 10
160.0982284956
 20
227.3063949469
 10
160.2503154125
 20
227.5255042854
 10
160.4068285261
 20
227.6979208084
 10
160.56273705
 20
227.8181028595
 10
160.7130301913
 20
227.8821879606
 10
160.8528775346
 20
227.8881166215
 10
160.9777837747
 20
227.8356971475
 10
161.0837347574
 20
227.7266156618
 10
161.1673250475
 20
227.564377007
 10
161.2258678932
 20
227.3541965333
 10
161.2407355416
 20
227.2658764916
  0
LWPOLYLINE
  5
1C1
330
1F
100
AcDbEntity
  8
0
  6
CONTINUOUS
 62
     7
100
AcDbPolyline
 90
       20
 70
   128
 43
0.0
 10
158.0389977695
 20
224.7681501742
 10
158.0013063154
 20
224.7811277361
 10
157.8854111137
 20
224.8622047436
 10
157.7902575559
 20
224.9984135057
 10
157.718903797
 20
225.1853753628
 10
157.6736430185
 20
225.4170820992
 10
157.6559304082
 20
225.6860861154
 10
157.6663353497
 20
225.9837415511
 10
157.7045227326
 20
226.3004814132
 10
157.769265557
 20
226.6261252499
 10
157.8584831823
 20
226.9502074623
 10
157.9693078277
 20
227.2623108386
 10
158.098177586
 20
227.5524040129
 10
158.2409503004
 20
227.8111633637
 10
158.3930372173
 20
228.0302727022
 10
158.5495503309
 20
228.2026892252
 10
158.7054588548
 20
228.3228712763
 10
158.8557519961
 20
228.3869563774
 10
158.9955993394
 20
228.3928850383
 10
159.0224922819
 20
228.3868844795
  0
LWPOLYLINE
  5
1C2
330
1F
100
AcDbEntity
  8
0
  6
CONTINUOUS
 62
     7
100
AcDbPolyline
 90
       17
 70
   128
 43
0.0
 10
160.0274086968
 20
224.745879659
 10
159.9555322786
 20
224.7799204896
 10
159.8664194025
 20
224.8771240021
 10
159.800103167
 20
225.0265822114
 10
159.7594817779
 20
225.2217629983
 10
159.7463307559
 20
225.4541359907
 10
159.7612247002
 20
225.713545646
 10
159.8035129488
 20
225.9886533017
 10
159.8713469609
 20
226.2674372932
 10
159.9617622476
 20
226.5377119849
 10
160.070807026
 20
226.7876660618
 10
160.1937158599
 20
227.0063744782
 10
160.3251167672
 20
227.1842784093
 10
160.4592670149
 20
227.3136037923
 10
160.5903036906
 20
227.3886976971
 10
160.712499491
 20
227.4062787816
 10
160.7486379624
 20
227.3996179741
  0
LWPOLYLINE
  5
1C3
330
1F
100
AcDbEntity
  8
0
  6
CONTINUOUS
 62
     7
100
AcDbPolyline
 90
       27
 70
   128
 43
0.0
 10
161.7417279905
 20
224.9276357563
 10
161.6878532208
 20
224.8386666476
 10
161.5564520961
 20
224.6607621052
 10
161.4223018484
 20
224.5314367222
 10
161.29126539
 20
224.4563430295
 10
161.1690693723
 20
224.438762132
 10
161.0610547
 20
224.4794631839
 10
160.9719418239
 20
224.5766666964
 10
160.9056255884
 20
224.7261249058
 10
160.8650041994
 20
224.9213056926
 10
160.8518531774
 20
225.153678685
 10
160.8667471216
 20
225.4130883403
 10
160.9090353702
 20
225.688195996
 10
160.9768693824
 20
225.9669799875
 10
161.0672846691
 20
226.2372546792
 10
161.1763294475
 20
226.4872087561
 10
161.2992382813
 20
226.7059171725
 10
161.4306391887
 20
226.8838211036
 10
161.5647894364
 20
227.0131464866
 10
161.6958261121
 20
227.0882403914
 10
161.8180219125
 20
227.1058214759
 10
161.9260368021
 20
227.065120237
 10
162.0151496782
 20
226.9679167245
 10
162.0814659137
 20
226.818458116
 10
162.1220870854
 20
226.6232779154
 10
162.1352381074
 20
226.3909049229
 10
162.1351257519
 20
226.3751294359
  0
LWPOLYLINE
  5
1C4
330
1F
100
AcDbEntity
  8
0
  6
CONTINUOUS
 62
     7
100
AcDbPolyline
 90
       18
 70
   128
 43
0.0
 10
161.4708296282
 20
225.0012600926
 10
161.4270312092
 20
224.9673662283
 10
161.3250181007
 20
224.9246324243
 10
161.2344900239
 20
224.939664777
 10
161.1616158805
 20
225.0114393324
 10
161.1113625641
 20
225.1350650793
 10
161.0871542
 20
225.3021163395
 10
161.0906406965
 20
225.5012099562
 10
161.1215845206
 20
225.7187761061
 10
161.1778769973
 20
225.939990655
 10
161.2556817417
 20
226.1497757192
 10
161.3496965323
 20
226.3338363971
 10
161.4535142825
 20
226.4796285777
 10
161.5600602928
 20
226.5772167935
 10
161.6620734014
 20
226.6199513958
 10
161.7526014782
 20
226.604918644
 10
161.8254754043
 20
226.5331438764
 10
161.8642273897
 20
226.4487537723
  0
LWPOLYLINE
  5
1C5
330
1F
100
AcDbEntity
  8
0
  6
CONTINUOUS
 62
     7
100
AcDbPolyline
 90
       17
 70
   128
 43
0.0
 10
166.3277963935
 20
230.8952511983
 10
166.2711322962
 20
230.9194483244
 10
166.1788919395
 20
231.0083301458
 10
166.1089201311
 20
231.1502604404
 10
166.0642748084
 20
231.3390362229
 10
166.046907088
 20
231.5664062788
 10
166.0575762931
 20
231.8224348775
 10
166.0958160506
 20
232.0959316952
 10
166.1599549372
 20
232.3749433622
 10
166.2471899341
 20
232.6472765948
 10
166.3537085619
 20
232.901027729
 10
166.4748551318
 20
233.1251074141
 10
166.605335246
 20
233.3097228096
 10
166.739445941
 20
233.446804182
 10
166.871326478
 20
233.5303614451
 10
166.9952123914
 20
233.5567416999
 10
167.049025659
 20
233.5489895134
  0
LWPOLYLINE
  5
1C6
330
1F
100
AcDbEntity
  8
0
  6
CONTINUOUS
 62
     7
100
AcDbPolyline
 90
       26
 70
   128
 43
0.0
 10
166.6188179013
 20
230.5520977333
 10
166.4641844055
 20
230.4497400259
 10
166.3167575237
 20
230.4043482168
 10
166.1812761789
 20
230.4173811859
 10
166.0620941997
 20
230.4884195502
 10
165.963042755
 20
230.6151806777
 10
165.8873053945
 20
230.7935907094
 10
165.8373161244
 20
231.0179141904
 10
165.814681606
 20
231.280941971
 10
165.8201296506
 20
231.5742203411
 10
165.8534848794
 20
231.8883226439
 10
165.913675243
 20
232.2131530061
 10
165.9987663586
 20
232.538272029
 10
166.1060232292
 20
232.8532300472
 10
166.2319984761
 20
233.1479031135
 10
166.3726431737
 20
233.4128207098
 10
166.5234370248
 20
233.6394684275
 10
166.6795333149
 20
233.8205619652
 10
166.8359147314
 20
233.9502790433
 10
166.9875554863
 20
234.0244527655
 10
167.129581265
 20
234.0406973983
 10
167.2574276541
 20
233.998491953
 10
167.3669853124
 20
233.8991925526
 10
167.4547329718
 20
233.7459898119
 10
167.5178506625
 20
233.5438093961
 10
167.5411232382
 20
233.4152480308
  0
LWPOLYLINE
  5
1C7
330
1F
100
AcDbEntity
  8
0
  6
CONTINUOUS
 62
     7
100
AcDbPolyline
 90
        3
 70
   128
 43
0.0
 10
166.8198939726
 20
230.7615097158
 10
166.7756882923
 20
230.7081314158
 10
166.6188179013
 20
230.5520977333
  0
LWPOLYLINE
  5
1C8
330
1F
100
AcDbEntity
  8
0
  6
CONTINUOUS
 62
     7
100
AcDbPolyline
 90
       20
 70
   128
 43
0.0
 10
164.3393856835
 20
230.9175219256
 10
164.3239979837
 20
230.9221496027
 10
164.2048160044
 20
230.993187967
 10
164.1057645598
 20
231.1199490945
 10
164.0300271993
 20
231.2983591262
 10
163.9800379292
 20
231.5226826072
 10
163.9574034108
 20
231.7857103878
 10
163.9628514554
 20
232.0789887579
 10
163.9962066842
 20
232.3930910607
 10
164.0563970478
 20
232.7179214229
 10
164.1414881634
 20
233.0430404458
 10
164.2487450339
 20
233.357998464
 10
164.3747202809
 20
233.6526715303
 10
164.5153649784
 20
233.9175891266
 10
164.6661588296
 20
234.1442368443
 10
164.8222551197
 20
234.325330382
 10
164.9786365361
 20
234.4550474601
 10
165.130277291
 20
234.5292211823
 10
165.2723030698
 20
234.5454658151
 10
165.3228801958
 20
234.5362562309
  0
LWPOLYLINE
  5
1C9
330
1F
100
AcDbEntity
  8
0
  6
CONTINUOUS
 62
     7
100
AcDbPolyline
 90
       19
 70
   128
 43
0.0
 10
167.7712173249
 20
231.1506316318
 10
167.761456743
 20
231.1423192179
 10
167.657207174
 20
231.081482477
 10
167.5622752847
 20
231.0779022696
 10
167.483130533
 20
231.1318231166
 10
167.4251664156
 20
231.2395702803
 10
167.3923331943
 20
231.393800795
 10
167.3868684159
 20
231.5840048187
 10
167.4091445703
 20
231.7972191053
 10
167.457643229
 20
232.0189142186
 10
167.5290595766
 20
232.2339818733
 10
167.6185266875
 20
232.4277657053
 10
167.7199473764
 20
232.5870589327
 10
167.8264101524
 20
232.7010068824
 10
167.9306597214
 20
232.7618440225
 10
168.0255916107
 20
232.765424629
 10
168.1047363624
 20
232.711503782
 10
168.1627004798
 20
232.6037566183
 10
168.1646150864
 20
232.5981253115
  0
LWPOLYLINE
  5
1CA
330
1F
100
AcDbEntity
  8
0
  6
CONTINUOUS
 62
     7
100
AcDbPolyline
 90
       24
 70
   128
 43
0.0
 10
167.7428985329
 20
230.6969800223
 10
167.6110182133
 20
230.6134229713
 10
167.4871320825
 20
230.5870421052
 10
167.3766547176
 20
230.6189910187
 10
167.284414361
 20
230.7078728401
 10
167.2144425526
 20
230.8498031347
 10
167.1697972298
 20
231.0385789172
 10
167.1524295095
 20
231.2659489732
 10
167.1630987146
 20
231.5219775718
 10
167.2013384721
 20
231.7954743895
 10
167.2654773587
 20
232.0744860565
 10
167.3527123556
 20
232.3468192892
 10
167.4592309834
 20
232.6005704233
 10
167.5803775533
 20
232.8246501084
 10
167.7108576674
 20
233.0092655039
 10
167.8449683625
 20
233.1463468763
 10
167.9768488995
 20
233.2299041395
 10
168.1007348129
 20
233.2562843942
 10
168.2112121778
 20
233.2243354807
 10
168.3034525344
 20
233.1354540585
 10
168.3734245602
 20
232.993523976
 10
168.4180698829
 20
232.8047477944
 10
168.4354373859
 20
232.5773771271
 10
168.4355134486
 20
232.5245009752
  0
ARC
  5
1CB
330
1F
100
AcDbEntity
  8
0
  6
CONTINUOUS
 62
     7
100
AcDbCircle
 10
166.7452167766
 20
231.7903207958
 30
0.0
 40
1.480122607715967
100
AcDbArc
 50
312.3806885547
 51
331.188558432
  0
LWPOLYLINE
  5
1CC
330
1F
100
AcDbEntity
  8
0
  6
CONTINUOUS
 62
     7
100
AcDbPolyline
 90
       11
 70
   128
 43
0.0
 10
162.9211152921
 20
215.410831879
 10
162.9711906217
 20
215.688293941
 10
163.0460476651
 20
215.9658262965
 10
163.1424149389
 20
216.2312997154
 10
163.2560806345
 20
216.4731117043
 10
163.3820770703
 20
216.6806938393
 10
163.5148975639
 20
216.8449741065
 10
163.6487372398
 20
216.9587723959
 10
163.7777466614
 20
217.0171151108
 10
163.8962874865
 20
217.0174527637
 10
163.8988318107
 20
217.0167776311
  0
LWPOLYLINE
  5
1CD
330
1F
100
AcDbEntity
  8
0
  6
CONTINUOUS
 62
     7
100
AcDbPolyline
 90
        7
 70
   128
 43
0.0
 10
163.1776025451
 20
214.363039316
 10
163.0772554268
 20
214.4200465398
 10
162.9945102476
 20
214.5332283196
 10
162.9355275965
 20
214.6969623675
 10
162.9028854555
 20
214.904092679
 10
162.8980103259
 20
215.145567015
 10
162.9211152921
 20
215.410831879
  0
LWPOLYLINE
  5
1CE
330
1F
100
AcDbEntity
  8
0
  6
CONTINUOUS
 62
     7
100
AcDbPolyline
 90
       16
 70
   128
 43
0.0
 10
162.6967146508
 20
215.3093499598
 10
162.7530888405
 20
215.6332608429
 10
162.8346977518
 20
215.9589925814
 10
162.9389183626
 20
216.2760754765
 10
163.0624009265
 20
216.5743188183
 10
163.2011766008
 20
216.8441362651
 10
163.350785042
 20
217.0768559854
 10
163.5064177028
 20
217.2649982257
 10
163.6630724289
 20
217.4025156123
 10
163.8157141959
 20
217.4849883538
 10
163.9594369877
 20
217.509765474
 10
164.0896214353
 20
217.4760512171
 10
164.2020832757
 20
217.3849290053
 10
164.2932079557
 20
217.2393271689
 10
164.3600665725
 20
217.0439257483
 10
164.3909293899
 20
216.8830357494
  0
LWPOLYLINE
  5
1CF
330
1F
100
AcDbEntity
  8
0
  6
CONTINUOUS
 62
     7
100
AcDbPolyline
 90
       13
 70
   128
 43
0.0
 10
163.6697001243
 20
214.2292970352
 10
163.6482760486
 20
214.2029029628
 10
163.491501225
 20
214.0394154358
 10
163.3362278925
 20
213.9289755166
 10
163.1874466601
 20
213.8751338058
 10
163.0499394671
 20
213.8796206794
 10
162.928125936
 20
213.9422913235
 10
162.8259212581
 20
214.0611315171
 10
162.7466103094
 20
214.2323223665
 10
162.6927422767
 20
214.4503609804
 10
162.6660485098
 20
214.708239739
 10
162.6673869958
 20
214.9976703061
 10
162.6967146508
 20
215.3093499598
  0
LWPOLYLINE
  5
1D0
330
1F
100
AcDbEntity
  8
0
  6
CONTINUOUS
 62
     7
100
AcDbPolyline
 90
       12
 70
   128
 43
0.0
 10
160.8394364555
 20
215.8141183766
 10
160.8958106453
 20
216.1380292597
 10
160.9774195566
 20
216.4637609982
 10
161.0816401674
 20
216.7808438933
 10
161.2051227313
 20
217.0790872351
 10
161.3438984055
 20
217.3489046819
 10
161.4935068468
 20
217.5816244022
 10
161.6491395076
 20
217.7697666425
 10
161.8057942336
 20
217.9072840291
 10
161.9584360007
 20
217.9897567707
 10
162.1021587924
 20
218.0145338908
 10
162.1726862389
 20
218.0040438434
  0
LWPOLYLINE
  5
1D1
330
1F
100
AcDbEntity
  8
0
  6
CONTINUOUS
 62
     7
100
AcDbPolyline
 90
        8
 70
   128
 43
0.0
 10
161.1891917265
 20
214.3853095381
 10
161.0708477408
 20
214.4470597403
 10
160.9686430629
 20
214.5658999339
 10
160.8893321142
 20
214.7370907833
 10
160.8354640815
 20
214.9551293972
 10
160.8087703146
 20
215.2130081558
 10
160.8101088006
 20
215.5024387229
 10
160.8394364555
 20
215.8141183766
  0
LWPOLYLINE
  5
1D2
330
1F
100
AcDbEntity
  8
0
  6
CONTINUOUS
 62
     7
100
AcDbPolyline
 90
       11
 70
   128
 43
0.0
 10
164.2510384092
 20
215.2118569447
 10
164.293405274
 20
215.4328763285
 10
164.3596468594
 20
215.6509365208
 10
164.4452488718
 20
215.8511765065
 10
164.5443777103
 20
216.0199510525
 10
164.6502778966
 20
216.1457578628
 10
164.7557325066
 20
216.2200234568
 10
164.8535549887
 20
216.2376869781
 10
164.9370789005
 20
216.1975448765
 10
165.0006122194
 20
216.1023323005
 10
165.0144212652
 20
216.0659130566
  0
LWPOLYLINE
  5
1D3
330
1F
100
AcDbEntity
  8
0
  6
CONTINUOUS
 62
     7
100
AcDbPolyline
 90
        8
 70
   128
 43
0.0
 10
164.6210234732
 20
214.6184189479
 10
164.5317466922
 20
214.5588784798
 10
164.4339242101
 20
214.5412149585
 10
164.3504002983
 20
214.5813570601
 10
164.2868669794
 20
214.6765692369
 10
164.2476539454
 20
214.820363427
 10
164.2354334689
 20
215.002940683
 10
164.2510384092
 20
215.2118569447
  0
LWPOLYLINE
  5
1D4
330
1F
100
AcDbEntity
  8
0
  6
CONTINUOUS
 62
     7
100
AcDbPolyline
 90
       15
 70
   128
 43
0.0
 10
164.0266377135
 20
215.1103745733
 10
164.0767130431
 20
215.3878366353
 10
164.1515700866
 20
215.6653689908
 10
164.2479373604
 20
215.9308424098
 10
164.361603056
 20
216.1726543986
 10
164.4875994918
 20
216.3802365336
 10
164.6204199853
 20
216.5445168008
 10
164.7542596612
 20
216.6583150902
 10
164.8832690829
 20
216.7166578052
 10
165.001809908
 20
216.716995458
 10
165.1047013505
 20
216.6593127024
 10
165.1874465297
 20
216.5461313218
 10
165.2464291808
 20
216.3823972739
 10
165.2790713218
 20
216.1752665632
 10
165.2853196546
 20
215.9922883476
  0
LWPOLYLINE
  5
1D5
330
1F
100
AcDbEntity
  8
0
  6
CONTINUOUS
 62
     7
100
AcDbPolyline
 90
       12
 70
   128
 43
0.0
 10
164.891921866
 20
214.5447946414
 10
164.799879707
 20
214.3986650038
 10
164.6670592134
 20
214.2343851358
 10
164.5332195375
 20
214.1205864472
 10
164.4042101159
 20
214.0622437322
 10
164.2856692908
 20
214.0619064786
 10
164.1827778483
 20
214.1195892341
 10
164.1000326691
 20
214.2327710139
 10
164.041050018
 20
214.3965050618
 10
164.0084078769
 20
214.6036353733
 10
164.0035327474
 20
214.8451097093
 10
164.0266377135
 20
215.1103745733
  0
LWPOLYLINE
  5
1D6
330
1F
100
AcDbEntity
  8
0
  6
CONTINUOUS
 62
     7
100
AcDbPolyline
 90
       19
 70
   128
 43
0.0
 10
162.8116182552
 20
225.5024145967
 10
162.7658628518
 20
225.3349036518
 10
162.6999897358
 20
225.1839085837
 10
162.6219439814
 20
225.0676417486
 10
162.5411393244
 20
225.0001265399
 10
162.4673217863
 20
224.989505891
 10
162.409394831
 20
225.0370616385
 10
162.3743453601
 20
225.1370571626
 10
162.366400938
 20
225.2774315817
 10
162.3865197372
 20
225.4412537652
 10
162.4322751406
 20
225.6087651092
 10
162.4981482565
 20
225.7597601773
 10
162.5761937937
 20
225.8760264012
 10
162.656998668
 20
225.9435418219
 10
162.7308162061
 20
225.9541624709
 10
162.7887431614
 20
225.9066067234
 10
162.823792415
 20
225.8066113863
 10
162.8317370544
 20
225.6662367801
 10
162.8116182552
 20
225.5024145967
  0
LWPOLYLINE
  5
1D7
330
1F
100
AcDbEntity
  8
0
  6
CONTINUOUS
 62
     7
100
AcDbPolyline
 90
       16
 70
   128
 43
0.0
 10
162.3273639642
 20
224.846416005
 10
162.2803554823
 20
224.8192839402
 10
162.1896087796
 20
224.8062278938
 10
162.1141213394
 20
224.8519634324
 10
162.0600090367
 20
224.9527856481
 10
162.0316554732
 20
225.1005263873
 10
162.0313579594
 20
225.2832165724
 10
162.0591401835
 20
225.4860553056
 10
162.112751559
 20
225.6926106732
 10
162.1878491235
 20
225.8861480326
 10
162.2783485138
 20
226.0509888094
 10
162.3769181557
 20
226.1737775703
 10
162.4755725531
 20
226.2445680117
 10
162.5663192558
 20
226.2576236589
 10
162.6418064787
 20
226.2118879082
 10
162.6813090942
 20
226.1487451364
  0
LWPOLYLINE
  5
1D8
330
1F
100
AcDbEntity
  8
0
  6
CONTINUOUS
 62
     7
100
AcDbPolyline
 90
       19
 70
   128
 43
0.0
 10
168.8808985914
 20
231.1758664311
 10
168.8024610054
 20
231.1367316151
 10
168.7357225133
 20
231.1560317074
 10
168.6887327211
 20
231.231438269
 10
168.6671593859
 20
231.3538567657
 10
168.6736045037
 20
231.508521294
 10
168.7072909312
 20
231.6767782629
 10
168.764155182
 20
231.8383311763
 10
168.8373387919
 20
231.9736956124
 10
168.9180147943
 20
232.0665454084
 10
168.9964525976
 20
232.1056804365
 10
169.0631910897
 20
232.0863799451
 10
169.1101806646
 20
232.0109727722
 10
169.1317539998
 20
231.8885546747
 10
169.125308882
 20
231.7338897473
 10
169.0916224545
 20
231.5656335767
 10
169.0347582037
 20
231.404080264
 10
168.9615745938
 20
231.268715828
 10
168.8808985914
 20
231.1758664311
  0
LWPOLYLINE
  5
1D9
330
1F
100
AcDbEntity
  8
0
  6
CONTINUOUS
 62
     7
100
AcDbPolyline
 90
       16
 70
   128
 43
0.0
 10
168.6277518781
 20
230.9957877564
 10
168.5533419203
 20
230.9588078131
 10
168.4662970801
 20
230.9628593487
 10
168.3964315421
 20
231.0251141328
 10
168.3494054572
 20
231.1405291597
 10
168.3290286968
 20
231.2997540238
 10
168.3369520387
 20
231.4898896483
 10
168.3725335138
 20
231.6955309366
 10
168.4328905634
 20
231.9000199182
 10
168.513133443
 20
232.0867891811
 10
168.6067611832
 20
232.2407074981
 10
168.7061890295
 20
232.3493067077
 10
168.8033615084
 20
232.4037872173
 10
168.8904063486
 20
232.3997352826
 10
168.9602718866
 20
232.3374808976
 10
168.9816967908
 20
232.2981166756
  0
LWPOLYLINE
  5
1DA
330
1F
100
AcDbEntity
  8
0
  6
CONTINUOUS
 62
     7
100
AcDbPolyline
 90
       19
 70
   128
 43
0.0
 10
165.5248621625
 20
214.9875112802
 10
165.560283091
 20
215.1559583769
 10
165.6184977534
 20
215.3163286611
 10
165.6924846227
 20
215.4492791161
 10
165.7733197811
 20
215.5387737323
 10
165.8512533176
 20
215.5740182207
 10
165.9168853081
 20
215.5507614775
 10
165.9622995432
 20
215.4718086029
 10
165.982018402
 20
215.3466827921
 10
165.9736635266
 20
215.1904755973
 10
165.9382425981
 20
215.0220281014
 10
165.8800279357
 20
214.8616582164
 10
165.8060410664
 20
214.7287077614
 10
165.7252059079
 20
214.639212746
 10
165.6472723714
 20
214.603969056
 10
165.5816403809
 20
214.6272257991
 10
165.5362261459
 20
214.7061782746
 10
165.516507287
 20
214.8313044845
 10
165.5248621625
 20
214.9875112802
  0
LWPOLYLINE
  5
1DB
330
1F
100
AcDbEntity
  8
0
  6
CONTINUOUS
 62
     7
100
AcDbPolyline
 90
       10
 70
   128
 43
0.0
 10
165.1915568497
 20
214.9968615037
 10
165.2322361551
 20
215.2035986962
 10
165.296889307
 20
215.4059191586
 10
165.3802784384
 20
215.5874325992
 10
165.4756478919
 20
215.7334337707
 10
165.5752713891
 20
215.8320943223
 10
165.6710780334
 20
215.8754218562
 10
165.7553061227
 20
215.8599056533
 10
165.8211320119
 20
215.7868027596
 10
165.8315029153
 20
215.7659039685
  0
LWPOLYLINE
  5
1DC
330
1F
100
AcDbEntity
  8
0
  6
CONTINUOUS
 62
     7
100
AcDbPolyline
 90
        7
 70
   128
 43
0.0
 10
165.4775579144
 20
214.4635757614
 10
165.3852376987
 20
214.4227482122
 10
165.3010096094
 20
214.4382644151
 10
165.2351837202
 20
214.5113669096
 10
165.1930928271
 20
214.6361339733
 10
165.1781469429
 20
214.8024569098
 10
165.1915568497
 20
214.9968615037
  0
LWPOLYLINE
  5
1DD
330
1F
100
AcDbEntity
  8
0
  6
CONTINUOUS
 62
     7
100
AcDbPolyline
 90
       21
 70
   128
 43
0.0
 10
181.387136702
 20
228.840126739
 10
181.0301258109
 20
228.4659096527
 10
180.6753160654
 20
228.0424743862
 10
180.3248949198
 20
227.5724309502
 10
179.9810227721
 20
227.0586766788
 10
179.6458199239
 20
226.5043803096
 10
179.3213527812
 20
225.9129581369
 10
179.009621793
 20
225.288056651
 10
178.7125491721
 20
224.6335293779
 10
178.4319662906
 20
223.9534110055
 10
178.1696028143
 20
223.2518940052
 10
177.9270767053
 20
222.5333053037
 10
177.7058829214
 20
221.8020736989
 10
177.5073853753
 20
221.0627084408
 10
177.3328075898
 20
220.3197669599
 10
177.183226178
 20
219.577830941
 10
177.0595630196
 20
218.8414735413
 10
176.9625813494
 20
218.1152352151
 10
176.8928779336
 20
217.4035933265
 10
176.8508835043
 20
216.7109354315
 10
176.8368566747
 20
216.0415325828
  0
LWPOLYLINE
  5
1DE
330
1F
100
AcDbEntity
  8
0
  6
CONTINUOUS
 62
     7
100
AcDbPolyline
 90
       21
 70
   128
 43
0.0
 10
176.4990792599
 20
215.9877462481
 10
176.5134659747
 20
216.6743137355
 10
176.5565374516
 20
217.3847320639
 10
176.6280276887
 20
218.1146211854
 10
176.7274963916
 20
218.8594808313
 10
176.8543302776
 20
219.6147193262
 10
177.0077469877
 20
220.3756797581
 10
177.1868011713
 20
221.1376702658
 10
177.390388398
 20
221.8959942011
 10
177.6172538508
 20
222.6459749779
 10
177.8659984109
 20
223.3829891541
 10
178.1350893062
 20
224.1024935892
 10
178.4228666317
 20
224.8000509665
 10
178.7275566052
 20
225.4713610935
 10
179.0472806957
 20
226.112284978
 10
179.3800673582
 20
226.7188722481
 10
179.7238652905
 20
227.287381276
 10
180.0765546255
 20
227.8143084624
 10
180.4359609481
 20
228.2964051116
 10
180.7998683348
 20
228.730697342
 10
181.1660333708
 20
229.1145093479
  0
LWPOLYLINE
  5
1DF
330
1F
100
AcDbEntity
  8
0
  6
CONTINUOUS
 62
     7
100
AcDbPolyline
 90
       21
 70
   128
 43
0.0
 10
180.2816151042
 20
229.354875282
 10
179.9154500682
 20
228.9710632761
 10
179.5515426815
 20
228.5367710456
 10
179.1921363589
 20
228.0546743965
 10
178.8394470239
 20
227.52774721
 10
178.4956490915
 20
226.9592381822
 10
178.1628624291
 20
226.3526509121
 10
177.8431383386
 20
225.7117270276
 10
177.538448365
 20
225.0404169006
 10
177.2506710396
 20
224.3428595233
 10
176.9815801442
 20
223.6233550882
 10
176.7328355842
 20
222.886340912
 10
176.5059701314
 20
222.1363601351
 10
176.3023829046
 20
221.3780361999
 10
176.1233287211
 20
220.6160456922
 10
175.969912011
 20
219.8550852603
 10
175.843078125
 20
219.0998467654
 10
175.7436094221
 20
218.3549871195
 10
175.672119185
 20
217.625097998
 10
175.629047708
 20
216.9146796696
 10
175.6146609932
 20
216.2281121821
  0
LWPOLYLINE
  5
1E0
330
1F
100
AcDbEntity
  8
0
  6
CONTINUOUS
 62
     7
100
AcDbPolyline
 90
       21
 70
   128
 43
0.0
 10
179.1119967427
 20
221.3479408672
 10
179.0977206448
 20
221.4995566614
 10
179.0562899487
 20
221.6084632603
 10
178.9917598825
 20
221.664000235
 10
178.9104475614
 20
221.6607323987
 10
178.8203119681
 20
221.5989774355
 10
178.7301765921
 20
221.4847824062
 10
178.6488640537
 20
221.3293233942
 10
178.5843342049
 20
221.1478199859
 10
178.5429035088
 20
220.9580381279
 10
178.5286274109
 20
220.7785545153
 10
178.5429035088
 20
220.6269391203
 10
178.5843342049
 20
220.5180325213
 10
178.6488640537
 20
220.4624949353
 10
178.7301765921
 20
220.4657637821
 10
178.8203119681
 20
220.527518134
 10
178.9104475614
 20
220.6417137746
 10
178.9917598825
 20
220.7971717762
 10
179.0562899487
 20
220.9786757958
 10
179.0977206448
 20
221.1684576537
 10
179.1119967427
 20
221.3479408672
  0
LWPOLYLINE
  5
1E1
330
1F
100
AcDbEntity
  8
0
  6
CONTINUOUS
 62
     7
100
AcDbPolyline
 90
       21
 70
   128
 43
0.0
 10
182.2621905367
 20
210.9651004711
 10
182.2479144931
 20
211.1167159192
 10
182.2064837427
 20
211.2256224651
 10
182.1419538395
 20
211.2811599981
 10
182.0606414301
 20
211.2778912773
 10
181.9705059251
 20
211.2161367994
 10
181.8803704201
 20
211.101941245
 10
181.7990580107
 20
210.9464831572
 10
181.7345281075
 20
210.7649792967
 10
181.6930973571
 20
210.5751973857
 10
181.6788213135
 20
210.3957142253
 10
181.6930973571
 20
210.2440983781
 10
181.7345281075
 20
210.1351918321
 10
181.7990580107
 20
210.0796546984
 10
181.8803704201
 20
210.0829226209
 10
181.9705059251
 20
210.1446774979
 10
182.0606414301
 20
210.2588726531
 10
182.1419538395
 20
210.4143315392
 10
182.2064837427
 20
210.5958350006
 10
182.2479144931
 20
210.7856169115
 10
182.2621905367
 20
210.9651004711
  0
LWPOLYLINE
  5
1E2
330
1F
100
AcDbEntity
  8
0
  6
CONTINUOUS
 62
     7
100
AcDbPolyline
 90
       21
 70
   128
 43
0.0
 10
185.4123844393
 20
227.4973124064
 10
185.3981083414
 20
227.6489282006
 10
185.3566776454
 20
227.7578347996
 10
185.2921477965
 20
227.8133719864
 10
185.2108352581
 20
227.810103938
 10
185.1206998821
 20
227.7483491869
 10
185.0305642888
 20
227.6341539455
 10
184.9492519677
 20
227.4786951455
 10
184.8847219015
 20
227.2971915251
 10
184.8432912054
 20
227.1074096672
 10
184.8290151075
 20
226.9279260546
 10
184.8432912054
 20
226.7763106595
 10
184.8847219015
 20
226.6674040606
 10
184.9492519677
 20
226.6118666867
 10
185.0305642888
 20
226.6151353213
 10
185.1206998821
 20
226.6768898854
 10
185.2108352581
 20
226.7910853138
 10
185.2921477965
 20
226.9465435276
 10
185.3566776454
 20
227.128047335
 10
185.3981083414
 20
227.317829193
 10
185.4123844393
 20
227.4973124064
  0
LINE
  5
1E3
330
1F
100
AcDbEntity
  8
0
  6
CONTINUOUS
 62
     7
100
AcDbLine
 10
182.5538751482
 20
229.9788992306
 30
0.0
 11
181.387136702
 21
228.840126739
 31
0.0
  0
LWPOLYLINE
  5
1E4
330
1F
100
AcDbEntity
  8
0
  6
CONTINUOUS
 62
     7
100
AcDbPolyline
 90
       21
 70
   128
 43
0.0
 10
187.1041551755
 20
226.0627306782
 10
187.0901283459
 20
226.7047522955
 10
187.0481339167
 20
227.3154344898
 10
186.9784305009
 20
227.891011037
 10
186.8814488307
 20
228.4279351968
 10
186.7577856723
 20
228.9228945291
 10
186.6082042604
 20
229.3728384607
 10
186.4336264749
 20
229.7749934005
 10
186.2351289288
 20
230.1268792783
 10
186.0139351449
 20
230.4263270549
 10
185.7714090359
 20
230.6714899216
 10
185.5090455596
 20
230.86085733
 10
185.2284626782
 20
230.9932607145
 10
184.9313900572
 20
231.0678840171
 10
184.619659069
 20
231.0842675008
 10
184.2951919264
 20
231.0423099172
 10
183.9599890782
 20
230.9422697744
 10
183.6161169304
 20
230.7847645296
 10
183.2656957849
 20
230.5707644042
 10
182.9108860394
 20
230.301589293
 10
182.5538751482
 20
229.9788992306
  0
LINE
  5
1E5
330
1F
100
AcDbEntity
  8
0
  6
CONTINUOUS
 62
     7
100
AcDbLine
 10
187.1041551755
 20
217.062473743
 30
0.0
 11
187.1041551755
 21
226.0627306782
 31
0.0
  0
LWPOLYLINE
  5
1E6
330
1F
100
AcDbEntity
  8
0
  6
CONTINUOUS
 62
     7
100
AcDbPolyline
 90
       18
 70
   128
 43
0.0
 10
183.7206135945
 20
207.5455702822
 10
184.0328073699
 20
207.8767908995
 10
184.3423377558
 20
208.2582050934
 10
184.6465637469
 20
208.6865598008
 10
184.9428898669
 20
209.15819855
 10
185.2287877918
 20
209.6690985325
 10
185.5018187346
 20
210.2149012317
 10
185.7596527863
 20
210.7909496617
 10
186.0000908658
 20
211.3923297485
 10
186.2210812363
 20
212.0139096011
 10
186.4207379778
 20
212.6503870779
 10
186.5973585899
 20
213.2963317157
 10
186.7494357273
 20
213.9462321068
 10
186.8756719779
 20
214.5945446496
 10
186.9749907286
 20
215.2357368849
 10
187.0465439891
 20
215.8643390377
 10
187.0897215192
 20
216.4749876529
 10
187.1041551755
 20
217.062473743
  0
LINE
  5
1E7
330
1F
100
AcDbEntity
  8
0
  6
CONTINUOUS
 62
     7
100
AcDbLine
 10
180.2203982557
 20
204.1292528076
 30
0.0
 11
183.7206135945
 21
207.5455702822
 31
0.0
  0
LWPOLYLINE
  5
1E8
330
1F
100
AcDbEntity
  8
0
  6
CONTINUOUS
 62
     7
100
AcDbPolyline
 90
       18
 70
   128
 43
0.0
 10
176.8368566747
 20
207.0412756476
 10
176.851290331
 20
206.4819649396
 10
176.8944678611
 20
205.9556015106
 10
176.9660211216
 20
205.4666757093
 10
177.0653398723
 20
205.0193597649
 10
177.1915761229
 20
204.6174681231
 10
177.3436532603
 20
204.2644316286
 10
177.5202738724
 20
203.9632612547
 10
177.7199306139
 20
203.7165259787
 10
177.9409209844
 20
203.526332879
 10
178.1813590639
 20
203.3943026653
 10
178.4391931156
 20
203.3215621127
 10
178.7122240584
 20
203.3087325541
 10
178.9981219834
 20
203.3559228504
 10
179.2944481033
 20
203.462730856
 10
179.5986740945
 20
203.6282439363
 10
179.9082044804
 20
203.8510520338
 10
180.2203982557
 20
204.1292528076
  0
LINE
  5
1E9
330
1F
100
AcDbEntity
  8
0
  6
CONTINUOUS
 62
     7
100
AcDbLine
 10
176.8368566747
 20
216.0415325828
 30
0.0
 11
176.8368566747
 21
207.0412756476
 31
0.0
  0
LINE
  5
1EA
330
1F
100
AcDbEntity
  8
0
  6
CONTINUOUS
 62
     7
100
AcDbLine
 10
178.35361672
 20
210.0217229724
 30
0.0
 11
178.35361672
 21
217.7362283466
 31
0.0
  0
LWPOLYLINE
  5
1EB
330
1F
100
AcDbEntity
  8
0
  6
CONTINUOUS
 62
     7
100
AcDbPolyline
 90
        9
 70
   128
 43
0.0
 10
179.0536597008
 20
209.4192352207
 10
178.9170880517
 20
209.3106424706
 10
178.7857649456
 20
209.255633615
 10
178.6647365988
 20
209.2563223057
 10
178.5586545709
 20
209.3126827347
 10
178.4715951702
 20
209.4225485955
 10
178.4069042858
 20
209.5816975314
 10
178.3670678637
 20
209.7840140998
 10
178.35361672
 20
210.0217229724
  0
LINE
  5
1EC
330
1F
100
AcDbEntity
  8
0
  6
CONTINUOUS
 62
     7
100
AcDbLine
 10
184.8873521494
 20
215.1130978906
 30
0.0
 11
179.0536597008
 21
209.4192352207
 31
0.0
  0
ARC
  5
1ED
330
1F
100
AcDbEntity
  8
0
  6
CONTINUOUS
 62
     7
100
AcDbCircle
 10
182.5199623291
 20
217.0637253572
 30
0.0
 40
3.067487909496305
100
AcDbArc
 50
320.5129440834
 51
0.3434438429
  0
LINE
  5
1EE
330
1F
100
AcDbEntity
  8
0
  6
CONTINUOUS
 62
     7
100
AcDbLine
 10
185.5873951302
 20
224.7966178367
 30
0.0
 11
185.5873951302
 21
217.0821124625
 31
0.0
  0
LWPOLYLINE
  5
1EF
330
1F
100
AcDbEntity
  8
0
  6
CONTINUOUS
 62
     7
100
AcDbPolyline
 90
        9
 70
   128
 43
0.0
 10
184.8873521494
 20
225.3991055884
 10
185.0239237985
 20
225.5076983385
 10
185.1552469046
 20
225.5627071941
 10
185.2762752514
 20
225.5620185034
 10
185.3823572793
 20
225.5056580744
 10
185.46941668
 20
225.3957922136
 10
185.5341075645
 20
225.2366432777
 10
185.5739439865
 20
225.0343267093
 10
185.5873951302
 20
224.7966178367
  0
LINE
  5
1F0
330
1F
100
AcDbEntity
  8
0
  6
CONTINUOUS
 62
     7
100
AcDbLine
 10
179.0536597008
 20
219.7052429185
 30
0.0
 11
184.8873521494
 21
225.3991055884
 31
0.0
  0
ARC
  5
1F1
330
1F
100
AcDbEntity
  8
0
  6
CONTINUOUS
 62
     7
100
AcDbCircle
 10
181.4210495211
 20
217.7546154518
 30
0.0
 40
3.067487909496514
100
AcDbArc
 50
140.5129440834
 51
180.3434438429
  0
LWPOLYLINE
  5
1F2
330
1F
100
AcDbEntity
  8
0
  6
CONTINUOUS
 62
     7
100
AcDbPolyline
 90
       21
 70
   128
 43
0.0
 10
175.5102300984
 20
216.4020812601
 10
175.524256928
 20
217.0714841087
 10
175.5662513573
 20
217.7641420038
 10
175.6359547731
 20
218.4757838924
 10
175.7329364433
 20
219.2020222186
 10
175.8565996017
 20
219.9383796183
 10
176.0061810135
 20
220.6803156371
 10
176.180758799
 20
221.4232571181
 10
176.3792563451
 20
222.1626223762
 10
176.600450129
 20
222.893853981
 10
176.842976238
 20
223.6124426825
 10
177.1053397143
 20
224.3139596828
 10
177.3859225958
 20
224.9940780552
 10
177.6829952167
 20
225.6486053283
 10
177.994726205
 20
226.2735068142
 10
178.3191933476
 20
226.8649289869
 10
178.6543961958
 20
227.4192253561
 10
178.9982683436
 20
227.9329796275
 10
179.3486894891
 20
228.4030230635
 10
179.7034992346
 20
228.8264583299
 10
180.0605101257
 20
229.2006754163
  0
LINE
  5
1F3
330
1F
100
AcDbEntity
  8
0
  6
CONTINUOUS
 62
     7
100
AcDbLine
 10
176.4990792599
 20
206.9874893129
 30
0.0
 11
176.4990792599
 21
215.9877462481
 31
0.0
  0
LINE
  5
1F4
330
1F
100
AcDbEntity
  8
0
  6
CONTINUOUS
 62
     7
100
AcDbLine
 10
175.6146609932
 20
216.2281121821
 30
0.0
 11
175.6146609932
 21
207.227855247
 31
0.0
  0
LINE
  5
1F5
330
1F
100
AcDbEntity
  8
0
  6
CONTINUOUS
 62
     7
100
AcDbLine
 10
175.5102300984
 20
207.4018243249
 30
0.0
 11
175.5102300984
 21
216.4020812601
 31
0.0
  0
LINE
  5
1F6
330
1F
100
AcDbEntity
  8
0
  6
CONTINUOUS
 62
     7
100
AcDbLine
 10
181.1660333708
 20
229.1145093479
 30
0.0
 11
182.3327718171
 21
230.2532818395
 31
0.0
  0
LINE
  5
1F7
330
1F
100
AcDbEntity
  8
0
  6
CONTINUOUS
 62
     7
100
AcDbLine
 10
181.4483535504
 20
230.4936477735
 30
0.0
 11
180.2816151042
 21
229.354875282
 31
0.0
  0
LINE
  5
1F8
330
1F
100
AcDbEntity
  8
0
  6
CONTINUOUS
 62
     7
100
AcDbLine
 10
180.0605101257
 20
229.2006754163
 30
0.0
 11
181.2272485719
 21
230.3394479078
 31
0.0
  0
LWPOLYLINE
  5
1F9
330
1F
100
AcDbEntity
  8
0
  6
CONTINUOUS
 62
     7
100
AcDbPolyline
 90
       15
 70
   128
 43
0.0
 10
182.3327718171
 20
230.2532818395
 10
182.6989368531
 20
230.5842464345
 10
183.0628442398
 20
230.8603237351
 10
183.4222505624
 20
231.0798102639
 10
183.7749398974
 20
231.2413542837
 10
184.1187378298
 20
231.343959899
 10
184.4515244922
 20
231.3869925982
 10
184.7712485827
 20
231.3701897415
 10
185.0759385563
 20
231.2936531242
 10
185.3637158817
 20
231.1578547306
 10
185.632806777
 20
230.963632222
 10
185.8815513371
 20
230.7121826782
 10
186.1084167899
 20
230.4050571751
 10
186.3120040166
 20
230.0441479889
 10
186.3773722937
 20
229.9058607725
  0
ARC
  5
1FA
330
1F
100
AcDbEntity
  8
0
  6
CONTINUOUS
 62
     7
100
AcDbCircle
 10
183.7049793488
 20
228.733592675
 30
0.0
 40
2.861844500218457
100
AcDbArc
 50
82.6518182705
 51
142.047553355
  0
LWPOLYLINE
  5
1FB
330
1F
100
AcDbEntity
  8
0
  6
CONTINUOUS
 62
     7
100
AcDbPolyline
 90
        3
 70
   128
 43
0.0
 10
181.2272485719
 20
230.3394479078
 10
181.5842594631
 20
230.6621379703
 10
181.8850479638
 20
230.8936913108
  0
LWPOLYLINE
  5
1FC
330
1F
100
AcDbEntity
  8
0
  6
CONTINUOUS
 62
     7
100
AcDbPolyline
 90
       17
 70
   128
 43
0.0
 10
179.4932953673
 20
203.5487111449
 10
179.3561319504
 20
203.4567677102
 10
179.0414153929
 20
203.2855458638
 10
178.7348712283
 20
203.1750553315
 10
178.4391147092
 20
203.1262385105
 10
178.1566689438
 20
203.1395103941
 10
177.8899438154
 20
203.2147587525
 10
177.6412149026
 20
203.3513419189
 10
177.4126043543
 20
203.5480940724
 10
177.2060628526
 20
203.8033363714
 10
177.0233515749
 20
204.1148920785
 10
176.8660304582
 20
204.4801022487
 10
176.7354412484
 20
204.8958514943
 10
176.632697938
 20
205.358592979
 10
176.5586772038
 20
205.8643782012
 10
176.5140105835
 20
206.4088920674
 10
176.4990792599
 20
206.9874893129
  0
LWPOLYLINE
  5
1FD
330
1F
100
AcDbEntity
  8
0
  6
CONTINUOUS
 62
     7
100
AcDbPolyline
 90
       12
 70
   128
 43
0.0
 10
175.6146609932
 20
207.227855247
 10
175.6295923169
 20
206.6492580015
 10
175.6742589372
 20
206.1047441353
 10
175.7482796713
 20
205.5989589131
 10
175.8510229817
 20
205.1362174284
 10
175.9816121915
 20
204.7204681828
 10
176.1389333082
 20
204.3552580126
 10
176.321644586
 20
204.0437023055
 10
176.5281860877
 20
203.7884600065
 10
176.7567966359
 20
203.591707853
 10
177.0055255488
 20
203.4551246866
 10
177.1478875246
 20
203.406703924
  0
ARC
  5
1FE
330
1F
100
AcDbEntity
  8
0
  6
CONTINUOUS
 62
     7
100
AcDbCircle
 10
182.0934104728
 20
207.1501080504
 30
0.0
 40
6.587990962687949
100
AcDbArc
 50
177.8102897099
 51
201.4431718249
  0
ARC
  5
1FF
330
1F
100
AcDbEntity
  8
0
  6
CONTINUOUS
 62
     7
100
AcDbCircle
 10
178.3800561088
 20
210.153645651
 30
0.0
 40
0.2966605113720382
100
AcDbArc
 50
266.0783229832
 51
321.2606011657
  0
LINE
  5
200
330
1F
100
AcDbEntity
  8
0
  6
CONTINUOUS
 62
     7
100
AcDbLine
 10
178.6114513912
 20
209.9680016845
 30
0.0
 11
184.4451438397
 21
215.6618643544
 31
0.0
  0
LINE
  5
201
330
1F
100
AcDbEntity
  8
0
  6
CONTINUOUS
 62
     7
100
AcDbLine
 10
183.7818305516
 20
215.842138693
 30
0.0
 11
178.3536176624
 21
210.5440365036
 31
0.0
  0
LINE
  5
202
330
1F
100
AcDbEntity
  8
0
  6
CONTINUOUS
 62
     7
100
AcDbLine
 10
178.3536173658
 20
210.6056411866
 30
0.0
 11
183.5607255731
 21
215.6879384281
 31
0.0
  0
LWPOLYLINE
  5
203
330
1F
100
AcDbEntity
  8
0
  6
CONTINUOUS
 62
     7
100
AcDbPolyline
 90
        7
 70
   128
 43
0.0
 10
184.9118390878
 20
224.6890460391
 10
184.9028717312
 20
224.8475189577
 10
184.8763141165
 20
224.9823965369
 10
184.8331867877
 20
225.0884956237
 10
184.7751472597
 20
225.1617397347
 10
184.7044259077
 20
225.199313221
 10
184.6862128049
 20
225.2027866022
  0
LINE
  5
204
330
1F
100
AcDbEntity
  8
0
  6
CONTINUOUS
 62
     7
100
AcDbLine
 10
184.9118390878
 20
216.9745406649
 30
0.0
 11
184.9118390878
 21
224.6890460391
 31
0.0
  0
LINE
  5
205
330
1F
100
AcDbEntity
  8
0
  6
CONTINUOUS
 62
     7
100
AcDbLine
 10
184.2485257997
 20
224.7755900662
 30
0.0
 11
184.2485257997
 21
217.1548150036
 31
0.0
  0
LINE
  5
206
330
1F
100
AcDbEntity
  8
0
  6
CONTINUOUS
 62
     7
100
AcDbLine
 10
184.1440946876
 20
217.3287838694
 30
0.0
 11
184.1440946876
 21
224.6736627172
 31
0.0
  0
ARC
  5
207
330
1F
100
AcDbEntity
  8
0
  6
CONTINUOUS
 62
     7
100
AcDbCircle
 10
182.8668855481
 20
216.9622819872
 30
0.0
 40
2.044990282323864
100
AcDbArc
 50
320.5129304475
 51
0.3434611448
  0
ARC
  5
208
330
1F
100
AcDbEntity
  8
0
  6
CONTINUOUS
 62
     7
100
AcDbCircle
 10
182.20357226
 20
217.1425563258
 30
0.0
 40
2.044990282324146
100
AcDbArc
 50
320.5129304475
 51
0.3434611448
  0
ARC
  5
209
330
1F
100
AcDbEntity
  8
0
  6
CONTINUOUS
 62
     7
100
AcDbCircle
 10
181.5879014777
 20
217.3134609919
 30
0.0
 40
2.55623913522819
100
AcDbArc
 50
320.5129389483
 51
0.3434504443
  0
LINE
  5
20A
330
1F
100
AcDbEntity
  8
0
  6
CONTINUOUS
 62
     7
100
AcDbLine
 10
166.5909749288
 20
222.3562237705
 30
0.0
 11
166.5909749288
 21
211.2130486315
 31
0.0
  0
LINE
  5
20B
330
1F
100
AcDbEntity
  8
0
  6
CONTINUOUS
 62
     7
100
AcDbLine
 10
167.9171600134
 20
221.9957950812
 30
0.0
 11
166.5909749288
 21
222.3562237705
 31
0.0
  0
LINE
  5
20C
330
1F
100
AcDbEntity
  8
0
  6
CONTINUOUS
 62
     7
100
AcDbLine
 10
167.9171600134
 20
221.9957950812
 30
0.0
 11
167.9171600134
 21
210.8526199422
 31
0.0
  0
LINE
  5
20D
330
1F
100
AcDbEntity
  8
0
  6
CONTINUOUS
 62
     7
100
AcDbLine
 10
167.9171600134
 20
210.8526199422
 30
0.0
 11
166.5909749288
 21
211.2130486315
 31
0.0
  0
LINE
  5
20E
330
1F
100
AcDbEntity
  8
0
  6
CONTINUOUS
 62
     7
100
AcDbLine
 10
174.2914488045
 20
229.872122342
 30
0.0
 11
166.5909749288
 21
222.3562237705
 31
0.0
  0
LINE
  5
20F
330
1F
100
AcDbEntity
  8
0
  6
CONTINUOUS
 62
     7
100
AcDbLine
 10
175.617633889
 20
229.5116936528
 30
0.0
 11
174.2914488045
 21
229.872122342
 31
0.0
  0
LINE
  5
210
330
1F
100
AcDbEntity
  8
0
  6
CONTINUOUS
 62
     7
100
AcDbLine
 10
175.617633889
 20
229.5116936528
 30
0.0
 11
167.9171600134
 21
221.9957950812
 31
0.0
  0
LINE
  5
211
330
1F
100
AcDbEntity
  8
0
  6
CONTINUOUS
 62
     7
100
AcDbLine
 10
167.9171600134
 20
210.8526199422
 30
0.0
 11
175.617633889
 21
218.3685185137
 31
0.0
  0
LINE
  5
212
330
1F
100
AcDbEntity
  8
0
  6
CONTINUOUS
 62
     7
100
AcDbLine
 10
175.617633889
 20
218.3685185137
 30
0.0
 11
175.617633889
 21
229.5116936528
 31
0.0
  0
LINE
  5
213
330
1F
100
AcDbEntity
  8
0
  6
CONTINUOUS
 62
     7
100
AcDbLine
 10
173.5175046206
 20
224.6761093196
 30
0.0
 11
170.0172892819
 21
221.2597918449
 31
0.0
  0
LINE
  5
214
330
1F
100
AcDbEntity
  8
0
  6
CONTINUOUS
 62
     7
100
AcDbLine
 10
170.0172892819
 20
221.2597918449
 30
0.0
 11
170.0172892819
 21
215.6882042754
 31
0.0
  0
LINE
  5
215
330
1F
100
AcDbEntity
  8
0
  6
CONTINUOUS
 62
     7
100
AcDbLine
 10
173.5179477597
 20
224.6759888839
 30
0.0
 11
170.0177324209
 21
221.2596714092
 31
0.0
  0
LINE
  5
216
330
1F
100
AcDbEntity
  8
0
  6
CONTINUOUS
 62
     7
100
AcDbLine
 10
173.5179477597
 20
219.1044013143
 30
0.0
 11
173.5179477597
 21
224.6759888839
 31
0.0
  0
LINE
  5
217
330
1F
100
AcDbEntity
  8
0
  6
CONTINUOUS
 62
     7
100
AcDbLine
 10
170.0177324209
 20
215.6880838397
 30
0.0
 11
173.5179477597
 21
219.1044013143
 31
0.0
  0
LINE
  5
218
330
1F
100
AcDbEntity
  8
0
  6
CONTINUOUS
 62
     7
100
AcDbLine
 10
170.0177324209
 20
221.2596714092
 30
0.0
 11
170.0177324209
 21
215.6880838397
 31
0.0
  0
LINE
  5
219
330
1F
100
AcDbEntity
  8
0
  6
CONTINUOUS
 62
     7
100
AcDbLine
 10
170.0172892819
 20
215.6882042754
 30
0.0
 11
170.0177324209
 21
215.6880838397
 31
0.0
  0
LINE
  5
21A
330
1F
100
AcDbEntity
  8
0
  6
CONTINUOUS
 62
     7
100
AcDbLine
 10
170.0172892819
 20
221.2597918449
 30
0.0
 11
170.0177324209
 21
221.2596714092
 31
0.0
  0
LINE
  5
21B
330
1F
100
AcDbEntity
  8
0
  6
CONTINUOUS
 62
     7
100
AcDbLine
 10
173.5175046206
 20
224.6761093196
 30
0.0
 11
173.5179477597
 21
224.6759888839
 31
0.0
  0
LINE
  5
21C
330
1F
100
AcDbEntity
  8
RIQUADRO
100
AcDbLine
 10
194.0482087296
 20
247.829373649
 30
0.0
 11
134.4024844321
 21
247.829373649
 31
0.0
  0
LINE
  5
21D
330
1F
100
AcDbEntity
  8
RIQUADRO
100
AcDbLine
 10
194.0482087296
 20
247.829373649
 30
0.0
 11
194.0482087296
 21
188.8892035951
 31
0.0
  0
LINE
  5
21E
330
1F
100
AcDbEntity
  8
RIQUADRO
100
AcDbLine
 10
194.0482087296
 20
188.8892035951
 30
0.0
 11
134.4024844321
 21
188.8892035951
 31
0.0
  0
LINE
  5
21F
330
1F
100
AcDbEntity
  8
RIQUADRO
100
AcDbLine
 10
134.4024844321
 20
247.829373649
 30
0.0
 11
134.4024844321
 21
188.8892035951
 31
0.0
  0
MTEXT
  5
220
330
1F
100
AcDbEntity
  8
RIQUADRO
100
AcDbMText
 10
158.0337724216
 20
201.5843597898
 30
0.0
 40
3.5
 41
0.0
 71
     1
 72
     1
  1
1:2
  7
SLDTEXTSTYLE1
  0
LINE
  5
221
330
1F
100
AcDbEntity
  8
0
  6
CONTINUOUS
 62
     7
100
AcDbLine
 10
70.9905952794
 20
109.405559644
 30
0.0
 11
70.9905952794
 21
133.0649863629
 31
0.0
  0
LINE
  5
222
330
1F
100
AcDbEntity
  8
0
  6
CONTINUOUS
 62
     7
100
AcDbLine
 10
70.9905952794
 20
109.405559644
 30
0.0
 11
26.9905955178
 21
109.405559644
 31
0.0
  0
LINE
  5
223
330
1F
100
AcDbEntity
  8
0
  6
CONTINUOUS
 62
     7
100
AcDbLine
 10
26.9905955178
 20
133.0649863629
 30
0.0
 11
26.9905955178
 21
109.405559644
 31
0.0
  0
LINE
  5
224
330
1F
100
AcDbEntity
  8
0
  6
CONTINUOUS
 62
     7
100
AcDbLine
 10
51.4905953427
 20
177.4055596142
 30
0.0
 11
46.4905954545
 21
177.4055596142
 31
0.0
  0
ARC
  5
225
330
1F
100
AcDbEntity
  8
0
  6
CONTINUOUS
 62
     7
100
AcDbCircle
 10
51.4905953986
 20
157.9055587499
 30
0.0
 40
19.49999999999999
100
AcDbArc
 50
72.0176308241
 51
90.0
  0
ARC
  5
226
330
1F
100
AcDbEntity
  8
0
  6
CONTINUOUS
 62
     7
100
AcDbCircle
 10
46.4905953986
 20
157.9055587499
 30
0.0
 40
19.49999999999998
100
AcDbArc
 50
90.0
 51
111.7113966628
  0
CIRCLE
  5
227
330
1F
100
AcDbEntity
  8
0
  6
CONTINUOUS
 62
     7
100
AcDbCircle
 10
48.9905953986
 20
170.9055587499
 30
0.0
 40
3.299999999999983
  0
LINE
  5
228
330
1F
100
AcDbEntity
  8
0
  6
CONTINUOUS
 62
     7
100
AcDbLine
 10
26.4905945046
 20
109.405559644
 30
0.0
 11
26.4905945046
 21
136.9055585636
 31
0.0
  0
LINE
  5
229
330
1F
100
AcDbEntity
  8
0
  6
CONTINUOUS
 62
     7
100
AcDbLine
 10
26.9905955178
 20
109.405559644
 30
0.0
 11
26.4905945046
 21
109.405559644
 31
0.0
  0
LINE
  5
22A
330
1F
100
AcDbEntity
  8
0
  6
CONTINUOUS
 62
     7
100
AcDbLine
 10
46.4905954545
 20
177.9055587648
 30
0.0
 11
51.4905953427
 21
177.9055587648
 31
0.0
  0
ARC
  5
22B
330
1F
100
AcDbEntity
  8
0
  6
CONTINUOUS
 62
     7
100
AcDbCircle
 10
51.4905953986
 20
157.9055587499
 30
0.0
 40
19.99999999999998
100
AcDbArc
 50
73.0103824483
 51
90.0
  0
LINE
  5
22C
330
1F
100
AcDbEntity
  8
0
  6
CONTINUOUS
 62
     7
100
AcDbLine
 10
71.4905962927
 20
136.9055585636
 30
0.0
 11
71.4905962927
 21
109.405559644
 31
0.0
  0
LINE
  5
22D
330
1F
100
AcDbEntity
  8
0
  6
CONTINUOUS
 62
     7
100
AcDbLine
 10
71.4905962927
 20
109.405559644
 30
0.0
 11
70.9905952794
 21
109.405559644
 31
0.0
  0
ARC
  5
22E
330
1F
100
AcDbEntity
  8
0
  6
CONTINUOUS
 62
     7
100
AcDbCircle
 10
46.4905953986
 20
157.9055587499
 30
0.0
 40
19.99999999999999
100
AcDbArc
 50
90.0
 51
111.2189655935
  0
CIRCLE
  5
22F
330
1F
100
AcDbEntity
  8
0
  6
CONTINUOUS
 62
     7
100
AcDbCircle
 10
48.9905953986
 20
170.9055587499
 30
0.0
 40
3.100000000000001
  0
CIRCLE
  5
230
330
1F
100
AcDbEntity
  8
0
  6
CONTINUOUS
 62
     7
100
AcDbCircle
 10
35.4905953986
 20
165.1055587499
 30
0.0
 40
1.000000000000004
  0
CIRCLE
  5
231
330
1F
100
AcDbEntity
  8
0
  6
CONTINUOUS
 62
     7
100
AcDbCircle
 10
35.4905953986
 20
165.1055587499
 30
0.0
 40
1.249999999999986
  0
CIRCLE
  5
232
330
1F
100
AcDbEntity
  8
0
  6
CONTINUOUS
 62
     7
100
AcDbCircle
 10
48.9905953986
 20
133.7055587499
 30
0.0
 40
1.249999999999986
  0
CIRCLE
  5
233
330
1F
100
AcDbEntity
  8
0
  6
CONTINUOUS
 62
     7
100
AcDbCircle
 10
62.4905953986
 20
165.1055587499
 30
0.0
 40
1.249999999999986
  0
LINE
  5
234
330
1F
100
AcDbEntity
  8
0
  6
CONTINUOUS
 62
     7
100
AcDbLine
 10
70.9905952794
 20
136.9055585636
 30
0.0
 11
70.9905952794
 21
157.9055592118
 31
0.0
  0
ARC
  5
235
330
1F
100
AcDbEntity
  8
0
  6
CONTINUOUS
 62
     7
100
AcDbCircle
 10
56.4905953986
 20
136.9055587499
 30
0.0
 40
14.5
100
AcDbArc
 50
270.0
 51
0.0
  0
LINE
  5
236
330
1F
100
AcDbEntity
  8
0
  6
CONTINUOUS
 62
     7
100
AcDbLine
 10
41.4905955663
 20
122.4055580495
 30
0.0
 11
56.490595231
 21
122.4055580495
 31
0.0
  0
ARC
  5
237
330
1F
100
AcDbEntity
  8
0
  6
CONTINUOUS
 62
     7
100
AcDbCircle
 10
41.4905953986
 20
136.9055587499
 30
0.0
 40
14.5
100
AcDbArc
 50
180.0
 51
270.0
  0
LINE
  5
238
330
1F
100
AcDbEntity
  8
0
  6
CONTINUOUS
 62
     7
100
AcDbLine
 10
26.9905955178
 20
157.9055592118
 30
0.0
 11
26.9905955178
 21
136.9055585636
 31
0.0
  0
ARC
  5
239
330
1F
100
AcDbEntity
  8
0
  6
CONTINUOUS
 62
     7
100
AcDbCircle
 10
46.4905953986
 20
157.9055587499
 30
0.0
 40
19.5
100
AcDbArc
 50
111.7113966628
 51
180.0
  0
ARC
  5
23A
330
1F
100
AcDbEntity
  8
0
  6
CONTINUOUS
 62
     7
100
AcDbCircle
 10
51.4905953986
 20
157.9055587499
 30
0.0
 40
19.5
100
AcDbArc
 50
0.0
 51
72.0176308241
  0
LINE
  5
23B
330
1F
100
AcDbEntity
  8
0
  6
CONTINUOUS
 62
     7
100
AcDbLine
 10
33.4905956519
 20
140.4055591373
 30
0.0
 11
33.4905956519
 21
158.4055583625
 31
0.0
  0
ARC
  5
23C
330
1F
100
AcDbEntity
  8
0
  6
CONTINUOUS
 62
     7
100
AcDbCircle
 10
36.4905953986
 20
140.4055587499
 30
0.0
 40
3.000000000000007
100
AcDbArc
 50
180.0
 51
270.0
  0
LINE
  5
23D
330
1F
100
AcDbEntity
  8
0
  6
CONTINUOUS
 62
     7
100
AcDbLine
 10
61.4905955849
 20
137.4055586456
 30
0.0
 11
36.4905952124
 21
137.4055586456
 31
0.0
  0
ARC
  5
23E
330
1F
100
AcDbEntity
  8
0
  6
CONTINUOUS
 62
     7
100
AcDbCircle
 10
61.4905953986
 20
140.4055587499
 30
0.0
 40
3.0
100
AcDbArc
 50
270.0
 51
0.0
  0
LINE
  5
23F
330
1F
100
AcDbEntity
  8
0
  6
CONTINUOUS
 62
     7
100
AcDbLine
 10
64.4905951453
 20
158.4055583625
 30
0.0
 11
64.4905951453
 21
140.4055591373
 31
0.0
  0
ARC
  5
240
330
1F
100
AcDbEntity
  8
0
  6
CONTINUOUS
 62
     7
100
AcDbCircle
 10
61.4905953986
 20
158.4055587499
 30
0.0
 40
3.0
100
AcDbArc
 50
0.0
 51
90.0
  0
LINE
  5
241
330
1F
100
AcDbEntity
  8
0
  6
CONTINUOUS
 62
     7
100
AcDbLine
 10
36.4905952124
 20
161.4055588542
 30
0.0
 11
61.4905955849
 21
161.4055588542
 31
0.0
  0
ARC
  5
242
330
1F
100
AcDbEntity
  8
0
  6
CONTINUOUS
 62
     7
100
AcDbCircle
 10
36.4905953986
 20
158.4055587499
 30
0.0
 40
3.0
100
AcDbArc
 50
90.0
 51
180.0
  0
SPLINE
  5
243
330
1F
100
AcDbEntity
  8
0
  6
CONTINUOUS
 62
     7
100
AcDbSpline
210
0.0
220
0.0
230
1.0
 70
     8
 71
     3
 72
    28
 73
    24
 74
     0
 42
0.00000001
 43
0.00000001
 12
1.0
 22
0.0
 32
0.0
 13
1.0
 23
0.0
 33
0.0
 40
0.0
 40
0.0
 40
0.0
 40
0.0
 40
0.0487339882118322
 40
0.0989698367628273
 40
0.1501353567614998
 40
0.2015443800075612
 40
0.2524882100297929
 40
0.302491469024871
 40
0.3508920232672774
 40
0.3975013879278053
 40
0.4426009150931876
 40
0.4871291123883844
 40
0.5323778792765311
 40
0.5790172612318738
 40
0.6270896259162383
 40
0.6762236548783477
 40
0.7258104024934877
 40
0.7751405842909987
 40
0.8235239348723246
 40
0.8704135321866391
 40
0.9155616666159037
 40
0.9592357824455534
 40
0.9999999999999999
 40
0.9999999999999999
 40
0.9999999999999999
 40
0.9999999999999999
 10
39.2769298163893
 20
176.0222103147372
 30
0.0
 10
39.33683705330573
 20
175.5213467468588
 30
0.0
 10
39.45849771922042
 20
174.5041842413421
 30
0.0
 10
39.9043484503242
 20
173.0110590495013
 30
0.0
 10
40.51745450283074
 20
171.553153802933
 30
0.0
 10
41.30043561535049
 20
170.1688517381734
 30
0.0
 10
42.22915913432409
 20
168.8930087312245
 30
0.0
 10
43.28712523039164
 20
167.7632386676361
 30
0.0
 10
44.45667167811636
 20
166.8173129700131
 30
0.0
 10
45.72030281011869
 20
166.0957396787734
 30
0.0
 10
47.06291944866075
 20
165.6377213128685
 30
0.0
 10
48.46278174394774
 20
165.4991789095457
 30
0.0
 10
49.87135662152713
 20
165.6769539756125
 30
0.0
 10
51.25508615554564
 20
166.1213799720471
 30
0.0
 10
52.58530794300231
 20
166.7973106505486
 30
0.0
 10
53.83202897885338
 20
167.6696206586826
 30
0.0
 10
54.9641717615815
 20
168.7050444449658
 30
0.0
 10
55.95001680167634
 20
169.8706510899252
 30
0.0
 10
56.75700892587304
 20
171.1339666409812
 30
0.0
 10
57.35341097055726
 20
172.4641143984094
 30
0.0
 10
57.70093904274484
 20
173.8294926131097
 30
0.0
 10
57.77368034496828
 20
175.181843676276
 30
0.0
 10
57.59633616670416
 20
176.0391385788579
 30
0.0
 10
57.51071987875721
 20
176.4530140607222
 30
0.0
  0
ARC
  5
244
330
1F
100
AcDbEntity
  8
0
  6
CONTINUOUS
 62
     7
100
AcDbCircle
 10
46.4905953986
 20
157.9055587499
 30
0.0
 40
20.0
100
AcDbArc
 50
111.2189655935
 51
180.0
  0
LINE
  5
245
330
1F
100
AcDbEntity
  8
0
  6
CONTINUOUS
 62
     7
100
AcDbLine
 10
39.2519321872
 20
176.5496406405
 30
0.0
 11
39.2769298164
 21
176.0222103147
 31
0.0
  0
ARC
  5
246
330
1F
100
AcDbEntity
  8
0
  6
CONTINUOUS
 62
     7
100
AcDbCircle
 10
51.4905953986
 20
157.9055587499
 30
0.0
 40
20.0
100
AcDbArc
 50
0.0
 51
73.0103824483
  0
LINE
  5
247
330
1F
100
AcDbEntity
  8
0
  6
CONTINUOUS
 62
     7
100
AcDbLine
 10
57.5107198788
 20
176.4530140607
 30
0.0
 11
57.3345639391
 21
177.0327139346
 31
0.0
  0
ARC
  5
248
330
1F
100
AcDbEntity
  8
0
  6
CONTINUOUS
 62
     7
100
AcDbCircle
 10
36.4905953986
 20
158.4055587499
 30
0.0
 40
2.0
100
AcDbArc
 50
90.0
 51
180.0
  0
ARC
  5
249
330
1F
100
AcDbEntity
  8
0
  6
CONTINUOUS
 62
     7
100
AcDbCircle
 10
36.4905953986
 20
140.4055587499
 30
0.0
 40
2.0
100
AcDbArc
 50
180.0
 51
270.0
  0
LINE
  5
24A
330
1F
100
AcDbEntity
  8
0
  6
CONTINUOUS
 62
     7
100
AcDbLine
 10
36.4905952124
 20
138.4055588095
 30
0.0
 11
61.4905955849
 21
138.4055588095
 31
0.0
  0
ARC
  5
24B
330
1F
100
AcDbEntity
  8
0
  6
CONTINUOUS
 62
     7
100
AcDbCircle
 10
41.4905953986
 20
136.9055587499
 30
0.0
 40
15.0
100
AcDbArc
 50
180.0
 51
270.0
  0
LINE
  5
24C
330
1F
100
AcDbEntity
  8
0
  6
CONTINUOUS
 62
     7
100
AcDbLine
 10
71.4905962927
 20
157.9055592118
 30
0.0
 11
71.4905962927
 21
136.9055585636
 31
0.0
  0
LINE
  5
24D
330
1F
100
AcDbEntity
  8
0
  6
CONTINUOUS
 62
     7
100
AcDbLine
 10
63.4905949814
 20
140.4055591373
 30
0.0
 11
63.4905949814
 21
158.4055583625
 31
0.0
  0
ARC
  5
24E
330
1F
100
AcDbEntity
  8
0
  6
CONTINUOUS
 62
     7
100
AcDbCircle
 10
61.4905953986
 20
158.4055587499
 30
0.0
 40
2.0
100
AcDbArc
 50
0.0
 51
90.0
  0
LINE
  5
24F
330
1F
100
AcDbEntity
  8
0
  6
CONTINUOUS
 62
     7
100
AcDbLine
 10
26.4905945046
 20
136.9055585636
 30
0.0
 11
26.4905945046
 21
157.9055592118
 31
0.0
  0
LINE
  5
250
330
1F
100
AcDbEntity
  8
0
  6
CONTINUOUS
 62
     7
100
AcDbLine
 10
56.490595231
 20
121.9055588989
 30
0.0
 11
41.4905955663
 21
121.9055588989
 31
0.0
  0
LINE
  5
251
330
1F
100
AcDbEntity
  8
0
  6
CONTINUOUS
 62
     7
100
AcDbLine
 10
34.4905958159
 20
158.4055583625
 30
0.0
 11
34.4905958159
 21
140.4055591373
 31
0.0
  0
ARC
  5
252
330
1F
100
AcDbEntity
  8
0
  6
CONTINUOUS
 62
     7
100
AcDbCircle
 10
56.4905953986
 20
136.9055587499
 30
0.0
 40
15.0
100
AcDbArc
 50
270.0
 51
0.0
  0
LINE
  5
253
330
1F
100
AcDbEntity
  8
0
  6
CONTINUOUS
 62
     7
100
AcDbLine
 10
61.4905955849
 20
160.4055586903
 30
0.0
 11
36.4905952124
 21
160.4055586903
 31
0.0
  0
ARC
  5
254
330
1F
100
AcDbEntity
  8
0
  6
CONTINUOUS
 62
     7
100
AcDbCircle
 10
61.4905953986
 20
140.4055587499
 30
0.0
 40
2.0
100
AcDbArc
 50
270.0
 51
0.0
  0
CIRCLE
  5
255
330
1F
100
AcDbEntity
  8
0
  6
CONTINUOUS
 62
     7
100
AcDbCircle
 10
48.9905953986
 20
133.7055587499
 30
0.0
 40
0.9999999999999979
  0
CIRCLE
  5
256
330
1F
100
AcDbEntity
  8
0
  6
CONTINUOUS
 62
     7
100
AcDbCircle
 10
62.4905953986
 20
165.1055587499
 30
0.0
 40
1.000000000000038
  0
LINE
  5
257
330
1F
100
AcDbEntity
  8
0
  6
CONTINUOUS
 62
     7
100
AcDbLine
 10
56.490595231
 20
155.905558884
 30
0.0
 11
41.4905955663
 21
155.905558884
 31
0.0
  0
LINE
  5
258
330
1F
100
AcDbEntity
  8
0
  6
CONTINUOUS
 62
     7
100
AcDbLine
 10
56.490595231
 20
142.9055586158
 30
0.0
 11
56.490595231
 21
155.905558884
 31
0.0
  0
LINE
  5
259
330
1F
100
AcDbEntity
  8
0
  6
CONTINUOUS
 62
     7
100
AcDbLine
 10
41.4905955663
 20
142.9055586158
 30
0.0
 11
56.490595231
 21
142.9055586158
 31
0.0
  0
LINE
  5
25A
330
1F
100
AcDbEntity
  8
0
  6
CONTINUOUS
 62
     7
100
AcDbLine
 10
41.4905955663
 20
155.905558884
 30
0.0
 11
41.4905955663
 21
142.9055586158
 31
0.0
  0
HATCH
  5
25B
330
1F
100
AcDbEntity
  8
0
  6
CONTINUOUS
 62
     7
100
AcDbHatch
 10
0.0
 20
0.0
 30
0.0
210
0.0
220
0.0
230
1.0
  2
ANSI31
 70
     0
 71
     0
 91
        1
 92
        0
 93
        6
 72
     4
 94
        3
 73
     1
 74
     0
 95
        8
 96
        4
 40
0.0
 40
0.0
 40
0.0
 40
0.0
 40
0.0007271916061592
 40
0.0007271916061592
 40
0.0007271916061592
 40
0.0007271916061592
 10
39.2519321850414
 20
176.5496397108989
 42
1.0
 10
39.25533074670575
 20
176.3729662783645
 42
1.0
 10
39.2638194297442
 20
176.1970958095763
 42
1.0
 10
39.27692991900107
 20
176.0222093881402
 42
1.0
 72
     4
 94
        3
 73
     1
 74
     0
 95
       10
 96
        6
 40
0.3754294279444337
 40
0.3754294279444337
 40
0.3754294279444337
 40
0.3754294279444337
 40
0.6109415472224479
 40
0.8629858220794444
 40
0.8985726521154004
 40
0.8985726521154004
 40
0.8985726521154004
 40
0.8985726521154004
 10
39.27692991900224
 20
176.0222093881247
 42
1.0
 10
39.62665998716471
 20
171.3570104859405
 42
1.0
 10
47.37011036022766
 20
160.4384536121632
 42
1.0
 10
58.29827646611744
 20
170.7082483497222
 42
1.0
 10
57.67133068252699
 20
175.8349243312097
 42
1.0
 10
57.51071972653883
 20
176.4530141839085
 42
1.0
 72
     4
 94
        3
 73
     1
 74
     0
 95
        8
 96
        4
 40
0.0
 40
0.0
 40
0.0
 40
0.0
 40
0.0007855455941996
 40
0.0007855455941996
 40
0.0007855455941996
 40
0.0007855455941996
 10
57.51071972653882
 20
176.4530141839086
 42
1.0
 10
57.4603675186664
 20
176.6467879433352
 42
1.0
 10
57.40149738708204
 20
176.8402781100513
 42
1.0
 10
57.33456359743625
 20
177.032713156433
 42
1.0
 72
     4
 94
        3
 73
     1
 74
     0
 95
        8
 96
        4
 40
0.0
 40
0.0
 40
0.0
 40
0.0
 40
0.0007855455941995
 40
0.0007855455941995
 40
0.0007855455941995
 40
0.0007855455941995
 10
57.33456359743626
 20
177.032713156433
 42
1.0
 10
57.40149738708205
 20
176.8402781100513
 42
1.0
 10
57.46036751866639
 20
176.6467879433352
 42
1.0
 10
57.51071972653882
 20
176.4530141839086
 42
1.0
 72
     4
 94
        3
 73
     1
 74
     0
 95
       10
 96
        6
 40
0.1014273478845992
 40
0.1014273478845992
 40
0.1014273478845992
 40
0.1014273478845992
 40
0.1370141779205556
 40
0.3890584527775521
 40
0.6245705720553052
 40
0.6245705720553052
 40
0.6245705720553052
 40
0.6245705720553052
 10
57.51071972653882
 20
176.4530141839086
 42
1.0
 10
57.67133068252698
 20
175.8349243312098
 42
1.0
 10
58.29827646611745
 20
170.7082483497222
 42
1.0
 10
47.37011036023311
 20
160.4384536121683
 42
1.0
 10
39.62665998717301
 20
171.3570104859288
 42
1.0
 10
39.27692991900339
 20
176.0222093881092
 42
1.0
 72
     4
 94
        3
 73
     1
 74
     0
 95
        8
 96
        4
 40
0.0
 40
0.0
 40
0.0
 40
0.0
 40
0.0007271916061592
 40
0.0007271916061592
 40
0.0007271916061592
 40
0.0007271916061592
 10
39.27692991900106
 20
176.0222093881403
 42
1.0
 10
39.2638194297442
 20
176.1970958095763
 42
1.0
 10
39.25533074670575
 20
176.3729662783645
 42
1.0
 10
39.25193218504141
 20
176.5496397108988
 42
1.0
 97
        0
 75
     0
 76
     1
 52
0.0
 41
1.0
 77
     0
 78
     1
 53
45.0
 43
0.0
 44
0.0
 45
-2.245064030267288
 46
2.245064030267288
 79
     0
 98
        1
 10
0.0
 20
0.0
  0
DIMENSION
  5
25C
330
1F
100
AcDbEntity
  8
RIQUADRO
100
AcDbDimension
  2
_D
 10
63.4905953986
 20
193.1460653848
 30
0.0
 11
49.1910442217
 21
193.1460653848
 31
0.0
 70
   160
  1
<>
  3
SLDDIMSTYLE0
100
AcDbAlignedDimension
 13
34.4905953986
 23
158.4055587499
 33
0.0
 14
63.4905953986
 24
158.4055587499
 34
0.0
100
AcDbRotatedDimension
  0
DIMENSION
  5
26E
330
1F
100
AcDbEntity
  8
RIQUADRO
100
AcDbDimension
  2
_D_1
 10
80.633833387
 20
138.4055587499
 30
0.0
 11
80.633833387
 21
151.0408382263
 31
0.0
 70
   160
  1
<>
  3
SLDDIMSTYLE0
100
AcDbAlignedDimension
 13
61.4905953986
 23
160.4055587499
 33
0.0
 14
61.4905953986
 24
138.4055587499
 34
0.0
 50
90.0
100
AcDbRotatedDimension
  0
DIMENSION
  5
278
330
1F
100
AcDbEntity
  8
RIQUADRO
100
AcDbDimension
  2
_D_2
 10
26.4905953986
 20
91.9194215415
 30
0.0
 11
45.0217096893
 21
91.9194215415
 31
0.0
 70
   160
  1
<>
  3
SLDDIMSTYLE0
100
AcDbAlignedDimension
 13
71.4905953986
 23
109.4055587499
 33
0.0
 14
26.4905953986
 24
109.4055587499
 34
0.0
100
AcDbRotatedDimension
  0
DIMENSION
  5
282
330
1F
100
AcDbEntity
  8
RIQUADRO
100
AcDbDimension
  2
_D_3
 10
17.979163448
 20
109.4055587499
 30
0.0
 11
17.979163448
 21
127.9666726815
 31
0.0
 70
   160
  1
<>
  3
SLDDIMSTYLE0
100
AcDbAlignedDimension
 13
32.4905953986
 23
149.4055587499
 33
0.0
 14
26.9905953986
 24
109.4055587499
 34
0.0
 50
90.0
100
AcDbRotatedDimension
  0
INSERT
  5
297
330
1F
100
AcDbEntity
  8
RIQUADRO
100
AcDbBlockReference
  2
SW_NOTE_10
 10
60.0125944584
 20
182.8715365239
 30
0.0
  0
LEADER
  5
2A1
330
1F
100
AcDbEntity
  8
RIQUADRO
100
AcDbLeader
  3
SLDDIMSTYLE1
 76
     2
 10
50.6738203526
 20
170.481108282
 30
0.0
 10
60.0125944584
 20
182.8715365239
 30
0.0
1001
ACAD
1000
DSTYLE
1002
{
1070
     6
1000
DOT
1002
}
  0
LINE
  5
2A2
330
1F
100
AcDbEntity
  8
RIQUADRO
  6
CENTERX2
100
AcDbLine
 10
32.4905953986
 20
149.4055587499
 30
0.0
 11
65.4905953986
 21
149.4055587499
 31
0.0
  0
LINE
  5
2A3
330
1F
100
AcDbEntity
  8
RIQUADRO
  6
CENTERX2
100
AcDbLine
 10
48.9905953986
 20
160.4055587499
 30
0.0
 11
48.9905953986
 21
138.4055587499
 31
0.0
  0
LINE
  5
2A4
330
1F
100
AcDbEntity
  8
0
  6
CONTINUOUS
 62
     7
100
AcDbLine
 10
70.9905952794
 20
218.8872512694
 30
0.0
 11
71.4905962927
 21
219.3872513514
 31
0.0
  0
LINE
  5
2A5
330
1F
100
AcDbEntity
  8
0
  6
CONTINUOUS
 62
     7
100
AcDbLine
 10
70.9905952794
 20
218.8872512694
 30
0.0
 11
26.9905955178
 21
218.8872512694
 31
0.0
  0
LINE
  5
2A6
330
1F
100
AcDbEntity
  8
0
  6
CONTINUOUS
 62
     7
100
AcDbLine
 10
26.4905945046
 20
219.3872513514
 30
0.0
 11
26.9905955178
 21
218.8872512694
 31
0.0
  0
LINE
  5
2A7
330
1F
100
AcDbEntity
  8
0
  6
CONTINUOUS
 62
     7
100
AcDbLine
 10
26.4905945046
 20
219.3872513514
 30
0.0
 11
26.4905945046
 21
233.3872512014
 31
0.0
  0
LINE
  5
2A8
330
1F
100
AcDbEntity
  8
0
  6
CONTINUOUS
 62
     7
100
AcDbLine
 10
26.9905955178
 20
233.8872511746
 30
0.0
 11
26.4905945046
 21
233.3872512014
 31
0.0
  0
LINE
  5
2A9
330
1F
100
AcDbEntity
  8
0
  6
CONTINUOUS
 62
     7
100
AcDbLine
 10
70.9905952794
 20
233.8872511746
 30
0.0
 11
26.9905955178
 21
233.8872511746
 31
0.0
  0
LINE
  5
2AA
330
1F
100
AcDbEntity
  8
0
  6
CONTINUOUS
 62
     7
100
AcDbLine
 10
71.4905962927
 20
233.3872512014
 30
0.0
 11
70.9905952794
 21
233.8872511746
 31
0.0
  0
LINE
  5
2AB
330
1F
100
AcDbEntity
  8
0
  6
CONTINUOUS
 62
     7
100
AcDbLine
 10
71.4905962927
 20
219.3872513514
 30
0.0
 11
71.4905962927
 21
233.3872512014
 31
0.0
  0
CIRCLE
  5
2AC
330
1F
100
AcDbEntity
  8
0
  6
CONTINUOUS
 62
     7
100
AcDbCircle
 10
38.9905953986
 20
223.8872511746
 30
0.0
 40
2.25
  0
CIRCLE
  5
2AD
330
1F
100
AcDbEntity
  8
0
  6
CONTINUOUS
 62
     7
100
AcDbCircle
 10
58.9905953986
 20
223.8872511746
 30
0.0
 40
2.249999999999972
  0
CIRCLE
  5
2AE
330
1F
100
AcDbEntity
  8
0
  6
CONTINUOUS
 62
     7
100
AcDbCircle
 10
31.4905953986
 20
223.8872511746
 30
0.0
 40
2.0
  0
CIRCLE
  5
2AF
330
1F
100
AcDbEntity
  8
0
  6
CONTINUOUS
 62
     7
100
AcDbCircle
 10
66.4905953986
 20
223.8872511746
 30
0.0
 40
2.0
  0
LINE
  5
2B0
330
1F
100
AcDbEntity
  8
0
  6
CONTINUOUS
 62
     7
100
AcDbLine
 10
26.4905945046
 20
234.3872511907
 30
0.0
 11
41.4905955663
 21
234.3872511907
 31
0.0
  0
LINE
  5
2B1
330
1F
100
AcDbEntity
  8
0
  6
CONTINUOUS
 62
     7
100
AcDbLine
 10
26.4905945046
 20
234.3872511907
 30
0.0
 11
26.9905955178
 21
233.8872511746
 31
0.0
  0
LINE
  5
2B2
330
1F
100
AcDbEntity
  8
0
  6
CONTINUOUS
 62
     7
100
AcDbLine
 10
41.4905955663
 20
234.3872511907
 30
0.0
 11
56.490595231
 21
234.3872511907
 31
0.0
  0
LINE
  5
2B3
330
1F
100
AcDbEntity
  8
0
  6
CONTINUOUS
 62
     7
100
AcDbLine
 10
41.4905955663
 20
236.3872511111
 30
0.0
 11
26.4905945046
 21
236.3872511111
 31
0.0
  0
LINE
  5
2B4
330
1F
100
AcDbEntity
  8
0
  6
CONTINUOUS
 62
     7
100
AcDbLine
 10
26.4905945046
 20
236.3872511111
 30
0.0
 11
26.4905945046
 21
234.3872511907
 31
0.0
  0
LINE
  5
2B5
330
1F
100
AcDbEntity
  8
0
  6
CONTINUOUS
 62
     7
100
AcDbLine
 10
56.490595231
 20
234.3872511907
 30
0.0
 11
71.4905962927
 21
234.3872511907
 31
0.0
  0
LINE
  5
2B6
330
1F
100
AcDbEntity
  8
0
  6
CONTINUOUS
 62
     7
100
AcDbLine
 10
70.9905952794
 20
233.8872511746
 30
0.0
 11
71.4905962927
 21
234.3872511907
 31
0.0
  0
LINE
  5
2B7
330
1F
100
AcDbEntity
  8
0
  6
CONTINUOUS
 62
     7
100
AcDbLine
 10
56.490595231
 20
236.3872511111
 30
0.0
 11
41.4905955663
 21
236.3872511111
 31
0.0
  0
LINE
  5
2B8
330
1F
100
AcDbEntity
  8
0
  6
CONTINUOUS
 62
     7
100
AcDbLine
 10
71.4905962927
 20
236.3872511111
 30
0.0
 11
56.490595231
 21
236.3872511111
 31
0.0
  0
LINE
  5
2B9
330
1F
100
AcDbEntity
  8
0
  6
CONTINUOUS
 62
     7
100
AcDbLine
 10
71.4905962927
 20
236.3872511111
 30
0.0
 11
71.4905962927
 21
234.3872511907
 31
0.0
  0
LINE
  5
2BA
330
1F
100
AcDbEntity
  8
0
  6
CONTINUOUS
 62
     7
100
AcDbLine
 10
26.4905945046
 20
236.3872511111
 30
0.0
 11
26.9905955178
 21
236.887251193
 31
0.0
  0
LINE
  5
2BB
330
1F
100
AcDbEntity
  8
0
  6
CONTINUOUS
 62
     7
100
AcDbLine
 10
26.9905955178
 20
236.887251193
 30
0.0
 11
41.4905955663
 21
236.887251193
 31
0.0
  0
LINE
  5
2BC
330
1F
100
AcDbEntity
  8
0
  6
CONTINUOUS
 62
     7
100
AcDbLine
 10
41.4905955663
 20
236.887251193
 30
0.0
 11
56.490595231
 21
236.887251193
 31
0.0
  0
LINE
  5
2BD
330
1F
100
AcDbEntity
  8
0
  6
CONTINUOUS
 62
     7
100
AcDbLine
 10
56.490595231
 20
236.887251193
 30
0.0
 11
70.9905952794
 21
236.887251193
 31
0.0
  0
LINE
  5
2BE
330
1F
100
AcDbEntity
  8
0
  6
CONTINUOUS
 62
     7
100
AcDbLine
 10
71.4905962927
 20
236.3872511111
 30
0.0
 11
70.9905952794
 21
236.887251193
 31
0.0
  0
LINE
  5
2BF
330
1F
100
AcDbEntity
  8
RIQUADRO
100
AcDbLine
 10
66.4905953986
 20
223.8872511746
 30
0.0
 11
58.9905953986
 21
223.8872511746
 31
0.0
  0
LINE
  5
2C0
330
1F
100
AcDbEntity
  8
RIQUADRO
100
AcDbLine
 10
48.9905953986
 20
216.7968504813
 30
0.0
 11
48.9905953986
 21
245.3943160037
 31
0.0
  0
DIMENSION
  5
2C1
330
1F
100
AcDbEntity
  8
RIQUADRO
100
AcDbDimension
  2
_D_4
 10
58.9905953986
 20
238.9609537559
 30
0.0
 11
54.5094244128
 21
238.9609537559
 31
0.0
 70
   160
  1
<>
  3
SLDDIMSTYLE0
100
AcDbAlignedDimension
 13
48.9905953986
 23
245.3943160037
 33
0.0
 14
58.9905953986
 24
228.6372511746
 34
0.0
100
AcDbRotatedDimension
  0
DIMENSION
  5
2CA
330
1F
100
AcDbEntity
  8
RIQUADRO
100
AcDbDimension
  2
_D_5
 10
66.4905953986
 20
249.3139230487
 30
0.0
 11
58.3006526045
 21
249.3139230487
 31
0.0
 70
   160
  1
<>
  3
SLDDIMSTYLE0
100
AcDbAlignedDimension
 13
48.9905953986
 23
245.3943160037
 33
0.0
 14
66.4905953986
 24
228.3872511746
 34
0.0
100
AcDbRotatedDimension
  0
DIMENSION
  5
2D4
330
1F
100
AcDbEntity
  8
RIQUADRO
100
AcDbDimension
  2
_D_6
 10
97.7741818572
 20
223.8872511746
 30
0.0
 11
97.7741818572
 21
229.3491165147
 31
0.0
 70
   160
  1
<>
  3
SLDDIMSTYLE0
100
AcDbAlignedDimension
 13
70.9905953986
 23
218.8872511746
 33
0.0
 14
66.4905953986
 24
223.8872511746
 34
0.0
 50
90.0
100
AcDbRotatedDimension
  0
DIMENSION
  5
2DF
330
1F
100
AcDbEntity
  8
RIQUADRO
100
AcDbDimension
  2
_D_7
 10
58.9905953986
 20
209.3602105667
 30
0.0
 11
48.0934997807
 21
209.3602105667
 31
0.0
 70
   160
  1
<>
  3
SLDDIMSTYLE0
100
AcDbAlignedDimension
 13
38.9905953986
 23
219.1372511746
 33
0.0
 14
58.9905953986
 24
219.1372511746
 34
0.0
100
AcDbRotatedDimension
  0
DIMENSION
  5
2E9
330
1F
100
AcDbEntity
  8
RIQUADRO
100
AcDbDimension
  2
_D_8
 10
66.4905953986
 20
203.6733682791
 30
0.0
 11
48.0934997807
 21
203.6733682791
 31
0.0
 70
   160
  1
<>
  3
SLDDIMSTYLE0
100
AcDbAlignedDimension
 13
31.4905953986
 23
219.3872511746
 33
0.0
 14
66.4905953986
 24
219.3872511746
 34
0.0
100
AcDbRotatedDimension
  0
INSERT
  5
2FE
330
1F
100
AcDbEntity
  8
RIQUADRO
100
AcDbBlockReference
  2
SW_CENTERMARKSYMBOL_0
 10
38.9905953986
 20
223.8872511746
 30
0.0
  0
INSERT
  5
30A
330
1F
100
AcDbEntity
  8
RIQUADRO
100
AcDbBlockReference
  2
SW_CENTERMARKSYMBOL_1
 10
31.4905953986
 20
223.8872511746
 30
0.0
  0
INSERT
  5
316
330
1F
100
AcDbEntity
  8
RIQUADRO
100
AcDbBlockReference
  2
SW_CENTERMARKSYMBOL_2
 10
58.9905953986
 20
223.8872511746
 30
0.0
  0
INSERT
  5
322
330
1F
100
AcDbEntity
  8
RIQUADRO
100
AcDbBlockReference
  2
SW_CENTERMARKSYMBOL_3
 10
66.4905953986
 20
223.8872511746
 30
0.0
  0
LINE
  5
323
330
1F
100
AcDbEntity
  8
0
  6
CONTINUOUS
 62
     7
100
AcDbLine
 10
98.5270671911
 20
161.3555589391
 30
0.0
 11
100.7260669387
 21
161.3555589391
 31
0.0
  0
LINE
  5
324
330
1F
100
AcDbEntity
  8
0
  6
CONTINUOUS
 62
     7
100
AcDbLine
 10
100.7260669387
 20
168.8555583058
 30
0.0
 11
98.5270671911
 21
168.8555583058
 31
0.0
  0
LINE
  5
325
330
1F
100
AcDbEntity
  8
0
  6
CONTINUOUS
 62
     7
100
AcDbLine
 10
98.5270671911
 20
129.955559194
 30
0.0
 11
100.7260669387
 21
129.955559194
 31
0.0
  0
LINE
  5
326
330
1F
100
AcDbEntity
  8
0
  6
CONTINUOUS
 62
     7
100
AcDbLine
 10
100.7260669387
 20
137.4555585607
 30
0.0
 11
98.5270671911
 21
137.4555585607
 31
0.0
  0
LINE
  5
327
330
1F
100
AcDbEntity
  8
0
  6
CONTINUOUS
 62
     7
100
AcDbLine
 10
90.7260671622
 20
109.405559644
 30
0.0
 11
90.7260671622
 21
118.9055584072
 31
0.0
  0
LINE
  5
328
330
1F
100
AcDbEntity
  8
0
  6
CONTINUOUS
 62
     7
100
AcDbLine
 10
90.7260671622
 20
118.9055584072
 30
0.0
 11
91.2260672442
 21
118.9055584072
 31
0.0
  0
LINE
  5
329
330
1F
100
AcDbEntity
  8
0
  6
CONTINUOUS
 62
     7
100
AcDbLine
 10
91.2260672442
 20
118.9055584072
 30
0.0
 11
91.2260672442
 21
109.405559644
 31
0.0
  0
LINE
  5
32A
330
1F
100
AcDbEntity
  8
0
  6
CONTINUOUS
 62
     7
100
AcDbLine
 10
91.2260672442
 20
109.405559644
 30
0.0
 11
90.7260671622
 21
109.405559644
 31
0.0
  0
LINE
  5
32B
330
1F
100
AcDbEntity
  8
0
  6
CONTINUOUS
 62
     7
100
AcDbLine
 10
101.2260670207
 20
118.9055584072
 30
0.0
 11
91.2260672442
 21
118.9055584072
 31
0.0
  0
LINE
  5
32C
330
1F
100
AcDbEntity
  8
0
  6
CONTINUOUS
 62
     7
100
AcDbLine
 10
101.2260670207
 20
157.9055592118
 30
0.0
 11
101.2260670207
 21
118.9055584072
 31
0.0
  0
LINE
  5
32D
330
1F
100
AcDbEntity
  8
0
  6
CONTINUOUS
 62
     7
100
AcDbLine
 10
105.2260670943
 20
109.405559644
 30
0.0
 11
105.2260670943
 21
157.9055592118
 31
0.0
  0
LINE
  5
32E
330
1F
100
AcDbEntity
  8
0
  6
CONTINUOUS
 62
     7
100
AcDbLine
 10
91.2260672442
 20
109.405559644
 30
0.0
 11
105.2260670943
 21
109.405559644
 31
0.0
  0
LINE
  5
32F
330
1F
100
AcDbEntity
  8
0
  6
CONTINUOUS
 62
     7
100
AcDbLine
 10
105.7260670674
 20
157.9055592118
 30
0.0
 11
105.7260670674
 21
109.405559644
 31
0.0
  0
LINE
  5
330
330
1F
100
AcDbEntity
  8
0
  6
CONTINUOUS
 62
     7
100
AcDbLine
 10
105.7260670674
 20
109.405559644
 30
0.0
 11
105.2260670943
 21
109.405559644
 31
0.0
  0
LINE
  5
331
330
1F
100
AcDbEntity
  8
0
  6
CONTINUOUS
 62
     7
100
AcDbLine
 10
91.2260672442
 20
118.9055584072
 30
0.0
 11
91.2260672442
 21
119.4055594205
 31
0.0
  0
LINE
  5
332
330
1F
100
AcDbEntity
  8
0
  6
CONTINUOUS
 62
     7
100
AcDbLine
 10
91.2260672442
 20
119.4055594205
 30
0.0
 11
100.7260669387
 21
119.4055594205
 31
0.0
  0
LINE
  5
333
330
1F
100
AcDbEntity
  8
0
  6
CONTINUOUS
 62
     7
100
AcDbLine
 10
101.2260670207
 20
118.9055584072
 30
0.0
 11
100.7260669387
 21
119.4055594205
 31
0.0
  0
LINE
  5
334
330
1F
100
AcDbEntity
  8
0
  6
CONTINUOUS
 62
     7
100
AcDbLine
 10
100.7260669387
 20
119.4055594205
 30
0.0
 11
100.7260669387
 21
157.9055592118
 31
0.0
  0
LINE
  5
335
330
1F
100
AcDbEntity
  8
0
  6
CONTINUOUS
 62
     7
100
AcDbLine
 10
90.7260671622
 20
118.9055584072
 30
0.0
 11
91.2260672442
 21
119.4055594205
 31
0.0
  0
LINE
  5
336
330
1F
100
AcDbEntity
  8
0
  6
CONTINUOUS
 62
     7
100
AcDbLine
 10
101.2260670207
 20
177.9055587648
 30
0.0
 11
101.2260670207
 21
157.9055592118
 31
0.0
  0
LINE
  5
337
330
1F
100
AcDbEntity
  8
0
  6
CONTINUOUS
 62
     7
100
AcDbLine
 10
101.2260670207
 20
177.9055587648
 30
0.0
 11
105.2260670943
 21
177.9055587648
 31
0.0
  0
LINE
  5
338
330
1F
100
AcDbEntity
  8
0
  6
CONTINUOUS
 62
     7
100
AcDbLine
 10
105.2260670943
 20
157.9055592118
 30
0.0
 11
105.2260670943
 21
177.9055587648
 31
0.0
  0
LINE
  5
339
330
1F
100
AcDbEntity
  8
0
  6
CONTINUOUS
 62
     7
100
AcDbLine
 10
100.7260669387
 20
157.9055592118
 30
0.0
 11
100.7260669387
 21
177.4055596142
 31
0.0
  0
LINE
  5
33A
330
1F
100
AcDbEntity
  8
0
  6
CONTINUOUS
 62
     7
100
AcDbLine
 10
100.7260669387
 20
177.4055596142
 30
0.0
 11
101.2260670207
 21
177.9055587648
 31
0.0
  0
LINE
  5
33B
330
1F
100
AcDbEntity
  8
0
  6
CONTINUOUS
 62
     7
100
AcDbLine
 10
105.2260670943
 20
177.9055587648
 30
0.0
 11
105.7260670674
 21
177.4055596142
 31
0.0
  0
LINE
  5
33C
330
1F
100
AcDbEntity
  8
0
  6
CONTINUOUS
 62
     7
100
AcDbLine
 10
105.7260670674
 20
177.4055596142
 30
0.0
 11
105.7260670674
 21
157.9055592118
 31
0.0
  0
LINE
  5
33D
330
1F
100
AcDbEntity
  8
0
  6
CONTINUOUS
 62
     7
100
AcDbLine
 10
98.5270671911
 20
161.3555589391
 30
0.0
 11
98.5270671911
 21
168.8555583058
 31
0.0
  0
LINE
  5
33E
330
1F
100
AcDbEntity
  8
0
  6
CONTINUOUS
 62
     7
100
AcDbLine
 10
98.5270671911
 20
134.7340020983
 30
0.0
 11
98.5270671911
 21
137.4555585607
 31
0.0
  0
LINE
  5
33F
330
1F
100
AcDbEntity
  8
0
  6
CONTINUOUS
 62
     7
100
AcDbLine
 10
98.5270671911
 20
129.955559194
 30
0.0
 11
98.5270671911
 21
134.7340020983
 31
0.0
  0
LINE
  5
340
330
1F
100
AcDbEntity
  8
0
  6
CONTINUOUS
 62
     7
100
AcDbLine
 10
108.2260670039
 20
136.9055585636
 30
0.0
 11
108.2260670039
 21
157.9055592118
 31
0.0
  0
LINE
  5
341
330
1F
100
AcDbEntity
  8
0
  6
CONTINUOUS
 62
     7
100
AcDbLine
 10
106.2260670835
 20
157.9055592118
 30
0.0
 11
106.2260670835
 21
136.9055585636
 31
0.0
  0
LINE
  5
342
330
1F
100
AcDbEntity
  8
0
  6
CONTINUOUS
 62
     7
100
AcDbLine
 10
108.2260670039
 20
157.9055592118
 30
0.0
 11
108.2260670039
 21
177.9055587648
 31
0.0
  0
LINE
  5
343
330
1F
100
AcDbEntity
  8
0
  6
CONTINUOUS
 62
     7
100
AcDbLine
 10
106.2260670835
 20
177.9055587648
 30
0.0
 11
106.2260670835
 21
157.9055592118
 31
0.0
  0
LINE
  5
344
330
1F
100
AcDbEntity
  8
0
  6
CONTINUOUS
 62
     7
100
AcDbLine
 10
108.2260670039
 20
177.9055587648
 30
0.0
 11
106.2260670835
 21
177.9055587648
 31
0.0
  0
LINE
  5
345
330
1F
100
AcDbEntity
  8
0
  6
CONTINUOUS
 62
     7
100
AcDbLine
 10
106.2260670835
 20
136.9055585636
 30
0.0
 11
106.2260670835
 21
121.9055588989
 31
0.0
  0
LINE
  5
346
330
1F
100
AcDbEntity
  8
0
  6
CONTINUOUS
 62
     7
100
AcDbLine
 10
106.2260670835
 20
121.9055588989
 30
0.0
 11
105.7260670674
 21
122.4055580495
 31
0.0
  0
LINE
  5
347
330
1F
100
AcDbEntity
  8
0
  6
CONTINUOUS
 62
     7
100
AcDbLine
 10
105.7260670674
 20
136.9055585636
 30
0.0
 11
105.7260670674
 21
157.9055592118
 31
0.0
  0
LINE
  5
348
330
1F
100
AcDbEntity
  8
0
  6
CONTINUOUS
 62
     7
100
AcDbLine
 10
108.7260670859
 20
177.4055596142
 30
0.0
 11
108.7260670859
 21
157.9055592118
 31
0.0
  0
LINE
  5
349
330
1F
100
AcDbEntity
  8
0
  6
CONTINUOUS
 62
     7
100
AcDbLine
 10
108.7260670859
 20
177.4055596142
 30
0.0
 11
108.2260670039
 21
177.9055587648
 31
0.0
  0
LINE
  5
34A
330
1F
100
AcDbEntity
  8
0
  6
CONTINUOUS
 62
     7
100
AcDbLine
 10
108.2260670039
 20
121.9055588989
 30
0.0
 11
108.2260670039
 21
136.9055585636
 31
0.0
  0
LINE
  5
34B
330
1F
100
AcDbEntity
  8
0
  6
CONTINUOUS
 62
     7
100
AcDbLine
 10
108.2260670039
 20
121.9055588989
 30
0.0
 11
106.2260670835
 21
121.9055588989
 31
0.0
  0
LINE
  5
34C
330
1F
100
AcDbEntity
  8
0
  6
CONTINUOUS
 62
     7
100
AcDbLine
 10
108.7260670859
 20
157.9055592118
 30
0.0
 11
108.7260670859
 21
136.9055585636
 31
0.0
  0
LINE
  5
34D
330
1F
100
AcDbEntity
  8
0
  6
CONTINUOUS
 62
     7
100
AcDbLine
 10
105.7260670674
 20
177.4055596142
 30
0.0
 11
106.2260670835
 21
177.9055587648
 31
0.0
  0
LINE
  5
34E
330
1F
100
AcDbEntity
  8
0
  6
CONTINUOUS
 62
     7
100
AcDbLine
 10
108.7260670859
 20
136.9055585636
 30
0.0
 11
108.7260670859
 21
122.4055580495
 31
0.0
  0
LINE
  5
34F
330
1F
100
AcDbEntity
  8
0
  6
CONTINUOUS
 62
     7
100
AcDbLine
 10
108.2260670039
 20
121.9055588989
 30
0.0
 11
108.7260670859
 21
122.4055580495
 31
0.0
  0
DIMENSION
  5
350
330
1F
100
AcDbEntity
  8
RIQUADRO
100
AcDbDimension
  2
_D_9
 10
117.8121298177
 20
109.4055587499
 30
0.0
 11
117.8121298177
 21
142.5641236354
 31
0.0
 70
   160
  1
<>
  3
SLDDIMSTYLE0
100
AcDbAlignedDimension
 13
105.2260670674
 23
177.9055587499
 33
0.0
 14
105.7260670674
 24
109.4055587499
 34
0.0
 50
90.0
100
AcDbRotatedDimension
  0
DIMENSION
  5
35A
330
1F
100
AcDbEntity
  8
RIQUADRO
100
AcDbDimension
  2
_D_10
 10
108.7260670674
 20
189.2661383166
 30
0.0
 11
98.957257619
 21
189.2661383166
 31
0.0
 70
   160
  1
<>
  3
SLDDIMSTYLE0
100
AcDbAlignedDimension
 13
90.7260670674
 23
118.9055587499
 33
0.0
 14
108.7260670674
 24
157.9055587499
 34
0.0
100
AcDbRotatedDimension
  0
DIMENSION
  5
364
330
1F
100
AcDbEntity
  8
RIQUADRO
100
AcDbDimension
  2
_D_11
 10
108.7260670674
 20
163.1672627929
 30
0.0
 11
105.1394483208
 21
163.1672627929
 31
0.0
 70
   160
  1
<>
  3
SLDDIMSTYLE0
100
AcDbAlignedDimension
 13
100.7260670674
 23
157.9055587499
 33
0.0
 14
108.7260670674
 24
177.4055587499
 34
0.0
100
AcDbRotatedDimension
  0
SPLINE
  5
36D
330
1F
100
AcDbEntity
  8
0
  6
CONTINUOUS
 62
     7
100
AcDbSpline
210
0.0
220
0.0
230
1.0
 70
     8
 71
     3
 72
    14
 73
    10
 74
     0
 42
0.00000001
 43
0.00000001
 12
1.0
 22
0.0
 32
0.0
 13
1.0
 23
0.0
 33
0.0
 40
0.0
 40
0.0
 40
0.0
 40
0.0
 40
0.1329833239997303
 40
0.2634539479816664
 40
0.3947560069344276
 40
0.530814472633442
 40
0.6763854576109967
 40
0.8359859761344461
 40
1.0
 40
1.0
 40
1.0
 40
1.0
 10
148.2528215785235
 20
109.4055596439704
 30
0.0
 10
148.3325450722033
 20
109.8230301844496
 30
0.0
 10
148.4904856960734
 20
110.6500832219833
 30
0.0
 10
148.7319364301686
 20
111.888437542124
 30
0.0
 10
148.9243002948131
 20
113.1460261741822
 30
0.0
 10
149.0283739614977
 20
114.4629958351168
 30
0.0
 10
149.0086180445014
 20
115.8762129068614
 30
0.0
 10
148.8103362689847
 20
117.3642050223747
 30
0.0
 10
148.6589076631375
 20
118.3871237043396
 30
0.0
 10
148.5821607568025
 20
118.905558407174
 30
0.0
  0
LINE
  5
36E
330
1F
100
AcDbEntity
  8
0
  6
CONTINUOUS
 62
     7
100
AcDbLine
 10
155.1787360151
 20
118.9055584072
 30
0.0
 11
148.5821607568
 21
118.9055584072
 31
0.0
  0
SPLINE
  5
36F
330
1F
100
AcDbEntity
  8
0
  6
CONTINUOUS
 62
     7
100
AcDbSpline
210
0.0
220
0.0
230
1.0
 70
     8
 71
     3
 72
    15
 73
    11
 74
     0
 42
0.00000001
 43
0.00000001
 12
1.0
 22
0.0
 32
0.0
 13
1.0
 23
0.0
 33
0.0
 40
0.0
 40
0.0
 40
0.0
 40
0.0
 40
0.0634689917850499
 40
0.1280375494998205
 40
0.2618538991375295
 40
0.4039383599115124
 40
0.5523941337617713
 40
0.7039166727738774
 40
0.8543727247297459
 40
1.0
 40
1.0
 40
1.0
 40
1.0
 10
155.1787360151022
 20
118.905558407174
 30
0.0
 10
155.2268719216787
 20
118.7088637671977
 30
0.0
 10
155.3239776633592
 20
118.3120668590698
 30
0.0
 10
155.3921693492022
 20
117.4777892295878
 30
0.0
 10
155.3377381304542
 20
116.3912541970194
 30
0.0
 10
155.1419522884179
 20
115.0531351218444
 30
0.0
 10
154.9208628783043
 20
113.6620859954618
 30
0.0
 10
154.7512096016893
 20
112.2369497189808
 30
0.0
 10
154.6417409080642
 20
110.8132681819084
 30
0.0
 10
154.6644986235697
 20
109.8696661372173
 30
0.0
 10
154.6756919053107
 20
109.4055596439704
 30
0.0
  0
LINE
  5
370
330
1F
100
AcDbEntity
  8
0
  6
CONTINUOUS
 62
     7
100
AcDbLine
 10
148.2528215785
 20
109.405559644
 30
0.0
 11
154.6756919053
 21
109.405559644
 31
0.0
  0
LINE
  5
371
330
1F
100
AcDbEntity
  8
0
  6
CONTINUOUS
 62
     7
100
AcDbLine
 10
148.5821607568
 20
118.9055584072
 30
0.0
 11
148.5267214522
 21
119.4055594205
 31
0.0
  0
LINE
  5
372
330
1F
100
AcDbEntity
  8
0
  6
CONTINUOUS
 62
     7
100
AcDbLine
 10
148.5267214522
 20
119.4055594205
 30
0.0
 11
154.9979674675
 21
119.4055594205
 31
0.0
  0
LINE
  5
373
330
1F
100
AcDbEntity
  8
0
  6
CONTINUOUS
 62
     7
100
AcDbLine
 10
154.9979674675
 20
119.4055594205
 30
0.0
 11
155.1787360151
 21
118.9055584072
 31
0.0
  0
LINE
  5
374
330
1F
100
AcDbEntity
  8
0
  6
CONTINUOUS
 62
     7
100
AcDbLine
 10
146.2934236553
 20
114.4055586009
 30
0.0
 11
146.2934236553
 21
119.4055594205
 31
0.0
  0
LINE
  5
375
330
1F
100
AcDbEntity
  8
0
  6
CONTINUOUS
 62
     7
100
AcDbLine
 10
138.2934232753
 20
119.4055594205
 30
0.0
 11
138.2934232753
 21
114.4055586009
 31
0.0
  0
LINE
  5
376
330
1F
100
AcDbEntity
  8
0
  6
CONTINUOUS
 62
     7
100
AcDbLine
 10
146.2934236553
 20
119.4055594205
 30
0.0
 11
138.2934232753
 21
119.4055594205
 31
0.0
  0
LINE
  5
377
330
1F
100
AcDbEntity
  8
0
  6
CONTINUOUS
 62
     7
100
AcDbLine
 10
166.2934241396
 20
114.4055586009
 30
0.0
 11
166.2934241396
 21
119.4055594205
 31
0.0
  0
LINE
  5
378
330
1F
100
AcDbEntity
  8
0
  6
CONTINUOUS
 62
     7
100
AcDbLine
 10
158.2934237596
 20
119.4055594205
 30
0.0
 11
158.2934237596
 21
114.4055586009
 31
0.0
  0
LINE
  5
379
330
1F
100
AcDbEntity
  8
0
  6
CONTINUOUS
 62
     7
100
AcDbLine
 10
166.2934241396
 20
119.4055594205
 30
0.0
 11
158.2934237596
 21
119.4055594205
 31
0.0
  0
LINE
  5
37A
330
1F
100
AcDbEntity
  8
0
  6
CONTINUOUS
 62
     7
100
AcDbLine
 10
144.5434238341
 20
109.405559644
 30
0.0
 11
144.5434238341
 21
114.4055586009
 31
0.0
  0
LINE
  5
37B
330
1F
100
AcDbEntity
  8
0
  6
CONTINUOUS
 62
     7
100
AcDbLine
 10
140.0434240279
 20
114.4055586009
 30
0.0
 11
140.0434240279
 21
109.405559644
 31
0.0
  0
LINE
  5
37C
330
1F
100
AcDbEntity
  8
0
  6
CONTINUOUS
 62
     7
100
AcDbLine
 10
144.5434238341
 20
114.4055586009
 30
0.0
 11
140.0434240279
 21
114.4055586009
 31
0.0
  0
LINE
  5
37D
330
1F
100
AcDbEntity
  8
0
  6
CONTINUOUS
 62
     7
100
AcDbLine
 10
144.5434238341
 20
109.405559644
 30
0.0
 11
140.0434240279
 21
109.405559644
 31
0.0
  0
LINE
  5
37E
330
1F
100
AcDbEntity
  8
0
  6
CONTINUOUS
 62
     7
100
AcDbLine
 10
160.0434235808
 20
114.4055586009
 30
0.0
 11
160.0434235808
 21
109.405559644
 31
0.0
  0
LINE
  5
37F
330
1F
100
AcDbEntity
  8
0
  6
CONTINUOUS
 62
     7
100
AcDbLine
 10
158.2934237596
 20
114.4055586009
 30
0.0
 11
160.0434235808
 21
114.4055586009
 31
0.0
  0
LINE
  5
380
330
1F
100
AcDbEntity
  8
0
  6
CONTINUOUS
 62
     7
100
AcDbLine
 10
154.9979674675
 20
119.4055594205
 30
0.0
 11
158.2934237596
 21
119.4055594205
 31
0.0
  0
LINE
  5
381
330
1F
100
AcDbEntity
  8
0
  6
CONTINUOUS
 62
     7
100
AcDbLine
 10
160.0434235808
 20
109.405559644
 30
0.0
 11
154.6756919053
 21
109.405559644
 31
0.0
  0
LINE
  5
382
330
1F
100
AcDbEntity
  8
0
  6
CONTINUOUS
 62
     7
100
AcDbLine
 10
164.5434233871
 20
109.405559644
 30
0.0
 11
164.5434233871
 21
114.4055586009
 31
0.0
  0
LINE
  5
383
330
1F
100
AcDbEntity
  8
0
  6
CONTINUOUS
 62
     7
100
AcDbLine
 10
164.5434233871
 20
114.4055586009
 30
0.0
 11
160.0434235808
 21
114.4055586009
 31
0.0
  0
LINE
  5
384
330
1F
100
AcDbEntity
  8
0
  6
CONTINUOUS
 62
     7
100
AcDbLine
 10
164.5434233871
 20
109.405559644
 30
0.0
 11
160.0434235808
 21
109.405559644
 31
0.0
  0
LINE
  5
385
330
1F
100
AcDbEntity
  8
0
  6
CONTINUOUS
 62
     7
100
AcDbLine
 10
144.5434238341
 20
114.4055586009
 30
0.0
 11
146.2934236553
 21
114.4055586009
 31
0.0
  0
LINE
  5
386
330
1F
100
AcDbEntity
  8
0
  6
CONTINUOUS
 62
     7
100
AcDbLine
 10
146.2934236553
 20
119.4055594205
 30
0.0
 11
148.5267214522
 21
119.4055594205
 31
0.0
  0
LINE
  5
387
330
1F
100
AcDbEntity
  8
0
  6
CONTINUOUS
 62
     7
100
AcDbLine
 10
148.2528215785
 20
109.405559644
 30
0.0
 11
144.5434238341
 21
109.405559644
 31
0.0
  0
LINE
  5
388
330
1F
100
AcDbEntity
  8
0
  6
CONTINUOUS
 62
     7
100
AcDbLine
 10
136.993423621
 20
119.4055594205
 30
0.0
 11
136.7934239608
 21
119.0591484009
 31
0.0
  0
LINE
  5
389
330
1F
100
AcDbEntity
  8
0
  6
CONTINUOUS
 62
     7
100
AcDbLine
 10
136.7934239608
 20
119.0591484009
 30
0.0
 11
132.7934233051
 21
119.0591484009
 31
0.0
  0
LINE
  5
38A
330
1F
100
AcDbEntity
  8
0
  6
CONTINUOUS
 62
     7
100
AcDbLine
 10
132.7934233051
 20
119.0591484009
 30
0.0
 11
132.5934236449
 21
119.4055594205
 31
0.0
  0
LINE
  5
38B
330
1F
100
AcDbEntity
  8
0
  6
CONTINUOUS
 62
     7
100
AcDbLine
 10
132.5934236449
 20
119.4055594205
 30
0.0
 11
136.993423621
 21
119.4055594205
 31
0.0
  0
LINE
  5
38C
330
1F
100
AcDbEntity
  8
0
  6
CONTINUOUS
 62
     7
100
AcDbLine
 10
171.7934241098
 20
109.405559644
 30
0.0
 11
171.7934241098
 21
119.0591484009
 31
0.0
  0
LINE
  5
38D
330
1F
100
AcDbEntity
  8
0
  6
CONTINUOUS
 62
     7
100
AcDbLine
 10
167.7934234542
 20
119.0591484009
 30
0.0
 11
167.7934234542
 21
109.405559644
 31
0.0
  0
LINE
  5
38E
330
1F
100
AcDbEntity
  8
0
  6
CONTINUOUS
 62
     7
100
AcDbLine
 10
171.7934241098
 20
119.0591484009
 30
0.0
 11
167.7934234542
 21
119.0591484009
 31
0.0
  0
LINE
  5
38F
330
1F
100
AcDbEntity
  8
0
  6
CONTINUOUS
 62
     7
100
AcDbLine
 10
171.7934241098
 20
109.405559644
 30
0.0
 11
167.7934234542
 21
109.405559644
 31
0.0
  0
LINE
  5
390
330
1F
100
AcDbEntity
  8
0
  6
CONTINUOUS
 62
     7
100
AcDbLine
 10
171.9934237701
 20
119.4055594205
 30
0.0
 11
171.7934241098
 21
119.0591484009
 31
0.0
  0
LINE
  5
391
330
1F
100
AcDbEntity
  8
0
  6
CONTINUOUS
 62
     7
100
AcDbLine
 10
167.7934234542
 20
119.0591484009
 30
0.0
 11
167.5934237939
 21
119.4055594205
 31
0.0
  0
LINE
  5
392
330
1F
100
AcDbEntity
  8
0
  6
CONTINUOUS
 62
     7
100
AcDbLine
 10
167.5934237939
 20
119.4055594205
 30
0.0
 11
171.9934237701
 21
119.4055594205
 31
0.0
  0
LINE
  5
393
330
1F
100
AcDbEntity
  8
0
  6
CONTINUOUS
 62
     7
100
AcDbLine
 10
174.7934246015
 20
118.9055584072
 30
0.0
 11
174.7934246015
 21
109.405559644
 31
0.0
  0
LINE
  5
394
330
1F
100
AcDbEntity
  8
0
  6
CONTINUOUS
 62
     7
100
AcDbLine
 10
174.7934246015
 20
118.9055584072
 30
0.0
 11
174.2934235883
 21
119.4055594205
 31
0.0
  0
LINE
  5
395
330
1F
100
AcDbEntity
  8
0
  6
CONTINUOUS
 62
     7
100
AcDbLine
 10
171.9934237701
 20
119.4055594205
 30
0.0
 11
174.2934235883
 21
119.4055594205
 31
0.0
  0
LINE
  5
396
330
1F
100
AcDbEntity
  8
0
  6
CONTINUOUS
 62
     7
100
AcDbLine
 10
174.7934246015
 20
109.405559644
 30
0.0
 11
171.7934241098
 21
109.405559644
 31
0.0
  0
LINE
  5
397
330
1F
100
AcDbEntity
  8
0
  6
CONTINUOUS
 62
     7
100
AcDbLine
 10
164.5434233871
 20
114.4055586009
 30
0.0
 11
166.2934241396
 21
114.4055586009
 31
0.0
  0
LINE
  5
398
330
1F
100
AcDbEntity
  8
0
  6
CONTINUOUS
 62
     7
100
AcDbLine
 10
166.2934241396
 20
119.4055594205
 30
0.0
 11
167.5934237939
 21
119.4055594205
 31
0.0
  0
LINE
  5
399
330
1F
100
AcDbEntity
  8
0
  6
CONTINUOUS
 62
     7
100
AcDbLine
 10
167.7934234542
 20
109.405559644
 30
0.0
 11
164.5434233871
 21
109.405559644
 31
0.0
  0
LINE
  5
39A
330
1F
100
AcDbEntity
  8
0
  6
CONTINUOUS
 62
     7
100
AcDbLine
 10
136.7934239608
 20
109.405559644
 30
0.0
 11
136.7934239608
 21
119.0591484009
 31
0.0
  0
LINE
  5
39B
330
1F
100
AcDbEntity
  8
0
  6
CONTINUOUS
 62
     7
100
AcDbLine
 10
138.2934232753
 20
114.4055586009
 30
0.0
 11
140.0434240279
 21
114.4055586009
 31
0.0
  0
LINE
  5
39C
330
1F
100
AcDbEntity
  8
0
  6
CONTINUOUS
 62
     7
100
AcDbLine
 10
136.993423621
 20
119.4055594205
 30
0.0
 11
138.2934232753
 21
119.4055594205
 31
0.0
  0
LINE
  5
39D
330
1F
100
AcDbEntity
  8
0
  6
CONTINUOUS
 62
     7
100
AcDbLine
 10
140.0434240279
 20
109.405559644
 30
0.0
 11
136.7934239608
 21
109.405559644
 31
0.0
  0
LINE
  5
39E
330
1F
100
AcDbEntity
  8
0
  6
CONTINUOUS
 62
     7
100
AcDbLine
 10
132.7934233051
 20
119.0591484009
 30
0.0
 11
132.7934233051
 21
109.405559644
 31
0.0
  0
LINE
  5
39F
330
1F
100
AcDbEntity
  8
0
  6
CONTINUOUS
 62
     7
100
AcDbLine
 10
136.7934239608
 20
109.405559644
 30
0.0
 11
132.7934233051
 21
109.405559644
 31
0.0
  0
LINE
  5
3A0
330
1F
100
AcDbEntity
  8
0
  6
CONTINUOUS
 62
     7
100
AcDbLine
 10
129.7934228134
 20
109.405559644
 30
0.0
 11
129.7934228134
 21
118.9055584072
 31
0.0
  0
LINE
  5
3A1
330
1F
100
AcDbEntity
  8
0
  6
CONTINUOUS
 62
     7
100
AcDbLine
 10
130.2934238267
 20
119.4055594205
 30
0.0
 11
129.7934228134
 21
118.9055584072
 31
0.0
  0
LINE
  5
3A2
330
1F
100
AcDbEntity
  8
0
  6
CONTINUOUS
 62
     7
100
AcDbLine
 10
130.2934238267
 20
119.4055594205
 30
0.0
 11
132.5934236449
 21
119.4055594205
 31
0.0
  0
LINE
  5
3A3
330
1F
100
AcDbEntity
  8
0
  6
CONTINUOUS
 62
     7
100
AcDbLine
 10
132.7934233051
 20
109.405559644
 30
0.0
 11
129.7934228134
 21
109.405559644
 31
0.0
  0
ARC
  5
3A4
330
1F
100
AcDbEntity
  8
0
  6
CONTINUOUS
 62
     7
100
AcDbCircle
 10
149.7934237075
 20
157.9055587499
 30
0.0
 40
19.49999999999997
100
AcDbArc
 50
90.0
 51
180.0
  0
ARC
  5
3A5
330
1F
100
AcDbEntity
  8
0
  6
CONTINUOUS
 62
     7
100
AcDbCircle
 10
149.7934237075
 20
157.9055587499
 30
0.0
 40
20.0
100
AcDbArc
 50
90.0
 51
180.0
  0
LINE
  5
3A6
330
1F
100
AcDbEntity
  8
0
  6
CONTINUOUS
 62
     7
100
AcDbLine
 10
130.2934238267
 20
157.9055592118
 30
0.0
 11
130.2934238267
 21
119.4055594205
 31
0.0
  0
LINE
  5
3A7
330
1F
100
AcDbEntity
  8
0
  6
CONTINUOUS
 62
     7
100
AcDbLine
 10
129.7934228134
 20
118.9055584072
 30
0.0
 11
129.7934228134
 21
157.9055592118
 31
0.0
  0
LINE
  5
3A8
330
1F
100
AcDbEntity
  8
0
  6
CONTINUOUS
 62
     7
100
AcDbLine
 10
154.7934236516
 20
177.4055596142
 30
0.0
 11
149.7934237634
 21
177.4055596142
 31
0.0
  0
ARC
  5
3A9
330
1F
100
AcDbEntity
  8
0
  6
CONTINUOUS
 62
     7
100
AcDbCircle
 10
154.7934237075
 20
157.9055587499
 30
0.0
 40
19.50000000000003
100
AcDbArc
 50
0.0
 51
90.0
  0
LINE
  5
3AA
330
1F
100
AcDbEntity
  8
0
  6
CONTINUOUS
 62
     7
100
AcDbLine
 10
174.2934235883
 20
119.4055594205
 30
0.0
 11
174.2934235883
 21
157.9055592118
 31
0.0
  0
LINE
  5
3AB
330
1F
100
AcDbEntity
  8
0
  6
CONTINUOUS
 62
     7
100
AcDbLine
 10
146.7934237373
 20
133.705559343
 30
0.0
 11
146.7934237373
 21
133.9055590032
 31
0.0
  0
ARC
  5
3AC
330
1F
100
AcDbEntity
  8
0
  6
CONTINUOUS
 62
     7
100
AcDbCircle
 10
152.2934237075
 20
133.7055587499
 30
0.0
 40
5.500000000000028
100
AcDbArc
 50
180.0
 51
0.0
  0
LINE
  5
3AD
330
1F
100
AcDbEntity
  8
0
  6
CONTINUOUS
 62
     7
100
AcDbLine
 10
157.7934236777
 20
133.9055590032
 30
0.0
 11
157.7934236777
 21
133.705559343
 31
0.0
  0
LINE
  5
3AE
330
1F
100
AcDbEntity
  8
0
  6
CONTINUOUS
 62
     7
100
AcDbLine
 10
171.2934230965
 20
133.9055590032
 30
0.0
 11
157.7934236777
 21
133.9055590032
 31
0.0
  0
LINE
  5
3AF
330
1F
100
AcDbEntity
  8
0
  6
CONTINUOUS
 62
     7
100
AcDbLine
 10
171.2934230965
 20
165.1055581568
 30
0.0
 11
171.2934230965
 21
133.9055590032
 31
0.0
  0
ARC
  5
3B0
330
1F
100
AcDbEntity
  8
0
  6
CONTINUOUS
 62
     7
100
AcDbCircle
 10
165.7934237075
 20
165.1055587499
 30
0.0
 40
5.500000000000057
100
AcDbArc
 50
0.0
 51
180.0
  0
LINE
  5
3B1
330
1F
100
AcDbEntity
  8
0
  6
CONTINUOUS
 62
     7
100
AcDbLine
 10
160.2934240875
 20
164.9055584966
 30
0.0
 11
160.2934240875
 21
165.1055581568
 31
0.0
  0
LINE
  5
3B2
330
1F
100
AcDbEntity
  8
0
  6
CONTINUOUS
 62
     7
100
AcDbLine
 10
144.2934233275
 20
164.9055584966
 30
0.0
 11
160.2934240875
 21
164.9055584966
 31
0.0
  0
LINE
  5
3B3
330
1F
100
AcDbEntity
  8
0
  6
CONTINUOUS
 62
     7
100
AcDbLine
 10
144.2934233275
 20
165.1055581568
 30
0.0
 11
144.2934233275
 21
164.9055584966
 31
0.0
  0
ARC
  5
3B4
330
1F
100
AcDbEntity
  8
0
  6
CONTINUOUS
 62
     7
100
AcDbCircle
 10
138.7934237075
 20
165.1055587499
 30
0.0
 40
5.500000000000028
100
AcDbArc
 50
0.0
 51
180.0
  0
LINE
  5
3B5
330
1F
100
AcDbEntity
  8
0
  6
CONTINUOUS
 62
     7
100
AcDbLine
 10
133.2934243184
 20
133.9055590032
 30
0.0
 11
133.2934243184
 21
165.1055581568
 31
0.0
  0
LINE
  5
3B6
330
1F
100
AcDbEntity
  8
0
  6
CONTINUOUS
 62
     7
100
AcDbLine
 10
146.7934237373
 20
133.9055590032
 30
0.0
 11
133.2934243184
 21
133.9055590032
 31
0.0
  0
LINE
  5
3B7
330
1F
100
AcDbEntity
  8
0
  6
CONTINUOUS
 62
     7
100
AcDbLine
 10
133.2934243184
 20
133.9055590032
 30
0.0
 11
134.0863169682
 21
134.698451653
 31
0.0
  0
ARC
  5
3B8
330
1F
100
AcDbEntity
  8
0
  6
CONTINUOUS
 62
     7
100
AcDbCircle
 10
134.7934237075
 20
135.4055587499
 30
0.0
 40
1.000000000000008
100
AcDbArc
 50
225.0
 51
270.0
  0
LINE
  5
3B9
330
1F
100
AcDbEntity
  8
0
  6
CONTINUOUS
 62
     7
100
AcDbLine
 10
134.793423633
 20
134.4055590852
 30
0.0
 11
147.2934238192
 21
134.4055590852
 31
0.0
  0
LINE
  5
3BA
330
1F
100
AcDbEntity
  8
0
  6
CONTINUOUS
 62
     7
100
AcDbLine
 10
146.7934237373
 20
133.9055590032
 30
0.0
 11
147.2934238192
 21
134.4055590852
 31
0.0
  0
LINE
  5
3BB
330
1F
100
AcDbEntity
  8
0
  6
CONTINUOUS
 62
     7
100
AcDbLine
 10
133.7934234691
 20
165.1055581568
 30
0.0
 11
133.7934234691
 21
135.4055583178
 31
0.0
  0
ARC
  5
3BC
330
1F
100
AcDbEntity
  8
0
  6
CONTINUOUS
 62
     7
100
AcDbCircle
 10
134.7934237075
 20
135.4055587499
 30
0.0
 40
1.000000000000008
100
AcDbArc
 50
180.0
 51
225.0
  0
ARC
  5
3BD
330
1F
100
AcDbEntity
  8
0
  6
CONTINUOUS
 62
     7
100
AcDbCircle
 10
138.7934237075
 20
165.1055587499
 30
0.0
 40
5.0
100
AcDbArc
 50
0.0
 51
180.0
  0
LINE
  5
3BE
330
1F
100
AcDbEntity
  8
0
  6
CONTINUOUS
 62
     7
100
AcDbLine
 10
143.7934232455
 20
164.4055584146
 30
0.0
 11
143.7934232455
 21
165.1055581568
 31
0.0
  0
LINE
  5
3BF
330
1F
100
AcDbEntity
  8
0
  6
CONTINUOUS
 62
     7
100
AcDbLine
 10
143.7934232455
 20
164.4055584146
 30
0.0
 11
144.2934233275
 21
164.9055584966
 31
0.0
  0
LINE
  5
3C0
330
1F
100
AcDbEntity
  8
0
  6
CONTINUOUS
 62
     7
100
AcDbLine
 10
160.7934241694
 20
164.4055584146
 30
0.0
 11
143.7934232455
 21
164.4055584146
 31
0.0
  0
LINE
  5
3C1
330
1F
100
AcDbEntity
  8
0
  6
CONTINUOUS
 62
     7
100
AcDbLine
 10
160.7934241694
 20
164.4055584146
 30
0.0
 11
160.2934240875
 21
164.9055584966
 31
0.0
  0
LINE
  5
3C2
330
1F
100
AcDbEntity
  8
0
  6
CONTINUOUS
 62
     7
100
AcDbLine
 10
147.2934238192
 20
134.4055590852
 30
0.0
 11
147.2934238192
 21
133.705559343
 31
0.0
  0
ARC
  5
3C3
330
1F
100
AcDbEntity
  8
0
  6
CONTINUOUS
 62
     7
100
AcDbCircle
 10
152.2934237075
 20
133.7055587499
 30
0.0
 40
5.0
100
AcDbArc
 50
180.0
 51
0.0
  0
LINE
  5
3C4
330
1F
100
AcDbEntity
  8
0
  6
CONTINUOUS
 62
     7
100
AcDbLine
 10
149.7934237634
 20
177.9055587648
 30
0.0
 11
154.7934236516
 21
177.9055587648
 31
0.0
  0
ARC
  5
3C5
330
1F
100
AcDbEntity
  8
0
  6
CONTINUOUS
 62
     7
100
AcDbCircle
 10
154.7934237075
 20
157.9055587499
 30
0.0
 40
20.0
100
AcDbArc
 50
0.0
 51
90.0
  0
LINE
  5
3C6
330
1F
100
AcDbEntity
  8
0
  6
CONTINUOUS
 62
     7
100
AcDbLine
 10
157.7934236777
 20
133.9055590032
 30
0.0
 11
157.2934235957
 21
134.4055590852
 31
0.0
  0
LINE
  5
3C7
330
1F
100
AcDbEntity
  8
0
  6
CONTINUOUS
 62
     7
100
AcDbLine
 10
157.2934235957
 20
134.4055590852
 30
0.0
 11
169.793423782
 21
134.4055590852
 31
0.0
  0
ARC
  5
3C8
330
1F
100
AcDbEntity
  8
0
  6
CONTINUOUS
 62
     7
100
AcDbCircle
 10
169.7934237075
 20
135.4055587499
 30
0.0
 40
1.0
100
AcDbArc
 50
270.0
 51
315.0
  0
LINE
  5
3C9
330
1F
100
AcDbEntity
  8
0
  6
CONTINUOUS
 62
     7
100
AcDbLine
 10
171.2934230965
 20
133.9055590032
 30
0.0
 11
170.5005304468
 21
134.698451653
 31
0.0
  0
LINE
  5
3CA
330
1F
100
AcDbEntity
  8
0
  6
CONTINUOUS
 62
     7
100
AcDbLine
 10
157.2934235957
 20
133.705559343
 30
0.0
 11
157.2934235957
 21
134.4055590852
 31
0.0
  0
LINE
  5
3CB
330
1F
100
AcDbEntity
  8
0
  6
CONTINUOUS
 62
     7
100
AcDbLine
 10
160.7934241694
 20
165.1055581568
 30
0.0
 11
160.7934241694
 21
164.4055584146
 31
0.0
  0
ARC
  5
3CC
330
1F
100
AcDbEntity
  8
0
  6
CONTINUOUS
 62
     7
100
AcDbCircle
 10
165.7934237075
 20
165.1055587499
 30
0.0
 40
5.000000000000028
100
AcDbArc
 50
0.0
 51
180.0
  0
ARC
  5
3CD
330
1F
100
AcDbEntity
  8
0
  6
CONTINUOUS
 62
     7
100
AcDbCircle
 10
169.7934237075
 20
135.4055587499
 30
0.0
 40
1.0
100
AcDbArc
 50
315.0
 51
0.0
  0
LINE
  5
3CE
330
1F
100
AcDbEntity
  8
0
  6
CONTINUOUS
 62
     7
100
AcDbLine
 10
170.7934239459
 20
135.4055583178
 30
0.0
 11
170.7934239459
 21
165.1055581568
 31
0.0
  0
LINE
  5
3CF
330
1F
100
AcDbEntity
  8
0
  6
CONTINUOUS
 62
     7
100
AcDbLine
 10
174.7934246015
 20
157.9055592118
 30
0.0
 11
174.7934246015
 21
118.9055584072
 31
0.0
  0
CIRCLE
  5
3D0
330
1F
100
AcDbEntity
  8
0
  6
CONTINUOUS
 62
     7
100
AcDbCircle
 10
165.7934237075
 20
165.1055587499
 30
0.0
 40
3.750000000000039
  0
CIRCLE
  5
3D1
330
1F
100
AcDbEntity
  8
0
  6
CONTINUOUS
 62
     7
100
AcDbCircle
 10
165.7934237075
 20
165.1055587499
 30
0.0
 40
3.249999999999988
  0
CIRCLE
  5
3D2
330
1F
100
AcDbEntity
  8
0
  6
CONTINUOUS
 62
     7
100
AcDbCircle
 10
138.7934237075
 20
165.1055587499
 30
0.0
 40
3.750000000000032
  0
CIRCLE
  5
3D3
330
1F
100
AcDbEntity
  8
0
  6
CONTINUOUS
 62
     7
100
AcDbCircle
 10
138.7934237075
 20
165.1055587499
 30
0.0
 40
3.250000000000004
  0
ARC
  5
3D4
330
1F
100
AcDbEntity
  8
0
  6
CONTINUOUS
 62
     7
100
AcDbCircle
 10
138.7934237075
 20
165.1055587499
 30
0.0
 40
2.750000000000027
100
AcDbArc
 50
94.5615558628
 51
184.5615558628
  0
ARC
  5
3D5
330
1F
100
AcDbEntity
  8
0
  6
CONTINUOUS
 62
     7
100
AcDbCircle
 10
138.7934237075
 20
165.1055587499
 30
0.0
 40
2.750000000000025
100
AcDbArc
 50
274.5615558628
 51
94.5615558628
  0
CIRCLE
  5
3D6
330
1F
100
AcDbEntity
  8
0
  6
CONTINUOUS
 62
     7
100
AcDbCircle
 10
152.2934237075
 20
133.7055587499
 30
0.0
 40
3.249999999999971
  0
CIRCLE
  5
3D7
330
1F
100
AcDbEntity
  8
0
  6
CONTINUOUS
 62
     7
100
AcDbCircle
 10
152.2934237075
 20
133.7055587499
 30
0.0
 40
3.750000000000025
  0
CIRCLE
  5
3D8
330
1F
100
AcDbEntity
  8
0
  6
CONTINUOUS
 62
     7
100
AcDbCircle
 10
165.7934237075
 20
165.1055587499
 30
0.0
 40
2.75000000000004
  0
LINE
  5
3D9
330
1F
100
AcDbEntity
  8
0
  6
CONTINUOUS
 62
     7
100
AcDbLine
 10
165.9349180338
 20
166.5419816671
 30
0.0
 11
164.6201913756
 21
165.9463077484
 31
0.0
  0
LINE
  5
3DA
330
1F
100
AcDbEntity
  8
0
  6
CONTINUOUS
 62
     7
100
AcDbLine
 10
164.6201913756
 20
165.9463077484
 30
0.0
 11
164.4786973995
 21
164.5098842381
 31
0.0
  0
LINE
  5
3DB
330
1F
100
AcDbEntity
  8
0
  6
CONTINUOUS
 62
     7
100
AcDbLine
 10
165.6519291502
 20
163.6691355778
 30
0.0
 11
164.4786973995
 21
164.5098842381
 31
0.0
  0
LINE
  5
3DC
330
1F
100
AcDbEntity
  8
0
  6
CONTINUOUS
 62
     7
100
AcDbLine
 10
166.9666558084
 20
164.2648094966
 30
0.0
 11
165.6519291502
 21
163.6691355778
 31
0.0
  0
LINE
  5
3DD
330
1F
100
AcDbEntity
  8
0
  6
CONTINUOUS
 62
     7
100
AcDbLine
 10
166.9666558084
 20
164.2648094966
 30
0.0
 11
167.1081497845
 21
165.7012320756
 31
0.0
  0
LINE
  5
3DE
330
1F
100
AcDbEntity
  8
0
  6
CONTINUOUS
 62
     7
100
AcDbLine
 10
165.9349180338
 20
166.5419816671
 30
0.0
 11
167.1081497845
 21
165.7012320756
 31
0.0
  0
CIRCLE
  5
3DF
330
1F
100
AcDbEntity
  8
0
  6
CONTINUOUS
 62
     7
100
AcDbCircle
 10
138.7934237075
 20
165.1055587499
 30
0.0
 40
2.750000000000025
  0
LINE
  5
3E0
330
1F
100
AcDbEntity
  8
0
  6
CONTINUOUS
 62
     7
100
AcDbLine
 10
137.4899871227
 20
165.725548908
 30
0.0
 11
137.6047791493
 21
164.2867440058
 31
0.0
  0
LINE
  5
3E1
330
1F
100
AcDbEntity
  8
0
  6
CONTINUOUS
 62
     7
100
AcDbLine
 10
137.6047791493
 20
164.2867440058
 30
0.0
 11
138.9082153839
 21
163.6667551173
 31
0.0
  0
LINE
  5
3E2
330
1F
100
AcDbEntity
  8
0
  6
CONTINUOUS
 62
     7
100
AcDbLine
 10
140.0968605232
 20
164.4855692683
 30
0.0
 11
138.9082153839
 21
163.6667551173
 31
0.0
  0
LINE
  5
3E3
330
1F
100
AcDbEntity
  8
0
  6
CONTINUOUS
 62
     7
100
AcDbLine
 10
139.9820684966
 20
165.9243732391
 30
0.0
 11
140.0968605232
 21
164.4855692683
 31
0.0
  0
LINE
  5
3E4
330
1F
100
AcDbEntity
  8
0
  6
CONTINUOUS
 62
     7
100
AcDbLine
 10
139.9820684966
 20
165.9243732391
 30
0.0
 11
138.678632262
 21
166.5443621276
 31
0.0
  0
LINE
  5
3E5
330
1F
100
AcDbEntity
  8
0
  6
CONTINUOUS
 62
     7
100
AcDbLine
 10
137.4899871227
 20
165.725548908
 30
0.0
 11
138.678632262
 21
166.5443621276
 31
0.0
  0
CIRCLE
  5
3E6
330
1F
100
AcDbEntity
  8
0
  6
CONTINUOUS
 62
     7
100
AcDbCircle
 10
152.2934237075
 20
133.7055587499
 30
0.0
 40
2.750000000000007
  0
LINE
  5
3E7
330
1F
100
AcDbEntity
  8
0
  6
CONTINUOUS
 62
     7
100
AcDbLine
 10
151.9422211497
 20
132.3055617212
 30
0.0
 11
153.3302548852
 21
132.7014110683
 31
0.0
  0
LINE
  5
3E8
330
1F
100
AcDbEntity
  8
0
  6
CONTINUOUS
 62
     7
100
AcDbLine
 10
153.3302548852
 20
132.7014110683
 30
0.0
 11
153.681457443
 21
134.1014068274
 31
0.0
  0
LINE
  5
3E9
330
1F
100
AcDbEntity
  8
0
  6
CONTINUOUS
 62
     7
100
AcDbLine
 10
152.6446262653
 20
135.1055551021
 30
0.0
 11
153.681457443
 21
134.1014068274
 31
0.0
  0
LINE
  5
3EA
330
1F
100
AcDbEntity
  8
0
  6
CONTINUOUS
 62
     7
100
AcDbLine
 10
151.2565925297
 20
134.7097076176
 30
0.0
 11
152.6446262653
 21
135.1055551021
 31
0.0
  0
LINE
  5
3EB
330
1F
100
AcDbEntity
  8
0
  6
CONTINUOUS
 62
     7
100
AcDbLine
 10
151.2565925297
 20
134.7097076176
 30
0.0
 11
150.9053899719
 21
133.3097099959
 31
0.0
  0
LINE
  5
3EC
330
1F
100
AcDbEntity
  8
0
  6
CONTINUOUS
 62
     7
100
AcDbLine
 10
151.9422211497
 20
132.3055617212
 30
0.0
 11
150.9053899719
 21
133.3097099959
 31
0.0
  0
LINE
  5
3ED
330
1F
100
AcDbEntity
  8
0
  6
CONTINUOUS
 62
     7
100
AcDbLine
 10
135.7934237969
 20
136.4055584817
 30
0.0
 11
135.7934237969
 21
162.4055590181
 31
0.0
  0
LINE
  5
3EE
330
1F
100
AcDbEntity
  8
0
  6
CONTINUOUS
 62
     7
100
AcDbLine
 10
168.7934236181
 20
162.4055590181
 30
0.0
 11
168.7934236181
 21
136.4055584817
 31
0.0
  0
LINE
  5
3EF
330
1F
100
AcDbEntity
  8
0
  6
CONTINUOUS
 62
     7
100
AcDbLine
 10
168.7934236181
 20
136.4055584817
 30
0.0
 11
154.8958265268
 21
136.4055584817
 31
0.0
  0
LINE
  5
3F0
330
1F
100
AcDbEntity
  8
0
  6
CONTINUOUS
 62
     7
100
AcDbLine
 10
149.6910208882
 20
136.4055584817
 30
0.0
 11
135.7934237969
 21
136.4055584817
 31
0.0
  0
LINE
  5
3F1
330
1F
100
AcDbEntity
  8
0
  6
CONTINUOUS
 62
     7
100
AcDbLine
 10
135.7934237969
 20
162.4055590181
 30
0.0
 11
136.1910203051
 21
162.4055590181
 31
0.0
  0
LINE
  5
3F2
330
1F
100
AcDbEntity
  8
0
  6
CONTINUOUS
 62
     7
100
AcDbLine
 10
141.3958264095
 20
162.4055590181
 30
0.0
 11
163.1910210055
 21
162.4055590181
 31
0.0
  0
LINE
  5
3F3
330
1F
100
AcDbEntity
  8
0
  6
CONTINUOUS
 62
     7
100
AcDbLine
 10
168.3958271098
 20
162.4055590181
 30
0.0
 11
168.7934236181
 21
162.4055590181
 31
0.0
  0
LINE
  5
3F4
330
1F
100
AcDbEntity
  8
RIQUADRO
100
AcDbLine
 10
152.2934237075
 20
103.9084618442
 30
0.0
 11
152.2934237075
 21
122.4055587499
 31
0.0
  0
HATCH
  5
3F5
330
1F
100
AcDbEntity
  8
0
  6
CONTINUOUS
 62
     7
100
AcDbHatch
 10
0.0
 20
0.0
 30
0.0
210
0.0
220
0.0
230
1.0
  2
ANSI38
 70
     0
 71
     0
 91
        1
 92
        0
 93
        7
 72
     1
 10
138.2934237074763
 20
119.4055587499007
 11
136.9934237074762
 21
119.4055587499007
 72
     1
 10
136.9934237074762
 20
119.4055587499007
 11
136.7934237074763
 21
119.0591485883869
 72
     1
 10
136.7934237074763
 20
119.0591485883869
 11
136.7934237074763
 21
109.4055587499007
 72
     1
 10
136.7934237074763
 20
109.4055587499007
 11
140.0434237074763
 21
109.4055587499007
 72
     1
 10
140.0434237074763
 20
109.4055587499007
 11
140.0434237074763
 21
114.4055587499007
 72
     1
 10
140.0434237074763
 20
114.4055587499007
 11
138.2934237074763
 21
114.4055587499007
 72
     1
 10
138.2934237074763
 20
114.4055587499007
 11
138.2934237074763
 21
119.4055587499007
 97
        0
 75
     0
 76
     1
 52
0.0
 41
1.0
 77
     0
 78
     2
 53
45.0
 43
0.0
 44
0.0
 45
-2.245064030267288
 46
2.245064030267288
 79
     0
 53
135.0
 43
0.0
 44
0.0
 45
-6.735192090801864
 46
2.245064030267289
 79
     2
 49
7.9375
 49
-4.7625
 98
        1
 10
0.0
 20
0.0
  0
HATCH
  5
3F6
330
1F
100
AcDbEntity
  8
0
  6
CONTINUOUS
 62
     7
100
AcDbHatch
 10
0.0
 20
0.0
 30
0.0
210
0.0
220
0.0
230
1.0
  2
ANSI38
 70
     0
 71
     0
 91
        1
 92
        0
 93
        6
 72
     1
 10
130.2934237074762
 20
119.4055587499007
 11
129.7934237074762
 21
118.9055587499007
 72
     1
 10
129.7934237074762
 20
118.9055587499007
 11
129.7934237074762
 21
109.4055587499007
 72
     1
 10
129.7934237074762
 20
109.4055587499007
 11
132.7934237074762
 21
109.4055587499007
 72
     1
 10
132.7934237074762
 20
109.4055587499007
 11
132.7934237074762
 21
119.0591485883869
 72
     1
 10
132.7934237074762
 20
119.0591485883869
 11
132.5934237074762
 21
119.4055587499007
 72
     1
 10
132.5934237074762
 20
119.4055587499007
 11
130.2934237074762
 21
119.4055587499007
 97
        0
 75
     0
 76
     1
 52
0.0
 41
1.0
 77
     0
 78
     2
 53
45.0
 43
0.0
 44
0.0
 45
-2.245064030267288
 46
2.245064030267288
 79
     0
 53
135.0
 43
0.0
 44
0.0
 45
-6.735192090801864
 46
2.245064030267289
 79
     2
 49
7.9375
 49
-4.7625
 98
        1
 10
0.0
 20
0.0
  0
HATCH
  5
3F7
330
1F
100
AcDbEntity
  8
0
  6
CONTINUOUS
 62
     7
100
AcDbHatch
 10
0.0
 20
0.0
 30
0.0
210
0.0
220
0.0
230
1.0
  2
ANSI38
 70
     0
 71
     0
 91
        1
 92
        0
 93
        6
 72
     1
 10
174.7934237074763
 20
118.9055587499007
 11
174.2934237074763
 21
119.4055587499007
 72
     1
 10
174.2934237074763
 20
119.4055587499007
 11
171.9934237074762
 21
119.4055587499007
 72
     1
 10
171.9934237074762
 20
119.4055587499007
 11
171.7934237074763
 21
119.0591485883869
 72
     1
 10
171.7934237074763
 20
119.0591485883869
 11
171.7934237074763
 21
109.4055587499007
 72
     1
 10
171.7934237074763
 20
109.4055587499007
 11
174.7934237074763
 21
109.4055587499007
 72
     1
 10
174.7934237074763
 20
109.4055587499007
 11
174.7934237074763
 21
118.9055587499007
 97
        0
 75
     0
 76
     1
 52
0.0
 41
1.0
 77
     0
 78
     2
 53
45.0
 43
0.0
 44
0.0
 45
-2.245064030267288
 46
2.245064030267288
 79
     0
 53
135.0
 43
0.0
 44
0.0
 45
-6.735192090801864
 46
2.245064030267289
 79
     2
 49
7.9375
 49
-4.7625
 98
        1
 10
0.0
 20
0.0
  0
HATCH
  5
3F8
330
1F
100
AcDbEntity
  8
0
  6
CONTINUOUS
 62
     7
100
AcDbHatch
 10
0.0
 20
0.0
 30
0.0
210
0.0
220
0.0
230
1.0
  2
ANSI38
 70
     0
 71
     0
 91
        1
 92
        0
 93
        7
 72
     1
 10
166.2934237074763
 20
114.4055587499007
 11
164.5434237074763
 21
114.4055587499007
 72
     1
 10
164.5434237074763
 20
114.4055587499007
 11
164.5434237074763
 21
109.4055587499007
 72
     1
 10
164.5434237074763
 20
109.4055587499007
 11
167.7934237074763
 21
109.4055587499007
 72
     1
 10
167.7934237074763
 20
109.4055587499007
 11
167.7934237074763
 21
119.0591485883869
 72
     1
 10
167.7934237074763
 20
119.0591485883869
 11
167.5934237074762
 21
119.4055587499007
 72
     1
 10
167.5934237074762
 20
119.4055587499007
 11
166.2934237074763
 21
119.4055587499007
 72
     1
 10
166.2934237074763
 20
119.4055587499007
 11
166.2934237074763
 21
114.4055587499007
 97
        0
 75
     0
 76
     1
 52
0.0
 41
1.0
 77
     0
 78
     2
 53
45.0
 43
0.0
 44
0.0
 45
-2.245064030267288
 46
2.245064030267288
 79
     0
 53
135.0
 43
0.0
 44
0.0
 45
-6.735192090801864
 46
2.245064030267289
 79
     2
 49
7.9375
 49
-4.7625
 98
        1
 10
0.0
 20
0.0
  0
HATCH
  5
3F9
330
1F
100
AcDbEntity
  8
0
  6
CONTINUOUS
 62
     7
100
AcDbHatch
 10
0.0
 20
0.0
 30
0.0
210
0.0
220
0.0
230
1.0
  2
ANSI38
 70
     0
 71
     0
 91
        1
 92
        0
 93
        6
 72
     1
 10
146.2934237074763
 20
119.4055587499007
 11
146.2934237074763
 21
114.4055587499007
 72
     1
 10
146.2934237074763
 20
114.4055587499007
 11
144.5434237074763
 21
114.4055587499007
 72
     1
 10
144.5434237074763
 20
114.4055587499007
 11
144.5434237074763
 21
109.4055587499007
 72
     1
 10
144.5434237074763
 20
109.4055587499007
 11
148.2528215233638
 21
109.4055587546923
 72
     4
 94
        3
 73
     1
 74
     0
 95
       10
 96
        6
 40
0.4392562099480755
 40
0.4392562099480755
 40
0.4392562099480755
 40
0.4392562099480755
 40
0.4422641437366369
 40
0.4799618152224644
 40
0.4950465491787862
 40
0.4950465491787862
 40
0.4950465491787862
 40
0.4950465491787862
 10
148.2528215233638
 20
109.4055587546923
 42
1.0
 10
148.2847395164657
 20
109.5730962744455
 42
1.0
 10
148.704990486195
 20
111.8310411323372
 42
1.0
 10
149.3797043224963
 20
114.6148904337199
 42
1.0
 10
148.6168065394853
 20
118.4379597504621
 42
1.0
 10
148.5267215682271
 20
119.4055587108512
 42
1.0
 72
     1
 10
148.5267215682268
 20
119.4055587108549
 11
146.2934237074763
 21
119.4055587499007
 97
        0
 75
     0
 76
     1
 52
0.0
 41
1.0
 77
     0
 78
     2
 53
45.0
 43
0.0
 44
0.0
 45
-2.245064030267288
 46
2.245064030267288
 79
     0
 53
135.0
 43
0.0
 44
0.0
 45
-6.735192090801864
 46
2.245064030267289
 79
     2
 49
7.9375
 49
-4.7625
 98
        1
 10
0.0
 20
0.0
  0
HATCH
  5
3FA
330
1F
100
AcDbEntity
  8
0
  6
CONTINUOUS
 62
     7
100
AcDbHatch
 10
0.0
 20
0.0
 30
0.0
210
0.0
220
0.0
230
1.0
  2
ANSI38
 70
     0
 71
     0
 91
        1
 92
        0
 93
        4
 72
     4
 94
        3
 73
     1
 74
     0
 95
       10
 96
        6
 40
0.4392562099480755
 40
0.4392562099480755
 40
0.4392562099480755
 40
0.4392562099480755
 40
0.4422641437366369
 40
0.4799618152224644
 40
0.4924982855920371
 40
0.4924982855920371
 40
0.4924982855920371
 40
0.4924982855920371
 10
148.2528215233638
 20
109.4055587546923
 42
1.0
 10
148.2847395164657
 20
109.5730962744455
 42
1.0
 10
148.704990486195
 20
111.8310411323372
 42
1.0
 10
149.3488862861797
 20
114.4877361288075
 42
1.0
 10
148.6872038611515
 20
118.0715865352862
 42
1.0
 10
148.5821607631028
 20
118.905558749903
 42
1.0
 72
     4
 94
        3
 73
     1
 74
     0
 95
        8
 96
        4
 40
0.000000000000005
 40
0.000000000000005
 40
0.000000000000005
 40
0.000000000000005
 40
0.0007092767476317
 40
0.0007092767476317
 40
0.0007092767476317
 40
0.0007092767476317
 10
148.5821607631031
 20
118.9055587499007
 42
1.0
 10
148.5611868377405
 20
119.0720777436163
 42
1.0
 10
148.5422524900169
 20
119.2387417147436
 42
1.0
 10
148.5267215645916
 20
119.4055587498998
 42
1.0
 72
     1
 10
148.5267215645916
 20
119.4055587499007
 11
148.5267215682268
 21
119.4055587108549
 72
     4
 94
        3
 73
     1
 74
     0
 95
       10
 96
        6
 40
0.5049534508212331
 40
0.5049534508212331
 40
0.5049534508212331
 40
0.5049534508212331
 40
0.5200381847775356
 40
0.5577358562633631
 40
0.5607437900519245
 40
0.5607437900519245
 40
0.5607437900519245
 40
0.5607437900519245
 10
148.5267215682275
 20
119.4055587108475
 42
1.0
 10
148.6168065394859
 20
118.4379597504594
 42
1.0
 10
149.379704322496
 20
114.6148904337189
 42
1.0
 10
148.704990486195
 20
111.8310411323372
 42
1.0
 10
148.2847395164657
 20
109.5730962744455
 42
1.0
 10
148.2528215233638
 20
109.4055587546922
 42
1.0
 97
        0
 75
     0
 76
     1
 52
0.0
 41
1.0
 77
     0
 78
     2
 53
45.0
 43
0.0
 44
0.0
 45
-2.245064030267288
 46
2.245064030267288
 79
     0
 53
135.0
 43
0.0
 44
0.0
 45
-6.735192090801864
 46
2.245064030267289
 79
     2
 49
7.9375
 49
-4.7625
 98
        1
 10
0.0
 20
0.0
  0
HATCH
  5
3FB
330
1F
100
AcDbEntity
  8
0
  6
CONTINUOUS
 62
     7
100
AcDbHatch
 10
0.0
 20
0.0
 30
0.0
210
0.0
220
0.0
230
1.0
  2
ANSI38
 70
     0
 71
     0
 91
        1
 92
        0
 93
        4
 72
     4
 94
        3
 73
     1
 74
     0
 95
        9
 96
        5
 40
0.3927982547502373
 40
0.3927982547502373
 40
0.3927982547502373
 40
0.3927982547502373
 40
0.4175759157613977
 40
0.4482900450696852
 40
0.4482900450696852
 40
0.4482900450696852
 40
0.4482900450696852
 10
154.6756918028037
 20
109.4055587108427
 42
1.0
 10
154.5934919711893
 20
110.9100440841203
 42
1.0
 10
154.9776425646362
 20
114.6209483106849
 42
1.0
 10
155.6698664880787
 20
117.8755884502375
 42
1.0
 10
154.9979674848966
 20
119.4055587499007
 42
1.0
 72
     1
 10
154.9979674921815
 20
119.4055587333125
 11
154.9979674848966
 21
119.4055587499007
 72
     4
 94
        3
 73
     1
 74
     0
 95
        8
 96
        4
 40
0.0
 40
0.0
 40
0.0
 40
0.0
 40
0.0007298474288104
 40
0.0007298474288104
 40
0.0007298474288104
 40
0.0007298474288104
 10
154.9979674848966
 20
119.4055587499007
 42
1.0
 10
155.0701158308119
 20
119.2412709240556
 42
1.0
 10
155.1299365598161
 20
119.0740891244783
 42
1.0
 10
155.1787360367551
 20
118.9055587499006
 42
1.0
 72
     4
 94
        3
 73
     1
 74
     0
 95
        9
 96
        5
 40
0.5549945452378108
 40
0.5549945452378108
 40
0.5549945452378108
 40
0.5549945452378108
 40
0.5824240842386023
 40
0.6072017452497627
 40
0.6072017452497627
 40
0.6072017452497627
 40
0.6072017452497627
 10
155.1787360480612
 20
118.9055587108547
 42
1.0
 10
155.5889995800427
 20
117.4887019422336
 42
1.0
 10
154.9549044740338
 20
114.4012977935185
 42
1.0
 10
154.5934919711893
 20
110.9100440841203
 42
1.0
 10
154.6756918028037
 20
109.4055587108427
 42
1.0
 97
        0
 75
     0
 76
     1
 52
0.0
 41
1.0
 77
     0
 78
     2
 53
45.0
 43
0.0
 44
0.0
 45
-2.245064030267288
 46
2.245064030267288
 79
     0
 53
135.0
 43
0.0
 44
0.0
 45
-6.735192090801864
 46
2.245064030267289
 79
     2
 49
7.9375
 49
-4.7625
 98
        1
 10
0.0
 20
0.0
  0
HATCH
  5
3FC
330
1F
100
AcDbEntity
  8
0
  6
CONTINUOUS
 62
     7
100
AcDbHatch
 10
0.0
 20
0.0
 30
0.0
210
0.0
220
0.0
230
1.0
  2
ANSI38
 70
     0
 71
     0
 91
        1
 92
        0
 93
        6
 72
     4
 94
        3
 73
     1
 74
     0
 95
        9
 96
        5
 40
0.5517099549303148
 40
0.5517099549303148
 40
0.5517099549303148
 40
0.5517099549303148
 40
0.5824240842386023
 40
0.6072017452497627
 40
0.6072017452497627
 40
0.6072017452497627
 40
0.6072017452497627
 10
154.9979674848966
 20
119.4055587499007
 42
1.0
 10
155.6698664880787
 20
117.8755884502375
 42
1.0
 10
154.9776425646362
 20
114.6209483106849
 42
1.0
 10
154.5934919711893
 20
110.9100440841203
 42
1.0
 10
154.6756918028037
 20
109.4055587108427
 42
1.0
 72
     1
 10
154.6756918028037
 20
109.4055587108427
 11
160.0434237074762
 21
109.4055587499007
 72
     1
 10
160.0434237074762
 20
109.4055587499007
 11
160.0434237074762
 21
114.4055587499007
 72
     1
 10
160.0434237074762
 20
114.4055587499007
 11
158.2934237074762
 21
114.4055587499007
 72
     1
 10
158.2934237074762
 20
114.4055587499007
 11
158.2934237074762
 21
119.4055587499007
 72
     1
 10
158.2934237074762
 20
119.4055587499007
 11
154.9979674921815
 21
119.4055587333125
 97
        0
 75
     0
 76
     1
 52
0.0
 41
1.0
 77
     0
 78
     2
 53
45.0
 43
0.0
 44
0.0
 45
-2.245064030267288
 46
2.245064030267288
 79
     0
 53
135.0
 43
0.0
 44
0.0
 45
-6.735192090801864
 46
2.245064030267289
 79
     2
 49
7.9375
 49
-4.7625
 98
        1
 10
0.0
 20
0.0
  0
DIMENSION
  5
3FD
330
1F
100
AcDbEntity
  8
RIQUADRO
100
AcDbDimension
  2
_D_12
 10
168.7934237075
 20
182.5828540151
 30
0.0
 11
152.0855354044
 21
182.5828540151
 31
0.0
 70
   160
  1
<>
  3
SLDDIMSTYLE2
100
AcDbAlignedDimension
 13
135.7934237075
 23
162.4055587499
 33
0.0
 14
168.7934237075
 24
162.4055587499
 34
0.0
100
AcDbRotatedDimension
  0
DIMENSION
  5
409
330
1F
100
AcDbEntity
  8
RIQUADRO
100
AcDbDimension
  2
_D_13
 10
125.0075137064
 20
136.4055587499
 30
0.0
 11
125.0075137064
 21
148.2453513368
 31
0.0
 70
   160
  1
<>
  3
SLDDIMSTYLE2
100
AcDbAlignedDimension
 13
135.7934237075
 23
162.4055587499
 33
0.0
 14
135.7934237075
 24
136.4055587499
 34
0.0
 50
90.0
100
AcDbRotatedDimension
  0
INSERT
  5
422
330
1F
100
AcDbEntity
  8
RIQUADRO
100
AcDbBlockReference
  2
SW_NOTE_11
 10
177.2670025189
 20
126.0705289673
 30
0.0
  0
LEADER
  5
424
330
1F
100
AcDbEntity
  8
RIQUADRO
100
AcDbLeader
  3
SLDDIMSTYLE3
 76
     2
 10
170.0719881855
 20
118.9055587499
 30
0.0
 10
177.2670025189
 20
126.0705289673
 30
0.0
1001
ACAD
1000
DSTYLE
1002
{
1070
     6
1000

1002
}
  0
LEADER
  5
425
330
1F
100
AcDbEntity
  8
RIQUADRO
100
AcDbLeader
  3
SLDDIMSTYLE3
 76
     2
 10
136.0131090146
 20
118.9055587499
 30
0.0
 10
177.2670025189
 20
126.0705289673
 30
0.0
1001
ACAD
1000
DSTYLE
1002
{
1070
     6
1000

1002
}
  0
INSERT
  5
431
330
1F
100
AcDbEntity
  8
RIQUADRO
100
AcDbBlockReference
  2
SW_NOTE_12
 10
135.8312342569
 20
88.9168765743
 30
0.0
  0
LEADER
  5
432
330
1F
100
AcDbEntity
  8
RIQUADRO
100
AcDbLeader
  3
SLDDIMSTYLE3
 76
     2
 10
162.8091882439
 20
114.4055587499
 30
0.0
 10
135.8312342569
 20
88.9168765743
 30
0.0
1001
ACAD
1000
DSTYLE
1002
{
1070
     6
1000

1002
}
  0
LEADER
  5
433
330
1F
100
AcDbEntity
  8
RIQUADRO
100
AcDbLeader
  3
SLDDIMSTYLE3
 76
     2
 10
141.8773920312
 20
114.4055587499
 30
0.0
 10
135.8312342569
 20
88.9168765743
 30
0.0
1001
ACAD
1000
DSTYLE
1002
{
1070
     6
1000

1002
}
  0
INSERT
  5
43A
330
1F
100
AcDbEntity
  8
RIQUADRO
100
AcDbBlockReference
  2
SW_NOTE_13
 10
104.1732784641
 20
199.8740554156
 30
0.0
  0
LEADER
  5
43B
330
1F
100
AcDbEntity
  8
RIQUADRO
100
AcDbLeader
  3
SLDDIMSTYLE1
 76
     2
 10
148.5943284117
 20
151.9644679397
 30
0.0
 10
104.1732784641
 20
199.8740554156
 30
0.0
1001
ACAD
1000
DSTYLE
1002
{
1070
     6
1000
DOT
1002
}
  0
LINE
  5
43C
330
1F
100
AcDbEntity
  8
RIQUADRO
  6
CENTERX2
100
AcDbLine
 10
134.7934237075
 20
107.4055587499
 30
0.0
 11
134.7934237075
 21
121.0591485884
 31
0.0
  0
LINE
  5
43D
330
1F
100
AcDbEntity
  8
RIQUADRO
  6
CENTERX2
100
AcDbLine
 10
142.2934237075
 20
107.4055587499
 30
0.0
 11
142.2934237075
 21
116.4055587499
 31
0.0
  0
LINE
  5
43E
330
1F
100
AcDbEntity
  8
RIQUADRO
  6
CENTERX2
100
AcDbLine
 10
162.2934237075
 20
107.4055587499
 30
0.0
 11
162.2934237075
 21
116.4055587499
 31
0.0
  0
LINE
  5
43F
330
1F
100
AcDbEntity
  8
RIQUADRO
  6
CENTERX2
100
AcDbLine
 10
169.7934237075
 20
107.4055587499
 30
0.0
 11
169.7934237075
 21
121.0591485884
 31
0.0
  0
OLE2FRAME
  5
440
330
1F
100
AcDbEntity
  8
0
100
AcDbOle2Frame
 70
     2
  3
Picture (Device Independent Bitmap)
 10
26.9278500834
 20
41.4514903846
 30
0.0
 11
66.980013545
 21
21.4254086538
 31
0.0
 71
     3
 72
     0
 90
    41600
310
805501FF439587ED3A40D530DA6FCAB9444000000000000000006556BB8AB8BE
310
5040D530DA6FCAB9444000000000000000006556BB8AB8BE504059B4DF94E76C
310
3540000000000000000001FF439587ED3A4059B4DF94E76C3540000000000000
310
0000000000000100000000010000010000000100000000000100000000A20000
310
D0CF11E0A1B11AE1000000000000000000000000000000003E000300FEFF0900
310
0600000000000000000000000100000001000000000000000010000002000000
310
01000000FEFFFFFF0000000000000000FFFFFFFFFFFFFFFFFFFFFFFFFFFFFFFF
310
FFFFFFFFFFFFFFFFFFFFFFFFFFFFFFFFFFFFFFFFFFFFFFFFFFFFFFFFFFFFFFFF
310
FFFFFFFFFFFFFFFFFFFFFFFFFFFFFFFFFFFFFFFFFFFFFFFFFFFFFFFFFFFFFFFF
310
FFFFFFFFFFFFFFFFFFFFFFFFFFFFFFFFFFFFFFFFFFFFFFFFFFFFFFFFFFFFFFFF
310
FFFFFFFFFFFFFFFFFFFFFFFFFFFFFFFFFFFFFFFFFFFFFFFFFFFFFFFFFFFFFFFF
310
FFFFFFFFFFFFFFFFFFFFFFFFFFFFFFFFFFFFFFFFFFFFFFFFFFFFFFFFFFFFFFFF
310
FFFFFFFFFFFFFFFFFFFFFFFFFFFFFFFFFFFFFFFFFFFFFFFFFFFFFFFFFFFFFFFF
310
FFFFFFFFFFFFFFFFFFFFFFFFFFFFFFFFFFFFFFFFFFFFFFFFFFFFFFFFFFFFFFFF
310
FFFFFFFFFFFFFFFFFFFFFFFFFFFFFFFFFFFFFFFFFFFFFFFFFFFFFFFFFFFFFFFF
310
FFFFFFFFFFFFFFFFFFFFFFFFFFFFFFFFFFFFFFFFFFFFFFFFFFFFFFFFFFFFFFFF
310
FFFFFFFFFFFFFFFFFFFFFFFFFFFFFFFFFFFFFFFFFFFFFFFFFFFFFFFFFFFFFFFF
310
FFFFFFFFFFFFFFFFFFFFFFFFFFFFFFFFFFFFFFFFFFFFFFFFFFFFFFFFFFFFFFFF
310
FFFFFFFFFFFFFFFFFFFFFFFFFFFFFFFFFFFFFFFFFFFFFFFFFFFFFFFFFFFFFFFF
310
FFFFFFFFFFFFFFFFFFFFFFFFFFFFFFFFFFFFFFFFFFFFFFFFFFFFFFFFFFFFFFFF
310
FDFFFFFFFEFFFFFFFEFFFFFFFEFFFFFF05000000060000000700000008000000
310
090000000A0000000B0000000C0000000D0000000E0000000F00000010000000
310
1100000012000000130000001400000015000000160000001700000018000000
310
190000001A0000001B0000001C0000001D0000001E0000001F00000020000000
310
2100000022000000230000002400000025000000260000002700000028000000
310
290000002A0000002B0000002C0000002D0000002E0000002F00000030000000
310
3100000032000000330000003400000035000000360000003700000038000000
310
390000003A0000003B0000003C0000003D0000003E0000003F00000040000000
310
4100000042000000430000004400000045000000460000004700000048000000
310
490000004A0000004B0000004C0000004D0000004E0000004F000000FEFFFFFF
310
FFFFFFFFFFFFFFFFFFFFFFFFFFFFFFFFFFFFFFFFFFFFFFFFFFFFFFFFFFFFFFFF
310
FFFFFFFFFFFFFFFFFFFFFFFFFFFFFFFFFFFFFFFFFFFFFFFFFFFFFFFFFFFFFFFF
310
FFFFFFFFFFFFFFFFFFFFFFFFFFFFFFFFFFFFFFFFFFFFFFFFFFFFFFFFFFFFFFFF
310
FFFFFFFFFFFFFFFFFFFFFFFFFFFFFFFFFFFFFFFFFFFFFFFFFFFFFFFFFFFFFFFF
310
FFFFFFFFFFFFFFFFFFFFFFFFFFFFFFFFFFFFFFFFFFFFFFFFFFFFFFFFFFFFFFFF
310
FFFFFFFFFFFFFFFFFFFFFFFFFFFFFFFFFFFFFFFFFFFFFFFFFFFFFFFFFFFFFFFF
310
52006F006F007400200045006E00740072007900000000000000000000000000
310
0000000000000000000000000000000000000000000000000000000000000000
310
16000500FFFFFFFFFFFFFFFF020000001603000000000000C000000000000046
310
00000000000000000000000000752DA69150CE0103000000C000000000000000
310
01004F006C006500000000000000000000000000000000000000000000000000
310
0000000000000000000000000000000000000000000000000000000000000000
310
0A000200FFFFFFFFFFFFFFFFFFFFFFFF00000000000000000000000000000000
310
0000000000000000000000000000000000000000000000001400000000000000
310
010043006F006D0070004F0062006A0000000000000000000000000000000000
310
0000000000000000000000000000000000000000000000000000000000000000
310
120002010100000003000000FFFFFFFF00000000000000000000000000000000
310
0000000000000000000000000000000000000000010000006B00000000000000
310
43004F004E00540045004E005400530000000000000000000000000000000000
310
0000000000000000000000000000000000000000000000000000000000000000
310
12000200FFFFFFFFFFFFFFFFFFFFFFFF00000000000000000000000000000000
310
000000000000000000000000000000000000000004000000D696000000000000
310
FEFFFFFF02000000FEFFFFFFFFFFFFFFFFFFFFFFFFFFFFFFFFFFFFFFFFFFFFFF
310
FFFFFFFFFFFFFFFFFFFFFFFFFFFFFFFFFFFFFFFFFFFFFFFFFFFFFFFFFFFFFFFF
310
FFFFFFFFFFFFFFFFFFFFFFFFFFFFFFFFFFFFFFFFFFFFFFFFFFFFFFFFFFFFFFFF
310
FFFFFFFFFFFFFFFFFFFFFFFFFFFFFFFFFFFFFFFFFFFFFFFFFFFFFFFFFFFFFFFF
310
FFFFFFFFFFFFFFFFFFFFFFFFFFFFFFFFFFFFFFFFFFFFFFFFFFFFFFFFFFFFFFFF
310
FFFFFFFFFFFFFFFFFFFFFFFFFFFFFFFFFFFFFFFFFFFFFFFFFFFFFFFFFFFFFFFF
310
FFFFFFFFFFFFFFFFFFFFFFFFFFFFFFFFFFFFFFFFFFFFFFFFFFFFFFFFFFFFFFFF
310
FFFFFFFFFFFFFFFFFFFFFFFFFFFFFFFFFFFFFFFFFFFFFFFFFFFFFFFFFFFFFFFF
310
FFFFFFFFFFFFFFFFFFFFFFFFFFFFFFFFFFFFFFFFFFFFFFFFFFFFFFFFFFFFFFFF
310
FFFFFFFFFFFFFFFFFFFFFFFFFFFFFFFFFFFFFFFFFFFFFFFFFFFFFFFFFFFFFFFF
310
FFFFFFFFFFFFFFFFFFFFFFFFFFFFFFFFFFFFFFFFFFFFFFFFFFFFFFFFFFFFFFFF
310
FFFFFFFFFFFFFFFFFFFFFFFFFFFFFFFFFFFFFFFFFFFFFFFFFFFFFFFFFFFFFFFF
310
FFFFFFFFFFFFFFFFFFFFFFFFFFFFFFFFFFFFFFFFFFFFFFFFFFFFFFFFFFFFFFFF
310
FFFFFFFFFFFFFFFFFFFFFFFFFFFFFFFFFFFFFFFFFFFFFFFFFFFFFFFFFFFFFFFF
310
FFFFFFFFFFFFFFFFFFFFFFFFFFFFFFFFFFFFFFFFFFFFFFFFFFFFFFFFFFFFFFFF
310
FFFFFFFFFFFFFFFFFFFFFFFFFFFFFFFFFFFFFFFFFFFFFFFFFFFFFFFFFFFFFFFF
310
0100000200000000000000000000000000000000000000000000000000000000
310
0000000000000000000000000000000000000000000000000000000000000000
310
0100FEFF030A0000FFFFFFFF1603000000000000C00000000000004625000000
310
496D6D6167696E6520284269746D61702044657669636520496E646570656E64
310
656E742900FFFFFFFF080000000A00000053746174696344696200F439B27100
310
0000000000000000000000000000000000000000000000000000000000000000
310
0000000000000000000000000000000000000000000000000000000000000000
310
0000000000000000000000000000000000000000000000000000000000000000
310
0000000000000000000000000000000000000000000000000000000000000000
310
0000000000000000000000000000000000000000000000000000000000000000
310
0000000000000000000000000000000000000000000000000000000000000000
310
0000000000000000000000000000000000000000000000000000000000000000
310
0000000000000000000000000000000000000000000000000000000000000000
310
0000000000000000000000000000000000000000000000000000000000000000
310
0000000000000000000000000000000000000000000000000000000000000000
310
0000000000000000000000000000000000000000000000000000000000000000
310
424DD69600000000000036000000280000009E00000051000000010018000000
310
00000000000074120000741200000000000000000000FFFFFFFFFFFFFFFFFFFF
310
FFFFFFFFFFFFFFFFFFFFFFFFFFFFFFFFFFFFFFFFFFFFFFFFFFFFFFFFFFFFFFFF
310
FFFFFFFFFFFFFFFFFFFFFFFFFFFFFFFFFFFFFFFFFFFFFFFFFFFFFFFFFFFFFFFF
310
FFFFFFFFFFFFFFFFFFFFFFFFFFFFFFFFFFFFFFFFFFFFFFFFFFFCFCFCFFFFFFFE
310
FEFEFEFEFEEAEAEADBDBDBFFFFFFFFFFFFFFFFFFFFFFFFFFFFFFFFFFFFFFFFFF
310
FFFFFFFFFFFFFFFFFFFFFFFFFFFFFFFFFFFFFFFFFFFFFFFFFFFFFFFFFFFFFFFF
310
FFFFFFFFFFFFFFFFFFFFFFFFFFFFFFFFFFFFFFFFFFFFFFFFFFFFFFFFFFFFFFFF
310
FFFFFFFFFFFFFFFFFFFFFFFFFFFEFFFFFFFFFFFEFCFDFBFFFFFEFEFCFB989695
310
2826252A28279E9E9EFFFFFFFEFEFEFEFEFEFEFEFEFFFFFFFDFDFDFFFFFFFFFF
310
FFFFFFFFFFFFFFFFFFFFFFFFFFFFFFFFFFFFFFFFFFFFFFFFFFFFFFFFFFFFFFFF
310
FFFFFFFFFFFFFFFFFFFFFFFFFFFFFFFFFFFFFFFFFFFFFFFFFFFFFFFFFFFFFFFF
310
FFFFFFFFFFFFFFFFFFFFFFFFFFFFFFFFFFFFFFFFFFFFFFFFFFFFFFFFFFFFFEFE
310
FEFEFEFEC0C0C0323232212121787878FEFEFEFFFFFFFBFBFBFEFEFEFFFFFFFF
310
FFFFFFFFFFFEFEFEFFFFFFFFFFFFFFFFFFFFFFFFFFFFFFFFFFFFFFFFFFFFFFFF
310
FFFFFFFFFFFFFFFFFFFFFFFFFFFFFFFFFFFFFFFFFFFFFFFFFFFFFFFFFFFFFFFF
310
FFFFFFFFFFFFFFFFFFFFFFFFFFFFFFFF0000FFFFFFF9F9F9FFFFFFFFFFFFEFEF
310
EFFFFFFFF8F8F8FFFFFFFFFFFFF6F6F6FFFFFFFFFFFFFCFCFCFFFFFFFFFFFFF5
310
F5F5FFFFFFE1E1E1FFFFFFFFFFFFF7F7F7FFFFFFF5F5F5FFFFFFF6F6F6FFFFFF
310
F5F5F5FDFDFDFFFFFFF4F4F4FFFFFFFAFAFAFFFFFFF2F2F2FFFFFFFFFFFFF9F9
310
F9BFBFBF5D5D5DFFFFFFFDFDFDFEFEFEFFFFFFFFFFFFF8F8F8FFFFFFFFFFFFFD
310
FDFDFEFEFEF9F9F9FFFFFFFDFDFDFFFFFFFFFFFFF0F0F0FFFFFFFFFFFFFFFFFF
310
FBFBFBF7F7F7FAFAFAFCFCFCFFFFFFFEFEFEFAFCFCFDFFFFFDFFFFFDFFFFFFFF
310
FEF0F1EFFEFCFBFEFDF9FFFFFEFAF9F5FFFEFAFFFFFC64615C383530DBD8D3D1
310
CECA1B1918949494FFFFFFF9F9F9FDFDFDFFFFFFFDFDFDF7F7F7FFFFFFFFFFFF
310
FCFCFCFFFFFFEFEFEFFFFFFFFFFFFFF6F6F6FFFFFFFAFAFAF7F7F7FFFFFFF2F2
310
F2FFFFFFFBFBFBFFFFFFFAFAFAFFFFFFFCFCFCFFFFFFFDFDFDFFFFFFF2F2F2FF
310
FFFFFFFFFFFAFAFAFFFFFFF2F2F2FFFFFFFFFFFFF5F5F5FFFFFFFDFDFDBABABA
310
000000C8C8C8DDDDDD4A4A4A404040FFFFFFFBFBFBFFFFFFFFFFFFFDFDFDFFFF
310
FFFFFFFFF5F5F5FFFFFFF8F8F8FBFBFBFFFFFFFAFAFAF3F3F3FFFFFFFCFCFCFB
310
FBFBFDFDFDFFFFFFF0F0F0FFFFFFFFFFFFFCFCFCFFFFFFFBFBFBFFFFFFFFFFFF
310
F2F2F2FDFDFDFEFEFEFFFFFF0000FFFFFFFBFBFBFFFFFFFFFFFFFFFFFFFDFDFD
310
FFFFFFFCFCFCFFFFFFFFFFFFFAFAFAFFFFFFFFFFFFFCFCFCFFFFFFFFFFFFF8F8
310
F8FAFAFAFFFFFFF9F9F9FFFFFFFAFAFAFFFFFFFEFEFEFFFFFFECECECFFFFFFFD
310
FDFDFEFEFEFAFAFAF5F5F5FFFFFFF4F4F4FFFFFFFFFFFFF6F6F6FEFEFEBBBBBB
310
646464FFFFFFFFFFFFFFFFFFEBEBEBFFFFFFFCFCFCFFFFFFF6F6F6FDFDFDFFFF
310
FFF6F6F6F4F4F4FFFFFFF5F5F5FFFFFFFDFDFDFEFEFEF6F6F6FAFAFAFDFDFDFF
310
FFFFFFFFFFF3F3F3FFFFFFFCFCFCFAFCFCFDFFFFF4F6F6F6F8F8F2F3F1FFFFFE
310
FFFFFCFFFEFAFFFFFCFFFEFAFFFFFCFFFFFB494641EAE8E0FFFFFBFCF9F4F2F0
310
EF141414FAFAFAF4F4F4FFFFFFEFEFEFFFFFFFFFFFFFF6F6F6E8E8E8FFFFFFF3
310
F3F3FFFFFFFFFFFFEEEEEEFFFFFFFFFFFFF1F1F1FFFFFFFFFFFFFBFBFBFFFFFF
310
FFFFFFF1F1F1FBFBFBEEEEEEFFFFFFF7F7F7F5F5F5FFFFFFFFFFFFFBFBFBF1F1
310
F1FFFFFFF5F5F5FFFFFFF3F3F3FEFEFEFBFBFBFFFFFFFEFEFE484848D9D9D9FF
310
FFFFFEFEFEF0F0F0393939D6D6D6FFFFFFFAFAFAFFFFFFFCFCFCF9F9F9FFFFFF
310
FFFFFFFAFAFAFFFFFFFAFAFAF6F6F6FFFFFFFFFFFFFCFCFCF8F8F8FFFFFFF8F8
310
F8FFFFFFFDFDFDEDEDEDF7F7F7F8F8F8F3F3F3FFFFFFF7F7F7FAFAFAFBFBFBFE
310
FEFEFEFEFEEEEEEE0000FBFBFBFFFFFFB2B2B2E7E7E7FFFFFFFDFDFD9E9E9EF9
310
F9F9F9F9F9FFFFFFFEFEFEA2A2A2FDFDFDF6F6F6FBFBFBA9A9A9F6F6F6FFFFFF
310
FFFFFFF7F7F7A2A2A2FEFEFEFBFBFBEDEDEDC3C3C3FFFFFFF7F7F79F9F9FF2F2
310
F2FFFFFFFFFFFFCECECE5656563232328E8E8EFFFFFFFFFFFFADADAD969696D1
310
D1D13B3B3B2A2A2A9A9A9AFFFFFFFCFCFCFDFDFDB3B3B3E2E2E2F4F4F4FFFFFF
310
E6E6E64F4F4F2222227B7B7BFFFFFFF9F9F9FFFFFFF7F7F7FFFFFFFFFFFFEAEA
310
EAF4F4F4D3D3D34242424647458D8E8CFFFFFEFFFFFED5D6D4B2B3B1F4F5F3FF
310
FFFEF5F6F4B5B6B4C5C6C4F4F3EFFFFFFCC2C2BC3B3834555450FCFDFB5B5B5B
310
D5D5D5D1D1D1BBBBBBF8F8F8989898F2F2F2FFFFFFFFFFFFE6E6E69F9F9FF1F1
310
F1FFFFFFD3D3D33C3C3C272727989898FFFFFFFCFCFCFEFEFEEAEAEAA9A9A938
310
3838444444CACACAF9F9F9F0F0F0BCBCBCD3D3D3F2F2F2D0D0D0BBBBBBF6F6F6
310
9D9D9DFFFFFFF5F5F5FEFEFEDDDDDDAFAFAFFFFFFFE9E9E9E2E2E24242423D3D
310
3DD8D8D8959595929292FDFDFD999999E9E9E9FFFFFFEDEDEDF8F8F86666662B
310
2B2B656565FFFFFFECECECFFFFFFF4F4F4CFCFCF3838382A2A2AA5A5A5F7F7F7
310
F1F1F1E2E2E2BDBDBDFEFEFEFFFFFFF2F2F2B7B7B7D4D4D4FFFFFFFFFFFFF3F3
310
F39898980000F6F6F6FFFFFF3B3B3BABABABF5F5F5FFFFFF0A0A0AEDEDEDFBFB
310
FBFBFBFBFEFEFE151515E3E3E3FDFDFDDBDBDB111111FFFFFFFFFFFFFFFFFFEB
310
EBEB090909FFFFFFF0F0F0B6B6B63D3D3DEFEFEFFFFFFF202020F0F0F0FAFAFA
310
CACACA0000009A9A9AB6B6B62E2E2E707070F4F4F4C2C2C2343434141414B0B0
310
B0D1D1D12626264E4E4EFCFCFCFFFFFF2B2B2BDDDDDDFFFFFFE5E5E508080872
310
7272D9D9D9626262313131FDFDFDFCFCFCFFFFFFE6E6E6FFFFFFFFFFFFB5B5B5
310
171717ACACACB3B4B22122206E6F6DF8F9F7A2A3A17F807EF1F2F0FFFFFEFFFF
310
FE787977B7B8B6FFFFFE797A7820211FC6C7C59394921313133F3F3FCACACACA
310
CACA666666FFFFFF2C2C2CFFFFFFFEFEFEFEFEFEBBBBBB5B5B5BFFFFFFD1D1D1
310
080808B5B5B5C9C9C92F2F2F626262DDDDDDFFFFFF8B8B8B2F2F2FC7C7C7AAAA
310
AA040404ACACACFFFFFF616161B5B5B5FDFDFD9393938A8A8ADEDEDE444444FC
310
FCFCFBFBFBFFFFFFC1C1C1575757EBEBEBDADADA000000919191B0B0B0272727
310
6969696F6F6FFFFFFF383838C9C9C9F8F8F8FCFCFC000000828282C2C2C25F5F
310
5F1C1C1CFFFFFFFBFBFBC5C5C50B0B0BA9A9A9C8C8C81B1B1B8A8A8AFFFFFF94
310
94946A6A6AFBFBFBFFFFFFFFFFFF797979ADADADFFFFFFFFFFFFF1F1F14C4C4C
310
0000FEFEFEFBFBFB111111717171FEFEFED8D8D8000000ACACACFFFFFFFEFEFE
310
D4D4D4040404A4A4A4FFFFFF9B9B9B000000DFDFDFFDFDFDFFFFFFA9A9A90000
310
00DCDCDCFAFAFA686868030303FFFFFFF2F2F2919191FFFFFFF2F2F2121212F4
310
F4F4FAFAFAFFFFFFFFFFFF1D1D1DE0E0E0CBCBCB080808C9C9C9FEFEFEF2F2F2
310
FDFDFD2C2C2CC6C6C6FFFFFF3F3F3FE8E8E8F8F8F83E3E3EB1B1B1FFFFFFFFFF
310
FFEFEFEF3B3B3BABABABFFFFFFFFFFFFFFFFFFFFFFFFFBFBFB1E1E1EE4E4E4FF
310
FFFFFFFFFEFFFFFE050604EEEFED969795868785FDFFFFFDFFFFFDFFFF6F7171
310
B1B3B3E9EBEB0C0E0EFAFCFCFDFFFFFDFFFFDDDDDD040404DBDBDBB3B3B36B6B
310
6BFFFFFF363636F8F8F8F9F9F9FFFFFFE0E0E04C4C4CECECEC2A2A2ADADADAFD
310
FDFDFAFAFAFFFFFF151515DDDDDDD6D6D61E1E1EFFFFFFF5F5F5FFFFFFDDDDDD
310
121212FFFFFF5A5A5AB1B1B1FFFFFF9E9E9E848484F2F2F2333333FFFFFFF7F7
310
F7FEFEFEC9C9C9606060FFFFFF020202DADADAFFFFFFFFFFFFFFFFFF0303038A
310
8A8AEAEAEAB4B4B4D5D5D5FAFAFA6A6A6AA0A0A0F9F9F9FFFFFFFFFFFF5A5A5A
310
858585F7F7F7000000DFDFDFFFFFFFE9E9E9FFFFFF0B0B0BE6E6E6C0C0C08A8A
310
8AF0F0F0FFFFFFFAFAFA737373A9A9A9FFFFFFFFFFFFFCFCFC4242420000FFFF
310
FFC1C1C1575757555555FFFFFF8787877E7E7E525252FFFFFFFFFFFF8787877C
310
7C7C646464FFFFFF5B5B5B7F7F7F8F8F8FFFFFFFFDFDFD5050508A8A8A969696
310
FFFFFF3D3D3D656565BCBCBCFFFFFFF3F3F3FFFFFFE0E0E0323232E4E4E4F6F6
310
F6FBFBFBEFEFEF9F9F9F7E7E7EC1C1C1303030FFFFFFFCFCFCFFFFFFFFFFFF9E
310
9E9E585858FFFFFF565656C6C6C6F8F8F8232323FFFFFFF7F7F7F8F8F8FFFFFF
310
E0E0E0464646FAFAFAEFEFEFFFFFFFFFFFFFBBBBBB676767FFFFFFFFFFFFF5F6
310
F4F6F7F5FFFFFEFCFDFBB6B7B56D6E6CFDFFFFE3E5E5FDFFFF717675BFC3C477
310
7B7C8F9394E8ECEDFBFFFFF9FDFEFDFFFF1C1C1CD2D2D2C6C6C6727272FAFAFA
310
323232FCFCFCFFFFFFF4F4F4CACACA797979EBEBEB535353FFFFFFFEFEFEFAFA
310
FAFFFFFFEFEFEFFBFBFB939393959595FFFFFFFFFFFFFFFFFFF3F3F3EBEBEBF7
310
F7F7636363D6D6D6E8E8E8A6A6A6868686FCFCFC383838FFFFFFFAFAFAFFFFFF
310
CECECE6D6D6DE4E4E43E3E3EFFFFFFF5F5F5F3F3F3F6F6F68888886F6F6FFFFF
310
FFFBFBFBFFFFFFF6F6F6070707FFFFFFE8E8E8FFFFFFF6F6F6E7E7E7F9F9F9D0
310
D0D0484848FFFFFFF6F6F6FFFFFFF2F2F27A7A7AA2A2A2A1A1A1848484FEFEFE
310
F8F8F8FFFFFF7E7E7EB3B3B3FEFEFEFFFFFFFFFFFF4040400000FEFEFE6F6F6F
310
C0C0C05E5E5EECECEC535353E5E5E5343434F0F0F0FFFFFF4A4A4AE3E3E34F4F
310
4FEFEFEF434343EFEFEF464646FFFFFFF0F0F02C2C2CF9F9F9595959E6E6E657
310
5757C4C4C4757575F3F3F3FFFFFFF5F5F5B7B7B7696969FFFFFFFFFFFFFFFFFF
310
FFFFFFB3B3B3575757DADADA565656FBFBFBFFFFFFE6E6E6FFFFFFC5C5C54545
310
45FFFFFF4C4C4CDEDEDEE8E8E82E2E2EFCFCFCFFFFFFFFFFFFFFFFFFDCDCDC2D
310
2D2DE2E2E23737370B0B0B828282BFBFBF3131315F5F5F5959596162605C5D5B
310
686967B2B3B1B5B7B77E8080F3F5F5FDFFFFF0F4F5747879BCBFC3515659BCC1
310
C4FAFFFFEDF2F5FAFFFFF8FAFB858585ABABABB7B7B76B6B6BFFFFFF323232FF
310
FFFFFFFFFFF9F9F9D9D9D9474747C9C9C91E1E1E5B5B5B6E6E6E636363565656
310
7777778F8F8F6060605050505D5D5D5353535959595F5F5F676767E1E1E16767
310
67B8B8B8FFFFFFA0A0A0828282EEEEEE383838FDFDFDFFFFFFFFFFFFC5C5C561
310
6161AEAEAE707070FEFEFEFFFFFFFFFFFFEEEEEEC9C9C9656565EFEFEFFCFCFC
310
F1F1F1FFFFFF373737FFFFFFFFFFFFFDFDFDFFFFFFFFFFFFFEFEFE8F8F8F6D6D
310
6DFFFFFFF2F2F2F4F4F4F6F6F6D8D8D8606060C6C6C6838383FFFFFFFFFFFFF0
310
F0F0787878B7B7B7FBFBFBFFFFFFFCFCFC3535350000FBFBFB383838FFFFFF74
310
7474C0C0C0515151F7F7F74F4F4FDDDDDDF4F4F4343434F6F6F65A5A5AD1D1D1
310
4B4B4BFFFFFF272727FBFBFBE8E8E83A3A3AFFFFFF3C3C3CB4B4B4898989F9F9
310
F9292929FFFFFFEEEEEEFFFFFFB1B1B1535353FEFEFEFEFEFEE8E8E8FFFFFFC0
310
C0C05D5D5DBEBEBE626262FDFDFDF8F8F8FFFFFFFFFFFFC4C4C4595959F2F2F2
310
545454D7D7D7EDEDED2E2E2EFFFFFFF7F7F7FFFFFFF6F6F6F3F3F3313131FFFF
310
FFBEBEBED2D2D2E9E9E9ABABAB3B3B3BCDCDCDB4B4B4B8B9B7CDCECC6D6E6C77
310
7876BBBDBD717373FDFFFFF6F8F8FBFFFF5D6162CED2D362676AA6ABAEEFF4F7
310
FAFFFFEDF2F5FDFFFF444444CFCFCFC2C2C27F7F7FEDEDED2F2F2FF7F7F7F0F0
310
F0FFFFFFCBCBCB5B5B5BDFDFDF333333D1D1D1B5B5B5ABABABC4C4C47C7C7C5A
310
5A5A868686828282B5B5B5BCBCBCB4B4B4CDCDCD373737C3C3C3707070C5C5C5
310
FFFFFF969696888888EFEFEF474747F6F6F6FFFFFFFFFFFFC6C6C6707070C3C3
310
C3636363FCFCFCFCFCFCF8F8F8FDFDFDACACAC5E5E5EFFFFFFFFFFFFF5F5F5ED
310
EDED292929FEFEFEFDFDFDFFFFFFF8F8F8FFFFFFFCFCFCB1B1B1717171F9F9F9
310
F8F8F8FFFFFFFFFFFFAAAAAA797979C0C0C07A7A7AF5F5F5FFFFFFFFFFFF7171
310
71B8B8B8FAFAFAFFFFFFFFFFFF3C3C3C0000FBFBFB2A2A2AFFFFFFCACACA2B2B
310
2B6E6E6EFEFEFE9393938F8F8FDADADA555555FDFDFDA0A0A02D2D2DA4A4A4FF
310
FFFF595959CACACA818181A0A0A0FFFFFF6868682F2F2FDEDEDEF9F9F93D3D3D
310
D7D7D7FFFFFFFEFEFEF5F5F5252525F7F7F7FFFFFFFFFFFFFAFAFA6E6E6EA0A0
310
A0C7C7C7000000FFFFFFFFFFFFF7F7F7FFFFFF4949499F9F9FFFFFFF484848DC
310
DCDCFCFCFC262626E5E5E5FFFFFFF7F7F7FFFFFF999999626262FFFFFFFCFCFC
310
FFFFFFFEFEFEE2E2E2121212FFFFFFFFFFFFFBFCFAFFFFFE545553BABBB9BEC0
310
C0525454F5F7F7FDFFFFF9FBFB585A5AD1D3D3ACB0B155595AF5F9FAF3F7F8FB
310
FFFFFDFFFF000000DADADAB9B9B9787878FCFCFC232323F6F6F6FFFFFFFDFDFD
310
BDBDBD595959FBFBFB1D1D1DF7F7F7FFFFFFFFFFFFF4F4F4585858A9A9A9ADAD
310
AD5F5F5FF4F4F4FFFFFFF8F8F8FFFFFF212121ECECEC5F5F5FB8B8B8FAFAFAA3
310
A3A3888888F1F1F1191919FFFFFFFEFEFEFFFFFFA5A5A57D7D7DF0F0F01C1C1C
310
FEFEFEFBFBFBFCFCFCFFFFFF4646467A7A7AFFFFFFF5F5F5FFFFFFFFFFFF2F2F
310
2FDADADAFFFFFFFDFDFDFFFFFFB7B7B7AAAAAAF1F1F1202020FBFBFBFDFDFDFF
310
FFFFFFFFFF4E4E4EB9B9B9C1C1C15A5A5AF3F3F3FFFFFFFFFFFF555555878787
310
FFFFFFFBFBFBFCFCFC41414100009D9D9D888888FFFFFFFFFFFF080808B5B5B5
310
EFEFEFE1E1E1555555686868C4C4C4FDFDFDE3E3E3000000DDDDDDF8F8F8ABAB
310
AB7979793E3E3EE5E5E5FFFFFFB3B3B30B0B0BF2F2F2FFFFFF626262BFBFBFFF
310
FFFFEEEEEEFBFBFB606060636363FEFEFEF8F8F8CCCCCC050505F1F1F1DCDCDC
310
060606494949FCFCFCFFFFFF989898171717FFFFFFFFFFFF585858C5C5C5FFFF
310
FF858585484848F6F6F6FFFFFFDCDCDC151515EEEEEEECECECFFFFFFF8F8F8FF
310
FFFFFFFFFF555555797979FFFFFFFFFFFEB1B2B00F100EF7F8F6C1C3C3000000
310
DBDDDDF0F2F2DDDFDF050604EFF0EEF4F5F30A0C0CC0C2C2FDFFFFF1F3F36B6B
310
6B0A0A0AC5C5C5D5D5D5616161FFFFFF0000008B8B8BFFFFFFFFFFFF282828C0
310
C0C0FFFFFF525252696969F2F2F2EFEFEFD4D4D40E0E0EFFFFFFFFFFFF171717
310
D9D9D9EDEDEDFAFAFA747474323232FFFFFF6C6C6C1C1C1CEFEFEFA0A0A08B8B
310
8BFEFEFE0202029B9B9BFFFFFFF3F3F31E1E1ED3D3D3FFFFFF343434696969FF
310
FFFFEEEEEEAFAFAF000000777777F2F2F2FFFFFFEEEEEEFAFAFAC1C1C1161616
310
FFFFFFF9F9F9E8E8E8050505D3D3D3F4F4F45353537B7B7BFAFAFAFBFBFBA8A8
310
A8282828FFFFFFA0A0A0000000E7E7E7F2F2F2DBDBDB000000393939E1E1E1F5
310
F5F5BBBBBB3131310000787878BABABAEFEFEFF9F9F9505050E7E7E7F3F3F3FF
310
FFFF2B2B2B3D3D3DEEEEEEFFFFFFFEFEFE434343FFFFFFFFFFFFDCDCDC464646
310
4B4B4BF3F3F3FFFFFFDDDDDD505050FFFFFFFBFBFBC4C4C4515151F9F9F9FFFF
310
FFF9F9F9FFFFFF4242420707072B2B2B050505EFEFEFFFFFFFB8B8B882828266
310
66660000001B1B1B282828ECECECFFFFFF0D0D0D0101010101018C8C8CFFFFFF
310
646464050505353535090909B3B3B3F1F1F1FDFDFDFFFFFFFFFFFFF1F1F1FFFF
310
FFEAEAEA4747471E1E1E1D1F1F1E2020CACCCCFDFFFFAFB0AE5D5E5C2E2F2D15
310
1614070806B3B2AEFFFFFCFDFCF8EFEEEA201F1B0B08032B2A26575856818181
310
BBBBBBB6B6B67B7B7BE6E6E65A5A5A595959151515000000686868FFFFFFE4E4
310
E4FAFAFA6060601A1A1A212121020202D0D0D0F3F3F3F8F8F8DBDBDB0B0B0B26
310
2626212121323232F7F7F7FBFBFB7979795B5B5B404040B7B7B7878787F7F7F7
310
434343555555131313000000888888F0F0F0FEFEFEFFFFFF4949490404042D2D
310
2D242424C3C3C3767676FDFDFDFFFFFFFDFDFDFFFFFFFAFAFA94949404040429
310
2929000000B6B6B6FFFFFFFFFFFFFFFFFF2828281F1F1F202020191919EFEFEF
310
FFFFFFC6C6C65A5A5A1D1D1D1313130D0D0DBBBBBBBBBBBB0F0F0F0E0E0E0505
310
05F5F5F50000F1F1F1FEFEFEFFFFFFFBFBFBF0F0F0FFFFFFFFFFFFFFFFFFFFFF
310
FFF6F6F6F6F6F6F0F0F0FFFFFFF1F1F1FFFFFFF7F7F7FEFEFEE3E3E3FDFDFDF1
310
F1F1FFFFFFFFFFFFFBFBFBF4F4F4FFFFFFFAFAFAF8F8F8FFFFFFF6F6F6FFFFFF
310
FFFFFFFFFFFFDDDDDDC2C2C2FFFFFFF5F5F5FFFFFFFFFFFFE7E7E7FDFDFDEBEB
310
EBE0E0E0FAFAFAEFEFEFFFFFFFFFFFFF4E4E4EE1E1E1FFFFFFF4F4F4FBFBFBE3
310
E3E3C6C6C6EDEDEDFFFFFFFFFFFFFFFFFFF4F4F4FFFFFFFFFFFFF0F0F0FFFFFF
310
FCFCFCDBDBDBD0D2D2F8FAFAFDFFFFFDFFFFF0F1EFFFFFFEFFFFFEDDDCD8FFFF
310
FCF1EEE9FFFFF9F5F2EAFFFFF9FFFFF8DCD7CEEFECE4FFFFFEFFFFFFFFFFFFFD
310
FDFDF7F7F7FFFFFFFFFFFFECECECE7E7E7FFFFFFFDFDFDF1F1F1FFFFFFFFFFFF
310
FFFFFFCBCBCBD0D0D0FFFFFFFFFFFFFDFDFDFFFFFFFFFFFFFFFFFFD5D5D5CDCD
310
CDFFFFFFF4F4F4FFFFFFEDEDEDFCFCFCF2F2F2FCFCFCFAFAFAF7F7F7FFFFFFF7
310
F7F7E1E1E1F5F5F5F8F8F8FFFFFFF3F3F3FFFFFFFFFFFFDBDBDBEAEAEAEEEEEE
310
F5F5F5F8F8F8FFFFFFEBEBEBF5F5F5F1F1F1FFFFFFFBFBFBFFFFFFBDBDBDFFFF
310
FFF0F0F0F5F5F5FEFEFEF5F5F5FFFFFFD0D0D0CBCBCBFAFAFAFDFDFDF1F1F1FB
310
FBFBFBFBFBFFFFFFE8E8E8F8F8F8FFFFFFFFFFFFE5E5E5DFDFDFFFFFFFF3F3F3
310
0000FFFFFFFCFCFCFAFAFAFFFFFFFFFFFFF5F5F5F7F7F7FAFAFAE5E5E5FFFFFF
310
FFFFFFF8F8F8FFFFFFFFFFFFECECECFFFFFFFFFFFFFFFFFFFFFFFFFFFFFFF8F8
310
F8EBEBEBF9F9F9FFFFFFFFFFFFFFFFFFF0F0F0F7F7F7FFFFFFF9F9F9E7E7E7FF
310
FFFFF8F8F8FFFFFFFDFDFDF2F2F2FFFFFFFFFFFFF0F0F0FFFFFFFFFFFFF6F6F6
310
FFFFFFFFFFFFF6F6F6FFFFFF323232D4D4D4FBFBFBE6E6E6FFFFFFFFFFFFFAFA
310
FAF3F3F3FFFFFFECECECFFFFFFF0F0F0F5F5F5FFFFFFFFFFFFFEFEFEFDFDFDFF
310
FFFFF7F9FAFAFEFFECF1F0EEF0F0FFFFFEFFFFFEF9F8F4FFFFFBFFFEF6FFFEF5
310
FFFEF3FFFFF7FFF7EAFFF8EBFFFFF5FAF4E9FFFEFAF1F1F1FBFBFBB8B8B87979
310
79FFFFFFF5F5F5FFFFFFFFFFFFECECECFFFFFFF6F6F6FBFBFBF4F4F4ECECECFF
310
FFFFFDFDFDF1F1F1FEFEFEFBFBFBFDFDFDFFFFFFF4F4F4FEFEFEFFFFFFFFFFFF
310
F2F2F2FFFFFFFFFFFFF5F5F5FFFFFFA4A4A47D7D7DFFFFFFF7F7F7FFFFFFFDFD
310
FDFFFFFFEAEAEAFFFFFFFAFAFAFFFFFFEEEEEEFFFFFFEEEEEEFFFFFFFFFFFFFF
310
FFFFFFFFFFFFFFFFFFFFFFF9F9F9F6F6F6FAFAFAF7F7F7FFFFFFFCFCFCFFFFFF
310
F2F2F2FFFFFFFFFFFFF7F7F7FAFAFAFFFFFFFFFFFFFFFFFFFAFAFAF9F9F9F9F9
310
F9FAFAFAEAEAEAFFFFFFEDEDEDF6F6F6FFFFFFFFFFFFF6F6F6FFFFFF0000F8F8
310
F8F4F4F4F2F2F2FFFFFFFDFDFDFFFFFFFFFFFFFFFFFFFFFFFFFAFAFAFFFFFFED
310
EDEDFBFBFBFFFFFFF7F7F7FFFFFFF3F3F3FFFFFFFFFFFFF1F1F1FEFEFEFFFFFF
310
FFFFFFFFFFFFFFFFFFFAFAFAFFFFFFFFFFFFFFFFFFFFFFFFFFFFFFFFFFFFFFFF
310
FFFCFCFCFFFFFFFFFFFFF4F4F4F8F8F8FEFEFEF2F2F2FDFDFDFFFFFFF9F9F9F7
310
F7F7FCFCFCFFFFFF898989D5D5D5FCFCFCFFFFFFF7F7F7FBFBFBFFFFFFFFFFFF
310
FFFFFFF9F9F9FEFEFEFFFFFFFFFFFFF6F6F6EBEBEBFFFFFFF5F5F5FDFFFFFBFF
310
FFFBFFFFFBFFFFFBFFFFF1F2F0F5F4F0FFFFFAFFFEF6FFFBF2FFFFF7FFFFF5F4
310
EBDDFFFFF4FFFFF2FFFFEFFFFFF5FFFFFCFFFFFFFFFFFFB8B8B8787878FFFFFF
310
FFFFFFFEFEFEFBFBFBFFFFFFFFFFFFFCFCFCFFFFFFFFFFFFFCFCFCFFFFFFFCFC
310
FCFFFFFFFCFCFCFFFFFFFFFFFFFBFBFBFFFFFFFAFAFAF5F5F5FFFFFFFFFFFFEB
310
EBEBFFFFFFFFFFFFF3F3F3ADADADA1A1A1F8F8F8FFFFFFFFFFFFDFDFDFFFFFFF
310
FFFFFFFFFFFFFFFFFFF4F4F4FFFFFFF7F7F7FFFFFFF9F9F9FFFFFFE8E8E8F7F7
310
F7F1F1F1F1F1F1FFFFFFFFFFFFF2F2F2FFFFFFF9F9F9ECECECFFFFFFFFFFFFE5
310
E5E5FFFFFFFFFFFFF4F4F4FFFFFFF3F3F3FCFCFCFFFFFFFFFFFFFFFFFFFFFFFF
310
F7F7F7FEFEFEFFFFFFFCFCFCF4F4F4FAFAFAF7F7F7FFFFFF0000FFFFFFFDFDFD
310
FFFFFFFEFEFEFBFBFBF8F8F8FFFFFFEFEFEFF9F9F9F1F1F1FFFFFFFFFFFFFAFA
310
FAF6F6F6F7F7F7FFFFFFFFFFFFF3F3F3FEFEFEF4F4F4FFFFFFF4F4F4F4F4F4FB
310
FBFBFFFFFFF6F6F6FFFFFFFFFFFFEEEEEEFBFBFBFFFFFFF9F9F9FFFFFFFEFEFE
310
EEEEEEF8F8F8F7F7F7FFFFFFF8F8F8FFFFFFFBFBFBFFFFFFFFFFFFFFFFFFFFFF
310
FFF9F9F9EFEFEFFFFFFFFCFCFCFAFAFAFFFFFFFEFEFEFFFFFFF3F3F3FDFDFDFF
310
FFFFFFFFFFF5F5F5FBFBFBFFFFFFF7F7F7FFFFFFF4F4F4FDFFFFFBFFFFE6EBEC
310
F1F5F6FBFFFFFDFEFCFFFFFCFFFFFBFDFAF2E5DFD4D5CDC0CDC4B6E5DBCAD2C6
310
B4FFFFEFF4E6D3FFFCEEFFFFFAF8F8F8F0F0F0FFFFFFFFFFFFF5F5F5FEFEFEF5
310
F5F5FFFFFFFFFFFFF4F4F4FFFFFFFFFFFFF8F8F8FFFFFFF5F5F5FFFFFFFFFFFF
310
F5F5F5FFFFFFFFFFFFF2F2F2FFFFFFFFFFFFFFFFFFE5E5E5FFFFFFFFFFFFE7E7
310
E7FFFFFFFFFFFFFFFFFFFFFFFFE6E6E6FEFEFEFFFFFFFFFFFFFFFFFFF3F3F3FD
310
FDFDF8F8F8F2F2F2FFFFFFFFFFFFFFFFFFFFFFFFFFFFFFFFFFFFFDFDFDFFFFFF
310
FFFFFFEFEFEFFFFFFFFBFBFBEEEEEEFEFEFEFFFFFFEDEDEDFFFFFFFFFFFFEEEE
310
EEFFFFFFFBFBFBFFFFFFFFFFFFFFFFFFF7F7F7FFFFFFFFFFFFFBFBFBFEFEFEFE
310
FEFEFAFAFAFFFFFFF9F9F9F5F5F5FFFFFFFFFFFF0000FFFFFFF7F7F7FFFFFFFF
310
FFFFFEFEFEFFFFFFFFFFFFFFFFFFFFFFFFFFFFFFFFFFFFEBEBEBFFFFFFFFFFFF
310
FFFFFFF8F8F8F5F5F5FFFFFFF8F8F8FFFFFFFFFFFFF0F0F0FFFFFFFDFDFDFFFF
310
FFFFFFFFF5F5F5FFFFFFFFFFFFF6F6F6FFFFFFF9F9F9F8F8F8FCFCFCFFFFFFFE
310
FEFEFFFFFFF9F9F9FFFFFFF7F7F7FFFFFFFAFAFAF7F7F7FFFFFFFFFFFFFFFFFF
310
FFFFFFFCFCFCFFFFFFFEFEFEFFFFFFF5F5F5FFFFFFF2F2F2FFFFFFF5F5F5F3F3
310
F3FFFFFFFEFEFEF4F4F4FFFFFFF2F2F2FCFCFCFDFFFFF1F5F6FBFFFFF7FBFCFB
310
FFFFFAFCFCF0F1EFFFFFFBFFFFF7F5ECDED0C4B2D2C4AEE0CFB5DCC9AED2BDA1
310
EFD9BDD9C5ACDDD0C0FFF7EDFFFFF6FFFAF3FFFFFBFFFFFCF8F6F5FFFFFFF8FA
310
FBFBFDFEFDFFFFFDFFFFEEF0F0FDFFFFF5F6F4FFFFFEFDFFFFFDFFFFFBFDFDFD
310
FFFFFCFEFEFBFBFBFEFEFEFFFFFFF7F7F7FFFFFFFEFEFEFDFDFDFFFFFFF9F9F9
310
FFFFFFF2F2F2F7F7F7FFFFFFFDFDFDFFFFFFF0F0F0FFFFFFFFFFFFFFFFFFFCFC
310
FCFFFFFFF6F6F6F5F5F5FEFEFEFCFCFCFFFFFFFBFBFBFFFFFFE9E9E9FFFFFFFF
310
FFFFF8F8F8FFFFFFFFFFFFFFFFFFF6F6F6FFFFFFF4F4F4FFFFFFFAFAFAFFFFFF
310
FFFFFFFAFAFAFFFFFFF2F2F2FFFFFFFFFFFFF6F6F6FEFEFEFFFFFFFFFFFFFBFB
310
FBF8F8F8FFFFFFFFFFFFF1F1F1F9F9F90000FDFDFDFFFFFFFFFFFFFFFFFFFCFC
310
FCFCFCFCFFFFFFFFFFFFFFFFFFFFFFFFFFFFFFFFFFFFFFFFFFFFFFFFFFFFFFFF
310
FFFFF5F5F5FFFFFFEBEBEBBABABACBCBCBD6D6D6BABABAD6D6D6D2D2D2CBCBCB
310
CECECED0D0D0CACACACCCCCCD1D1D1CDCDCDCCCCCCCECECEC5C5C5FFFFFFFBFB
310
FBFDFDFDFFFFFFFBFBFBFFFFFFFFFFFFFFFFFFFFFFFFFFFFFFFFFFFFFFFFFFFF
310
FFFFFFFFFFFFFFFFFFFFFFFFFFFFFFFFFFFFFFFFFFFFFFFFFFFFF2F2F2FEFEFE
310
FFFFFFFFFFFFFFFFFFFFFFFFFEFEFEF8F8F8FDFFFFFAFCFCF1F6F7F2F7FAF9FE
310
FFFBFFFFFFFFFCFFFCF1F7E9D6DEC9AEE5CAA8ECCDA6EDCBA0EFCCA0EBC69AF0
310
CCA4F6D3B1E1C3A6DFC4AAFDE8D3FFFFF4FFFFF8FBF6F3FAF9FBEFF4F7F1F7FC
310
F5FBFFF7FEFFFAFFFFFBFFFEFDFFFCFCFFFBF1F6F4FBFFFFF9FEFDF2F7F6F7FC
310
FBFBFDFDF9FBFBFCFEFEFCFCFCFCFCFCFEFCFCFFFDFDFFFDFDFFFDFDFFFDFEFF
310
FEFEFDFDFDFDFDFDFDFDFDFDFDFDFDFDFDFDFDFDFDFDFDFDFDFDFDFDFDFDFDFD
310
FDFDFDFDFDFDFDFDFDFDFDFDFDFDFDFDFDFDFEFEFEFDFDFDFCFCFCFCFCFCFCFC
310
FCFCFCFCFDFDFDFEFEFEFDFDFDFDFDFDFDFDFDFDFDFDFDFDFDFDFDFDFDFDFDFD
310
FDFDFBFBFBFCFCFCFCFCFCFDFDFDFDFDFDFEFEFEFEFEFEFEFEFEFFFFFFF3F3F3
310
FFFFFFFAFAFAF8F8F8FDFDFD0000FBFBFBFDFDFDFFFFFFFFFFFFFFFFFFFFFFFF
310
FEFEFEFDFDFDFFFFFFFFFFFFFFFFFFFFFFFFFFFFFFFFFFFFFFFFFFFFFFFFFFFF
310
FFFDFDFDEAEAEA8F8F8F8080807A7A7A8D8D8D8585858282827E7E7E83838386
310
86868080808282828585857F7F7F8585858585858F8F8FF7F7F7FBFBFBFDFDFD
310
FFFFFFFFFFFFFFFFFFFFFFFFFFFFFFFFFFFFFFFFFFFFFFFFFFFFFFFFFFFFFFFF
310
FFFFFFFFFFFFFFFFFFFFFFFFFFFFFFFFFFFFFFFFFFFFFFFFFFFFFFFFFAFAFAF6
310
F6F6FBFBFBFFFFFFFFFFFFFFFFFFF5F6F4FCFEFEFAFFFFF8FFFFF7FDFFF4F7FB
310
FDFBFAFFFFF7F6E7D4DFC7A9E7C7A3F0CB9FF2C99CF4CA9BECC293F1C79AE9BE
310
93FDD4ADF4CFADDABC9FDDC5B1F3E3D6FFFCF5FFFFFEFBFFFFF6FDFFEDF3F8F2
310
F9FCF7FFFEF7FEFBF9FFFAFBFFFCFBFFFEFAFFFFF2F8F7F5FBFAFBFFFFFBFFFF
310
FDFFFFF2F4F4FEFEFEFEFEFEFFFFFFFFFFFFFFFEFFFFFEFFFFFEFFFFFFFFFFFF
310
FFFFFFFFFFFFFFFFFFFFFFFFFFFFFFFFFFFFFFFFFFFFFEFEFEFEFEFEFEFEFEFE
310
FEFEFEFEFEFEFEFEFEFEFEFEFEFEFFFFFFFFFFFFFFFFFFFEFEFEFEFEFEFFFFFF
310
FFFFFFFFFFFFFCFCFCFCFCFCFCFCFCFCFCFCFCFCFCFCFCFCFCFCFCFCFCFCFEFE
310
FEFEFEFEFEFEFEFFFFFFFFFFFFFFFFFFFFFFFFFFFFFFF6F6F6F1F1F1FFFFFFFF
310
FFFFFFFFFFFEFEFE0000FFFFFFFEFEFEFEFEFEFFFFFFFFFFFFFFFFFFFEFEFEFC
310
FCFCFFFFFFFFFFFFFFFFFFFFFFFFFFFFFFFFFFFFFFFFFFFFFFFFF9F9F9FFFFFF
310
EBEBEBCBCBCB7070708484849494948080808989898686868D8D8D9292928D8D
310
8D8E8E8E9090908989898F8F8F878787919191FFFFFFFFFFFFFFFFFFFAFAFAFA
310
FAFAFFFFFFFFFFFFFFFFFFFFFFFFFFFFFFFFFFFFFFFFFFFFFFFFFFFFFFFFFFFF
310
FFFFFFFFFFFFFFFFFFFFFFFFFFFFFFFFFFFFFBFBFBFEFEFEFFFFFFFFFFFFFFFF
310
FFF8F8F8F6F6F6F9F9F9FFFFFEFFFFFEF6FAFBF0F5F8EEF4F9F6F9FDFFFFFEFF
310
FFF8FAECDADFCAAFE3C7A5E9C8A1EDC9A1F6D3A8F4D0A8FCD5AEEDC399FAD0A6
310
F4CEABE8C9AAE3CAB0DFCBB9DED2C6E8E0D9FEFBF7FBFCFAFAFCFCFAFFFEFBFF
310
FEFBFFFCFDFFFBFAFFFBFBFFFEF7FDFCFBFFFFFBFFFFFBFFFFEAEFEEFDFFFFFD
310
FFFFFDFDFDFDFDFDFFFDFDFFFDFDFFFDFDFFFDFDFFFBFCFEFCFCFFFDFDFDFDFD
310
FDFDFDFDFDFDFDFDFDFDFDFDFDFDFDFDFDFDFDFDFDFDFDFDFDFDFDFDFDFDFDFD
310
FDFDFDFDFDFDFDFDFDFDFDFDFDFDFDFDFDFDFDFDFDFDFDFDFDFDFDFDFDFDFDFD
310
FDFDFFFFFFFFFFFFFFFFFFFFFFFFFFFFFFFFFFFFFFFFFFFFFFFFFCFCFCFCFCFC
310
FCFCFCFDFDFDFDFDFDFDFDFDFEFEFEFEFEFEFFFFFFFFFFFFFDFDFDFFFFFFFAFA
310
FAFAFAFA0000FFFFFFFFFFFFFFFFFFFEFEFEFCFCFCFDFDFDFFFFFFFFFFFFFFFF
310
FFFFFFFFFFFFFFFFFFFFFFFFFFFFFFFFFFFFFFFFFFFFF6F6F6FFFFFFFAFAFAFF
310
FFFF9E9E9E8A8A8A8C8C8C8181818282827F7F7F8585858A8A8A858585878787
310
8A8A8A848484909090898989929292FFFFFFFFFFFFFDFDFDFDFDFDFFFFFFFFFF
310
FFFFFFFFFFFFFFFFFFFFFFFFFFFFFFFFFFFFFFFFFFFFFFFFFFFFFFFFFFFFFFFF
310
FFFFFFFFFFFFFFFFFFFFFFFFFFFFFDFDFDFCFCFCFFFFFFFFFFFFFFFFFFFDFDFD
310
FFFFFFFFFFFEFCFBF7F8F9F7F6FAFBFAFFFFF8FEFFFAFFFFFFFFFFFFFDF6F0E3
310
D5DAC8B1E3CBAFE9CCADEACBAAEBCCABDEBF9EDEBE9BFED7B0F4CBA4E6C19BE8
310
C8A5EBCEB3D8C2A9D0BEADDBD0C2E8E2D7FFFEF6FFFFFBFFFFFCFDFEFAFDFFFC
310
FDFFFCF5FBF6F9FEFCE9EFEEF4F9F8F6FBFAFBFFFFFBFFFFF4F6F6F4F6F6FFFF
310
FFFFFFFFFFFFFFFFFFFFFFFEFEFFFEFEFFFDFEFFFEFEFEFEFEFEFEFEFEFEFEFE
310
FEFEFEFEFEFEFEFEFEFEFEFEFEFEFFFFFFFFFFFFFFFFFFFFFFFFFFFFFFFFFFFF
310
FFFFFFFFFFFFFEFEFEFEFEFEFFFFFFFFFFFFFFFFFFFFFFFFFEFEFEFEFEFEFDFD
310
FDFDFDFDFDFDFDFDFDFDFDFDFDFDFDFDFDFDFDFDFDFDFEFEFEFEFEFEFEFEFEFE
310
FEFEFEFEFEFFFFFFFFFFFFFFFFFFF7F7F7FFFFFFF4F4F4FFFFFFFFFFFFFEFEFE
310
0000F8F8F8FEFEFEFFFFFFFFFFFFFEFEFEFCFCFCFFFFFFFFFFFFFFFFFFFFFFFF
310
FFFFFFFFFFFFFFFFFFFFFFFFFFFFFFFFFFFFFFFFFFF9F9F9FFFFFFF5F5F5DDDD
310
DD7575758585858888888989898383838888888B8B8B8686868A8A8A8F8F8F8A
310
8A8A818181878787929292F7F7F7F7F7F7FAFAFAFFFFFFFFFFFFFFFFFFFFFFFF
310
FFFFFFFFFFFFFFFFFFFFFFFFFFFFFFFFFFFFFFFFFFFFFFFFFFFFFFFFFFFFFFFF
310
FFFFFFFFFFFFFFFFFFFFFFFFFFFFFFFFFAFAFAFEFEFEFFFFFFFFFFFFF8F8F8F4
310
F5F3FFFFFBFFFFFCFDFFFFFAFFFFF2F8FDEEF2F7F3F5F6FFFBF8F6ECE2DDCDBC
310
DEC9B3DBC3ABD9C1A9E5CDB5E4CDB7F0D5BBE1BE9CF1CCA6EDC9A5E1C19EE3C6
310
A7E5CAAFE0CAB1DECDB8D7CBB9E6DDCFF7F1E6FDFAF2FFFFF9FFFFFCFDFFFCFA
310
FFFDFBFFFFFBFFFFFBFFFFF5FAF9F4F6F6FDFFFFEDEFEFFDFFFFFFFFFFFFFFFF
310
FFFFFFFFFFFFFFFFFFFFFFFFFFFFFFFFFFFFFFFFFFFFFFFFFFFFFFFFFFFFFFFF
310
FFFFFFFFFFFFFFFFFFFFFFFFFFFFFFFFFFFFFFFFFFFFFFFFFFFFFFFFFFFFFFFF
310
FFFFFFFFFFFFFFFFFFFFFFFFFFFFFFFFFFFFFFFFFFFFFFFFFFFFFFFFFFFFFFFF
310
FFFFFFFFFFFFFFFFFFFFFFFFFFFFFFFFFFFFFFFFFFFFFFFFFFFFFFFFFFFFFFFF
310
FFFFFFFFFFFFFFFFFFFFFFFFFFFFFFFFFBFBFBFFFFFFFEFEFEF8F8F80000E2E2
310
E2EDEDEDFBFBFBFFFFFFFFFFFFFFFFFFFDFDFDFCFCFCFFFFFFFFFFFFFFFFFFFF
310
FFFFFFFFFFFFFFFFFFFFFFFFFFFFFFFFFFF4F4F4FAFAFAFDFDFDFFFFFFA1A1A1
310
8A8A8A9696968989898282828686868888888282828686868C8C8C8888888585
310
859090909F9F9FFFFFFFFDFDFDFCFCFCFEFEFEF9F9F9FFFFFFFFFFFFFFFFFFFF
310
FFFFFFFFFFFFFFFFFFFFFFFFFFFFFFFFFFFFFFFFFFFFFFFFFFFFFFFFFFFFFFFF
310
FFFFFFFFFFFFFAFAFAFFFFFFFFFFFFFFFFFFFEFEFEFFFFFFFFFFFFFFFFFEFFFC
310
F8FEFDF9FAFCFCF4F7FBECF0F5E1E5EAD8DADBD5D3D2C0B9B0B9ADA1D2C2B2DD
310
CBBAE1CFBEE7D7C7DFCFC2E5D1BFE8CCAEEFCFACEBCAA9EACBAAF0D3B4E7CDAF
310
D7C1A5D3BFA6D5C7B1CBBFADDBD3C6FFFBF2FFFFFBF2F3EFDDE2E0DDE3E2D4D9
310
D8DDE2E1E6EBEAE2E7E6DCDEDEECEEEEEAECECC5C7C7C9C9C9C9C9C9C9C9C9CA
310
CACACCCACACDCBCBCDCBCBCDCBCBCACACACACACACACACACACACACACACACACACA
310
CACACACACACAC8C8C8C8C8C8C8C8C8C8C8C8C8C8C8C8C8C8C8C8C8C8C8C8C8C8
310
C8C9C9C9CBCBCBCCCCCCCCCCCCCBCBCBC9C9C9C8C8C8CCCCCCCCCCCCCCCCCCCC
310
CCCCCCCCCCCCCCCCCCCCCCCCCCCCCBCBCBCBCBCBCBCBCBCACACACACACACACACA
310
C9C9C9C9C9C9CBCBCBBFBFBFF4F4F4FAFAFAFCFCFCF6F6F60000D3D3D3D9D9D9
310
E4E4E4F3F3F3FEFEFEFFFFFFFFFFFFFBFBFBFFFFFFFFFFFFFFFFFFFFFFFFFFFF
310
FFFFFFFFFFFFFFFFFFFFFFFFFFFFFFFFF5F5F5FFFFFFFAFAFADEDEDE8C8C8C7E
310
7E7E8A8A8A8585858A8A8A8C8C8C8787878989898D8D8D8787877E7E7E808080
310
8F8F8FFFFFFFFFFFFFFEFEFEFFFFFFFFFFFFFFFFFFFFFFFFFFFFFFFFFFFFFFFF
310
FFFFFFFFFFFFFFFFFFFFFFFFFFFFFFFFFFFFFFFFFFFFFFFFFFFFFFFFFFFFFFFF
310
FFFFFCFCFCFFFFFFFFFFFFF7F7F7F8F8F8FFFFFFFFFFFFF7F5F4CAC7C295928D
310
4849470E1213000004000004000307060606100C070B02000F0300190D01372B
310
2172675FA49B97D0C4BAE2CAB6E8CDB3E0C5AADEC3A8E3C8ADDFC7ABDCC5ABE3
310
CFB6DAC9B4D6CAB8E4DCCFFDF8EFFFFFFCF7F9F9ECF1F2ECF4F4F2F6F7E6E8E8
310
DDDFDFEDEFEFE5E7E7D2D4D4FDFFFF4D4F4F4242424242424343434444444545
310
4546464647474748484845454545454545454545454545454545454545454545
310
4545434343434343434343434343434343434343434343434343434343444444
310
4646464747474747474646464444444343433D3D3D3D3D3D3D3D3D3D3D3D3D3D
310
3D3D3D3D3D3D3D3D3D3D46464646464645454545454545454544444444444444
310
4444383838434343DEDEDEFFFFFFFFFFFFFEFEFE0000D0D0D0CCCCCCCFCFCFDE
310
DEDEF4F4F4FFFFFFFFFFFFFFFFFFFFFFFFFFFFFFFFFFFFFFFFFFFFFFFFFFFFFF
310
FFFFFFFFFFFFFFFFFFF6F6F6FFFFFFF7F7F7FEFEFEFFFFFFBFBFBF8686868A8A
310
8A8686868C8C8C9090908A8A8A8A8A8A8C8C8C8484849C9C9C8B8B8B909090FF
310
FFFFFFFFFFF9F9F9F9F9F9FFFFFFFFFFFFFFFFFFFFFFFFFFFFFFFFFFFFFFFFFF
310
FFFFFFFFFFFFFFFFFFFFFFFFFFFFFFFFFFFFFFFFFFFFFFFFFFFFFFFFFFFFFFFF
310
FFFDFDFDFAFAFAFFFFFFFFFFFFDFDFDF7373730D0B0A04010004010000010000
310
010200030801050A0003070101010D0805090100170E05120900090100080300
310
0601020F08056A5A4DC6B2A0F5E1CFE2CDB8D8C3ADE9D4BEEFDAC4E0CFBAFFFF
310
F0FFFFF0DFD6CC88857D3E3F3D1B1F20060C110000040000010000000001010A
310
0C0C000000080A0AFDFFFF595B5B4B4B4B4B4B4B4C4C4C4E4E4E505050515151
310
5252525353534F4F4F4F4F4F4F4F4F4F4F4F4F4F4F4F4F4F4F4F4F4F4F4F5151
310
515151515151515151515151515151515151515151514C4C4C4E4E4E50505051
310
51515151515050504E4E4E4C4C4C545454545454545454545454545454545454
310
5454545454545050505050505050504F4F4F4E4E4E4E4E4E4D4D4D4D4D4D4545
310
45404040F3F3F3FCFCFCFDFDFDEEEEEE0000D9D9D9D9D9D9D2D2D2CACACACFCF
310
CFE3E3E3F8F8F8FFFFFFFAFAFAFFFFFFFFFFFFFCFCFCF8F8F8FBFBFBFFFFFFFF
310
FFFFFFFFFFF8F8F8FFFFFFFFFFFFEFEFEFFFFFFFF8F8F89C9C9C858585858585
310
8484849292928181817F7F7F9A9A9A7C7C7C878787888888949494FFFFFFFFFF
310
FFFDFDFDFEFEFEFEFEFEFFFFFFFFFFFFFFFFFFFFFFFFFFFFFFFFFFFFFFFFFFFF
310
FFFFFFFFFFF6F6F6FFFFFFFBFBFBFFFFFFFAFAFAFFFFFFF7F7F7FDFDFDFAFAFA
310
FEFEFEDFDFDF5C5C5C0000000C0C0C0200000401000E0B06070806090D0E050A
310
0D00010605080C030303060100070100160E0719110A0500000D08090A0B0F00
310
0001130A060C0200675B4FCDC0B2CCBDADFFF0E0FFFAE8EADDCD695E502D241A
310
07020007060200020200000300070E0000050408090000000606060606060D0D
310
0D040404EFEFEF6969694C4E4E4D4F4F4F51515153535153534F51514D4F4F4C
310
4E4E5454545252525050505151515252525353535353535252524E4E4E4F4F4F
310
5151515353535353535151514F4F4F4E4E4E4F4F4F5050505050505151515151
310
515252525252525353535454545454545454545454545252525151514F4F4F4E
310
4E4E5454545353535252525151515151515252525353535454545151513D3D3D
310
ECECECFFFFFFF8F8F8FFFFFF0000CCCCCCD8D8D8DCDCDCD1D1D1C7C7C7CFCFCF
310
E4E4E4F5F5F5FFFFFFFFFFFFFAFAFAF8F8F8FEFEFEFFFFFFFFFFFFFBFBFBFFFF
310
FFF7F7F7FFFFFFFFFFFFF7F7F7FFFFFFFFFFFFCBCBCB8181818686867C7C7C86
310
86868787878989897777778F8F8F878787888888949494FFFFFFFFFFFFFDFDFD
310
FEFEFEFEFEFEFFFFFFFFFFFFFFFFFFFFFFFFFFFFFFFFFFFFFFFFFFFFFFFFFCFC
310
FCFFFFFFF8F8F8F4F4F4FBFBFBFFFFFFF6F6F6FFFFFFFFFFFFF5F5F583838301
310
01010000001010100909090806050D0A050B0803000100000203000407000003
310
0204050200000B0702170F080901000901000904010A07090000042021250200
310
001B16130701006A625BFFFFF8D0C7BE4E453B0F06000902000701000703000E
310
0D0906080801060903090E000005090B0C0404040A0A0A000000000000000000
310
FFFFFF626262494B4B4B4D4D4C4E4E4E50504E50504C4E4E4B4D4D494B4B5151
310
514F4F4F4E4E4E4E4E4E4F4F4F5050505050504F4F4F4B4B4B4D4D4D4E4E4E50
310
50505050504E4E4E4D4D4D4B4B4B515151515151515151515151525252525252
310
5252525252525050505151515151515151515050504F4F4F4D4D4D4D4D4D5050
310
504F4F4F4F4F4F4E4E4E4E4E4E4F4F4F4F4F4F5050504545453E3E3EEBEBEBFF
310
FFFFFEFEFEFFFFFF0000D2D2D2D4D4D4D2D2D2CFCFCFCFCFCFD3D3D3D5D5D5D4
310
D4D4E8E8E8F5F5F5FFFFFFFFFFFFFDFDFDFDFDFDFFFFFFFFFFFFFFFFFFF9F9F9
310
FEFEFEFFFFFFFDFDFDFFFFFFFFFFFFFAFAFAA7A7A78181818585858585858F8F
310
8F8B8B8B767676979797878787888888949494FFFFFFFFFFFFFDFDFDFEFEFEFE
310
FEFEFFFFFFFFFFFFFFFFFFFFFFFFFFFFFFFFFFFFFFFFFFFFFFFFFAFAFAFCFCFC
310
FFFFFFF7F7F7FFFFFFF6F6F6FFFFFFFFFFFFD0D0D02323230000000808080707
310
070202020000000405030504001615110A0C0C0105060000030001051010100B
310
08040701001D140A170D030B020017110C040000121115000004000203030303
310
CCCCCCEEECEB5B57560501000E0906050000181511100D090704000200000001
310
000303030608080A0A0A0303030200000A08080200000B0B0B0B0B0BFFFFFF5E
310
5E5E4B4D4D4C4E4E4D4F4F4E50504C51504B504F4A4F4E4B4D4D525252505050
310
4E4E4E4E4E4E5050505151515151515050504D4D4D4E4E4E4F4F4F5050505050
310
504F4F4F4E4E4E4D4D4D5050505050505050505050505050504F4F4F4F4F4F4F
310
4F4F4F4F4F5050505151515151515151515050505050504F4F4F4E4E4E4E4E4E
310
4F4F4F4F4F4F4F4F4F4F4F4F4E4E4E4E4E4E4C4C4C4E4E4EE3E3E3FEFEFEF9F9
310
F9FDFDFD0000D9D9D9D3D3D3CECECED0D0D0D8D8D8D9D9D9D1D1D1C7C7C7CDCD
310
CDE1E1E1F8F8F8FFFFFFFEFEFEFAFAFAFCFCFCFFFFFFFFFFFFFFFFFFFDFDFDFE
310
FEFEFFFFFFFBFBFBFDFDFDFFFFFFE7E7E78383838E8E8E8B8B8B8D8D8D7D7D7D
310
939393878787878787888888949494FFFFFFFFFFFFFDFDFDFEFEFEFEFEFEFFFF
310
FFFFFFFFFFFFFFFFFFFFFFFFFFFFFFFFFFFFFFFFFFFFFDFDFDF5F5F5FFFFFFFB
310
FBFBFFFFFFFFFFFFF7F7F7A7A7A7030303020202121212080808000000020202
310
0000000F100E0001000001000001001317181B2023242829757674C4C0BBAAA1
310
97887C7061544633271B130902070000161113030206101115F7FBFCBEC0C111
310
13140000011416170000010808080402020200000502000E0B071F1B16322C25
310
3E3831544E49605C5B5755555A5858514F4F585858525252EEEEEE5757573F41
310
413F41414042424143433F44433E43423D42413D424143454543434341414141
310
4141434343444444444444434343414141414141424242434343434343424242
310
4141414141414343434343434242424141414141414040404040404040404141
310
414141414343434343434444444444444444444343433F3F3F40404041414142
310
42424242424141414040403F3F3F3A3A3A4C4C4CD2D2D2FDFDFDFFFFFFFFFFFF
310
0000CFCFCFD4D4D4D9D9D9D9D9D9D3D3D3CFCFCFD1D1D1D6D6D6D1D1D1CFCFCF
310
D6D6D6E8E8E8FDFDFDFFFFFFFFFFFFF6F6F6FAFAFAFFFFFFFFFFFFFAFAFAFFFF
310
FFFFFFFFFBFBFBFFFFFFFFFFFFADADAD7F7F7F8989898282827B7B7B9696967D
310
7D7D878787888888949494FFFFFFFFFFFFFDFDFDFEFEFEFEFEFEFFFFFFFFFFFF
310
FFFFFFFFFFFFFFFFFFFFFFFFFFFFFFFFFFFFFEFEFEFFFFFFF3F3F3FBFBFBFEFE
310
FEFFFFFF8D8D8D12121202020200000000000000000007070700000009090902
310
02021C1D1B4043414E53524A4F503D40445B5D5EBEBCBBFFFFF9FAF1E4E5D6C6
310
E8D8C7F6E6D5BDAFA38A81780700003C3738FFFFFF8688890000010004050000
310
03000003000003040509000000393736A39F9AE1DAD1FEF5E8FFFFF2FFFFF1FF
310
FFF4FFFAF5FFFEFFFFFFFFFFFFFFFEFCFCF7F5F5FFFFFFD7D7D7E2E4E4E3E5E5
310
E1E6E5E1E6E5E1E6E5E1E6E5E0E6E5E0E5E4E6E8E8E6E6E6E4E4E4E4E4E4E6E6
310
E6E7E7E7E6E6E6E5E5E5E4E4E4E5E5E5E5E5E5E5E5E5E5E5E5E5E5E5E5E5E5E4
310
E4E4E9E9E9E9E9E9E8E8E8E8E8E8E7E7E7E6E6E6E6E6E6E6E6E6E3E3E3E4E4E4
310
E5E5E5E6E6E6E7E7E7E7E7E7E7E7E7E7E7E7E2E2E2E3E3E3E4E4E4E5E5E5E5E5
310
E5E4E4E4E3E3E3E2E2E2F0F0F0DFDFDFFFFFFFFCFCFCF4F4F4F8F8F80000D3D3
310
D3D1D1D1D2D2D2D5D5D5D5D5D5D3D3D3D4D4D4D7D7D7D6D6D6CECECECBCBCBD6
310
D6D6E7E7E7F4F4F4FAFAFAFDFDFDF7F7F7FFFFFFFFFFFFFBFBFBFFFFFFFFFFFF
310
FFFFFFFAFAFAFFFFFFF2F2F28383838787878080808F8F8F8080808B8B8B8787
310
87888888949494FFFFFFFFFFFFFDFDFDFEFEFEFEFEFEFFFFFFFFFFFFFFFFFFFF
310
FFFFFFFFFFFFFFFFFFFFFFFFFFFFFFFFFFFBFBFBFFFFFFFFFFFFFFFFFF878787
310
1717170000000000002626260909090000000909090000001414143232324A4D
310
4B4E53523E434451565795989CE5E7E7FFFFFCFFFFF8F5E8D8D9CAB7CCB9A4D9
310
C6B1DECEBEC9BBAFF0E6DFFFFCF7757372020301020404000001080D1005090E
310
070B1026292DDDDFE0E4E1DDFFFFF8EEE3D5D0BFACE4D0B7E3CBAFD5C0AAD8CE
310
C7E9E4E5FFFEFEFFFFFFFFFEFEFFFFFFF5F5F5FFFFFFFDFFFFFDFFFFFBFFFFFB
310
FFFFFBFFFFFBFFFFFAFFFFFBFFFFFDFFFFFFFFFFFEFEFEFEFEFEFFFFFFFFFFFF
310
FFFFFFFFFFFFFFFFFFFFFFFFFFFFFFFFFFFFFFFFFFFFFFFFFFFFFFFFFFFFFFFF
310
FFFFFFFFFFFFFFFFFFFFFFFFFFFFFFFFFFFFFFFFFFFFFDFDFDFEFEFEFFFFFFFF
310
FFFFFFFFFFFFFFFFFFFFFFFFFFFFFDFDFDFEFEFEFEFEFEFFFFFFFFFFFFFEFEFE
310
FEFEFEFDFDFDF2F2F2F0F0F0FEFEFEFFFFFFFFFFFFFFFFFF0000DCDCDCD1D1D1
310
CACACAD1D1D1D9D9D9D9D9D9D3D3D3D0D0D0D3D3D3D0D0D0D0D0D0D1D1D1D2D2
310
D2D7D7D7E8E8E8FAFAFAFBFBFBFEFEFEFFFFFFFFFFFFFFFFFFFFFFFFFFFFFFFC
310
FCFCF8F8F8FFFFFFBDBDBD8C8C8C8585859595957E7E7E949494878787888888
310
949494FFFFFFFFFFFFFDFDFDFEFEFEFEFEFEFFFFFFFFFFFFFFFFFFFFFFFFFFFF
310
FFFFFFFFFFFFFFFFFFFFFFFFFFECECECFFFFFFFFFFFFB5B5B512121200000014
310
14141515150000000000000C0C0C060606242424545454515151404242636867
310
A5AAABF9FEFFFBFFFFEEEEEEF4F0EBFFFFF7E8DAC8DFCCB7DEC8AFD7C2ACE4D0
310
BECDBDADFFFDF3736A6105010008070300010004060600000400000491979EFA
310
FEFF848484716D68BBB1A7DCCCBBD7C0A6F0D4B5ECCCA8D9BFA1CCC2B8D9D4D5
310
F8F3F4FFFEFFFBF9F9FCFAFAF0F0F0FFFFFFFCFEFEFBFDFDF9FEFDF8FDFCF7FD
310
FCF8FEFDF8FEFDFAFFFEFDFFFFFDFDFDFBFBFBFBFBFBFDFDFDFEFEFEFEFEFEFD
310
FDFDFEFEFEFDFDFDFDFDFDFCFCFCFCFCFCFDFDFDFDFDFDFEFEFEFAFAFAFAFAFA
310
FBFBFBFBFBFBFBFBFBFBFBFBFCFCFCFCFCFCFCFCFCFCFCFCFDFDFDFEFEFEFEFE
310
FEFEFEFEFDFDFDFDFDFDFDFDFDFDFDFDFCFCFCFCFCFCFCFCFCFCFCFCFDFDFDFD
310
FDFDFFFFFFFFFFFFFBFBFBFCFCFCFEFEFEFBFBFB0000D7D4D6D8D5D7DDDADCDD
310
DADCD3D2D4CBCACCCFCED0D7D9DAD6D8D9C9CDCEC2C5C9C6CBCCCCD1D4D0D5D6
310
D2D9DCD9DEDFFDFFFFFAFBF9FDFEFCFFFFFEFCFDFBFAFBF9FFFFFEFFFFFEFEFC
310
FBFFFFFEFFFFFE918F8E888685878584918F8E8A8B89878787888888949494FF
310
FFFFFFFFFFFDFDFDFEFEFEFEFEFEFFFFFFFFFFFFFFFFFFFFFFFFFFFFFFFFFFFF
310
FFFFFFFFFFFFFFFFFFFFFDFDF3F1F1F4F2F20301010C090B0603050200010200
310
010F0C0E0F0D0D0200003331304F4D4C3E3C3B646563C3C5C5F4F8F9FBFFFFF6
310
FAFBF3F5F5FFFFFEFFFFF9FCF3E6F2E3D3D6C5B2D9C6B1D8C5B0D4C2B1FFFFF4
310
867A700C05000906010506020F0D0C020000191416E0DCE1DDDBE126272B0D0F
310
10020100746F66DCD2C1DFCBB2DFC2A3E5C09AF5D4B3D6C3B4D5C9C3F0E8E1FF
310
FEF9FFFFFCFFFEFDFFFFFFF5F7F8FCFEFFFCFEFFFBFDFEFBFDFEFBFDFDF9FEFD
310
FAFFFEFAFFFEFFFFFFFDFDFDFCFCFCFCFCFCFDFDFDFEFEFEFEFEFEFDFDFDFEFE
310
FEFEFEFEFDFDFDFDFDFDFDFDFDFDFDFDFEFEFEFEFEFEFDFDFDFDFDFDFEFEFEFE
310
FEFEFFFFFFFFFFFFFFFFFFFFFFFFFDFDFDFDFDFDFEFEFEFEFEFEFEFEFEFEFEFE
310
FDFDFDFCFCFCFFFFFFFEFEFEFDFDFDFCFCFCFCFCFCFDFDFDFEFEFEFFFFFFF6F6
310
F6FFFFFFF5F5F5FCFCFCFFFFFFFDFDFD0000DFD4DCDBD3DAD9D0DAD8D0DAD8D3
310
DCD8D5DED6D5DED2D5DDD5DBE2CFD9E0CBD6DEC6D4DAC3D3DAC0D3D8BFD2D9C5
310
D4D7D4D9D8F0EFEBFFFFFCFFFFFBFEFDF9FFFFFCFFFFFCFFFFFCFFFFFBF1F1EB
310
FFFFFBF7F4EF787570918E898E8C8482827C8C8D8B898C8A939694FCFFFDFFFF
310
FEFDFEFCFFFFFFFFFFFFFBF9F9FFFFFFFFFEFFFFFBFDFFFAFCFFFEFFFFFEFFFF
310
F9FAFFFEFFFFF9F9FFFEFF322A2B0E05080700030A000610060C0900050C0208
310
090003292121534C498D8782DED8D3FFFCF8FDFFFFFBFFFFFDFFFFFFFFFFFFFF
310
FEFFFFFBFFFFF8FFFFF7F4E9DBC8BDAFD8CBBDCEC3B5FFFBEEBDB4AA11090202
310
0200000605000707110F0F0B0000F2DFE2D8C3C618090D080207000003081212
310
000200888C81E7DDCBDFC5ADEDC5A8F4C8ABE8C7ADE5CDB7DDCCB9FFFFF2FFFF
310
F8FEFDF9FDFFFFFAFDFFFDFDFFFDFCFFFFFDFFFFFDFFFFFEFFFFFFFFFFFFFEFF
310
FFFEFFFFFFFFFFFFFFFFFFFFFFFFFFFFFFFFFFFFFFFFFFFFFFFFFFFFFFFFFFFF
310
FFFFFFFFFFFFFFFFFFFFFFFFFFFFFFFFFFFFFFFFFFFFFFFFFFFFFFFFFFFFFFFF
310
FFFFFFFFFFFFFFFFFFFFFFFFFFFFFFFFFFFFFFFFFFFFFFFFFFFFFFFFFFFFFFFF
310
FFFFFFFFFFFFFFFFFFFFFFFFFFFFFFFFFFFFFFFFFFFFFFFFFFFFFFFFFFFFFFFF
310
FFFFFFFFFFFFFFFFFFFFFFFF0000D9D5DBD9D5DBD9D5DBD8D6DCD8D6DCD4D2D8
310
CCCDD1C6C9CDCCD1D4CED3D6CFD6D9D1D8DBCED8D8C9D5D5C5D1D1C5D0CECED1
310
CFCECFCDE2E3DFFFFFFCFFFFFCFCFDF9F8F7F3FFFFFBFFFFFBFFFFFAFFFFFBF5
310
F5EFC8C5C07B787394928A8686808A8B87888B89939694FCFFFDFFFFFEFDFEFC
310
FFFFFFFFFFFFFFFFFFFDFBFBFFFDFFFFFEFFFFFBFDF7F2F4FEF7FAFFFEFFF3EE
310
EDFFFFFE8A85840A05061A13160701060B0409040003050004211B20221C1D92
310
8E8DFAF5F2F6F4ECFFFFF9FFFFFBFDFFFFFBFFFFFFFEFFFFFFFEFFFFFCFFFFF9
310
FFFFF8FFFFF7F3E9DFC9C0B6C6BDB3E2DBD2F8F1E82620190501000F100C0410
310
10000101040000F4E2E3FFFBFB2102051300000B0003010609000103000F0E2C
310
3630C3BDB0DFC7B3F0C6AFEFBFA3EFC8A8EDCEAFE1CAB0FFF5DFFFFFF4FCFDF4
310
FCFEFEFBFEFFFDFCFFFFFBFFFFFCFFFFFCFFFFFDFFFFFEFFFFFFFEFFFFFEFFFF
310
FFFFFFFFFFFFFFFFFFFFFFFFFFFFFFFFFFFFFFFFFFFFFFFFFFFFFFFFFFFFFFFF
310
FFFFFFFFFFFFFFFFFFFFFFFFFFFFFFFFFFFFFFFFFFFFFFFFFFFFFFFFFFFFFFFF
310
FFFFFFFFFFFFFFFFFFFFFFFFFFFFFFFFFFFFFFFFFFFFFFFFFFFFFFFFFFFFFFFF
310
FFFFFFFFFFFFFFFFFFFFFFFFFFFFFFFFFFFFFFFFFFFFFFFFFFFFFFFFFFFFFFFF
310
FFFFFFFFFFFFFFFF0000C5D2D0C5D2D0C9D4D2CDD6D3D2D9D6D4D8D3D4D6D0D5
310
D3CBDAD8CEDDD7CCDED4CAE1D3C7E3D3C6E4D4C7E7D7C7E3D7CBD3D0CCCDCFCF
310
CFD1D1D8DADAEAECECFAFCFCFFFFFFFDFDFDFFFFFEFFFFFEFFFFFEF5F6F4FFFF
310
FE8A8B89848583929391888987898A88949593FEFFFDFFFFFEFEFFFDFFFFFFFF
310
FFFFF3F3F3FFFFFFFFFFFFFFFFFFFFFEFEFFFFFFFFFEFFFEFFFDFDFFFCF8FFF9
310
0F151000020004090700040303070800000106090D2B3031FAFFFEFAFFFEDDE3
310
DEFAFFF9FBFFF9F5FCF5FBFFFFFBFFFFFFFEFFFFFFFEFFFFFCFFFFFBFFFFF9FF
310
FFF8EDE4DBCCC3BACEC5BCFFFFF8706A630501000F0B06030400000200000400
310
BCB3AFFFFDF8D9BAB7A98A892E161616090B000001000305000201000802635D
310
52F7E1CFEBC2ACF6C7ACF1C8A8F0CDACE2C7ACEEDEC7FFFFF2FDFBF1FCFDFBFD
310
FFFFFDFDFFFFFCFFFFFCFFFFFCFFFFFDFFFFFFFFFFFFFEFFFFFEFFFFFFFFFFFF
310
FFFFFFFFFFFFFFFFFFFFFFFFFFFFFFFFFFFFFFFFFFFFFFFFFFFFFFFFFFFFFFFF
310
FFFFFFFFFFFFFFFFFFFFFFFFFFFFFFFFFFFFFFFFFFFFFFFFFFFFFFFFFFFFFFFF
310
FFFFFFFFFFFFFFFFFFFFFFFFFFFFFFFFFFFFFFFFFFFFFFFFFFFFFFFFFFFFFFFF
310
FFFFFFFFFFFFFFFFFFFFFFFFFFFFFFFFFFFFFFFFFFFFFFFFFFFFFFFFFFFFFFFF
310
FFFFFFFF0000C9DACFC5D6CBC0D1C6C2D0C5C7D3C7CED6CBD6DACFDBDAD0DEDA
310
CFE2D9CFE4D8CEE5D6CDE8D6CBEBD7CCEDD9CEE9D9D2DBD7D6D6DADBCBCED2BE
310
C2C3CACDD1E9EDEEFDFEFFFBFDFEFDFFFFFDFFFFFDFFFFFAFCFDFBFDFEC9CBCC
310
787A7B979999868785878886939492FEFFFDFFFFFEFEFFFDFFFFFFFFFFFFFFFF
310
FFFCFCFCF2F2F2FBFBFBFFFFFFFFFFFFFAFAFAF7FAF8EBF6EE7D8B8000040004
310
100A000300000502000A08000303000A0AF6FFFFF4FFFCEEF9F6F6FFFCDFECE4
310
F6FFF9F5FFF8FAFFFFFBFEFFFDFFFFFFFFFFFFFFFEFFFFFCFFFFF9FFFFF9E9E1
310
DAC7BFB8F6EEE7D9D3CC050100100D0915120E020100070B05606157FDF1E7E6
310
D0C5E8C7BEF4D2CC664B471203010000000C1616000200000A04100A00D6C1B2
310
EEC9B5F5C7AFF1C5A6F1CBABE4C8AAE0CCB3FFFFF2FFFCF1FCFBF7FFFFFFFFFD
310
FFFFFCFFFFFCFFFFFDFFFFFDFFFFFFFFFDFFFFFBFFFEFFFFFFFFFFFFFFFFFFFF
310
FFFFFFFFFFFFFFFFFFFFFFFFFFFFFFFFFFFFFFFFFFFFFFFFFFFFFFFFFFFFFFFF
310
FFFFFFFFFFFFFFFFFFFFFFFFFFFFFFFFFFFFFFFFFFFFFFFFFFFFFFFFFFFFFFFF
310
FFFFFFFFFFFFFFFFFFFFFFFFFFFFFFFFFFFFFFFFFFFFFFFFFFFFFFFFFFFFFFFF
310
FFFFFFFFFFFFFFFFFFFFFFFFFFFFFFFFFFFFFFFFFFFFFFFFFFFFFFFFFFFFFFFF
310
0000E6F2DCDEEBD5D5E1CDCEDAC8CCD6C6CAD2C7C9D1C7C9CFCAC9CECCCDD1D2
310
D2D5D9D7D9E1D8D9E3D6D7E1D2D2DECFD0DAD4D7DCCCCFD3CFD2D7D8DBDFD4D7
310
DCCBCED2D6D9DEEBEEF2F4F7FBFAFDFFFBFEFFFBFEFFEFF2F6F4F7FB9A9DA183
310
8788838585878886939492FEFFFDFFFFFEFEFFFDFDFFFEFDFFFEF0F3F1FDFFFE
310
FDFFFEFAFDFBF9FCFAFDFFFEFAFDFBE2E8E36A756B000C0100050005120A0005
310
00000906000B08000200A5B0AEF0FBF9F0FBF8E9F4F1F6FFFCF6FFFBF6FFFBF7
310
FFFBFAFFFFFBFEFFFDFFFFFFFFFFFFFFFEFFFFFCFFFFFCFFFFFBE8E2DDC9C5C0
310
FFFFFB5A55520F0C08120E0D0400000D0A05040400FFFFF2ECDCCBD4BAAAEDCA
310
BCE8C6B9DABFB5100000050400091110000705000400070200665548FDDBCBE8
310
BEA7F0C4A5F3CAA9EACBACDAC5AAFFFCEAFFFFF3FDFAF5FFFDFCFFFDFFFFFDFF
310
FFFDFFFFFDFFFFFEFFFDFFFFFAFFFFFAFFFEFDFFFFFFFFFFFFFFFFFFFFFFFFFF
310
FFFFFFFFFFFFFFFFFFFFFFFFFFFFFFFFFFFFFFFFFFFFFFFFFFFFFFFFFFFFFFFF
310
FFFFFFFFFFFFFFFFFFFFFFFFFFFFFFFFFFFFFFFFFFFFFFFFFFFFFFFFFFFFFFFF
310
FFFFFFFFFFFFFFFFFFFFFFFFFFFFFFFFFFFFFFFFFFFFFFFFFFFFFFFFFFFFFFFF
310
FFFFFFFFFFFFFFFFFFFFFFFFFFFFFFFFFFFFFFFFFFFFFFFFFFFFFFFF0000FAFF
310
EFF7FDECF2F9EAEEF5E8E9EFE4E0E8DED7DED9D2D9D6CBD3D3C8CFD2C2CAD1BD
310
C6CFBEC7D1C1CAD7C7D0DDCCD5DFC8CBD3D2D3D7DBDCE0DADBDFD0D1D5C7C8CC
310
CBCBD1D5D6DAE4E4EAF9F9FFF9F9FFFDFDFFFDFDFFF6F9FEDBDEE37E81858385
310
85878886939492FFFFFEFFFFFEFDFEFCFCFFFDFBFEFCFDFFFEFAFFFDF4F9F7FB
310
FFFEFBFFFEF7FCFA9CA19F3C433E1F27200004000109020003000C130E000401
310
0209061F2524FAFFFFECF2F1FAFFFFFAFFFFEDF4F1F2F9F6F1F8F3FAFFFEFBFF
310
FFFBFEFFFDFFFFFDFFFFFFFFFFFFFFFEFFFFFEFFFFFCE4E1DDDDDAD6EDEAE615
310
13120D09080200000B0908050200837F6DFFFFEDD6C1ABF7DAC5EAC7B3EBCAB7
310
EED3C59281780501000001000008070006030D0A021E0E02E8CBBCF0CBB5F2C6
310
A7F4CAA7EDCBADDBC4AAFCEDDAFFFFF4FFFCF4FDFCF8FFFEFFFFFDFFFFFDFFFF
310
FEFFFDFFFFFAFFFFF8FFFFF8FFFEFDFFFFFFFFFFFFFFFFFFFFFFFFFFFFFFFFFF
310
FFFFFFFFFFFFFFFFFFFFFFFFFFFFFFFFFFFFFFFFFFFFFFFFFFFFFFFFFFFFFFFF
310
FFFFFFFFFFFFFFFFFFFFFFFFFFFFFFFFFFFFFFFFFFFFFFFFFFFFFFFFFFFFFFFF
310
FFFFFFFFFFFFFFFFFFFFFFFFFFFFFFFFFFFFFFFFFFFFFFFFFFFFFFFFFFFFFFFF
310
FFFFFFFFFFFFFFFFFFFFFFFFFFFFFFFFFFFFFFFFFFFFFFFF0000FEFDFFFFFEFF
310
FFFEFFFFFEFFFFFEFFFCFEFFF6F8F9F0F5F4E9EEEDE0E5E3D4D9D7C8CFCAC4CB
310
C6C6D1C9CDD8D0D5DCD7C8C8C8DBD8DADCD9DBCCC9CBC9C6C8D7D4D6D8D7DBCD
310
CCCED8D7DBE1E0E4F0EFF3FCFBFFFFFEFFFBFCFFFDFEFFAFB0B4868686878787
310
949494FFFFFFFDFFFEFBFEFCFAFDFBF9FCFAFAFFFBF4FAF5FBFFFCFAFFFCAFB6
310
B1454C472C332E545A552E2F2B1A17120F0C080400000E0A090500010500019A
310
9597FAF5F7FFFBFDFFFBFDFFFCFEFFFCFEFFFEFFFFFEFFFEFBFDFFFEFFFDFEFF
310
FDFFFFFDFFFFFFFFFFFFFFFFFFFFFFFFFFFEE1DFDEF1EFEE9A98971111110200
310
00000000191919090600FFF5E3F4E5CBD5BCA2F3D5BAD8B49CE6C4ADE5C9B8CE
310
BDB0120C050105000002000308060805001509009B8377FDDCC9F4CAADF3C8A7
310
EBC9ABDEC5ABE9D8C3FFFFF4FFFDF4FFFCF7FFFFFFFFFEFFFFFEFFFFFEFFFBFF
310
FFF8FFFFF6FFFFF6FFFFFBFFFFFFFFFFFFFFFFFFFFFFFFFFFFFFFFFFFFFFFFFF
310
FFFFFFFFFFFFFFFFFFFFFFFFFFFFFFFFFFFFFFFFFFFFFFFFFFFFFFFFFFFFFFFF
310
FFFFFFFFFFFFFFFFFFFFFFFFFFFFFFFFFFFFFFFFFFFFFFFFFFFFFFFFFFFFFFFF
310
FFFFFFFFFFFFFFFFFFFFFFFFFFFFFFFFFFFFFFFFFFFFFFFFFFFFFFFFFFFFFFFF
310
FFFFFFFFFFFFFFFFFFFFFFFFFFFFFFFFFFFFFFFF0000FFFDF9FFFEF9FFFCF7FF
310
FCF7FFFFF8FFFFF8FFFFF8FFFFF7FFFFF7FFFFF7FFFFF4FBFEEFF0F5E6E2E9DA
310
D6DDCED0D4C8D2CFCACCC5C2CEC6C6DBD6D5E5DDDDDDD8D7D7D2D1D8D3D4D6D1
310
D2C6C1C2E9E4E6F1ECEEF4F1F3FFFEFFFFFDFFF1EEF0868686888888959595FF
310
FFFFFDFFFEFAFDFBF9FCFAF8FBF9F2F8F3FBFFFCEAF0EB7C837E323934555D56
310
B2B9B4F4FAF53632310500000E0607110B0C070001110A0D070001FFFDFFFFFC
310
FFFFFDFFFBF1F7FFFDFFFFFCFFF8F0F7FFFBFFFFFCFFFFFDFFFDFFFFFDFFFFFD
310
FFFFFFFFFFFFFFFFFFFFFFFFFFFFE6E6E6F7F7F7545454030303090909080808
310
010101312E26FFFFF0D9C6ABF2D7BCE1C3A6E8C5ABEECCB4E9CEBAE6D5C83932
310
290F100C0D1210000100110E09110800513E36F2D6C5F5CEB2F0C7A7E7C7AADE
310
C5ABD8C9B6FFFFF4FFFEF5FFFDF8FFFFFEFFFFFFFFFEFFFDFFFFFBFFFFF8FFFF
310
F4FFFFF6FFFFFBFFFFFFFFFFFFFFFFFFFFFFFFFFFFFFFFFFFFFFFFFFFFFFFFFF
310
FFFFFFFFFFFFFFFFFFFFFFFFFFFFFFFFFFFFFFFFFFFFFFFFFFFFFFFFFFFFFFFF
310
FFFFFFFFFFFFFFFFFFFFFFFFFFFFFFFFFFFFFFFFFFFFFFFFFFFFFFFFFFFFFFFF
310
FFFFFFFFFFFFFFFFFFFFFFFFFFFFFFFFFFFFFFFFFFFFFFFFFFFFFFFFFFFFFFFF
310
FFFFFFFFFFFFFFFFFFFFFFFFFFFFFFFF0000A96C40A66A40B27A51D19D75F1C0
310
9AFFD8B5FFECCCFFFDE0FFFFE5FFFFEBFFFFEFFFFFEFFFFFF2FFFFF5FFFFF7FF
310
FFF8FFF8EFF2E7DFDFD3CDD4CAC3D5C9C3D8CEC7D9CFC8D5CCC8D2C9C5DAD1CD
310
D6CFCCD1CAC7E3DBDBFFFBFBFFFFFEFFFBFABCBABA858585939393FEFEFEFDFF
310
FEF8FBF9FDFFFCFBFFFAFBFFFAB0B4AF31352F4E554EC9D0C9F9FFF7F5FCF5EC
310
F0EB040202040003171015040003171015090308453E43FFFAFFFCF4FBFFFBFF
310
FFFCFFFFFBFFFFFAFFFFFBFFFFFAFFFDF6FDFFFEFFFFFFFFFFFFFFFEFEFEFEFE
310
FEFEFEFEFBFDFEFBFDFEE3E5E6FDFFFF0B0D0E0608090000010403050B0B0B81
310
7E76FFF5E2E7D4B9D9C1A5E7CBADECCEB1E0C2A9DEC5B1E7D7C7857E75020100
310
0C0E0E000101020100120C0522120BDDC6B7E3BFA7FBD4B8ECCEB3DAC3ADDACC
310
B9F2EBDCFEF9F0FFFFFBFFFFFCFFFFFFFFFFFFFFFFFFFBFFFFF8FFFFF4FFFFF6
310
FFFEFBFFFFFFFFFFFFFFFFFFFFFFFFFFFFFFFFFFFFFFFFFFFFFFFFFFFFFFFFFF
310
FFFFFFFFFFFFFFFFFFFFFFFFFFFFFFFFFFFFFFFFFFFFFFFFFFFFFFFFFFFFFFFF
310
FFFFFFFFFFFFFFFFFFFFFFFFFFFFFFFFFFFFFFFFFFFFFFFFFFFFFFFFFFFFFFFF
310
FFFFFDFDFDFDFDFDFDFDFDFDFDFDFDFDFDFDFDFDFDFDFDFDFDFDFFFFFFFFFFFF
310
FFFFFFFFFFFFFFFFFFFFFFFF0000C78C5AAD7240915928844E1F7B491B75481D
310
7A4F287F593681603F8F7355A58E74BDAB94D9C8B5F0E2D0FCF0DEFEF4E3FFFC
310
EEFFFFF3FFFFF5FFFFF5FFFDF1FAEEE4EADED4DDD2CADED3CBD9CFC8DBD1CADF
310
D6D2DFD6D2E3DAD6F4EDEAFFFFFCFFFFFF7575758F8F8FFFFFFFEDF0EEEEF1EF
310
FDFFFCE8ECE75C605B797B75BABCB6FFFFF9F3F8EFF7FCF3FDFFF9C4C8C20C0B
310
0D050309010005000003000003000003939294FFFEFFF9F8FAFCFBFFFBFAFEF6
310
F5F9F7F6FAFEFCFFFFFDFFFFFEFFFFFFFFFFFFFCFFFFFEFFFEFDFDFDFDFCFCFC
310
FBFAFCF8FAFBE1E3E4E1E3E407090A010304080709070707020202C4C0BBF3E6
310
D6E1CFB8D6C1A6DFC7ABE3C8ADDAC1A7D8C3AEDFD0C0AAA39A0A0703080A0A0B
310
0D0E090706060200160C05C9B8ABE0C1ACE6C4ACDCC1ACD4C1ACD1C7B6FFFDF0
310
F8F6ECFFFFFBFFFFFCFFFFFEFFFFFFFFFFFFFBFFFFF8FFFEF6FFFEF6FFFEFBFF
310
FFFFFFFFFFFFFFFFFFFFFFFFFFFFFFFFFFFFFFFFFFFFFFFFFFFFFFFFFFFFFFFF
310
FFFFFFFFFFFFFFFFFFFFFFFFFFFFFFFFFFFFFFFFFFFFFFFFFFFFFFFFFFFFFFFF
310
FFFFFFFFFFFFFFFFFFFFFFFFFFFFFFFFFFFFFFFFFFFFFFFFFFFFFFFFFFFFFFFF
310
FFFFFFFFFFFFFFFFFFFFFFFFFFFFFFFFFFFFFFFFFFFFFFFFFFFFFFFFFEFEFEFD
310
FDFDFDFDFDFDFDFD0000FFFFE9FFFDE1FFFBE0FFFEE2FFF6DAFBE0C5EBCFB1E4
310
C6A9BA9A7DB49275A47F63936C508961458C62458F654888654B816B598F8070
310
AE9E91CBBEB0E4D7C9F8ECE0FFFFF3FFFFF7F4EAE0F8EFE6F6EDE4E5DBD4CCC4
310
BDC3BBB4D2C9C5E2DDDAFFFFFFD1D3D48B8D8DF2F4F4FFFFFEFFFFFE9798946B
310
6C68E0E2DCF0F0EAFFFFFBFFFFF9F7F8EFFEFFF5FFFFF68C8E88000102000409
310
0000030C1414000202000201D7E0DDF0F9F6F8FFFEF8FFFEF8FFFEF8FFFEF8FF
310
FEF8FFFFF7FFFEF6FBFAF9F8F4FEFAF5FFFCF9FFFFFCFFFFFEFFFFFFFFFEFFFF
310
FEFFFDFFFFCCCECF060809000001010101000000020000EEEAE5E8DCD0E1D1C0
310
DDCAB5E0CBB5E0CCB3DDC8B2D9CAB7DBD0C2B3ABA4221E1D0000010000010200
310
0004010019130EA69A8EEBD2C2E1C8B4D8C4B2D5C8B8C8C2B5FFFFF5F3F3EDFF
310
FFFBFFFCFBFFFCFBFFFBFCFEFCFCFAFDFBF7FEFBF5FEFBF5FEFBFAFCFCFCFCFC
310
FCFCFCFCFCFCFCFCFCFCFCFCFCFCFCFCFCFCFCFCFCFCFCFCFCFCFCFCFCFCFCFC
310
FCFCFCFCFCFCFCFCFCFCFCFCFCFCFCFCFCFCFCFCFCFCFCFCFCFCFCFCFCFCFCFC
310
FCFCFBFBFBFBFBFBFBFBFBFBFBFBFBFBFBFBFBFBFBFBFBFBFBFBFDFDFDFDFDFD
310
FDFDFDFDFDFDFDFDFDFDFDFDFDFDFDFDFDFDFFFFFFFFFFFFFFFFFFFFFFFFFFFF
310
FFFFFFFF0000FFFFF5FFFFF3FFFFF3FFFFF4FFFFF4FFFFF2FFFDEBFFFCE9FFFF
310
F0FFFFEEFFFFEEFFFEEAFFF9E6FFF9E4FFF7E2FFF4E0FFF0DEF5E6D6E0D3C3C4
310
B7A9A89D8F988C80948B7E978D83B5ACA2B4ADA4C0B8B1D4CEC7EAE4DFF1EBE6
310
E9E3DEDDDAD6DADADAF3F5F6939595FDFFFFD8D9D7969795EDEEEAFFFFFCFCFC
310
F6FFFFF9FFFFF9FCFAF0FFFFF6FFFFF7FFFFF57C7A7200010000020200010004
310
0D0A000200000400F9FFF8F2FEF2F3FDF1F2FFF1F6FFF4F5FFF5F9FFF7F8FFF8
310
F9FFF8FAFFF6FFFFF8FFFFF9FFFFF9FFFFFAFFFDF9FAF8F7F7F5F5F3F2F4FCFB
310
FDA6A8A90000010000000F0F0F12100F151312E5E1DCFFFFF6FFFFF4FFFFF2FF
310
FDEBFFFBE8FFFDEAFFFDEDFFFCF2FFFFFBE9E5E4F3F2F4FFFEFFFFFEFFFCFAF9
310
E7E3DEFFFDF4FFF6E9FFFDEEFFFFF4FFFFF5F7F6ECF6F8F2FFFFFCF9FAF8FFFF
310
FEFFFFFEFFFEFFFFFFFEFFFFFEFDFFFCFAFFFCFAFFFCFDFFFEFFFFFFFFFFFFFF
310
FFFFFFFFFFFFFFFFFFFFFFFFFFFFFFFFFFFFFFFFFFFFFFFFFFFFFFFFFFFFFFFF
310
FFFFFFFFFFFFFFFFFFFFFFFFFFFFFFFFFFFFFFFFFFFFFFFFFFFFFFFFFFFFFFFF
310
FFFFFFFFFFFFFFFFFFFFFFFFFFFFFFFFFFFFFFFFFFFFFFFFFFFFFFFFFFFFFFFF
310
FFFFFFFFFFFFFFFFFFFFFFFFFFFFFCFCFCFCFCFCFEFEFEFFFFFFFFFFFFFFFFFF
310
0000FAFFF7F7FFF4F0FAEEEEF6EBF1F6EDF5F8EFFCFCF6FFFFFCF5F0EDFCF4F4
310
FFF8F9FFF7FAFFF8FCFFFBFFFFFBFFFFF9FAFFFEF4FFFFF1FFFFF2FFFFF3FFFF
310
F4FFFFF7FFFFF7FFFFF8FFFCF5F8F5EDF4F0EBF1EEE9E4E1DDD1D0CCD0CECDDA
310
DBD9E2E4E5E3E7E8E8EDECC2C4C4E0E1DFEFF0EEECEBE7F8F5F1FFFFFBFEF8F1
310
FFFFF9FFFFF8FFF6EDFFFFF7FFFFF7766F66110D080D0C080A08000E0F050909
310
000E1102F6F8E5FFFFF0FFFFF0FFFFF0FFFFEAF9FFE6FBFEE8FBFFEAFFFFEFFF
310
FFF2FFFFF2FFFFF5FFFFF8FFFFF9FFFFFBFFFFFCFFFFFFFFFFFFFFFFFFA1A1A1
310
040404090909020000040100040100443F3C3A3532443D3A474037433A304239
310
2B463D2F463E313E3930403D393B39393A393D31303435343644424140403A40
310
3D354A3F3750453D39342B33312930342E3A403BE7ECEAF9FBFBFDFDFDFFFCFD
310
FFFDFCFFFDFCFFFDFCFDFEFAF9FFFAF9FFFAFAFDFBFCFCFCFCFCFCFCFCFCFCFC
310
FCFCFCFCFCFCFCFCFCFCFDFDFDFDFDFDFDFDFDFDFDFDFDFDFDFDFDFDFDFDFDFD
310
FDFDFDFDFDFDFDFDFDFDFDFDFDFDFDFDFDFDFDFDFDFDFDFDFDFDFCFCFCFCFCFC
310
FCFCFCFCFCFCFCFCFCFCFCFCFCFCFCFCFCFCF9F9F9F9F9F9F9F9F9F9F9F9F9F9
310
F9F9F9F9F9F9F9F9F9F9F9F9F9FAFAFAFCFCFCFDFDFDFDFDFDFDFDFD0000F2FB
310
F1F5FEF4FAFFFBFAFFFBFAFFFCFAFFFEFAFFFFF9FFFEFAFFFFFAFFFFF8FEFFEF
310
F5FCF0F2FCF6F8FFFAFCFFFDFDFFFFFFF9FFFFF5FFFFF7FFFFF7FFFFF8FFFFF8
310
FFFCF4F8F5F0F1F0ECFFFFFCFFFFFEF5F8F6F7F9F9FBFFFFFBFFFFF5F9FACED2
310
D3D2D6D7A6ABAAEDF2F1E3E4E2D1CFCEEBE8E4D5D1CCCEC8C3CAC2BBC5BCB3B0
310
A69CC2B8AECFC3B9DDCFC372635A3828212A1A131E1004140700180C00352A14
310
F6ECD4FFFFEAFFFFE2FFFEDDFFFFDEFFFFE5FFFFE7FFFFE9FFFFE9FFFFEBFFFA
310
E8FFF9ECFFF9EFFFF9F0FEF8F1FDF9F4FCF8F7FBF9F9FFFFFFA0A0A00707070E
310
0C0B0805010805001B17120E0B070200010605070A08070705000705000B0900
310
0B090005020006040305020408070B0403070302040607050303000604000701
310
00110D08020100000300020B08000200E7EFEEF5FAF9FBFBFBFFFAFBFFFBFAFF
310
FAFAFFFCF8FDFCF8F9FDF7F9FDF8FAFBF9FAFAFAFAFAFAFAFAFAFAFAFAFAFAFA
310
FAFAFAFAFAFAFBFBFBFBFBFBFBFBFBFBFBFBFBFBFBFBFBFBFBFBFBFBFBFBFBFB
310
FBFBFBFBFBFBFBFBFBFBFBFBFBFBFBFBFBFBFBFBFBFBFBFBFBFBFBFBFBFBFBFB
310
FBFBFBFBFBFBFBFBFBFBFBFBFBFBF9F9F9F9F9F9F9F9F9F9F9F9F9F9F9F9F9F9
310
F9F9F9F9F9F9FEFEFEFFFFFFFFFFFFFFFFFFFFFFFFFFFFFF0000FFFFFEFFFFFE
310
FFFFFEF9FCFAF7FAF8F8FBF9F8FEF9F8FFFAECF3EEF2FCF6F6FFFBF6FFFBF4FF
310
FBF4FFFBF1FFF8EDF8F0FFFFF9FFFFF6FFFEF6FFFFF8FFFFFBFFFFFBFFFFFCFF
310
FFFEFDFFFFFBFFFFFAFFFFF6FDFFF8FEFFECF5F9BBC3CA868C91BBC0C3F9FEFF
310
ACB1B0D3D8D7F6F7F5F8F6F5C6C3BFCAC6C1CFC6C2F9EFE8FFFDF5EFE3D9FFF5
310
ECEEE0D4E5D5C98973687A5B5288645A997668A07F6C83634C73553ACAAD8EA6
310
8A68E9CEA9E9CFA7F3D9B1FFECC4FFFCD4FFFFDBFFFFDDFFFFE3FFFFEEFFFFF4
310
FFFFF5FFFFF6FFFEF7FFFFFAFFFFFEFFFFFEFCFCFC9F9F9F0E0C0B0301000401
310
00050100110B0604000002020802040C01050601040204060008090008080205
310
04000707070000030B090F0B0A0E09080A070806000200050500090706090909
310
000100000706000806000808EEF8F8FAFFFFFFFFFFFFFEFFFFFEFEFFFEFEFFFF
310
FCFFFFFCFFFFFBFFFFFCFFFFFEFFFFFFFFFFFFFFFFFFFFFFFFFFFFFFFFFFFFFF
310
FFFFFFFFFFFFFFFFFFFFFFFFFFFFFFFFFFFFFFFFFFFFFFFFFFFFFFFFFFFFFFFF
310
FFFFFFFFFFFFFFFFFFFFFFFFFFFFFFFFFFFFFFFFFFFFFFFFFFFFFFFFFFFFFFFF
310
FFFFFFFFFFFFFFFFFFFFFFFFFFFFFFFFFFFFFFFFFFFFFFFFFFFFFFFFFFFFFFFF
310
FFFFFAFAFAFBFBFBFEFEFEFFFFFFFFFFFFFFFFFF0000FDF8F9FDFBFBFFFDFDFD
310
FBFBFBFCFAFCFDFBFBFFFAF9FFFAFAFFFBFAFFFBF6FFF7EFFDF1EFFDF1F6FFF8
310
F4FFF8F8FFF8FFFFF9FFFFFBFFFFFBFFFEFAFCFDF9FBFCFAF9FBFBFAFCFCFBFF
310
FFEFF4F5FAFFFFF8FFFFB0B6BB5F686C8C9299F7FDFFFAFFFFAAAEAFB5BAB9B2
310
B4B4FFFFFEF2F0EFFFFCFBE3DEDBDFD9D4C3BAB6DDD3CCD7CEC5DFD4CCF6E9E1
310
FFFBF36C59511C00002400002D0A004726173D1D0A65462FDBBDA4B19479967A
310
5C8367487156346B502E6C5031705435775B3C7D63459E866AA28B71AE987FBD
310
A990D0BEA7E4D3BEF5E4CFFDEEDBFFF2DFBAA69448352047321D59442E4E3A21
310
4D39204C392449392D43342B43342445372148391F4B3A1F4A391F4A38214837
310
24402E1D4D3A2B412F1E43321F5240294534194C391E543E254A351F44331E53
310
46303D34203B321EF9EEDAF8E9D6FEEBD6FFEBD5FFEBD5FFEBD5FFEBD6FEEBD6
310
FAEBD8F9EBD8FAECD9FAECD9FAECD9FAECD9FAECD9FAECD9FAECD9FAECD9F9EB
310
D8F9EBD8F9EBD8F9EBD8F9EBD8F9EBD8F9EBD8F9EBD8FAEBD8FAEBD8FAEBD8FA
310
EBD8FAEBD8FAEBD8FAEBD8FAEBD8FCEDDAFCEDDAFCEDDAFCEDDAFCEDDAFCEDDA
310
FCEDDAFCEDDAF9EBD8F9EBD8F9EBD9F9EBD9F9EBD9F7EBD9F7EADAF5EADCF6ED
310
E0F8EFE5F9F4EBFCF8F3FFFCF8FFFFFB0000FFFFFFFFFFFFFFFFFFFFFFFFFFFF
310
FFFFFFFFFFFFFEFDFFFEFDFFFEFBFEFCFAFDFBF8FEF9F6FCF7F5FBF6F9FFFAFD
310
FFFCFCFDFBFFFFFEFFFFFEFFFFFEFDFEFCFDFDFDFDFDFDFAFAFAF8FAFAFDFFFF
310
A9ABAC4C4E4F565859D8DCDDFDFFFFF9FBFCD1D3D4AFB1B1B2B4B4B0B0B0EBEB
310
EBFFFFFFFFFEFEFFFDFCE3E1E0D9D5D4CBC7C6D5D2CEC7C4C0DBD6D3DFDAD769
310
625F0F0603160A080B00001207030F05000C0300FFFEF5FFFFF8FFFFF6FFFFF6
310
FFFFF7FFF7EDEEE5DBCDC4BACFC6BC9A8674A7825C9E7041885F2E7F5723754D
310
186D460F7B4F199061298C571E925B22975D229F652A905A1E9360229867298D
310
5D2385501DA069368F581F8F581BAA702F894F0DA16A27955F1E885516936224
310
92602495642695602197621F99611A985D15A3601B9D5A15A26523965C1BA067
310
298F581B965F22935A1C995C1C985B1B985B1B935A1D8E582189592586582885
310
5A27845C22865D1F865D1F865D1F865D1F865D1F865D1F865D1F845B1D845B1D
310
845B1D845B1D845B1D845B1D845B1D845B1D865A1D8A5D208C5F228B5E21885B
310
1E86591C895C1F8B5E21895C1F885B1E86591C86591C86591C86591C885B1E88
310
5C21855A21855A218458228259228258238059257D59297B5A2D73562F685131
310
F8E7CDFFFFF1FFF7EDFFFFF80000FFFFFFFFFFFFFFFFFFFFFFFFFFFFFFFFFFFF
310
FFFFFFFFFFFFFFFFFFFDFDFDFDFDFDFFFFFFFFFFFFFFFFFFFAFAFAF8F8F8FEFE
310
FEFEFEFEFAFAFAF8F8F8FFFFFFFFFFFFFDFDFDEEEEEE9D9D9D393939444444B0
310
B0B0FFFFFFFDFDFDF5F5F5F4F4F4BFBFBFACACACADADADB1B1B1D0D0D0FEFEFE
310
FCFCFCFEFEFEF7F7F7EFEFEFDADADAD9D9D9C4C4C4CDCDCDD6D6D67C7C7C0000
310
000E0E0E080808080808050505030303C6C6C6EEEEEEFFFFFFFDFDFDFFFFFFFB
310
FBFBFFFFFFF0F0F0FFFFFFFFFFF7FFFFE5FFFFD6FFFDD1FFF6C8FFDFADE3BD87
310
CCA36CC79860D29B62DBA1669C5D23A4682CAB74379562248B5C1FD7A569DCA3
310
6CC3864EDA9B5EE0A05FDB9A55DC9C55DA9C56D29954DDA766C89556D2A163B8
310
8547D7A361E0A966CE924CE3A45AE8A255E6A053E19F58D29551D59858CF9658
310
D59C5ED29A59D69C5AD59B59D39C59CF9A5BC9995FC59964C09868BF9A68C39B
310
61C59C5DC59C5EC59C5DC59C5EC59C5DC59C5EC59C5DC59C5EC59C5DC59C5EC5
310
9C5DC59C5EC59C5DC59C5EC59C5DC6995CC79B5CCA9B5EC89C5DC99A5DC69A5B
310
C99A5DC89C5DD0A164CDA162CE9F62CB9F60CD9E61CCA061CFA063CEA164C79A
310
5DC79A5DC79A5DC79A5DC69A5FC3985FBE9661B89464B7976CA78D69FFEDD2FF
310
FFF1FCF6EBFFFFF90000FFFFFFFFFFFFFFFFFFFFFFFFFFFFFFFFFFFFFFFFFFFF
310
FFFFF6F6F6FFFFFFFFFFFFF3F3F3F5F5F5FFFFFFFFFFFFFBFBFBFFFFFFFDFDFD
310
FDFDFDFFFFFFFFFFFFD7D7D78787874040403A3A3A8D8D8DF2F2F2F7F7F7F8F8
310
F8FDFDFDFDFDFDC0C0C0B2B2B2AFAFAFB0B0B0B8B8B8B6B6B6F6F6F6FFFFFFFF
310
FFFFFFFFFFFFFFFFF1F1F1E9E9E9D2D2D2CCCCCCD4D4D4A0A0A0060606000000
310
0808080909090000000A0A0A8C8C8CD2D2D2CFCFCFCFCFCFE1E1E1E6E6E6FFFF
310
FFFEFEFEF7F7F7FFFFFEFFFFFBFFFFF9FFFFF7FFFEF1FFFEEFFFFFECFFFFEDFF
310
FFEEFFFAE4FFEDD53415002203001E0400210B00201000DFCBB2FFF1D8FFE1C7
310
FFE8C8FFEBC8FFDDB7FFEAC4FFF3CFFFE6C4A28C70634F366B58435F4C37705B
310
45695238654A2FEED2AFFFE8BDFFF0C3FFE7BFF7E1BEF4E2C3FFFCE0FFFFEAFF
310
FFEAFFFFE9FFFFE9FFFFE9FFFFEAFFFFEEFFFFF1FFFFF5FFFFF4FFFFEEFFFFEB
310
FFFFEDFFFFEBFFFFEDFFFFEBFFFFEDFFFFEBFFFFEDFFFFEBFFFFEDFFFFEBFFFF
310
EDFFFFEBFFFFEDFFFFEBFFFFEDFFFFEBFFFFEDFFFFEBFFFFEDFFFFEBFFFFEDFF
310
FFEBFFFFECFFFFEAFFFFEBFFFFE8FFFFEAFFFFE9FFFFECFFFFEAFFFFE9FFFFE7
310
FFFFE6FFFFE6FFFFE6FFFFE6FFFFE4FFFFE5FFFEE7FBEFDDFFFFF5FFFFF9F8FA
310
FAFAFFFF0000FFFFFFFFFFFFFFFFFFFFFFFFFFFFFFFFFFFFFFFFFFFFFFFFFFFF
310
FFF9F9F9FCFCFCFFFFFFFFFFFFF1F1F1F1F1F1FFFFFFFFFFFFFFFFFFFAFAFAC3
310
C3C37373733C3C3C3C3C3C555555C5C5C5F5F5F5FFFFFFFFFFFFFDFDFDFFFFFF
310
D8D8D8ACACACB2B2B2B2B2B2B9B9B9B6B6B6ABABABE5E5E5FFFFFFF9F9F9F9F9
310
F9FFFFFFFDFDFDFBFBFBEBEBEBDADADADADADAC2C2C20B0B0B00000009090900
310
0000010101080808434343DEDEDED2D2D2C5C5C5D5D5D5C5C5C5CACACADFDFDF
310
DADADADCDDE1F0EFF9F4F6FFF6FBFFF4FCFFF5FEFFF6FFFFFAFFFEF9FAF8E8E0
310
E0FFFEFC382B291B0F0D1008081F1D1C000100999691FEECE5E1C9BDE5CCBCD8
310
BEADE2C9B5DEC9B4D5C5B4E9DDD136302902000000000108090D000001040000
310
1B1411E7DBD1D9C5ACE9D4B8D4C6B0CFC7B6CBC9BFF6F8F2FDFFFEFBFFFEFCFF
310
FBFBFFFAFAFEF8F8FEF9F5FDFCF1FDFFEFFDFFF2FEFFF8FEFDF9FEFCFBFEFCF9
310
FEFCFBFEFCF9FEFCFBFEFCF9FEFCFBFEFCF9FEFCFBFEFCF9FEFCFBFEFCF9FEFC
310
FBFEFCFBFEFCFFFFFEFEFFFDFCFDFBFDFEFCFFFFFEFFFFFEFFFFFEFCFDFBFFFF
310
FEFFFFFEFFFFFEFFFFFEFFFFFEFFFFFEFFFFFEFFFFFEFFFFFCFFFFFBFFFFF9FF
310
FFF8FFFFF6FFFFF3FFFFF2FFFFF2FFFFF7FFFFF9F7F6F2FDFFFFEFF5FAF6FEFF
310
0000FFFFFFFFFFFFFFFFFFFFFFFFFFFFFFFFFFFFFFFFFFFFFFFFFFFFFFFFFFFF
310
FEFEFEF6F6F6FDFDFDFFFFFFFFFFFFFFFFFFFCFCFCA7A7A76565655454544141
310
413D3D3D8F8F8FFCFCFCF4F4F4FFFFFFFDFDFDF9F9F9F9F9F9EFEFEFB7B7B7B0
310
B0B0B2B2B2AEAEAEB9B9B9ACACACADADADCFCFCFFFFFFFF3F3F3F6F6F6FFFFFF
310
FFFFFFFFFFFFFEFEFEEFEFEFEAEAEAE1E1E11F1F1F1010100C0C0C0000001313
310
13000000010101D9D9D9E6E6E6CACACAE0E0E0D8D8D8B8B8B8CACACACFCFCFD3
310
D4D8C4C6D1CED4E1DBE3F0E3EDF7E8F5FDF0FFFFF6FFFFFAFFFFD8D7D9FBF6F8
310
716A6D040001000003070C0F0000043D4241FFFFF9C5AFA3E0C9BAD3BCACE4CE
310
BCD7C5B4BFB3A7CAC4BD00000000020700000800000800020D00000854545AD7
310
CCC8E4C5B0F7D2B8DFC1AED7C1B6D5C6C4FFF6F9FFFAFFF9F4FDFFFAFFFFFAFF
310
FFFBFFFFFAFFFEFAFFFDFAFFF9F9FFF9FBFFF6FCFFF4FDFFF6FCFFF4FDFFF6FC
310
FFF4FDFFF6FCFFF4FDFFF8FEFFF6FFFFF8FEFFF6FFFFF8FEFFF6FFFFF8FEFFF8
310
FEFFF8FEFFF6FCFFF4FAFFF5FBFFF8FEFFF8FEFFF7FDFFF4FAFFF8FEFFF8FEFF
310
F8FEFFF8FEFFF8FEFFF8FEFFF8FEFFF6FEFFF3FCFFF0FCFFF1FBFFF1FBFFF5FB
310
FFF9FDFEFDFFFFFFFFFEF2F3F1FBFEFCEAECEDFAFFFFF1F7FCF4FAFF0000FFFF
310
FFFFFFFFFFFFFFFFFFFFFFFFFFFFFFFFFFFFFFFFFFFFF4F4F4FFFFFFFFFFFFF8
310
F8F8FDFDFDFFFFFFE4E4E4ACACAC5151515B5B5B4848483737376D6D6DD4D4D4
310
FFFFFFFFFFFFFFFFFFFEFEFEF6F6F6F3F3F3FFFFFFC2C2C29F9F9FB4B4B4B4B4
310
B4ADADADB6B6B6ACACACB6B6B6C0C0C0FAFAFAFAFAFAFFFFFFFFFFFFFEFEFEFF
310
FFFFFFFFFFFDFDFDFAFAFAF6F6F67E7E7E0000000000000F0F0F040404000000
310
0303036D6D6DEAEAEAC8C8C8CFCFCFE4E4E4D0D0D0D3D3D3CACACAC5C4C6D4D4
310
DACFD1D9C6CCD1BDC6C9BAC6C8C8D2D2E3E9E8F9FCFAE9E5E4EAE5E4D7CFCF07
310
0102090909000001091215000100F5E6DDF5DECEDCC4B2E5CDB9E0C8B4D9C5B3
310
F3E6D6615B5002000002050911141C0000070E10180000049C9799DECDC4F0C9
310
ADFCCFAEEAC4ACE1C4B5E8D4CFFFF7F9FCF4FBEAE2ECF1E9F3F1E9F0F1EAEFF2
310
E9ECF2E9ECF1EAEFF0E9F0EFEBF1EAEBEFE7ECEFE8EBEFE7ECEFE8EBEFE7ECEF
310
E8EBEFE7ECEFE7EAEEE6EBEEE7EAEEE6EBEEE7EAEEE6EBEEE7EAEEE6EBEEE6EB
310
EEE5EAEDE4E9ECE4E9ECE6EBEEE6EBEEE5EAEDE4E9ECE2E7EAE3E8EBE3E8EBE4
310
E9ECE4E9ECE3E8EBE3E8EBDEE6EDD9E8F8D5E7F8D6E6F6D9E7F3DEE7F0E1EAEE
310
E7ECEFE9EDEEE6E8E8F4F5F3F7F8F6FDFFFFFDFFFFF6FBFA0000FFFFFFFFFFFF
310
FFFFFFFFFFFFFFFFFFFFFFFFFFFFFFFFFFFFFFFFFFF5F5F5FAFAFAFFFFFFE3E3
310
E39191915454544545454F4F4F3232324A4A4AA7A7A7F9F9F9FFFFFFFAFAFAF0
310
F0F0F1F1F1FEFEFEFFFFFFF2F2F2D7D7D7AFAFAFBABABAC0C0C0B4B4B4B5B5B5
310
AEAEAEB7B7B7B6B6B6B4B4B4E5E5E5FFFFFFFFFFFFFAFAFAFEFEFEFFFFFFFBFB
310
FBFFFFFFFFFFFFFBFBFBE2E2E20B0B0B00000013131300000003030314141407
310
0707C8C8C8DFDFDFC6C6C6C9C9C9CECECEDEDEDED7D7D7DAD8D7D8D2CDDAD2CB
310
D9D7CDD9D9CDD5D5C9DADACCF3F0E1FFFFF4ECE1D3D0C3B5FFEFE22D1F130D04
310
000703001B1C12070400755F4DFFFFEAEACDB2E8CCAEDCC0A2E6CEB2DAC6AD13
310
0400160D000A0300161009070100110800190B00D4C1B2F2D7BDF2C99CF5C895
310
EBC79FE3C9ABF9E7D6FFF8EFF3F0ECD4D2D2CDCBCBCCCBC7CFCBC6D0CBC2D0CB
310
C2D1CCC3D1CCC3D2CDC4D1CBC4D1CBC4D3CBC4D1CBC4D3CBC4D1CBC4D3CBC4D1
310
CBC4D0C8C1CEC8C1D0C8C1CEC8C1D0C8C1CEC8C1D0C8C1CEC8C1CDCAC2CECBC3
310
CFCCC4CECBC3CDCAC2CCC9C1CDCAC2CFCCC4D0CDC5D1CEC6D2CFC7D3D0C8D3D0
310
C8D2CFC7D1CEC6CBCCCABDC6CFBBC7D3BFC9D3C3CBD2C7CCCFC8CACACAC8C7CB
310
C8C3CCC9C1D2CDC4F2EDE4FFFBF2FFFFF6FFFEF40000FFFFFFFFFFFFFFFFFFFF
310
FFFFFFFFFFFFFFFFFFFFFFFFFFFFFCFCFCFFFFFFDBDBDB838383454545404040
310
4D4D4D4D4D4D3A3A3A878787E1E1E1FFFFFFFFFFFFF7F7F7FBFBFBFFFFFFFFFF
310
FFF8F8F8F8F8F8F9F9F9B0B0B0AEAEAEB3B3B3A9A9A9B0B0B0BABABAA3A3A3BE
310
BEBEACACACA6A6A6CCCCCCFFFFFFFFFFFFF2F2F2FFFFFFFFFFFFF8F8F8FFFFFF
310
FFFFFFF6F6F6FFFFFF5B5B5B0A0A0A0000000A0A0A0000000000000505055353
310
53E4E4E4E4E4E4CACACACACACAD9D9D9D0D0D0DDD9D8E0D8D1DED5CBDDD7CCDB
310
D8CAD0D0C0CDCDBBE9E5D3FFFFF1F8ECDAD9CBB9FFFFF278685B170E01100A00
310
0606000F0C00140400F7DFCBFFEFD9D9C2A8DBC4AAFEE9CE57452E180A00170C
310
00140B000C0300190D0113030076604EFFE5CDDDBD9AFDD5A1F4CC97F1D1A6E6
310
D1B1FFF7E3F9F7ECE6EAE5BEC4C3CBD1D0CBD1CCCED1C8D0D1C7D2D2C6D3D2C4
310
D4D3C5D5D3C8D8D1C8DAD1C8DAD1C8DAD1C8DAD1C8DAD1C8DAD1C8DAD1C8DED5
310
CCDED5CCDED5CCDED5CCDED5CCDED5CCDED5CCDCD5CCD6D1C8D8D3CADBD6CDD9
310
D4CBD6D1C8D5D0C7D7D2C9DAD5CCD0CBC2D1CCC3D3CEC5D3CEC5D3CEC5D3CEC5
310
D1CCC3CDCAC5CBCFD0CBD1D6D1D6D9D7D9D9D8D9D7D7D4CFD2CFC7D0CBC2E1DB
310
D0D8D0C3FFFDF0FFFFF2FFFFF5FFFFF40000F5F5F5FFFFFFFAFAFAFFFFFFFFFF
310
FFF9F9F9FFFFFFFFFFFFCECECE8181814343433B3B3B4747474D4D4D50505052
310
5252CDCDCDF4F4F4FFFFFFFDFDFDFFFFFFFFFFFFF7F7F7FEFEFEF4F4F4FFFFFF
310
F6F6F6C2C2C2AFAFAFB1B1B1B2B2B2B9B9B9B0B0B0ADADADB5B5B5B1B1B1B8B8
310
B8AEAEAEB4B4B4FFFFFFFFFFFFF8F8F8FEFEFEFFFFFFFDFDFDFCFCFCFFFFFFFF
310
FFFFFFFFFFE3E3E30404040909090404040000000B0B0B000000010101949494
310
D9D9D9DADADAD4D4D4E5E5E5D4D4D4C6C4C4D8D4D3DCD9D5D8D7D3D3D5CFDFE4
310
DBCCD2C7EBECE2FEFDF3FDF6EDC4BBB2F2E6E0FDF3EC110D0802020000060100
310
060114100F2E2724FEF6EFDED5CCDED5C8958C7F090300140F060B08000A0601
310
110B04130A00130200DCC4B0DCC1A7E5C4A3F0CDA1EACB9EE2CCA9DFD3BBFFFF
310
F7FBFFFEC0CBCFC8D6DCCAD8DECBD7DBCED8D8D1D8D5D3D9D4D4DBD4D5DCD5D8
310
DCD7D6D4D3D8D6D6D6D4D4D2D0D0D3D1D1D8D6D6DBD9D9D9D7D7D9D7D7D9D7D7
310
D9D7D7D9D7D7D9D7D7D9D7D7D9D7D7D9D7D7D1D1D1D2D4D4D6D8D8D6D8D8D3D5
310
D5CFD1D1CBCDCDC9CBCBD1D3D3D3D5D5D3D5D5D2D4D4D3D5D5D5D7D7D6D8D8D7
310
D8D6D5D4D0D6D5D1DAD7D2D9D6D1D9D6CEDAD5CCDED8CDDFD9CED6CEC1D6CEC1
310
FFFAEDFFFFF4FFFFF8FFFEF50000FFFFFFFAFAFAF7F7F7FFFFFFF8F8F8F9F9F9
310
CBCBCB4C4C4C3F3F3F4343434B4B4B5757574F4F4F4545458A8A8AFBFBFBEAEA
310
EAFFFFFFFFFFFFF9F9F9FFFFFFFFFFFFFBFBFBFFFFFFFFFFFFFBFBFBDCDCDCB7
310
B7B7ADADADB1B1B1B2B2B2B2B2B2B3B3B3AFAFAFB2B2B2AEAEAEB8B8B8B1B1B1
310
B0B0B0EBEBEBFFFFFFFBFBFBFFFFFFFFFFFFFDFDFDFDFDFDFFFFFFFFFFFFFEFE
310
FEFBFBFB7474740000000D0D0D000000191919080808000000181818B0B0B0D9
310
D9D9CFCFCFBDBDBDDADADACFCFCFD4D3D5DEDDDFD7DBDCC9CFCEC9D2CFB8BFBA
310
E2E8E3FFFFFBDBD7D2D3CDC8CDC4C1F0E9E6656362030604000201030D0D0000
310
06000007787B80FEFDFFA5A3A20F0E0A1617130001000002000001000E0B070B
310
02006B5B4BFFEED8DDBFA4FAD9B8EBCAA3EBCDAAE1CCB1F7EADAFFFFFCE1E6E9
310
C0C9D2C5D1DDCAD4DEC9D2DBCBD1D6CCD1D2CDD2D1CFD4D3D1D6D5D3D7D8CFD2
310
D6D2D5D9D3D3D9CDD0D4CFCFD5D1D4D8D5D5DBD1D4D8D0D0D6CED1D5D0D0D6CE
310
D1D5D0D0D6CED1D5D0D0D6CED1D5CBCFD4CCD3D6D1D5DAD1D8DBD2D6DBD0D7DA
310
D3D7DCD1D8DBD0D4D9CFD6D9D1D5DACED5D8D0D4D9CFD6D9D0D4D9D1D5D6D1D0
310
CCD6D3CBD9D6CED9D6CEDAD7CFDAD7CFDDDAD2DFDCD4D0CDC5D0CDC5FBF8F3FE
310
FDF9FFFFFEFCFDFB0000F2F2F2FFFFFFFFFFFFF5F5F5A7A7A74F4F4F44444457
310
57575454545151514C4C4C3E3E3E636363D2D2D2FFFFFFFDFDFDFFFFFFFFFFFF
310
FEFEFEF9F9F9FFFFFFFFFFFFFDFDFDFFFFFFFFFFFFE1E1E1BEBEBEB0B0B0AEAE
310
AEB3B3B3B5B5B5ADADADB3B3B3B2B2B2B1B1B1ACACACB7B7B7B3B3B3ACACACCD
310
CDCDFFFFFFFFFFFFFFFFFFFFFFFFFDFDFDFFFFFFFFFFFFFFFFFFFDFDFDFCFCFC
310
FFFFFF1B1B1B0C0C0C0D0D0D000000080808040404000000030303ADADADEBEB
310
EBCFCFCFBABABADFDEE0C7C6CACCCCD2CACED3C9D0D3DDE5E4CFD8D5EEF3F1FF
310
FFFCF6F1EEC9C2BFCDC4C1EFE8E5F3EFEE131614090F0E000205010A1700010F
310
0000087A8087FAFFFF2E32330000010C111200000101030313100C30271ED9C7
310
B6D2B8A0F2D0B2E2BD9BEDC7A7ECC9AFE5C9B8FFFEF6FFFDFFD5CED5CBC9D5C8
310
C8D6D7D5E1D7D4DDD7D3D8D7D2D4D8D1D4D8D3D5DAD4D9D8D7DBCFD2D7D1D5DA
310
D1D3DBCDD1D6CED0D8D0D4D9D0D2DACCD0D5CED0D8CDD1D6CED0D8CDD1D6CED0
310
D8CDD1D6CED0D8CDD1D6D1D7DED0D9DDD2D8DFCED7DBCED4DBCBD4D8CFD5DCCE
310
D7DBD1D7DECED7DBCFD5DCCDD6DACED4DBCBD4D8CCD2D9CED3D6D0D1CFD4D3CF
310
D4D5D3D5D6D4D5D6D4D3D5D5D5D7D7D5D9DAC7CCCFC6CBCEF0F6FBF2FAFFF4FD
310
FFF0FAFF0000FFFFFFE6E6E69393934D4D4D4242424848484747474545455252
310
524343434D4D4DA4A4A4FFFFFFFFFFFFECECECFFFFFFFFFFFFFFFFFFFCFCFCFE
310
FEFEFFFFFFFFFFFFFDFDFDFEFEFEFAFAFAC7C7C7AFAFAFB5B5B5B2B2B2B3B3B3
310
B6B6B6AFAFAFAFAFAFB5B5B5B2B2B2AFAFAFB6B6B6B4B4B4ACACACB8B8B8F7F7
310
F7FFFFFFFFFFFFFCFCFCFEFEFEFFFFFFFEFEFEFEFEFEFFFFFFFFFFFFF0F0F0E2
310
E2E20606060000001010100000000707070000000303030A0A0A959595EDEDED
310
D6D6D6DCDBDDD2CED3DDDCE0D9DADEC7CBCCC6CDCAB7BDB8E5E7E1FFFFFBEAE2
310
DBCDC1BBCABEB8BEB2ACFFFFF9D4D0CB00020000020100000701091600000700
310
00047F8384FBFFFF686D6C0001000C10110404040D0904B4AAA0E2CEBCE0C5AA
310
FEDBB9ECC7A5EDCBAEE2C6AEF1D8C8FFFFF7FFF9F9D7D1D6D2CFD8CCC9D2DAD6
310
DBDCD7D9DDD8D7DCD7D4DCD7D6DBD6D7D9D6D8D6D5D9D0D1D5D4D5D9D4D5D9D1
310
D2D6D0D1D5D2D3D7D1D2D6CDCED2D5D6DAD5D6DAD5D6DAD5D6DAD5D6DAD5D6DA
310
D5D6DAD3D6DAD3D6DAD3D8DBD3D8DBD0D5D8CDD2D5CBD0D3CCD1D4CDD2D5D2D7
310
DAD0D5D8CFD4D7D1D6D9D0D5D8CED3D6CED3D6D0D4D5D2D4D4D3D5D5D4D6D6D1
310
D5D6D0D4D5CED3D6CDD3D8CCD4DBC1CAD3C0C9D2EAF4FEECF8FFEFFCFFECF9FF
310
00009696964545453131314545454B4B4B5D5D5D6363634C4C4C3F3F3F797979
310
DCDCDCFFFFFFFCFCFCFFFFFFFFFFFFF2F2F2FEFEFEFBFBFBFDFDFDFFFFFFFFFF
310
FFFFFFFFFFFFFFFBFBFBD9D9D9B4B4B4AEAEAEBDBDBDB5B5B5AFAFAFB4B4B4B3
310
B3B3ABABABB6B6B6B5B5B5B3B3B3B4B4B4B1B1B1B1B1B1B1B1B1E7E7E7FEFEFE
310
FFFFFFFAFAFAFFFFFFFFFFFFFDFDFDFFFFFFFFFFFFFAFAFAFFFFFFFFFFFFACAC
310
AC0000000404041111110404040303030C0C0C0505050000005B5B5BEFEFEFC9
310
C7C7D7D1D2E2DDDCDFDCD8D4D4CEE1E2D9D7D6CCFCF6EBFFFFF5F6E6D9E6D3C4
310
E2CDBEE3D0C1E3D3C3F8EBDD7F786917150B0402010000000806051D1A150705
310
0027251DFFFFF9E2E2DC23221E0401008D867DDED1C3E9D2BCD9BB9EE9C3A0EC
310
CAA6DFCBACD9CEB3FFFCE8FFFFF3DFE2D9CFD5D0CAD1CECED5D0CDD5CBD1D7CC
310
D6DBCCD8DDCED6DDD0D0D9CFCBD5CFCBD2CDD3D4D0DAD7D2DAD7D2D7D4CFD7D4
310
CFD9D6D1D7D4CFD4D1CCDBD8D3DBD8D3DBD8D3DBD8D3DBD8D3DBD8D3DBD8D3DB
310
D8D3D0CDC8D3D0CBD7D4CFD9D6D1D9D6D1D8D5D0D9D6D1DAD7D2D9D6D1D5D2CD
310
D6D3CEDAD7D2DBD8D3D7D4CFD7D4CFDAD9D5D2D4D4D2D6D7D3D7D8D1D6D9CFD4
310
D7CBD1D6CCD2D7CCD4DBC2CBD4C1CAD3EAF4FEEEF8FFF1FDFFEDF9FF00006464
310
644C4C4C5959595D5D5D4E4E4E474747414141434343BEBEBEF8F8F8FFFFFFFD
310
FDFDFFFFFFFFFFFFF9F9F9FFFFFFFFFFFFFBFBFBFEFEFEFDFDFDFBFBFBFFFFFF
310
FFFFFFEEEEEEB9B9B9AEAEAEB2B2B2BBBBBBB4B4B4ACACACAFAFAFB3B3B3ACAC
310
ACB6B6B6B3B3B3B7B7B7B3B3B3AEAEAEB7B7B7B1B1B1D0D0D0F7F7F7FFFFFFF9
310
F9F9FFFFFFFFFFFFFBFBFBFFFFFFF2F2F2FFFFFFFFFFFFF5F5F5FFFFFFB2B2B2
310
0000000000000000000E0E0E0000000303030000000E0E0E111111A2A0A0DBD5
310
D6E7DFDFDEDAD9CDCDC7D9D7CFCFCDC3F5EFE4FFFEF0F0E0D0D7C3B2DBC4B4CE
310
B7A7E9D5C4F3E3D2FFFFF2776F62100D050B08030502000702000B0700110F04
310
04020095958FFFFFFCE4E3DFE1DDD8D7CDC3D1BDABF2D7BDE8C5A4EBCEAFD4C7
310
ADDED9C4FFFFF2F5F7EBC5CAC1C4CCC5C2CAC3D0D8CECDD4C7D2D8C7D8DBCBD9
310
DFCED5DED1D0DBD1C9D7D1C9D4D1D4D6D0DBD9D1DCD8D3D7D5CDD8D4CFDAD8D0
310
DBD7D2D7D5CDD7D3CED6D4CCD7D3CED6D4CCD7D3CED6D4CCD7D3CED6D4CCD4D0
310
CBD6D4CCDBD7D2DBD9D1DBD7D2D9D7CFDAD6D1D9D7CFDAD6D1D3D1C9D5D1CCDA
310
D8D0DCD8D3D6D4CCD8D4CFDDDAD5D1D2D0D1D3D3D3D5D5D1D5D6D0D4D5D0D4D5
310
D1D6D9D3D8DBC8CDD0C7CCCFF1F6F9F4F9FCFAFFFFF6FBFE00006565654C4C4C
310
4C4C4C515151515151484848808080FFFFFFFBFBFBF8F8F8FFFFFFFFFFFFF5F5
310
F5FCFCFCFFFFFFF9F9F9FFFFFFFCFCFCFFFFFFFDFDFDF9F9F9FFFFFFF4F4F4CB
310
CBCBACACACB5B5B5B4B4B4B1B1B1B3B3B3B1B1B1AFAFAFB3B3B3B2B2B2B5B5B5
310
ACACACB6B6B6B2B2B2ABABABBABABAB0B0B0B9B9B9EFEFEFFFFFFFF9F9F9FFFF
310
FFFFFFFFFAFAFAFFFFFFFCFCFCFFFFFFFCFCFCFFFFFFFFFFFFF7F7F7ACACAC06
310
06060A0A0A0000000808080606060B0B0B0000001414140000012A262C76747A
310
C1C1C7DDE1E2EBEDEDD4D5D1F6F3EEFFFFF9FFFFF7DAC8BDF2DED3E9D5CACFBD
310
B27E7064423A2DFFFFF7928F870401001411090D0B010403000F1007070B060B
310
11100B1215858B90E6E9EDF9F7F6FFFFF9DFCEC1EFD6C2D4BCA8E5D8CAF4EDE4
310
FFFFFBF7F4F0DBD9D9D7D7D7DBD9D8D9D6D1D7D2C9DBD5CADAD6CBDAD8CED8D8
310
D2D3D8D7D0D7DACFD5DAD1D5D6D5D8D6D6D6D6D1D4D2D3D3D3D5D8D6D9D9D9D5
310
D8D6D2D2D2D0D3D1D2D2D2D0D3D1D2D2D2D0D3D1D2D2D2D0D3D1D7D7D7D6D9D7
310
D9D9D9D5D8D6D4D4D4D0D3D1D3D3D3D2D5D3D7D7D7CED1CFD0D0D0D5D8D6D7D7
310
D7CFD2D0D1D1D1D8D9D7D4D3CFD7D4CFD9D6D1D7D6D2D6D5D1D6D5D1DAD7D2DB
310
D8D3D2CFCAD1CEC6FBF8F0FFFBF2FFFFF8FFFDF400006B6B6B4D4D4D50505042
310
4242646464CDCDCDFFFFFFFFFFFFFFFFFFFEFEFEF9F9F9FFFFFFFFFFFFFFFFFF
310
F9F9F9FFFFFFFBFBFBFAFAFAFFFFFFFFFFFFFDFDFDFFFFFFE5E5E5A7A7A7AEAE
310
AEBFBFBFB6B6B6A8A8A8B4B4B4B9B9B9B2B2B2B3B3B3B9B9B9B4B4B4A6A6A6B5
310
B5B5B2B2B2AAAAAABCBCBCAEAEAEABABABEAEAEAFFFFFFF9F9F9FFFFFFFFFFFF
310
F9F9F9FFFFFFFEFEFEFDFDFDFEFEFEF4F4F4FFFFFFFFFFFFF1F1F1BFBFBF0202
310
020808080404040303030000000D0D0D0000000403050000040200060000050B
310
0E12414546555A597D7E7C84817D766F6C5F54505347411C100A1208010E0600
310
0D0A02232119FEFBF6CBC8C3050200040200171711000200080D0C0000030004
310
0B000710090F162A2D327B7677D0C7C4EFDFD8FFFCF5FFF9F5FFFFFCFAF5F4FF
310
FDFEFFFEFFFBF8FAFFFAFBE1DCD9D6CDC9D6CEC7D5CDC6D3CDC8D2CECDD0CFD1
310
CED2D7D0D3DBD2D5D9D4D8D9D4D6D7CED2D3D1D3D4D4D8D9D9DBDCD5D9DAD5D7
310
D8D3D7D8D5D7D8D3D7D8D5D7D8D3D7D8D5D7D8D3D7D8D0D2D3CFD3D4D0D2D3CE
310
D2D3CFD1D2D0D4D5D7D9DAD8DCDDD7D9DACDD1D2CFD1D2D4D8D9D5D7D8CBCFD0
310
CCCECFD3D5D5D8D7D3DBD8D3DBD8D3DAD7D2D7D4CFD6D3CED7D4CCD8D5CDD5CF
310
C8D3CEC5FFF9EEFFFCF1FFFFF5FFFEF100006868683A3A3A474747A7A7A7F7F7
310
F7FFFFFFF9F9F9FFFFFFFFFFFFFFFFFFFFFFFFFFFFFFFFFFFFFFFFFFFFFFFFFF
310
FFFFFFFFFFFFFFFFF6F6F6FFFFFFFFFFFFEDEDEDB8B8B8B1B1B1B7B7B7B6B6B6
310
B4B4B4B2B2B2B1B1B1B0B0B0B0B0B0B0B0B0B2B2B2B2B2B2B2B2B2B2B2B2B2B2
310
B2B2B2B2B2B2B2B2B2B2B3B3B3BABABAFFFFFFF9F9F9FFFFFFFFFFFFF4F4F4FF
310
FFFFFFFFFFFFFFFFFFFFFFFFFFFFFFFFFFFFFFFFFFFFFFFFFFFFD5D5D5313131
310
0000000808080606060000000A0A0A040404110D0C0B07060402010101010305
310
0504090803070801050600000100010201030403050606080804090800040200
310
0100000100DDDEDCF3F4F24D4E4C09090904060600000102070A00020A01040C
310
00020C00000700000506040A07060A060305020000100E0D100E0E0A08080C0C
310
0C060606F8F6F6E0DEDDDAD6D5DAD6D5DBD7D6D9D7D6D8D6D6D5D5D5D1D3D4D0
310
D2D3CED0D1D0D2D2D3D3D3CFD1D1CFCFCFCED0D0D4D4D4D6D8D8D4D4D4D4D6D6
310
D8D8D8D7D9D9D8D8D8D4D6D6D3D3D3CFD1D1D9D9D9D5D7D7D4D4D4D0D2D2D2D2
310
D2D2D4D4D7D7D7D7D9D9D2D2D2D2D4D4D7D7D7D7D9D9D9D9D9D5D7D7D4D4D4D2
310
D2D2D3D4D2D5D3D2D5D3D2D6D4D3D7D5D4D8D6D5D8D6D5D8D6D5D1CFCECFCECA
310
FCF9F5FFFDF9FFFFFCFFFCF80000575757878787CBCBCBFCFCFCFFFFFFFEFEFE
310
F8F8F8FAFAFAFFFFFFFFFFFFFFFFFFFFFFFFFFFFFFFFFFFFFFFFFFFFFFFFFFFF
310
FFF5F5F5FFFFFFF7F7F7FFFFFFC5C5C5B8B8B8B0B0B0B3B3B3B3B3B3B2B2B2B2
310
B2B2B2B2B2B2B2B2B3B3B3B3B3B3B2B2B2B2B2B2B2B2B2B2B2B2B2B2B2B2B2B2
310
B2B2B2B2B2B2B1B1B1B8B8B8F5F5F5FEFEFEFFFFFFFFFFFFF7F7F7FFFFFFFFFF
310
FFFFFFFFFFFFFFFFFFFFFFFFFFFFFFFFFFFFFFFFFFFFF4F4F4FFFFFF8B8B8B00
310
00000202021313130000000806050401000401000C09050D0C08060606000100
310
000001000003070E11060D1004090C000304000001000403060B0A0D100E1411
310
0D0501007A7671FEFBF7B8B5B12F2D2C0705050D0C0E00000300000400000601
310
030B03050D02040C00020C00020A0406070D0D0D0505050101010C0C0C040404
310
F7F7F7D3D3D3D5D5D5D6D6D6D8D8D8D9D9D9DADADAD8D8D8D7D7D7D5D5D5D5D5
310
D5D7D7D7D9D9D9D9D9D9D8D8D8D7D7D7D8D8D8D9D9D9D5D5D5D5D5D5D6D6D6D7
310
D7D7D8D8D8D8D8D8D9D9D9D9D9D9D7D7D7D6D6D6D5D5D5D3D3D3D3D3D3D5D5D5
310
D6D6D6D7D7D7D1D1D1D3D3D3D5D5D5D7D7D7D7D7D7D5D5D5D3D3D3D1D1D1D4D4
310
D4D4D4D4D4D4D4D4D4D4D4D4D4D4D4D4D3D3D3D3D3D3CACACAC8C8C8F3F3F3F7
310
F7F7FFFFFFFCFCFC0000BEBEBEEBEBEBFFFFFFFFFFFFF6F6F6F7F7F7FFFFFFFF
310
FFFFFFFFFFFFFFFFFFFFFFFFFFFFFFFFFFFFFFFFFFFFFFFFFFFFFEFEFEFDFDFD
310
FFFFFFFFFFFFDADADAB8B8B8AEAEAEB9B9B9B0B0B0B0B0B0B0B0B0B1B1B1B2B2
310
B2B3B3B3B5B5B5B6B6B6B2B2B2B2B2B2B2B2B2B2B2B2B2B2B2B2B2B2B2B2B2B2
310
B2B2B0B0B0B4B4B4DBDBDBFFFFFFFEFEFEFEFEFEFEFEFEFCFCFCFFFFFFFFFFFF
310
FFFFFFFFFFFFFFFFFFFFFFFFFFFFFFFFFFFFFFFFFFDADADAF9F9F9E0E0E04848
310
48000000101010060705090804090804090804070602030303020404050A090A
310
0E0F0000010000000808080A08070403000401000502000A050012060026190B
310
7F7264D0C4B8F6EAE0FFFFF8CAC0B9362D29120B080C07060B06070B080A0403
310
07000003000003090A0E050406050505000000000000080808030303FFFFFFDF
310
DFDFCCCCCCCFCFCFD2D2D2D4D4D4D5D5D5D4D4D4D2D2D2D1D1D1D2D2D2D2D2D2
310
D3D3D3D5D5D5D6D6D6D5D5D5D2D2D2CFCFCFD2D2D2D1D1D1D0D0D0D0D0D0D0D0
310
D0D2D2D2D4D4D4D5D5D5D4D4D4D3D3D3D3D3D3D3D3D3D3D3D3D3D3D3D3D3D3D4
310
D4D4CFCFCFD0D0D0D2D2D2D4D4D4D4D4D4D2D2D2D0D0D0CFCFCFD9D9D9D9D9D9
310
D8D8D8D8D8D8D7D7D7D6D6D6D5D5D5D5D5D5D5D5D5D1D1D1F8F8F8FAFAFAFFFF
310
FFFCFCFC0000FFFFFFFFFFFFFFFFFFFFFFFFFFFFFFFEFEFEFBFBFBF9F9F9FFFF
310
FFFFFFFFFFFFFFFFFFFFFFFFFFFFFFFFFFFFFFFFFFFFFFFFFFFFFFFFFDFDFDFA
310
FAFAB7B7B7B2B2B2AFAFAFBBBBBBB0B0B0B0B0B0B0B0B0B0B0B0B1B1B1B3B3B3
310
B4B4B4B5B5B5B2B2B2B2B2B2B2B2B2B2B2B2B2B2B2B2B2B2B2B2B2B2B2B2B0B0
310
B0B4B4B4C2C2C2FFFFFFFDFDFDFDFDFDFFFFFFF8F8F8FFFFFFFFFFFFFFFFFFFF
310
FFFFFFFFFFFFFFFFFFFFFFFFFFFFFEFEFEFFFFFFFFFFFFFFFFFFFFFFFFCECECE
310
6060600202020809070001000201000001000506040608080000000001000F0D
310
0C0C09050903000901000B0200120900281D0F3E2E1DBCA58FD7BFA7E1C9B3E3
310
CBB7E5CFBDE0CCBBF6E6D6FFFFF5F2E6DC9C928B3E35310F0805050000050001
310
030101040202030303060606070707020202090909000000EDEDEDD0D0D0CECE
310
CED1D1D1D4D4D4D7D7D7D7D7D7D6D6D6D3D3D3D1D1D1D4D4D4D2D2D2D1D1D1D2
310
D2D2D5D5D5D4D4D4D1D1D1CDCDCDD6D6D6D5D5D5D4D4D4D3D3D3D2D2D2D2D2D2
310
D2D2D2D2D2D2D4D4D4D5D5D5D6D6D6D7D7D7D7D7D7D6D6D6D5D5D5D4D4D4D2D2
310
D2D3D3D3D5D5D5D6D6D6D6D6D6D5D5D5D3D3D3D2D2D2CCCCCCCCCCCCCCCCCCCB
310
CBCBCBCBCBCACACACACACACACACAD7D7D7D2D2D2F9F9F9FCFCFCFFFFFFFDFDFD
310
0000FEFEFEF6F6F6F8F8F8FFFFFFFFFFFFFCFCFCFBFBFBFFFFFFFFFFFFFFFFFF
310
FFFFFFFFFFFFFFFFFFFFFFFFFFFFFFFFFFFFFFFFFFF6F6F6FBFBFBC7C7C7B1B1
310
B1A2A2A2BEBEBEAFAFAFB2B2B2B1B1B1B1B1B1B0B0B0B1B1B1B1B1B1B2B2B2B3
310
B3B3B2B2B2B2B2B2B2B2B2B2B2B2B2B2B2B2B2B2B2B2B2B2B2B2B1B1B1B5B5B5
310
B3B3B3F7F7F7FDFDFDFEFEFEFFFFFFF8F8F8FFFFFFFFFFFFFFFFFFFFFFFFFFFF
310
FFFFFFFFFFFFFFFFFFFFFFFFFFF6F6F6EFEFEFFAFAFAFFFFFFFFFFFFFBFBFBFF
310
FFFFA6A7A5797C7A40413F1314120001000001000705040C07040701000B0200
310
1E120847372A786655A99381D4BCA8F4D9BFEECCAEF1CCAAF3D0AFF2D0B2E7C9
310
AEE1C3AADABFAAD0BBA6EEDBCCF9E9DCFFFEF4FFFEF5D9D0CC968F8C6964615C
310
58573937372D2D2D2828282121212E2E2E2F2F2FECECECD7D7D7CBCBCBCCCCCC
310
CFCFCFD0D0D0D0D0D0CDCDCDCACACAC8C8C8CFCFCFCBCBCBC8C8C8C7C7C7CACA
310
CACBCBCBCACACAC7C7C7CCCCCCCDCDCDCFCFCFCFCFCFCFCFCFCDCDCDCACACAC9
310
C9C9C8C8C8C9C9C9CBCBCBCCCCCCCCCCCCCBCBCBC9C9C9C8C8C8C9C9C9C9C9C9
310
CBCBCBCBCBCBCBCBCBCBCBCBC9C9C9C9C9C9D0D0D0D0D0D0D0D0D0D1D1D1D1D1
310
D1D2D2D2D2D2D2D2D2D2CBCBCBC7C7C7F0F0F0F6F6F6FFFFFFFFFFFF0000F9F9
310
F9FFFFFFFFFFFFFAFAFAF5F5F5FBFBFBFFFFFFFFFFFFFFFFFFFFFFFFFFFFFFFF
310
FFFFFFFFFFFFFFFFFFFFFFFFFFFFFFFFFFF4F4F4DDDDDDB6B6B6A9A9A9B1B1B1
310
BCBCBCAFAFAFB3B3B3B3B3B3B1B1B1B0B0B0B0B0B0B0B0B0B0B0B0B0B0B0B2B2
310
B2B2B2B2B2B2B2B2B2B2B2B2B2B2B2B2B2B2B2B2B2B2B2B2B2B6B6B6AEAEAEE0
310
E0E0FDFDFDFFFFFFFFFFFFFBFBFBFFFFFFFFFFFFFFFFFFFFFFFFFFFFFFFFFFFF
310
FFFFFFFFFFFFF8F8F8FBFBFBFFFFFFFFFFFFFCFCFCFDFDFDFFFFFFF5F5F5FDFF
310
FFFDFFFEFAFDFBF0F3F1E6E7E5DEDCDBDCD7D4DED5D1D4C9C1D1C1B5D5C2B3E9
310
D1BFF5DAC5F4D6BDEFCEB4EECBAAFBCFAAF9CCA6F8CCA7EFC5A2E7C0A0F3CFB1
310
F5D7BCE2C8B0E5CDBBD6C3B4D7CABCECE2D8FFFAF3FFFFFBFFFCF9FBF7F6F5F3
310
F3F3F3F3FFFFFFFFFFFFFFFFFFE0E0E0FFFFFFD1D1D1DADADADADADADBDBDBDB
310
DBDBDADADAD8D8D8D7D7D7D5D5D5DCDCDCD9D9D9D6D6D6D5D5D5D6D6D6D8D8D8
310
D9D9D9D9D9D9D4D4D4D6D6D6D9D9D9DCDCDCDDDDDDDBDBDBD9D9D9D8D8D8D6D6
310
D6D7D7D7D8D8D8D9D9D9D9D9D9D8D8D8D7D7D7D6D6D6D7D7D7D7D7D7D8D8D8D8
310
D8D8D8D8D8D8D8D8D7D7D7D7D7D7D2D2D2D2D2D2D3D3D3D3D3D3D4D4D4D5D5D5
310
D6D6D6D6D6D6DCDCDCD4D4D4F7F7F7F8F8F8FFFFFFFFFFFF0000FAFAFAFFFFFF
310
FFFFFFFFFFFFFFFFFFFFFFFFFFFFFFF0F0F0FFFFFFFFFFFFFFFFFFFFFFFFFFFF
310
FFFFFFFFFFFFFFFFFFFFFFFFFFEEEEEEB7B7B7B9B9B9A9A9A9C2C2C2AEAEAEB5
310
B5B5B3B3B3B2B2B2B1B1B1B0B0B0B0B0B0B0B0B0B0B0B0B0B0B0B2B2B2B2B2B2
310
B2B2B2B2B2B2B2B2B2B2B2B2B2B2B2B2B2B2B0B0B0B7B7B7AFAFAFC5C5C5FBFB
310
FBFFFFFFFDFDFDFFFFFFFFFFFFFFFFFFFFFFFFFFFFFFFFFFFFFFFFFFFFFFFFFF
310
FFFFFFFFFFF5F5F5F9F9F9FDFDFDEDEDEDF5F5F5FFFFFFFDFFFFEBF0EFF3F8F7
310
FBFFFFFDFFFFFFFFFEFFFFFBFFFFFBFFFFF8F5E7DBE4D1C2D9C0ACDEBFA8E5C4
310
AAE9C3A5ECC3A2F4C8A3F4C39BFFD0A6FAC9A1F4C7A1FBD1AEECC5A5DFBDA0EE
310
D0B7D3BBA7DCCAB9ECDED2FBF2E8FFFCF5FFFFFAFFFFFCFFFFFEFFFFFFFFFFFF
310
FBFBFBF7F7F7FDFDFDFFFFFFFFFFFFFFFFFFFDFDFDFDFDFDFDFDFDFCFCFCFCFC
310
FCFCFCFCFCFCFCFDFDFDFBFBFBFCFCFCFDFDFDFDFDFDFCFCFCFCFCFCFDFDFDFF
310
FFFFF9F9F9FAFAFAFCFCFCFEFEFEFEFEFEFEFEFEFEFEFEFDFDFDFEFEFEFEFEFE
310
FFFFFFFFFFFFFFFFFFFFFFFFFEFEFEFEFEFEFDFDFDFEFEFEFEFEFEFEFEFEFEFE
310
FEFEFEFEFEFEFEFDFDFDFFFFFFFFFFFFFFFFFFFFFFFFFFFFFFFFFFFFFFFFFFFF
310
FFFFFDFDFDEEEEEEFFFFFFFEFEFEFFFFFFFCFCFC0000FFFFFFFFFFFFFAFAFAFA
310
FAFAFDFDFDFFFFFFFFFFFFFFFFFFFFFFFFFFFFFFFFFFFFFFFFFFFFFFFFFFFFFF
310
FFFFFFFFFFFFFBFBFBD3D3D3B0B0B0A1A1A1C3C3C3B0B0B0ABABABB1B1B1B1B1
310
B1B1B1B1B0B0B0B0B0B0B0B0B0B0B0B0B1B1B1B2B2B2B2B2B2B2B2B2B2B2B2B2
310
B2B2B2B2B2B2B2B2B2B2B2B2B2B2AFAFAFB6B6B6B2B2B2B3B3B3F9F9F9FEFEFE
310
F8F8F8FFFFFFFFFFFFFFFFFFFFFFFFFFFFFFFFFFFFFFFFFFFFFFFFFFFFFFF9F9
310
F9FDFDFDFFFFFFFFFFFFFFFFFFFEFEFEFDFDFDFDFFFFFBFFFFFAFFFFF7FCFBFA
310
FCFCFFFFFEFFFFFCFFFDF9FFFBF1EFDED1E2CCBADEC1ACE6C5ABF0CAACF0C7A6
310
F3C6A1F9CAA4F8C59DFFCDA5FFCEA8F5C8A3F0C5A4F0CAACEAC9AFE0C4ACE4CE
310
BCF4E4D4FFF9EFFFFEF7FFFCF7FCFAF9FBFBFBFAFCFCF6F6F6FCFCFCFFFFFFFF
310
FFFFF8F8F8FFFFFFEDEDEDFEFEFEFFFFFFFFFFFFFEFEFEFEFEFEFFFFFFFFFFFF
310
FFFFFFFFFFFFF9F9F9FDFDFDFFFFFFFFFFFFFFFFFFFEFEFEFFFFFFFFFFFFFFFF
310
FFFFFFFFFFFFFFFFFFFFFEFEFEFEFEFEFFFFFFFFFFFFFFFFFFFFFFFFFFFFFFFF
310
FFFFFFFFFFFFFFFFFFFFFFFFFFFFFEFEFEFEFEFEFEFEFEFEFEFEFEFEFEFEFEFE
310
FEFEFEFEFEFEFFFFFFFEFEFEFEFEFEFDFDFDFCFCFCFCFCFCFBFBFBFBFBFBFFFF
310
FFF5F5F5FFFFFFFBFBFBFFFFFFFBFBFB0000FFFFFFFFFFFFFFFFFFFFFFFFFFFF
310
FFFFFFFFFFFFFFFFFFFFFFFFFFFFFFFFFFFFFFFFFFFFFFFFFFFFFFFFFFFFFFFF
310
FFFFDDDDDDC6C6C6B7B7B7BCBCBCC4C4C4C2C2C2BDBDBDBDBDBDC0C0C0C0C0C0
310
C0C0C0C0C0C0C0C0C0C0C0C0C0C0C0C0C0C0C0C0C0C0C0C0C0C0C0C0C0C0C0C0
310
C0C0C0C0C0C0C0C0C0C0C1C1C1BFBFBFBBBBBBC0C0C0DADADAF8F8F8FFFFFFFB
310
FBFBFFFFFFFFFFFFFFFFFFFFFFFFFFFFFFFFFFFFFFFFFFFFFFFFFFFFFFFFFFFF
310
FFFFFFFFFFFFFFFFFFFFFFFFFFFFFFFDFFFFFAFFFFFAFFFFFBFFFFFDFFFFFFFF
310
FEFFFFFCFFFFF9FFFFF7F2E1D4DDC7B5E4C8B0E6C6A9EDC6A6FBD1AEFBCCA6FC
310
CDA7F3C6A1F7CAA8FACFAEF5CEAEEFCAAEE8C9B0E5CAB5E4CEBCFFFAEDFFFBF1
310
FFFDF6FFFFFBFFFFFFFBFFFFF9FEFFF8FDFEFDFFFFFFFFFFFFFFFFFFFFFFFFFF
310
FFFFFFFFFFFFFFFFFFFFFFFFFFFFFFFFFFFFFFFFFFFFFFFFFFFFFFFFFFFFFFFF
310
FFFFFFFFFFFFFFFFFFFFFFFFFFFFFFFFFFFFFFFFFFFFFFFFFFFFFFFFFFFFFFFF
310
FFFFFFFFFFFFFFFFFFFFFFFFFFFFFFFFFFFFFFFFFFFFFFFFFFFFFFFFFFFFFFFF
310
FFFFFFFFFFFFFFFFFFFFFFFFFFFFFFFFFFFFFFFFFFFFFFFFFFFFFFFFFFFFFFFF
310
FFFFFFFFFFFFFFFFFFFFFFFFFFFFFFFFFFFFFFFFFFFFFFFFFFFFFFFFFFFFFFFF
310
FFFFFFFFFFFFFFFFFFFFFFFF0000FFFFFFFFFFFFFFFFFFFFFFFFFFFFFFFFFFFF
310
FFFFFFFFFFFFFFFFFFFFFFFFFFFFFFFFFFFFFFFFFFFFFFFFFFFFFFFFFFFFFFFF
310
FFF9F9F9F4F4F4FBFBFBFFFFFFFBFBFBFAFAFAFEFEFEFBFBFBFBFBFBFBFBFBFB
310
FBFBFBFBFBFBFBFBFBFBFBFBFBFBFBFBFBFBFBFBFBFBFBFBFBFBFBFBFBFBFBFB
310
FBFBFBFBFBFBFDFDFDFEFEFEF8F8F8F2F2F2F8F8F8FFFFFFFFFFFFFEFEFEFFFF
310
FFFFFFFFFFFFFFFFFFFFFFFFFFFFFFFFFFFFFFFFFFFFFFFFFFFFFFFFFFFFFFFF
310
FFFFFFFFFFFFFFFFFFFFFFFDFFFFFAFFFFFAFFFFFBFFFFFDFFFFFFFFFEFFFFFC
310
FFFFF9FFFFF7FCECDFE3CDBBE6CCB4E7C9AEEAC4A4F0C8A5EDC19CF1C5A0F7D0
310
B0EFCAAEE5C2A8DDBBA3DCBFAAEAD1BDFEEAD9FFFCEFFFFAF0FFFBF4FFFDF9FE
310
FEFEFBFEFFFAFEFFF5FEFFF6FCFFFDFFFFFFFFFFFFFFFFFFFFFFFFFFFFFFFFFF
310
FFFFFFFFFFFFFFFFFFFFFFFFFFFFFFFFFFFFFFFFFFFFFFFFFFFFFFFFFFFFFFFF
310
FFFFFFFFFFFFFFFFFFFFFFFFFFFFFFFFFFFFFFFFFFFFFFFFFFFFFFFFFFFFFFFF
310
FFFFFFFFFFFFFFFFFFFFFFFFFFFFFFFFFFFFFFFFFFFFFFFFFFFFFFFFFFFFFFFF
310
FFFFFFFFFFFFFFFFFFFFFFFFFFFFFFFFFFFFFFFFFFFFFFFFFFFFFFFFFFFFFFFF
310
FFFFFFFFFFFFFFFFFFFFFFFFFFFFFFFFFFFFFFFFFFFFFFFFFFFFFFFFFFFFFFFF
310
FFFFFFFFFFFFFFFF0000FFFFFFFFFFFFFFFFFFFFFFFFFFFFFFFFFFFFFFFFFFFF
310
FFFFFFFFFFFFFFFFFFFFFFFFFFFFFFFFFFFFFFFFFFFFFFFFFFFFFFFFFFFCFCFC
310
FFFFFFFFFFFFFFFFFFFFFFFFFFFFFFFFFFFFFFFFFFFFFFFFFFFFFFFFFFFFFFFF
310
FFFFFFFFFFFFFFFFFFFFFFFFFFFFFFFFFFFFFFFFFFFFFFFFFFFFFFFFFFFFFFFF
310
FFFFFFFFFFFFFFFFFFFFFFFEFEFEF9F9F9FBFBFBFBFBFBF7F7F7FFFFFFFFFFFF
310
FFFFFFFFFFFFFFFFFFFFFFFFFFFFFFFFFFFFFFFFFFFFFFFFFFFFFFFFFFFFFFFF
310
FFFFFFFFFFFFFFFDFFFFFBFFFFFBFFFFFBFFFFFDFFFFFFFFFEFFFFFCFFFFFBFF
310
FFF8F1E3D7D5C3B2DCC4B0E6CAB2E8CAADF2CFAEF2CDABFAD7B6E0C2A9DFC4B0
310
E1C7B6E4CDBDECD7C8F8E7DAFFF9F0FFFFF8FFF9F5FFFBFAFDFDFDFAFDFFFAFE
310
FFF6FEFFF5FDFFF6FCFFFDFFFFFFFFFFFFFFFFFFFFFFFFFFFFFFFFFFFFFFFFFF
310
FFFFFFFFFFFFFFFFFFFFFFFFFFFFFFFFFFFFFFFFFFFFFFFFFFFFFFFFFFFFFFFF
310
FFFFFFFFFFFFFFFFFFFFFFFFFFFFFFFFFFFFFFFFFFFFFFFFFFFFFFFFFFFFFFFF
310
FFFFFFFFFFFFFFFFFFFFFFFFFFFFFFFFFFFFFFFFFFFFFFFFFFFFFFFFFFFFFFFF
310
FFFFFFFFFFFFFFFFFFFFFFFFFFFFFFFFFFFFFFFFFFFFFFFFFFFFFFFFFFFFFFFF
310
FFFFFFFFFFFFFFFFFFFFFFFFFFFFFFFFFFFFFFFFFFFFFFFFFFFFFFFFFFFFFFFF
310
FFFFFFFF0000FFFFFFFFFFFFFFFFFFFFFFFFFFFFFFFFFFFFFFFFFFFFFFFFFFFF
310
FFFFFFFFFFFFFFFFFFFFFFFFFFFFFFFFFFFFFFFFFFFFF8F8F8F8F8F8FCFCFCFF
310
FFFFFCFCFCF6F6F6F6F6F6FCFCFCFCFCFCFCFCFCFCFCFCFCFCFCFCFCFCFCFCFC
310
FCFCFCFCFCFCFCFCFCFCFCFCFCFCFCFCFCFCFCFCFCFCFCFCFCFCFCFCFCFCF5F5
310
F5FDFDFDFFFFFFFDFDFDFBFBFBFFFFFFFFFFFFFFFFFFFFFFFFFFFFFFFFFFFFFF
310
FFFFFFFFFFFFFFFFFFFFFFFFFFFFFFFFFFFFFFFFFFFFFFFFFFFFFFFFFFFFFFFF
310
FFFFFFFFFFFFFDFFFFFBFFFFFBFFFFFDFFFFFFFFFEFFFFFEFFFFFCFFFFF9F3EA
310
E0D3C6B8D8C6B5DFCAB5DDC5ADDEC3A8DDC0A1E6CBB0D8C4B2E1D1C4F5E5D9FF
310
F4EBFFFCF4FFFDF6FFFBF4FEF8F3FFFBFAFCFCFCFBFDFEF9FEFFF8FEFFF8FEFF
310
F5FDFFF6FCFFFDFFFFFFFFFFFFFFFFFFFFFFFFFFFFFFFFFFFFFFFFFFFFFFFFFF
310
FFFFFFFFFFFFFFFFFFFFFFFFFFFFFFFFFFFFFFFFFFFFFFFFFFFFFFFFFFFFFFFF
310
FFFFFFFFFFFFFFFFFFFFFFFFFFFFFFFFFFFFFFFFFFFFFFFFFFFFFFFFFFFFFFFF
310
FFFFFFFFFFFFFFFFFFFFFFFFFFFFFFFFFFFFFFFFFFFFFFFFFFFFFFFFFFFFFFFF
310
FFFFFFFFFFFFFFFFFFFFFFFFFFFFFFFFFFFFFFFFFFFFFFFFFFFFFFFFFFFFFFFF
310
FFFFFFFFFFFFFFFFFFFFFFFFFFFFFFFFFFFFFFFFFFFFFFFFFFFFFFFFFFFFFFFF
310
0000FFFFFFFFFFFFFFFFFFFFFFFFFFFFFFFFFFFFFFFFFFFFFFFFFFFFFFFFFFFF
310
FFFFFFFFFFFFFFFFFFFFFFFFFFFFFFFFFFFFFFFFFFFFFFFFFFFFFFFFFFFFFFFF
310
FFFEFEFEFDFDFDFFFFFFFFFFFFFFFFFFFFFFFFFFFFFFFFFFFFFFFFFFFFFFFFFF
310
FFFFFFFFFFFFFFFFFFFFFFFFFFFFFFFFFFFFFFFFFFFFFFFFFFFFFEFEFEFFFFFF
310
FFFFFFFEFEFEFFFFFFFFFFFFFFFFFFFFFFFFFFFFFFFFFFFFFFFFFFFFFFFFFFFF
310
FFFFFFFFFFFFFFFFFFFFFFFFFFFFFFFFFFFFFFFFFFFFFFFFFFFFFFFFFFFFFFFF
310
FFFFFDFFFFFDFFFFFDFFFFFDFFFFFFFFFFFFFFFEFFFFFCFFFFFBE8E2DBCCC3B9
310
D3C7BBDBCCBCDBCAB7DECCB5DECAB1E5D4BFF6EDE0F8F2EBFFFBF4FFFFFBFFFF
310
FBFFFFFCFFFFFCFFFEFDFCFDFBFBFDFDF9FEFDFAFEFFF9FEFFF9FEFFF9FEFFFA
310
FEFFFDFFFFFFFFFFFFFFFFFFFFFFFFFFFFFFFFFFFFFFFFFFFFFFFFFFFFFFFFFF
310
FFFFFFFFFFFFFFFFFFFFFFFFFFFFFFFFFFFFFFFFFFFFFFFFFFFFFFFFFFFFFFFF
310
FFFFFFFFFFFFFFFFFFFFFFFFFFFFFFFFFFFFFFFFFFFFFFFFFFFFFFFFFFFFFFFF
310
FFFFFFFFFFFFFFFFFFFFFFFFFFFFFFFFFFFFFFFFFFFFFFFFFFFFFFFFFFFFFFFF
310
FFFFFFFFFFFFFFFFFFFFFFFFFFFFFFFFFFFFFFFFFFFFFFFFFFFFFFFFFFFFFFFF
310
FFFFFFFFFFFFFFFFFFFFFFFFFFFFFFFFFFFFFFFFFFFFFFFFFFFFFFFF0000FFFF
310
FFFFFFFFFFFFFFFFFFFFFFFFFFFFFFFFFFFFFFFFFFFFFFFFFFFFFFFFFFFFFFFF
310
FFFFFFFFFFFFFFFFFFFFFFFFFFFFFFFFFFFDFDFDFAFAFAFAFAFAFDFDFDFFFFFF
310
FEFEFEFDFDFDFDFDFDFDFDFDFDFDFDFDFDFDFDFDFDFDFDFDFDFDFDFDFDFDFDFD
310
FDFDFDFDFDFDFDFDFDFDFDFDFDFDFDFDFDFDFDFDFDFDFFFFFFFDFDFDFAFAFAF9
310
F9F9FCFCFCFEFEFEFDFDFDFAFAFAFFFFFFFFFFFFFFFFFFFFFFFFFFFFFFFFFFFF
310
FFFFFFFFFFFFFFFFFFFFFFFFFFFFFFFFFFFFFFFFFFFFFFFFFFFFFFFFFFFFFFFF
310
FEFDFFFEFDFFFFFDFFFFFFFFFFFFFFFFFFFFFEFFFFFCEAE7E2D6D3CBE5DED5EE
310
E6D9F4EAD9FFF6E4FFF7E4FFFFEFFFFFF9FFFFFEFFFFFEFEFFFDFEFFFDFEFFFD
310
FFFFFEFDFFFEFCFEFEFCFEFEFCFEFEFCFEFEFCFEFEFCFEFEFCFEFEFCFEFEFFFF
310
FFFFFFFFFFFFFFFFFFFFFFFFFFFFFFFFFFFFFFFFFFFFFFFFFFFFFFFFFFFFFFFF
310
FFFFFFFFFFFFFFFFFFFFFFFFFFFFFFFFFFFFFFFFFFFFFFFFFFFFFFFFFFFFFFFF
310
FFFFFFFFFFFFFFFFFFFFFFFFFFFFFFFFFFFFFFFFFFFFFFFFFFFFFFFFFFFFFFFF
310
FFFFFFFFFFFFFFFFFFFFFFFFFFFFFFFFFFFFFFFFFFFFFFFFFFFFFFFFFFFFFFFF
310
FFFFFFFFFFFFFFFFFFFFFFFFFFFFFFFFFFFFFFFFFFFFFFFFFFFFFFFFFFFFFFFF
310
FFFFFFFFFFFFFFFFFFFFFFFFFFFFFFFFFFFFFFFFFFFFFFFF0000FFFFFFFFFFFF
310
FFFFFFFFFFFFFFFFFFFFFFFFFFFFFFFFFFFFFFFFFFFFFFFFFFFFFFFFFFFFFFFF
310
FFFFFFFFFFFFFFFFFFFFFFFFFFFEFEFEFDFDFDFDFDFDFEFEFEFFFFFFFFFFFFFF
310
FFFFFFFFFFFFFFFFFFFFFFFFFFFFFFFFFFFFFFFFFFFFFFFFFFFFFFFFFFFFFFFF
310
FFFFFFFFFFFFFFFFFFFFFFFFFFFFFFFFFFFFFFFFFFFFFFFFFEFEFEFFFFFFFFFF
310
FFFFFFFFFFFFFFFFFFFFFFFFFFFFFFFFFFFFFFFFFFFFFFFFFFFFFFFFFFFFFFFF
310
FFFFFFFFFFFFFFFFFFFFFFFFFFFFFFFFFFFFFFFFFFFFFFFFFFFFFFFFFEFFFFFC
310
FFFFFEFFFFFEFDFFFFFDFFFFFDFFFFFFFFFEFFFFFEFAF9F5FFFFFBFFFFF5FFFC
310
F1FFFFF4FFFFF2FFFFF5F9FDF8F7FDFCF7FDFCF8FEFDFAFFFEF9FEFDF7FCFAF7
310
FAF8FDFFFEFFFFFEFEFFFDFEFFFBFFFFFBFFFFFBFFFFFBFFFFFCFFFFFFFFFFFF
310
FFFFFFFFFFFFFFFFFFFFFFFFFFFFFFFFFFFFFFFFFFFFFFFFFFFFFFFFFFFFFFFF
310
FFFFFFFFFFFFFFFFFFFFFFFFFFFFFFFFFFFFFFFFFFFFFFFFFFFFFFFFFFFFFFFF
310
FFFFFFFFFFFFFFFFFFFFFFFFFFFFFFFFFFFFFFFFFFFFFFFFFFFFFFFFFFFFFFFF
310
FFFFFFFFFFFFFFFFFFFFFFFFFFFFFFFFFFFFFFFFFFFFFFFFFFFFFFFFFFFFFFFF
310
FFFFFFFFFFFFFFFFFFFFFFFFFFFFFFFFFFFFFFFFFFFFFFFFFFFFFFFFFFFFFFFF
310
FFFFFFFFFFFFFFFFFFFFFFFFFFFFFFFFFFFFFFFF0000FFFFFFFFFFFFFFFFFFFF
310
FFFFFFFFFFFFFFFFFFFFFFFFFFFFFFFFFFFFFFFFFFFFFFFFFFFFFFFFFFFFFFFF
310
FFFFFFFFFFFFFCFCFCFFFFFFFFFFFFFFFFFFFDFDFDFDFDFDFDFDFDFCFCFCFFFF
310
FFFFFFFFFFFFFFFFFFFFFFFFFFFFFFFFFFFFFFFFFFFFFFFFFFFFFFFFFFFFFFFF
310
FFFFFFFFFFFFFFFFFFFFFFFFFFFFFAFAFAFBFBFBFEFEFEFFFFFFFFFFFFFCFCFC
310
FCFCFCFDFDFDFFFFFFFFFFFFFFFFFFFFFFFFFFFFFFFFFFFFFFFFFFFFFFFFFFFF
310
FFFFFFFFFFFFFFFFFFFFFFFFFFFFFFFFFFFFFFFFFFFEFFFFFEFFFFFCFFFFFEFF
310
FFFEFDFFFFFDFFFFFDFFFFFDFFFFFAFDFBF2F6F1FFFFFCFAFBF2FAF8EEFFFFF5
310
FFFFF5FEFEF2FAFFFEF5FFFFF6FEFEF6FEFEFAFFFFFAFFFFFBFFFEFBFFFEFFFF
310
FEFFFFFEFFFFFBFFFFFBFFFFFAFFFFFAFFFFFBFFFFFCFFFFFEFFFFFFFFFFFFFF
310
FFFFFFFFFFFFFFFFFFFFFFFFFFFFFFFFFFFFFFFFFFFFFFFFFFFFFFFFFFFFFFFF
310
FFFFFFFFFFFFFFFFFFFFFFFFFFFFFFFFFFFFFFFFFFFFFFFFFFFFFFFFFFFFFFFF
310
FFFFFFFFFFFFFFFFFFFFFFFFFFFFFFFFFFFFFFFFFFFFFFFFFFFFFFFFFFFFFFFF
310
FFFFFFFFFFFFFFFFFFFFFFFFFFFFFFFFFFFFFFFFFFFFFFFFFFFFFFFFFFFFFFFF
310
FFFFFFFFFFFFFFFFFFFFFFFFFFFFFFFFFFFFFFFFFFFFFFFFFFFFFFFFFFFFFFFF
310
FFFFFFFFFFFFFFFFFFFFFFFFFFFFFFFF00000000000000000000000000000000
310
0000000000000000000000000000000000000000000000000000000000000000
310
0000000000000000000000000000000000000000000000000000000000000000
310
0000000000000000000000000000000000000000000000000000000000000000
310
0000000000000000000000000000000000000000000000000000000000000000
310
0000000000000000000000000000000000000000000000000000000000000000
310
0000000000000000000000000000000000000000000000000000000000000000
310
0000000000000000000000000000000000000000000000000000000000000000
310
0000000000000000000000000000000000000000000000000000000000000000
310
0000000000000000000000000000000000000000000000000000000000000000
  1
OLE
  0
ENDSEC
  0
SECTION
  2
OBJECTS
  0
DICTIONARY
  5
C
330
0
100
AcDbDictionary
  3
ACAD_GROUP
350
D
  3
ACAD_MLINESTYLE
350
17
  0
DICTIONARY
  5
D
102
{ACAD_REACTORS
330
C
102
}
330
C
100
AcDbDictionary
  0
DICTIONARY
  5
17
102
{ACAD_REACTORS
330
C
102
}
330
C
100
AcDbDictionary
  3
STANDARD
350
18
  0
MLINESTYLE
  5
18
102
{ACAD_REACTORS
330
17
102
}
330
17
100
AcDbMlineStyle
  2
Standard
 70
     0
  3

 62
   256
 51
90.0
 52
90.0
 71
     2
 49
0.5
 62
   256
  6
BYLAYER
 49
-0.5
 62
   256
  6
BYLAYER
  0
ENDSEC
  0
EOF
