  0
SECTION
  2
HEADER
  9
$ACADVER
  1
AC1024
  9
$ACADMAINTVER
 70
     6
  9
$DWGCODEPAGE
  3
ANSI_1252
  9
$LASTSAVEDBY
  1
michela
  9
$INSBASE
 10
0.0
 20
0.0
 30
0.0
  9
$EXTMIN
 10
0.0
 20
0.0
 30
0.0
  9
$EXTMAX
 10
840.0
 20
594.0
 30
0.0
  9
$LIMMIN
 10
0.0
 20
0.0
  9
$LIMMAX
 10
840.0
 20
594.0
  9
$ORTHOMODE
 70
     0
  9
$REGENMODE
 70
     1
  9
$FILLMODE
 70
     1
  9
$QTEXTMODE
 70
     0
  9
$MIRRTEXT
 70
     1
  9
$LTSCALE
 40
2.0
  9
$ATTMODE
 70
     1
  9
$TEXTSIZE
 40
7.0
  9
$TRACEWID
 40
1.0
  9
$TEXTSTYLE
  7
STANDARD
  9
$CLAYER
  8
0
  9
$CELTYPE
  6
BYLAYER
  9
$CECOLOR
 62
   256
  9
$CELTSCALE
 40
1.0
  9
$DISPSILH
 70
     0
  9
$DIMSCALE
 40
1.0
  9
$DIMASZ
 40
5.0
  9
$DIMEXO
 40
2.0
  9
$DIMDLI
 40
3.75
  9
$DIMRND
 40
0.0
  9
$DIMDLE
 40
0.0
  9
$DIMEXE
 40
2.0
  9
$DIMTP
 40
0.0
  9
$DIMTM
 40
0.0
  9
$DIMTXT
 40
7.0
  9
$DIMCEN
 40
2.5
  9
$DIMTSZ
 40
0.0
  9
$DIMTOL
 70
     0
  9
$DIMLIM
 70
     0
  9
$DIMTIH
 70
     1
  9
$DIMTOH
 70
     1
  9
$DIMSE1
 70
     0
  9
$DIMSE2
 70
     0
  9
$DIMTAD
 70
     1
  9
$DIMZIN
 70
     0
  9
$DIMBLK
  1

  9
$DIMASO
 70
     1
  9
$DIMSHO
 70
     1
  9
$DIMPOST
  1

  9
$DIMAPOST
  1

  9
$DIMALT
 70
     0
  9
$DIMALTD
 70
     3
  9
$DIMALTF
 40
0.0393700787
  9
$DIMLFAC
 40
1.0
  9
$DIMTOFL
 70
     1
  9
$DIMTVP
 40
0.0
  9
$DIMTIX
 70
     0
  9
$DIMSOXD
 70
     0
  9
$DIMSAH
 70
     0
  9
$DIMBLK1
  1

  9
$DIMBLK2
  1

  9
$DIMSTYLE
  2
ISO-25
  9
$DIMCLRD
 70
     0
  9
$DIMCLRE
 70
     0
  9
$DIMCLRT
 70
     0
  9
$DIMTFAC
 40
1.0
  9
$DIMGAP
 40
3.048
  9
$DIMJUST
 70
     0
  9
$DIMSD1
 70
     0
  9
$DIMSD2
 70
     0
  9
$DIMTOLJ
 70
     0
  9
$DIMTZIN
 70
     0
  9
$DIMALTZ
 70
     0
  9
$DIMALTTZ
 70
     0
  9
$DIMUPT
 70
     0
  9
$DIMDEC
 70
     2
  9
$DIMTDEC
 70
     2
  9
$DIMALTU
 70
     2
  9
$DIMALTTD
 70
     3
  9
$DIMTXSTY
  7
STANDARD
  9
$DIMAUNIT
 70
     0
  9
$DIMADEC
 70
     0
  9
$DIMALTRND
 40
0.0
  9
$DIMAZIN
 70
     0
  9
$DIMDSEP
 70
    46
  9
$DIMATFIT
 70
     3
  9
$DIMFRAC
 70
     0
  9
$DIMLDRBLK
  1

  9
$DIMLUNIT
 70
     2
  9
$DIMLWD
 70
    -2
  9
$DIMLWE
 70
    -2
  9
$DIMTMOVE
 70
     2
  9
$DIMFXL
 40
1.0
  9
$DIMFXLON
 70
     0
  9
$DIMJOGANG
 40
0.7853981633974483
  9
$DIMTFILL
 70
     0
  9
$DIMTFILLCLR
 70
     0
  9
$DIMARCSYM
 70
     0
  9
$DIMLTYPE
  6

  9
$DIMLTEX1
  6

  9
$DIMLTEX2
  6

  9
$DIMTXTDIRECTION
 70
     0
  9
$LUNITS
 70
     2
  9
$LUPREC
 70
     2
  9
$SKETCHINC
 40
1.0
  9
$FILLETRAD
 40
10.0
  9
$AUNITS
 70
     0
  9
$AUPREC
 70
     2
  9
$MENU
  1
.
  9
$ELEVATION
 40
0.0
  9
$PELEVATION
 40
0.0
  9
$THICKNESS
 40
0.0
  9
$LIMCHECK
 70
     0
  9
$CHAMFERA
 40
10.0
  9
$CHAMFERB
 40
10.0
  9
$CHAMFERC
 40
20.0
  9
$CHAMFERD
 40
0.0
  9
$SKPOLY
 70
     0
  9
$TDCREATE
 40
2456399.367871424
  9
$TDUCREATE
 40
2456399.28453809
  9
$TDUPDATE
 40
2456399.368253623
  9
$TDUUPDATE
 40
2456399.284920289
  9
$TDINDWG
 40
0.0000000116
  9
$TDUSRTIMER
 40
2456399.284709803
  9
$USRTIMER
 70
     1
  9
$ANGBASE
 50
0.0
  9
$ANGDIR
 70
     0
  9
$PDMODE
 70
     0
  9
$PDSIZE
 40
-1.0
  9
$PLINEWID
 40
0.0
  9
$SPLFRAME
 70
     0
  9
$SPLINETYPE
 70
     6
  9
$SPLINESEGS
 70
     8
  9
$HANDSEED
  5
3E7
  9
$SURFTAB1
 70
     6
  9
$SURFTAB2
 70
     6
  9
$SURFTYPE
 70
     6
  9
$SURFU
 70
     6
  9
$SURFV
 70
     6
  9
$UCSBASE
  2

  9
$UCSNAME
  2

  9
$UCSORG
 10
0.0
 20
0.0
 30
0.0
  9
$UCSXDIR
 10
1.0
 20
0.0
 30
0.0
  9
$UCSYDIR
 10
0.0
 20
1.0
 30
0.0
  9
$UCSORTHOREF
  2

  9
$UCSORTHOVIEW
 70
     0
  9
$UCSORGTOP
 10
0.0
 20
0.0
 30
0.0
  9
$UCSORGBOTTOM
 10
0.0
 20
0.0
 30
0.0
  9
$UCSORGLEFT
 10
0.0
 20
0.0
 30
0.0
  9
$UCSORGRIGHT
 10
0.0
 20
0.0
 30
0.0
  9
$UCSORGFRONT
 10
0.0
 20
0.0
 30
0.0
  9
$UCSORGBACK
 10
0.0
 20
0.0
 30
0.0
  9
$PUCSBASE
  2

  9
$PUCSNAME
  2

  9
$PUCSORG
 10
0.0
 20
0.0
 30
0.0
  9
$PUCSXDIR
 10
1.0
 20
0.0
 30
0.0
  9
$PUCSYDIR
 10
0.0
 20
1.0
 30
0.0
  9
$PUCSORTHOREF
  2

  9
$PUCSORTHOVIEW
 70
     0
  9
$PUCSORGTOP
 10
0.0
 20
0.0
 30
0.0
  9
$PUCSORGBOTTOM
 10
0.0
 20
0.0
 30
0.0
  9
$PUCSORGLEFT
 10
0.0
 20
0.0
 30
0.0
  9
$PUCSORGRIGHT
 10
0.0
 20
0.0
 30
0.0
  9
$PUCSORGFRONT
 10
0.0
 20
0.0
 30
0.0
  9
$PUCSORGBACK
 10
0.0
 20
0.0
 30
0.0
  9
$USERI1
 70
     0
  9
$USERI2
 70
     0
  9
$USERI3
 70
     0
  9
$USERI4
 70
     0
  9
$USERI5
 70
     0
  9
$USERR1
 40
0.0
  9
$USERR2
 40
0.0
  9
$USERR3
 40
0.0
  9
$USERR4
 40
0.0
  9
$USERR5
 40
0.0
  9
$WORLDVIEW
 70
     1
  9
$SHADEDGE
 70
     3
  9
$SHADEDIF
 70
    70
  9
$TILEMODE
 70
     1
  9
$MAXACTVP
 70
    64
  9
$PINSBASE
 10
0.0
 20
0.0
 30
0.0
  9
$PLIMCHECK
 70
     0
  9
$PEXTMIN
 10
1.000000000000000E+20
 20
1.000000000000000E+20
 30
1.000000000000000E+20
  9
$PEXTMAX
 10
-1.000000000000000E+20
 20
-1.000000000000000E+20
 30
-1.000000000000000E+20
  9
$PLIMMIN
 10
0.0
 20
0.0
  9
$PLIMMAX
 10
0.0
 20
0.0
  9
$UNITMODE
 70
     0
  9
$VISRETAIN
 70
     1
  9
$PLINEGEN
 70
     0
  9
$PSLTSCALE
 70
     1
  9
$TREEDEPTH
 70
  3020
  9
$CMLSTYLE
  2
STANDARD
  9
$CMLJUST
 70
     0
  9
$CMLSCALE
 40
20.0
  9
$PROXYGRAPHICS
 70
     1
  9
$MEASUREMENT
 70
     1
  9
$CELWEIGHT
370
    -1
  9
$ENDCAPS
280
     0
  9
$JOINSTYLE
280
     0
  9
$LWDISPLAY
290
     0
  9
$INSUNITS
 70
     0
  9
$HYPERLINKBASE
  1

  9
$STYLESHEET
  1

  9
$XEDIT
290
     1
  9
$CEPSNTYPE
380
     0
  9
$PSTYLEMODE
290
     1
  9
$FINGERPRINTGUID
  2
{D6CB1ACA-07FE-4820-A750-9645057C86B2}
  9
$VERSIONGUID
  2
{FAEB1C32-E019-11D5-929B-00C0DF256EC4}
  9
$EXTNAMES
290
     1
  9
$PSVPSCALE
 40
0.0
  9
$OLESTARTUP
290
     0
  9
$SORTENTS
280
   127
  9
$INDEXCTL
280
     0
  9
$HIDETEXT
280
     1
  9
$XCLIPFRAME
280
     2
  9
$HALOGAP
280
     0
  9
$OBSCOLOR
 70
   257
  9
$OBSLTYPE
280
     0
  9
$INTERSECTIONDISPLAY
280
     0
  9
$INTERSECTIONCOLOR
 70
   257
  9
$DIMASSOC
280
     2
  9
$PROJECTNAME
  1

  9
$CAMERADISPLAY
290
     0
  9
$LENSLENGTH
 40
50.0
  9
$CAMERAHEIGHT
 40
0.0
  9
$STEPSPERSEC
 40
2.0
  9
$STEPSIZE
 40
6.0
  9
$3DDWFPREC
 40
2.0
  9
$PSOLWIDTH
 40
0.25
  9
$PSOLHEIGHT
 40
4.0
  9
$LOFTANG1
 40
1.570796326794897
  9
$LOFTANG2
 40
1.570796326794897
  9
$LOFTMAG1
 40
0.0
  9
$LOFTMAG2
 40
0.0
  9
$LOFTPARAM
 70
     7
  9
$LOFTNORMALS
280
     1
  9
$LATITUDE
 40
37.795
  9
$LONGITUDE
 40
-122.394
  9
$NORTHDIRECTION
 40
0.0
  9
$TIMEZONE
 70
 -8000
  9
$LIGHTGLYPHDISPLAY
280
     1
  9
$TILEMODELIGHTSYNCH
280
     1
  9
$SOLIDHIST
280
     1
  9
$SHOWHIST
280
     1
  9
$DWFFRAME
280
     2
  9
$DGNFRAME
280
     2
  9
$REALWORLDSCALE
290
     1
  9
$INTERFERECOLOR
 62
   256
  9
$CSHADOW
280
     0
  9
$SHADOWPLANELOCATION
 40
0.0
  0
ENDSEC
  0
SECTION
  2
CLASSES
  0
CLASS
  1
ACDBDICTIONARYWDFLT
  2
AcDbDictionaryWithDefault
  3
ObjectDBX Classes
 90
        0
 91
        4
280
     0
281
     0
  0
CLASS
  1
VISUALSTYLE
  2
AcDbVisualStyle
  3
ObjectDBX Classes
 90
     4095
 91
        4
280
     0
281
     0
  0
CLASS
  1
MATERIAL
  2
AcDbMaterial
  3
ObjectDBX Classes
 90
     1153
 91
        4
280
     0
281
     0
  0
CLASS
  1
XRECORD
  2
AcDbXrecord
  3
AutoCAD 2000
 90
        0
 91
        1
280
     0
281
     0
  0
CLASS
  1
LWPOLYLINE
  2
AcDbPolyline
  3
AutoCAD 2000
 90
        0
 91
        1
280
     0
281
     1
  0
CLASS
  1
HATCH
  2
AcDbHatch
  3
AutoCAD 2000
 90
        0
 91
        1
280
     0
281
     1
  0
CLASS
  1
SCALE
  2
AcDbScale
  3
ObjectDBX Classes
 90
     1153
 91
        4
280
     0
281
     0
  0
CLASS
  1
TABLESTYLE
  2
AcDbTableStyle
  3
ObjectDBX Classes
 90
     4095
 91
        4
280
     0
281
     0
  0
CLASS
  1
RASTERVARIABLES
  2
AcDbRasterVariables
  3
ISM
 90
        0
 91
        4
280
     0
281
     0
  0
CLASS
  1
DICTIONARYVAR
  2
AcDbDictionaryVar
  3
ObjectDBX Classes
 90
        0
 91
        4
280
     0
281
     0
  0
CLASS
  1
CELLSTYLEMAP
  2
AcDbCellStyleMap
  3
ObjectDBX Classes
 90
     1152
 91
        4
280
     0
281
     0
  0
ENDSEC
  0
SECTION
  2
TABLES
  0
TABLE
  2
VPORT
  5
8
330
0
100
AcDbSymbolTable
 70
     1
  0
VPORT
  5
29
330
8
100
AcDbSymbolTableRecord
100
AcDbViewportTableRecord
  2
*ACTIVE
 70
     0
 10
0.0
 20
0.0
 11
1.0
 21
1.0
 12
484.6881020804115
 22
48.06393847636718
 13
0.0
 23
0.0
 14
10.0
 24
10.0
 15
10.0
 25
10.0
 16
0.0
 26
0.0
 36
1.0
 17
0.0
 27
0.0
 37
0.0
 40
79.72533043200005
 41
1.987745098039216
 42
50.0
 43
0.0
 44
0.0
 50
0.0
 51
0.0
 71
    16
 72
  2000
 73
     1
 74
     3
 75
     0
 76
     0
 77
     0
 78
     0
281
     0
 65
     1
110
0.0
120
0.0
130
0.0
111
1.0
121
0.0
131
0.0
112
0.0
122
1.0
132
0.0
 79
     0
146
0.0
 60
     3
 61
     5
292
     1
282
     1
141
0.0
142
0.0
 63
   256
  0
ENDTAB
  0
TABLE
  2
LTYPE
  5
5
330
0
100
AcDbSymbolTable
 70
     6
  0
LTYPE
  5
14
330
5
100
AcDbSymbolTableRecord
100
AcDbLinetypeTableRecord
  2
BYBLOCK
 70
     0
  3

 72
    65
 73
     0
 40
0.0
  0
LTYPE
  5
15
330
5
100
AcDbSymbolTableRecord
100
AcDbLinetypeTableRecord
  2
BYLAYER
 70
     0
  3

 72
    65
 73
     0
 40
0.0
  0
LTYPE
  5
16
330
5
100
AcDbSymbolTableRecord
100
AcDbLinetypeTableRecord
  2
CONTINUOUS
 70
     0
  3
Solid line
 72
    65
 73
     0
 40
0.0
  0
LTYPE
  5
3F
330
5
100
AcDbSymbolTableRecord
100
AcDbLinetypeTableRecord
  2
HIDDEN
 70
     0
  3
Hidden __ __ __ __ __ __ __ __ __ __ __ __ __ __
 72
    65
 73
     2
 40
1.905
 49
1.27
 74
     0
 49
-0.635
 74
     0
  0
LTYPE
  5
40
330
5
100
AcDbSymbolTableRecord
100
AcDbLinetypeTableRecord
  2
PHANTOM
 70
     0
  3
Phantom ______  __  __  ______  __  __  ______
 72
    65
 73
     6
 40
12.7
 49
6.35
 74
     0
 49
-1.27
 74
     0
 49
1.27
 74
     0
 49
-1.27
 74
     0
 49
1.27
 74
     0
 49
-1.27
 74
     0
  0
LTYPE
  5
41
330
5
100
AcDbSymbolTableRecord
100
AcDbLinetypeTableRecord
  2
CENTER
 70
     0
  3
Center ____ _ ____ _ ____ _ ____ _ ____ _ ____
 72
    65
 73
     4
 40
10.16
 49
6.35
 74
     0
 49
-1.27
 74
     0
 49
1.27
 74
     0
 49
-1.27
 74
     0
  0
LTYPE
  5
42
330
5
100
AcDbSymbolTableRecord
100
AcDbLinetypeTableRecord
  2
CENTERX2
 70
     0
  3
Center (2x) ________  __  ________  __  _____
 72
    65
 73
     4
 40
20.32
 49
12.7
 74
     0
 49
-2.54
 74
     0
 49
2.54
 74
     0
 49
-2.54
 74
     0
  0
LTYPE
  5
43
330
5
100
AcDbSymbolTableRecord
100
AcDbLinetypeTableRecord
  2
DOT2
 70
     0
  3
Dot (.5x) ........................................
 72
    65
 73
     2
 40
0.635
 49
0.0
 74
     0
 49
-0.635
 74
     0
  0
ENDTAB
  0
TABLE
  2
LAYER
  5
2
330
0
100
AcDbSymbolTable
 70
     8
  0
LAYER
  5
10
330
2
100
AcDbSymbolTableRecord
100
AcDbLayerTableRecord
  2
0
 70
     0
 62
     7
  6
CONTINUOUS
370
    -3
390
0
347
3CA
  0
LAYER
  5
44
330
2
100
AcDbSymbolTableRecord
100
AcDbLayerTableRecord
  2
SLD-0
 70
     0
 62
     7
  6
CONTINUOUS
370
    -3
390
0
347
3CA
  0
LAYER
  5
45
330
2
100
AcDbSymbolTableRecord
100
AcDbLayerTableRecord
  2
CONTORNO
 70
     0
 62
     7
  6
CONTINUOUS
370
    -3
390
0
347
3CA
  0
LAYER
  5
46
330
2
100
AcDbSymbolTableRecord
100
AcDbLayerTableRecord
  2
RIQUADRO
 70
     0
 62
     5
  6
CONTINUOUS
370
    -3
390
0
347
3CA
  0
LAYER
  5
47
330
2
100
AcDbSymbolTableRecord
100
AcDbLayerTableRecord
  2
LOGO
 70
     0
 62
   176
  6
CONTINUOUS
370
    -3
390
0
347
3CA
  0
LAYER
  5
48
330
2
100
AcDbSymbolTableRecord
100
AcDbLayerTableRecord
  2
PROIEZ
 70
     0
 62
    16
  6
CONTINUOUS
370
    -3
390
0
347
3CA
  0
LAYER
  5
49
330
2
100
AcDbSymbolTableRecord
100
AcDbLayerTableRecord
  2
CARTIGLIO
 70
     0
 62
     5
  6
CONTINUOUS
370
    -3
390
0
347
3CA
  0
LAYER
  5
4A
330
2
100
AcDbSymbolTableRecord
100
AcDbLayerTableRecord
  2
TABELLA_REV
 70
     0
 62
   136
  6
CONTINUOUS
370
    -3
390
0
347
3CA
  0
ENDTAB
  0
TABLE
  2
STYLE
  5
3
330
0
100
AcDbSymbolTable
 70
     6
  0
STYLE
  5
11
330
3
100
AcDbSymbolTableRecord
100
AcDbTextStyleTableRecord
  2
STANDARD
 70
     0
 40
0.0
 41
1.0
 50
0.0
 71
     0
 42
7.0
  3
txt
  4

  0
STYLE
  5
B2
330
3
100
AcDbSymbolTableRecord
100
AcDbTextStyleTableRecord
  2
SLDTEXTSTYLE0
 70
     0
 40
0.0
 41
0.6375
 50
0.0
 71
     0
 42
0.2
  3
TXT
  4

  0
STYLE
  5
B7
330
3
100
AcDbSymbolTableRecord
100
AcDbTextStyleTableRecord
  2
SLDTEXTSTYLE1
 70
     0
 40
0.0
 41
0.75
 50
0.0
 71
     0
 42
0.2
  3
TXT
  4

  0
STYLE
  5
BB
330
3
100
AcDbSymbolTableRecord
100
AcDbTextStyleTableRecord
  2
SLDTEXTSTYLE2
 70
     0
 40
0.0
 41
0.7
 50
0.0
 71
     0
 42
0.2
  3
TXT
  4

  0
STYLE
  5
145
330
3
100
AcDbSymbolTableRecord
100
AcDbTextStyleTableRecord
  2
SLDTEXTSTYLE3
 70
     0
 40
0.0
 41
0.6953125
 50
0.0
 71
     0
 42
0.2
  3
TXT
  4

  0
STYLE
  5
292
330
3
100
AcDbSymbolTableRecord
100
AcDbTextStyleTableRecord
  2
SLDTEXTSTYLE4
 70
     0
 40
0.0
 41
0.6875
 50
0.0
 71
     0
 42
0.2
  3
TXT
  4

  0
ENDTAB
  0
TABLE
  2
VIEW
  5
6
330
0
100
AcDbSymbolTable
 70
     0
  0
ENDTAB
  0
TABLE
  2
UCS
  5
7
330
0
100
AcDbSymbolTable
 70
     0
  0
ENDTAB
  0
TABLE
  2
APPID
  5
9
330
0
100
AcDbSymbolTable
 70
     1
  0
APPID
  5
12
330
9
100
AcDbSymbolTableRecord
100
AcDbRegAppTableRecord
  2
ACAD
 70
     0
  0
ENDTAB
  0
TABLE
  2
DIMSTYLE
  5
A
330
0
100
AcDbSymbolTable
 70
     5
100
AcDbDimStyleTable
  0
DIMSTYLE
105
27
330
A
100
AcDbSymbolTableRecord
100
AcDbDimStyleTableRecord
  2
ISO-25
 70
     0
 41
2.5
 42
0.625
 43
3.75
 44
1.25
 73
     0
 74
     0
 77
     1
 78
     8
140
2.5
141
2.5
143
0.0393700787
147
0.625
171
     3
172
     1
178
     0
271
     2
272
     2
274
     3
283
     0
284
     8
340
11
  0
DIMSTYLE
105
185
102
{ACAD_REACTORS
330
184
330
196
330
1A0
330
20D
330
217
330
25F
330
269
330
273
102
}
330
A
100
AcDbSymbolTableRecord
100
AcDbDimStyleTableRecord
  2
SLDDIMSTYLE0
 70
     0
 41
5.0
 44
0.0
 45
0.000000001
 73
     0
 74
     0
 77
     1
 78
    12
140
7.0
147
1.75
173
     1
178
     0
271
     2
272
     2
284
    12
340
B7
341
186
343
186
344
186
  0
DIMSTYLE
105
222
102
{ACAD_REACTORS
330
221
102
}
330
A
100
AcDbSymbolTableRecord
100
AcDbDimStyleTableRecord
  2
SLDDIMSTYLE1
 70
     0
 41
0.4133333333
 44
0.0
 45
0.000000001
 78
    12
140
7.0
147
1.75
173
     1
178
     0
271
     0
272
     2
284
    12
340
B7
341
223
343
223
344
223
  0
DIMSTYLE
105
22F
102
{ACAD_REACTORS
330
22E
330
237
330
241
330
24B
330
255
102
}
330
A
100
AcDbSymbolTableRecord
100
AcDbDimStyleTableRecord
  2
SLDDIMSTYLE2
 70
     0
 41
5.0
 44
0.0
 45
0.000000001
 78
    12
140
7.0
147
1.75
173
     1
178
     0
271
     2
272
     2
284
    12
340
B7
341
186
343
186
344
186
  0
DIMSTYLE
105
283
330
A
100
AcDbSymbolTableRecord
100
AcDbDimStyleTableRecord
  2
SLDDIMSTYLE3
 70
     0
 41
5.0
 44
0.0
 45
0.000000001
140
0.0
146
5.0
147
0.0
173
     1
178
     0
271
     0
272
     0
340
11
  0
ENDTAB
  0
TABLE
  2
BLOCK_RECORD
  5
1
330
0
100
AcDbSymbolTable
 70
    30
  0
BLOCK_RECORD
  5
1F
330
1
100
AcDbSymbolTableRecord
100
AcDbBlockTableRecord
  2
*MODEL_SPACE
340
3A3
 70
     0
280
     1
281
     0
  0
BLOCK_RECORD
  5
1B
330
1
100
AcDbSymbolTableRecord
100
AcDbBlockTableRecord
  2
*PAPER_SPACE
340
3A4
 70
     0
280
     1
281
     0
  0
BLOCK_RECORD
  5
23
330
1
100
AcDbSymbolTableRecord
100
AcDbBlockTableRecord
  2
*PAPER_SPACE0
340
0
 70
     0
280
     1
281
     0
  0
BLOCK_RECORD
  5
C4
330
1
100
AcDbSymbolTableRecord
100
AcDbBlockTableRecord
  2
SW_NOTE_0
340
0
102
{BLKREFS
331
C9
102
}
 70
     0
280
     1
281
     0
  0
BLOCK_RECORD
  5
CA
330
1
100
AcDbSymbolTableRecord
100
AcDbBlockTableRecord
  2
SW_NOTE_1
340
0
102
{BLKREFS
331
CF
102
}
 70
     0
280
     1
281
     0
  0
BLOCK_RECORD
  5
D4
330
1
100
AcDbSymbolTableRecord
100
AcDbBlockTableRecord
  2
SW_NOTE_2
340
0
102
{BLKREFS
331
D9
102
}
 70
     0
280
     1
281
     0
  0
BLOCK_RECORD
  5
DA
330
1
100
AcDbSymbolTableRecord
100
AcDbBlockTableRecord
  2
SW_NOTE_3
340
0
102
{BLKREFS
331
DF
102
}
 70
     0
280
     1
281
     0
  0
BLOCK_RECORD
  5
E0
330
1
100
AcDbSymbolTableRecord
100
AcDbBlockTableRecord
  2
SW_NOTE_4
340
0
102
{BLKREFS
331
E5
102
}
 70
     0
280
     1
281
     0
  0
BLOCK_RECORD
  5
E6
330
1
100
AcDbSymbolTableRecord
100
AcDbBlockTableRecord
  2
SW_NOTE_5
340
0
102
{BLKREFS
331
EB
102
}
 70
     0
280
     1
281
     0
  0
BLOCK_RECORD
  5
EC
330
1
100
AcDbSymbolTableRecord
100
AcDbBlockTableRecord
  2
SW_NOTE_6
340
0
102
{BLKREFS
331
F1
102
}
 70
     0
280
     1
281
     0
  0
BLOCK_RECORD
  5
F2
330
1
100
AcDbSymbolTableRecord
100
AcDbBlockTableRecord
  2
SW_NOTE_7
340
0
102
{BLKREFS
331
F7
102
}
 70
     0
280
     1
281
     0
  0
BLOCK_RECORD
  5
F8
330
1
100
AcDbSymbolTableRecord
100
AcDbBlockTableRecord
  2
SW_NOTE_8
340
0
102
{BLKREFS
331
FD
102
}
 70
     0
280
     1
281
     0
  0
BLOCK_RECORD
  5
FE
330
1
100
AcDbSymbolTableRecord
100
AcDbBlockTableRecord
  2
SW_NOTE_9
340
0
102
{BLKREFS
331
103
102
}
 70
     0
280
     1
281
     0
  0
BLOCK_RECORD
  5
186
330
1
100
AcDbSymbolTableRecord
100
AcDbBlockTableRecord
  2
_CLOSED
340
0
102
{BLKREFS
331
190
331
191
331
19A
331
19B
331
1A4
331
1A5
331
211
331
212
331
21B
331
21C
331
233
331
23B
331
245
331
24F
331
259
331
263
331
264
331
26D
331
26E
331
277
331
278
102
}
 70
     0
280
     1
281
     0
  0
BLOCK_RECORD
  5
18D
330
1
100
AcDbSymbolTableRecord
100
AcDbBlockTableRecord
  2
_D
340
0
 70
     0
280
     1
281
     0
  0
BLOCK_RECORD
  5
197
330
1
100
AcDbSymbolTableRecord
100
AcDbBlockTableRecord
  2
_D_1
340
0
 70
     0
280
     1
281
     0
  0
BLOCK_RECORD
  5
1A1
330
1
100
AcDbSymbolTableRecord
100
AcDbBlockTableRecord
  2
_D_2
340
0
 70
     0
280
     1
281
     0
  0
BLOCK_RECORD
  5
20E
330
1
100
AcDbSymbolTableRecord
100
AcDbBlockTableRecord
  2
_D_3
340
0
 70
     0
280
     1
281
     0
  0
BLOCK_RECORD
  5
218
330
1
100
AcDbSymbolTableRecord
100
AcDbBlockTableRecord
  2
_D_4
340
0
 70
     0
280
     1
281
     0
  0
BLOCK_RECORD
  5
223
330
1
100
AcDbSymbolTableRecord
100
AcDbBlockTableRecord
  2
_ORIGIN
340
0
102
{BLKREFS
331
22B
102
}
 70
     0
280
     1
281
     0
  0
BLOCK_RECORD
  5
228
330
1
100
AcDbSymbolTableRecord
100
AcDbBlockTableRecord
  2
_D_5
340
0
 70
     0
280
     1
281
     0
  0
BLOCK_RECORD
  5
230
330
1
100
AcDbSymbolTableRecord
100
AcDbBlockTableRecord
  2
_D_6
340
0
 70
     0
280
     1
281
     0
  0
BLOCK_RECORD
  5
238
330
1
100
AcDbSymbolTableRecord
100
AcDbBlockTableRecord
  2
_D_7
340
0
 70
     0
280
     1
281
     0
  0
BLOCK_RECORD
  5
242
330
1
100
AcDbSymbolTableRecord
100
AcDbBlockTableRecord
  2
_D_8
340
0
 70
     0
280
     1
281
     0
  0
BLOCK_RECORD
  5
24C
330
1
100
AcDbSymbolTableRecord
100
AcDbBlockTableRecord
  2
_D_9
340
0
 70
     0
280
     1
281
     0
  0
BLOCK_RECORD
  5
256
330
1
100
AcDbSymbolTableRecord
100
AcDbBlockTableRecord
  2
_D_10
340
0
 70
     0
280
     1
281
     0
  0
BLOCK_RECORD
  5
260
330
1
100
AcDbSymbolTableRecord
100
AcDbBlockTableRecord
  2
_D_11
340
0
 70
     0
280
     1
281
     0
  0
BLOCK_RECORD
  5
26A
330
1
100
AcDbSymbolTableRecord
100
AcDbBlockTableRecord
  2
_D_12
340
0
 70
     0
280
     1
281
     0
  0
BLOCK_RECORD
  5
274
330
1
100
AcDbSymbolTableRecord
100
AcDbBlockTableRecord
  2
_D_13
340
0
 70
     0
280
     1
281
     0
  0
BLOCK_RECORD
  5
27D
330
1
100
AcDbSymbolTableRecord
100
AcDbBlockTableRecord
  2
SW_NOTE_10
340
0
102
{BLKREFS
331
282
102
}
 70
     0
280
     1
281
     0
  0
BLOCK_RECORD
  5
285
330
1
100
AcDbSymbolTableRecord
100
AcDbBlockTableRecord
  2
SW_NOTE_11
340
0
102
{BLKREFS
331
28A
102
}
 70
     0
280
     1
281
     0
  0
BLOCK_RECORD
  5
28C
330
1
100
AcDbSymbolTableRecord
100
AcDbBlockTableRecord
  2
SW_NOTE_12
340
0
102
{BLKREFS
331
294
102
}
 70
     0
280
     1
281
     0
  0
ENDTAB
  0
ENDSEC
  0
SECTION
  2
BLOCKS
  0
BLOCK
  5
20
330
1F
100
AcDbEntity
  8
0
100
AcDbBlockBegin
  2
*MODEL_SPACE
 70
     0
 10
0.0
 20
0.0
 30
0.0
  3
*MODEL_SPACE
  1

  0
ENDBLK
  5
21
330
1F
100
AcDbEntity
  8
0
100
AcDbBlockEnd
  0
BLOCK
  5
1C
330
1B
100
AcDbEntity
 67
     1
  8
0
100
AcDbBlockBegin
  2
*PAPER_SPACE
 70
     0
 10
0.0
 20
0.0
 30
0.0
  3
*PAPER_SPACE
  1

  0
ENDBLK
  5
1D
330
1B
100
AcDbEntity
 67
     1
  8
0
100
AcDbBlockEnd
  0
BLOCK
  5
24
330
23
100
AcDbEntity
  8
0
100
AcDbBlockBegin
  2
*PAPER_SPACE0
 70
     0
 10
0.0
 20
0.0
 30
0.0
  3
*PAPER_SPACE0
  1

  0
ENDBLK
  5
25
330
23
100
AcDbEntity
  8
0
100
AcDbBlockEnd
  0
BLOCK
  5
C5
330
C4
100
AcDbEntity
  8
0
100
AcDbBlockBegin
  2
SW_NOTE_0
 70
     0
 10
0.0
 20
0.0
 30
0.0
  3
SW_NOTE_0
  1

  0
MTEXT
  5
C7
330
C4
100
AcDbEntity
  8
CARTIGLIO
 62
     0
100
AcDbMText
 10
0.0
 20
5.1562709591
 30
0.0
 40
4.0
 41
0.0
 46
0.0
 71
     1
 72
     1
  1
Undimensioned
  7
SLDTEXTSTYLE1
 73
     1
 44
1.0
  0
MTEXT
  5
C8
330
C4
100
AcDbEntity
  8
CARTIGLIO
 62
     0
100
AcDbMText
 10
0.0
 20
-0.8437290931
 30
0.0
 40
4.0
 41
0.0
 46
0.0
 71
     1
 72
     1
  1
radii
  7
SLDTEXTSTYLE1
 73
     1
 44
1.0
  0
ENDBLK
  5
C6
330
C4
100
AcDbEntity
  8
0
100
AcDbBlockEnd
  0
BLOCK
  5
CB
330
CA
100
AcDbEntity
  8
0
100
AcDbBlockBegin
  2
SW_NOTE_1
 70
     0
 10
0.0
 20
0.0
 30
0.0
  3
SW_NOTE_1
  1

  0
MTEXT
  5
CD
330
CA
100
AcDbEntity
  8
CARTIGLIO
 62
     0
100
AcDbMText
 10
0.0
 20
5.1562709591
 30
0.0
 40
4.0
 41
0.0
 46
0.0
 71
     1
 72
     1
  1
Undimensioned
  7
SLDTEXTSTYLE1
 73
     1
 44
1.0
  0
MTEXT
  5
CE
330
CA
100
AcDbEntity
  8
CARTIGLIO
 62
     0
100
AcDbMText
 10
0.0
 20
-0.8437290931
 30
0.0
 40
4.0
 41
0.0
 46
0.0
 71
     1
 72
     1
  1
bevels
  7
SLDTEXTSTYLE1
 73
     1
 44
1.0
  0
ENDBLK
  5
CC
330
CA
100
AcDbEntity
  8
0
100
AcDbBlockEnd
  0
BLOCK
  5
D5
330
D4
100
AcDbEntity
  8
0
100
AcDbBlockBegin
  2
SW_NOTE_2
 70
     0
 10
0.0
 20
0.0
 30
0.0
  3
SW_NOTE_2
  1

  0
MTEXT
  5
D7
330
D4
100
AcDbEntity
  8
CARTIGLIO
 62
     0
100
AcDbMText
 10
7.125
 20
5.1562709591
 30
0.0
 40
4.0
 41
0.0
 46
0.0
 71
     3
 72
     1
  1
0.5
  7
SLDTEXTSTYLE1
 73
     1
 44
1.0
  0
MTEXT
  5
D8
330
D4
100
AcDbEntity
  8
CARTIGLIO
 62
     0
100
AcDbMText
 10
7.0131949708
 20
-0.8437290931
 30
0.0
 40
4.0
 41
0.0
 46
0.0
 71
     3
 72
     1
  1
÷3
  7
SLDTEXTSTYLE1
 73
     1
 44
1.0
  0
ENDBLK
  5
D6
330
D4
100
AcDbEntity
  8
0
100
AcDbBlockEnd
  0
BLOCK
  5
DB
330
DA
100
AcDbEntity
  8
0
100
AcDbBlockBegin
  2
SW_NOTE_3
 70
     0
 10
0.0
 20
0.0
 30
0.0
  3
SW_NOTE_3
  1

  0
MTEXT
  5
DD
330
DA
100
AcDbEntity
  8
CARTIGLIO
 62
     0
100
AcDbMText
 10
8.75
 20
5.1562709591
 30
0.0
 40
4.0
 41
0.0
 46
0.0
 71
     3
 72
     1
  1
>3÷
  7
SLDTEXTSTYLE1
 73
     1
 44
1.0
  0
MTEXT
  5
DE
330
DA
100
AcDbEntity
  8
CARTIGLIO
 62
     0
100
AcDbMText
 10
8.9562497977
 20
-0.8437290931
 30
0.0
 40
4.0
 41
0.0
 46
0.0
 71
     3
 72
     1
  1
6
  7
SLDTEXTSTYLE1
 73
     1
 44
1.0
  0
ENDBLK
  5
DC
330
DA
100
AcDbEntity
  8
0
100
AcDbBlockEnd
  0
BLOCK
  5
E1
330
E0
100
AcDbEntity
  8
0
100
AcDbBlockBegin
  2
SW_NOTE_4
 70
     0
 10
0.0
 20
0.0
 30
0.0
  3
SW_NOTE_4
  1

  0
MTEXT
  5
E3
330
E0
100
AcDbEntity
  8
CARTIGLIO
 62
     0
100
AcDbMText
 10
8.75
 20
5.1562709591
 30
0.0
 40
4.0
 41
0.0
 46
0.0
 71
     3
 72
     1
  1
>6÷
  7
SLDTEXTSTYLE1
 73
     1
 44
1.0
  0
MTEXT
  5
E4
330
E0
100
AcDbEntity
  8
CARTIGLIO
 62
     0
100
AcDbMText
 10
8.8680558726
 20
-0.8437290931
 30
0.0
 40
4.0
 41
0.0
 46
0.0
 71
     3
 72
     1
  1
30
  7
SLDTEXTSTYLE1
 73
     1
 44
1.0
  0
ENDBLK
  5
E2
330
E0
100
AcDbEntity
  8
0
100
AcDbBlockEnd
  0
BLOCK
  5
E7
330
E6
100
AcDbEntity
  8
0
100
AcDbBlockBegin
  2
SW_NOTE_5
 70
     0
 10
0.0
 20
0.0
 30
0.0
  3
SW_NOTE_5
  1

  0
MTEXT
  5
E9
330
E6
100
AcDbEntity
  8
CARTIGLIO
 62
     0
100
AcDbMText
 10
11.625
 20
5.1562709591
 30
0.0
 40
4.0
 41
0.0
 46
0.0
 71
     3
 72
     1
  1
>30÷
  7
SLDTEXTSTYLE1
 73
     1
 44
1.0
  0
MTEXT
  5
EA
330
E6
100
AcDbEntity
  8
CARTIGLIO
 62
     0
100
AcDbMText
 10
11.9673611894
 20
-0.8437290931
 30
0.0
 40
4.0
 41
0.0
 46
0.0
 71
     3
 72
     1
  1
120
  7
SLDTEXTSTYLE1
 73
     1
 44
1.0
  0
ENDBLK
  5
E8
330
E6
100
AcDbEntity
  8
0
100
AcDbBlockEnd
  0
BLOCK
  5
ED
330
EC
100
AcDbEntity
  8
0
100
AcDbBlockBegin
  2
SW_NOTE_6
 70
     0
 10
0.0
 20
0.0
 30
0.0
  3
SW_NOTE_6
  1

  0
MTEXT
  5
EF
330
EC
100
AcDbEntity
  8
CARTIGLIO
 62
     0
100
AcDbMText
 10
11.75
 20
5.1562709591
 30
0.0
 40
4.0
 41
0.0
 46
0.0
 71
     3
 72
     1
  1
>120
  7
SLDTEXTSTYLE1
 73
     1
 44
1.0
  0
MTEXT
  5
F0
330
EC
100
AcDbEntity
  8
CARTIGLIO
 62
     0
100
AcDbMText
 10
11.4354167581
 20
-0.8437290931
 30
0.0
 40
4.0
 41
0.0
 46
0.0
 71
     3
 72
     1
  1
÷400
  7
SLDTEXTSTYLE1
 73
     1
 44
1.0
  0
ENDBLK
  5
EE
330
EC
100
AcDbEntity
  8
0
100
AcDbBlockEnd
  0
BLOCK
  5
F3
330
F2
100
AcDbEntity
  8
0
100
AcDbBlockBegin
  2
SW_NOTE_7
 70
     0
 10
0.0
 20
0.0
 30
0.0
  3
SW_NOTE_7
  1

  0
MTEXT
  5
F5
330
F2
100
AcDbEntity
  8
CARTIGLIO
 62
     0
100
AcDbMText
 10
14.5
 20
5.1562709591
 30
0.0
 40
4.0
 41
0.0
 46
0.0
 71
     3
 72
     1
  1
>400÷
  7
SLDTEXTSTYLE1
 73
     1
 44
1.0
  0
MTEXT
  5
F6
330
F2
100
AcDbEntity
  8
CARTIGLIO
 62
     0
100
AcDbMText
 10
14.854861401
 20
-0.8437290931
 30
0.0
 40
4.0
 41
0.0
 46
0.0
 71
     3
 72
     1
  1
1000
  7
SLDTEXTSTYLE1
 73
     1
 44
1.0
  0
ENDBLK
  5
F4
330
F2
100
AcDbEntity
  8
0
100
AcDbBlockEnd
  0
BLOCK
  5
F9
330
F8
100
AcDbEntity
  8
0
100
AcDbBlockBegin
  2
SW_NOTE_8
 70
     0
 10
0.0
 20
0.0
 30
0.0
  3
SW_NOTE_8
  1

  0
MTEXT
  5
FB
330
F8
100
AcDbEntity
  8
CARTIGLIO
 62
     0
100
AcDbMText
 10
14.625
 20
5.1562709591
 30
0.0
 40
4.0
 41
0.0
 46
0.0
 71
     3
 72
     1
  1
>1000
  7
SLDTEXTSTYLE1
 73
     1
 44
1.0
  0
MTEXT
  5
FC
330
F8
100
AcDbEntity
  8
CARTIGLIO
 62
     0
100
AcDbMText
 10
14.3222231343
 20
-0.8437290931
 30
0.0
 40
4.0
 41
0.0
 46
0.0
 71
     3
 72
     1
  1
÷2000
  7
SLDTEXTSTYLE1
 73
     1
 44
1.0
  0
ENDBLK
  5
FA
330
F8
100
AcDbEntity
  8
0
100
AcDbBlockEnd
  0
BLOCK
  5
FF
330
FE
100
AcDbEntity
  8
0
100
AcDbBlockBegin
  2
SW_NOTE_9
 70
     0
 10
0.0
 20
0.0
 30
0.0
  3
SW_NOTE_9
  1

  0
MTEXT
  5
101
330
FE
100
AcDbEntity
  8
CARTIGLIO
 62
     0
100
AcDbMText
 10
14.625
 20
5.1562709591
 30
0.0
 40
4.0
 41
0.0
 46
0.0
 71
     3
 72
     1
  1
>2000
  7
SLDTEXTSTYLE1
 73
     1
 44
1.0
  0
MTEXT
  5
102
330
FE
100
AcDbEntity
  8
CARTIGLIO
 62
     0
100
AcDbMText
 10
14.5145831555
 20
-0.8437290931
 30
0.0
 40
4.0
 41
0.0
 46
0.0
 71
     3
 72
     1
  1
÷4000
  7
SLDTEXTSTYLE1
 73
     1
 44
1.0
  0
ENDBLK
  5
100
330
FE
100
AcDbEntity
  8
0
100
AcDbBlockEnd
  0
BLOCK
  5
187
330
186
100
AcDbEntity
  8
0
100
AcDbBlockBegin
  2
_CLOSED
 70
     0
 10
0.0
 20
0.0
 30
0.0
  3
_CLOSED
  1

  0
LINE
  5
189
330
186
100
AcDbEntity
  8
0
  6
ByBlock
 62
     0
100
AcDbLine
 10
-1.0
 20
0.166667
 30
0.0
 11
0.0
 21
0.0
 31
0.0
  0
LINE
  5
18A
330
186
100
AcDbEntity
  8
0
  6
ByBlock
 62
     0
100
AcDbLine
 10
0.0
 20
0.0
 30
0.0
 11
-1.0
 21
-0.166667
 31
0.0
  0
LINE
  5
18B
330
186
100
AcDbEntity
  8
0
  6
ByBlock
 62
     0
100
AcDbLine
 10
-1.0
 20
0.166667
 30
0.0
 11
-1.0
 21
-0.166667
 31
0.0
  0
LINE
  5
18C
330
186
100
AcDbEntity
  8
0
  6
ByBlock
 62
     0
100
AcDbLine
 10
0.0
 20
0.0
 30
0.0
 11
-1.0
 21
0.0
 31
0.0
  0
ENDBLK
  5
188
330
186
100
AcDbEntity
  8
0
100
AcDbBlockEnd
  0
BLOCK
  5
18E
330
18D
100
AcDbEntity
  8
0
100
AcDbBlockBegin
  2
_D
 70
     0
 10
0.0
 20
0.0
 30
0.0
  3
_D
  1

  0
INSERT
  5
190
330
18D
100
AcDbEntity
  8
RIQUADRO
100
AcDbBlockReference
  2
_CLOSED
 10
138.8808826819
 20
346.7046626662
 30
0.1
 41
5.0
 42
5.0
 50
270.0
  0
INSERT
  5
191
330
18D
100
AcDbEntity
  8
RIQUADRO
100
AcDbBlockReference
  2
_CLOSED
 10
138.8808826819
 20
426.7046626662
 30
0.1
 41
5.0
 42
5.0
 50
90.0
  0
LINE
  5
192
330
18D
100
AcDbEntity
  8
RIQUADRO
100
AcDbLine
 10
162.1461221104
 20
346.7046626662
 30
0.0
 11
136.8808826819
 21
346.7046626662
 31
0.0
  0
LINE
  5
193
330
18D
100
AcDbEntity
  8
RIQUADRO
100
AcDbLine
 10
139.1310818842
 20
426.7046626662
 30
0.0
 11
136.8808826819
 21
426.7046626662
 31
0.0
  0
LINE
  5
194
330
18D
100
AcDbEntity
  8
RIQUADRO
100
AcDbLine
 10
138.8808826819
 20
346.7046626662
 30
0.0
 11
138.8808826819
 21
426.7046626662
 31
0.0
  0
MTEXT
  5
195
330
18D
100
AcDbEntity
  8
RIQUADRO
100
AcDbMText
 10
129.8574088528
 20
388.8242457978
 30
0.1
 40
7.0
 41
0.0
 46
0.0
 71
     1
 72
     1
  1
80
  7
SLDTEXTSTYLE1
 11
6.123233995736766E-17
 21
1.0
 31
0.0
 73
     1
 44
1.0
  0
ENDBLK
  5
18F
330
18D
100
AcDbEntity
  8
0
100
AcDbBlockEnd
  0
BLOCK
  5
198
330
197
100
AcDbEntity
  8
0
100
AcDbBlockBegin
  2
_D_1
 70
     0
 10
0.0
 20
0.0
 30
0.0
  3
_D_1
  1

  0
INSERT
  5
19A
330
197
100
AcDbEntity
  8
RIQUADRO
100
AcDbBlockReference
  2
_CLOSED
 10
164.1461221104
 20
514.0432533446
 30
0.1
 41
5.0
 42
5.0
 50
180.0
  0
INSERT
  5
19B
330
197
100
AcDbEntity
  8
RIQUADRO
100
AcDbBlockReference
  2
_CLOSED
 10
304.1461221104
 20
514.0432533446
 30
0.1
 41
5.0
 42
5.0
  0
LINE
  5
19C
330
197
100
AcDbEntity
  8
RIQUADRO
100
AcDbLine
 10
164.1461221104
 20
480.4046626662
 30
0.0
 11
164.1461221104
 21
516.0432533446
 31
0.0
  0
LINE
  5
19D
330
197
100
AcDbEntity
  8
RIQUADRO
100
AcDbLine
 10
304.1461221104
 20
459.3046626662
 30
0.0
 11
304.1461221104
 21
516.0432533446
 31
0.0
  0
LINE
  5
19E
330
197
100
AcDbEntity
  8
RIQUADRO
100
AcDbLine
 10
164.1461221104
 20
514.0432533446
 30
0.0
 11
304.1461221104
 21
514.0432533446
 31
0.0
  0
MTEXT
  5
19F
330
197
100
AcDbEntity
  8
RIQUADRO
100
AcDbMText
 10
222.7648322934
 20
523.0667271738
 30
0.0
 40
7.0
 41
0.0
 46
0.0
 71
     1
 72
     1
  1
140
  7
SLDTEXTSTYLE1
 73
     1
 44
1.0
  0
ENDBLK
  5
199
330
197
100
AcDbEntity
  8
0
100
AcDbBlockEnd
  0
BLOCK
  5
1A2
330
1A1
100
AcDbEntity
  8
0
100
AcDbBlockBegin
  2
_D_2
 70
     0
 10
0.0
 20
0.0
 30
0.0
  3
_D_2
  1

  0
INSERT
  5
1A4
330
1A1
100
AcDbEntity
  8
RIQUADRO
100
AcDbBlockReference
  2
_CLOSED
 10
104.8952656068
 20
479.2046626662
 30
0.1
 41
5.0
 42
5.0
 50
90.0
  0
INSERT
  5
1A5
330
1A1
100
AcDbEntity
  8
RIQUADRO
100
AcDbBlockReference
  2
_CLOSED
 10
104.8952656068
 20
346.7046626662
 30
0.1
 41
5.0
 42
5.0
 50
270.0
  0
LINE
  5
1A6
330
1A1
100
AcDbEntity
  8
RIQUADRO
100
AcDbLine
 10
162.9461221104
 20
479.2046626662
 30
0.0
 11
102.8952656068
 21
479.2046626662
 31
0.0
  0
LINE
  5
1A7
330
1A1
100
AcDbEntity
  8
RIQUADRO
100
AcDbLine
 10
162.1461221104
 20
346.7046626662
 30
0.0
 11
102.8952656068
 21
346.7046626662
 31
0.0
  0
LINE
  5
1A8
330
1A1
100
AcDbEntity
  8
RIQUADRO
100
AcDbLine
 10
104.8952656068
 20
479.2046626662
 30
0.0
 11
104.8952656068
 21
346.7046626662
 31
0.0
  0
MTEXT
  5
1A9
330
1A1
100
AcDbEntity
  8
RIQUADRO
100
AcDbMText
 10
95.8717917777
 20
404.2446317936
 30
0.0
 40
7.0
 41
0.0
 46
0.0
 71
     1
 72
     1
  1
132,50
  7
SLDTEXTSTYLE1
 11
-7.044195017643634E-15
 21
1.0
 31
0.0
 73
     1
 44
1.0
  0
ENDBLK
  5
1A3
330
1A1
100
AcDbEntity
  8
0
100
AcDbBlockEnd
  0
BLOCK
  5
20F
330
20E
100
AcDbEntity
  8
0
100
AcDbBlockBegin
  2
_D_3
 70
     0
 10
0.0
 20
0.0
 30
0.0
  3
_D_3
  1

  0
INSERT
  5
211
330
20E
100
AcDbEntity
  8
RIQUADRO
100
AcDbBlockReference
  2
_CLOSED
 10
328.0712438275
 20
199.4222052915
 30
0.1
 41
5.0
 42
5.0
 50
90.0
  0
INSERT
  5
212
330
20E
100
AcDbEntity
  8
RIQUADRO
100
AcDbBlockReference
  2
_CLOSED
 10
328.0712438275
 20
174.4222052915
 30
0.1
 41
5.0
 42
5.0
 50
270.0
  0
LINE
  5
213
330
20E
100
AcDbEntity
  8
RIQUADRO
100
AcDbLine
 10
236.1461221104
 20
199.4222052915
 30
0.0
 11
330.0712438275
 21
199.4222052915
 31
0.0
  0
LINE
  5
214
330
20E
100
AcDbEntity
  8
RIQUADRO
100
AcDbLine
 10
321.8374432125
 20
174.4222052915
 30
0.0
 11
330.0712438275
 21
174.4222052915
 31
0.0
  0
LINE
  5
215
330
20E
100
AcDbEntity
  8
RIQUADRO
100
AcDbLine
 10
328.0712438275
 20
199.4222052915
 30
0.0
 11
328.0712438275
 21
174.4222052915
 31
0.0
  0
MTEXT
  5
216
330
20E
100
AcDbEntity
  8
RIQUADRO
100
AcDbMText
 10
319.0477699984
 20
182.8674435377
 30
0.0
 40
7.0
 41
0.0
 46
0.0
 71
     1
 72
     1
  1
25
  7
SLDTEXTSTYLE1
 11
-7.044195017643634E-15
 21
1.0
 31
0.0
 73
     1
 44
1.0
  0
ENDBLK
  5
210
330
20E
100
AcDbEntity
  8
0
100
AcDbBlockEnd
  0
BLOCK
  5
219
330
218
100
AcDbEntity
  8
0
100
AcDbBlockBegin
  2
_D_4
 70
     0
 10
0.0
 20
0.0
 30
0.0
  3
_D_4
  1

  0
INSERT
  5
21B
330
218
100
AcDbEntity
  8
RIQUADRO
100
AcDbBlockReference
  2
_CLOSED
 10
348.3529339684
 20
204.4222052915
 30
0.1
 41
5.0
 42
5.0
 50
90.0
  0
INSERT
  5
21C
330
218
100
AcDbEntity
  8
RIQUADRO
100
AcDbBlockReference
  2
_CLOSED
 10
348.3529339684
 20
174.4222052915
 30
0.1
 41
5.0
 42
5.0
 50
270.0
  0
LINE
  5
21D
330
218
100
AcDbEntity
  8
RIQUADRO
100
AcDbLine
 10
266.1461221104
 20
204.4222052915
 30
0.0
 11
350.3529339684
 21
204.4222052915
 31
0.0
  0
LINE
  5
21E
330
218
100
AcDbEntity
  8
RIQUADRO
100
AcDbLine
 10
321.8374432125
 20
174.4222052915
 30
0.0
 11
350.3529339684
 21
174.4222052915
 31
0.0
  0
LINE
  5
21F
330
218
100
AcDbEntity
  8
RIQUADRO
100
AcDbLine
 10
348.3529339684
 20
204.4222052915
 30
0.0
 11
348.3529339684
 21
174.4222052915
 31
0.0
  0
MTEXT
  5
220
330
218
100
AcDbEntity
  8
RIQUADRO
100
AcDbMText
 10
339.3294601392
 20
182.8674435377
 30
0.0
 40
7.0
 41
0.0
 46
0.0
 71
     1
 72
     1
  1
30
  7
SLDTEXTSTYLE1
 11
-7.044195017643634E-15
 21
1.0
 31
0.0
 73
     1
 44
1.0
  0
ENDBLK
  5
21A
330
218
100
AcDbEntity
  8
0
100
AcDbBlockEnd
  0
BLOCK
  5
224
330
223
100
AcDbEntity
  8
0
100
AcDbBlockBegin
  2
_ORIGIN
 70
     0
 10
0.0
 20
0.0
 30
0.0
  3
_ORIGIN
  1

  0
CIRCLE
  5
226
330
223
100
AcDbEntity
  8
0
  6
ByBlock
 62
     0
100
AcDbCircle
 10
0.0
 20
0.0
 30
0.0
 40
0.5
  0
LINE
  5
227
330
223
100
AcDbEntity
  8
0
  6
ByBlock
 62
     0
100
AcDbLine
 10
0.0
 20
0.0
 30
0.0
 11
-1.0
 21
0.0
 31
0.0
  0
ENDBLK
  5
225
330
223
100
AcDbEntity
  8
0
100
AcDbBlockEnd
  0
BLOCK
  5
229
330
228
100
AcDbEntity
  8
0
100
AcDbBlockBegin
  2
_D_5
 70
     0
 10
0.0
 20
0.0
 30
0.0
  3
_D_5
  1

  0
INSERT
  5
22B
330
228
100
AcDbEntity
  8
RIQUADRO
100
AcDbBlockReference
  2
_ORIGIN
 10
184.1461221104
 20
249.0080415282
 30
0.1
 41
1.24
 42
1.24
  0
LINE
  5
22C
330
228
100
AcDbEntity
  8
RIQUADRO
100
AcDbLine
 10
184.1461221104
 20
176.4222052915
 30
0.0
 11
184.1461221104
 21
271.5080415282
 31
0.0
  0
MTEXT
  5
22D
330
228
100
AcDbEntity
  8
RIQUADRO
100
AcDbMText
 10
180.6739135284
 20
274.6830415282
 30
0.0
 40
7.0
 41
0.0
 46
0.0
 71
     1
 72
     1
  1
0
  7
SLDTEXTSTYLE1
 11
6.123233995736766E-17
 21
1.0
 31
0.0
 73
     1
 44
1.0
  0
ENDBLK
  5
22A
330
228
100
AcDbEntity
  8
0
100
AcDbBlockEnd
  0
BLOCK
  5
231
330
230
100
AcDbEntity
  8
0
100
AcDbBlockBegin
  2
_D_6
 70
     0
 10
0.0
 20
0.0
 30
0.0
  3
_D_6
  1

  0
INSERT
  5
233
330
230
100
AcDbEntity
  8
RIQUADRO
100
AcDbBlockReference
  2
_CLOSED
 10
164.1461221104
 20
249.0080415282
 30
0.1
 41
5.0
 42
5.0
 50
180.0
  0
LINE
  5
234
330
230
100
AcDbEntity
  8
RIQUADRO
100
AcDbLine
 10
164.1461221104
 20
228.1125332069
 30
0.0
 11
164.1461221104
 21
271.5080415282
 31
0.0
  0
LINE
  5
235
330
230
100
AcDbEntity
  8
RIQUADRO
100
AcDbLine
 10
184.1461221104
 20
249.0080415282
 30
0.0
 11
164.1461221104
 21
249.0080415282
 31
0.0
  0
MTEXT
  5
236
330
230
100
AcDbEntity
  8
RIQUADRO
100
AcDbMText
 10
160.6739135284
 20
274.6830415282
 30
0.0
 40
7.0
 41
0.0
 46
0.0
 71
     1
 72
     1
  1
20
  7
SLDTEXTSTYLE1
 11
6.123233995736766E-17
 21
1.0
 31
0.0
 73
     1
 44
1.0
  0
ENDBLK
  5
232
330
230
100
AcDbEntity
  8
0
100
AcDbBlockEnd
  0
BLOCK
  5
239
330
238
100
AcDbEntity
  8
0
100
AcDbBlockBegin
  2
_D_7
 70
     0
 10
0.0
 20
0.0
 30
0.0
  3
_D_7
  1

  0
INSERT
  5
23B
330
238
100
AcDbEntity
  8
RIQUADRO
100
AcDbBlockReference
  2
_CLOSED
 10
204.1461221104
 20
249.0080415282
 30
0.1
 41
5.0
 42
5.0
  0
LINE
  5
23C
330
238
100
AcDbEntity
  8
RIQUADRO
100
AcDbLine
 10
208.2615488161
 20
261.5080415282
 30
0.0
 11
208.2615488161
 21
271.5080415282
 31
0.0
  0
LINE
  5
23D
330
238
100
AcDbEntity
  8
RIQUADRO
100
AcDbLine
 10
184.1461221104
 20
249.0080415282
 30
0.0
 11
204.1461221104
 21
249.0080415282
 31
0.0
  0
LINE
  5
23E
330
238
100
AcDbEntity
  8
RIQUADRO
100
AcDbLine
 10
208.2615488161
 20
261.5080415282
 30
0.0
 11
204.1461221104
 21
251.5080415282
 31
0.0
  0
LINE
  5
23F
330
238
100
AcDbEntity
  8
RIQUADRO
100
AcDbLine
 10
204.1461221104
 20
251.5080415282
 30
0.0
 11
204.1461221104
 21
206.4222052915
 31
0.0
  0
MTEXT
  5
240
330
238
100
AcDbEntity
  8
RIQUADRO
100
AcDbMText
 10
204.7893402341
 20
274.6830415282
 30
0.0
 40
7.0
 41
0.0
 46
0.0
 71
     1
 72
     1
  1
20
  7
SLDTEXTSTYLE1
 11
6.123233995736766E-17
 21
1.0
 31
0.0
 73
     1
 44
1.0
  0
ENDBLK
  5
23A
330
238
100
AcDbEntity
  8
0
100
AcDbBlockEnd
  0
BLOCK
  5
243
330
242
100
AcDbEntity
  8
0
100
AcDbBlockBegin
  2
_D_8
 70
     0
 10
0.0
 20
0.0
 30
0.0
  3
_D_8
  1

  0
INSERT
  5
245
330
242
100
AcDbEntity
  8
RIQUADRO
100
AcDbBlockReference
  2
_CLOSED
 10
209.1461221104
 20
249.0080415282
 30
0.1
 41
5.0
 42
5.0
  0
LINE
  5
246
330
242
100
AcDbEntity
  8
RIQUADRO
100
AcDbLine
 10
227.2221707516
 20
261.5080415282
 30
0.0
 11
227.2221707516
 21
271.5080415282
 31
0.0
  0
LINE
  5
247
330
242
100
AcDbEntity
  8
RIQUADRO
100
AcDbLine
 10
204.1461221104
 20
249.0080415282
 30
0.0
 11
209.1461221104
 21
249.0080415282
 31
0.0
  0
LINE
  5
248
330
242
100
AcDbEntity
  8
RIQUADRO
100
AcDbLine
 10
227.2221707516
 20
261.5080415282
 30
0.0
 11
209.1461221104
 21
251.5080415282
 31
0.0
  0
LINE
  5
249
330
242
100
AcDbEntity
  8
RIQUADRO
100
AcDbLine
 10
209.1461221104
 20
251.5080415282
 30
0.0
 11
209.1461221104
 21
176.4222052915
 31
0.0
  0
MTEXT
  5
24A
330
242
100
AcDbEntity
  8
RIQUADRO
100
AcDbMText
 10
223.7499621696
 20
274.6830415282
 30
0.0
 40
7.0
 41
0.0
 46
0.0
 71
     1
 72
     1
  1
25
  7
SLDTEXTSTYLE1
 11
6.123233995736766E-17
 21
1.0
 31
0.0
 73
     1
 44
1.0
  0
ENDBLK
  5
244
330
242
100
AcDbEntity
  8
0
100
AcDbBlockEnd
  0
BLOCK
  5
24D
330
24C
100
AcDbEntity
  8
0
100
AcDbBlockBegin
  2
_D_9
 70
     0
 10
0.0
 20
0.0
 30
0.0
  3
_D_9
  1

  0
INSERT
  5
24F
330
24C
100
AcDbEntity
  8
RIQUADRO
100
AcDbBlockReference
  2
_CLOSED
 10
234.1461221104
 20
249.0080415282
 30
0.1
 41
5.0
 42
5.0
  0
LINE
  5
250
330
24C
100
AcDbEntity
  8
RIQUADRO
100
AcDbLine
 10
252.2751911604
 20
261.5080415282
 30
0.0
 11
252.2751911604
 21
271.5080415282
 31
0.0
  0
LINE
  5
251
330
24C
100
AcDbEntity
  8
RIQUADRO
100
AcDbLine
 10
209.1461221104
 20
249.0080415282
 30
0.0
 11
234.1461221104
 21
249.0080415282
 31
0.0
  0
LINE
  5
252
330
24C
100
AcDbEntity
  8
RIQUADRO
100
AcDbLine
 10
252.2751911604
 20
261.5080415282
 30
0.0
 11
234.1461221104
 21
251.5080415282
 31
0.0
  0
LINE
  5
253
330
24C
100
AcDbEntity
  8
RIQUADRO
100
AcDbLine
 10
234.1461221104
 20
251.5080415282
 30
0.0
 11
234.1461221104
 21
201.4222052915
 31
0.0
  0
MTEXT
  5
254
330
24C
100
AcDbEntity
  8
RIQUADRO
100
AcDbMText
 10
248.8029825784
 20
274.6830415282
 30
0.0
 40
7.0
 41
0.0
 46
0.0
 71
     1
 72
     1
  1
50
  7
SLDTEXTSTYLE1
 11
6.123233995736766E-17
 21
1.0
 31
0.0
 73
     1
 44
1.0
  0
ENDBLK
  5
24E
330
24C
100
AcDbEntity
  8
0
100
AcDbBlockEnd
  0
BLOCK
  5
257
330
256
100
AcDbEntity
  8
0
100
AcDbBlockBegin
  2
_D_10
 70
     0
 10
0.0
 20
0.0
 30
0.0
  3
_D_10
  1

  0
INSERT
  5
259
330
256
100
AcDbEntity
  8
RIQUADRO
100
AcDbBlockReference
  2
_CLOSED
 10
264.1461221104
 20
249.0080415282
 30
0.1
 41
5.0
 42
5.0
  0
LINE
  5
25A
330
256
100
AcDbEntity
  8
RIQUADRO
100
AcDbLine
 10
280.4978314496
 20
261.5080415282
 30
0.0
 11
280.4978314496
 21
271.5080415282
 31
0.0
  0
LINE
  5
25B
330
256
100
AcDbEntity
  8
RIQUADRO
100
AcDbLine
 10
234.1461221104
 20
249.0080415282
 30
0.0
 11
264.1461221104
 21
249.0080415282
 31
0.0
  0
LINE
  5
25C
330
256
100
AcDbEntity
  8
RIQUADRO
100
AcDbLine
 10
280.4978314496
 20
261.5080415282
 30
0.0
 11
264.1461221104
 21
251.5080415282
 31
0.0
  0
LINE
  5
25D
330
256
100
AcDbEntity
  8
RIQUADRO
100
AcDbLine
 10
264.1461221104
 20
251.5080415282
 30
0.0
 11
264.1461221104
 21
206.4222052915
 31
0.0
  0
MTEXT
  5
25E
330
256
100
AcDbEntity
  8
RIQUADRO
100
AcDbMText
 10
277.0256228676
 20
274.6830415282
 30
0.0
 40
7.0
 41
0.0
 46
0.0
 71
     1
 72
     1
  1
80
  7
SLDTEXTSTYLE1
 11
6.123233995736766E-17
 21
1.0
 31
0.0
 73
     1
 44
1.0
  0
ENDBLK
  5
258
330
256
100
AcDbEntity
  8
0
100
AcDbBlockEnd
  0
BLOCK
  5
261
330
260
100
AcDbEntity
  8
0
100
AcDbBlockBegin
  2
_D_11
 70
     0
 10
0.0
 20
0.0
 30
0.0
  3
_D_11
  1

  0
INSERT
  5
263
330
260
100
AcDbEntity
  8
RIQUADRO
100
AcDbBlockReference
  2
_CLOSED
 10
86.7780806848
 20
229.9222052915
 30
7.376874813
 41
5.0
 42
5.0
 50
90.0
  0
INSERT
  5
264
330
260
100
AcDbEntity
  8
RIQUADRO
100
AcDbBlockReference
  2
_CLOSED
 10
86.7780806848
 20
118.9222052915
 30
7.376874813
 41
5.0
 42
5.0
 50
270.0
  0
LINE
  5
265
330
260
100
AcDbEntity
  8
RIQUADRO
100
AcDbLine
 10
162.1461221104
 20
229.9222052915
 30
0.0
 11
84.7780806848
 21
229.9222052915
 31
0.0
  0
LINE
  5
266
330
260
100
AcDbEntity
  8
RIQUADRO
100
AcDbLine
 10
162.1461221104
 20
118.9222052915
 30
0.0
 11
84.7780806848
 21
118.9222052915
 31
0.0
  0
LINE
  5
267
330
260
100
AcDbEntity
  8
RIQUADRO
100
AcDbLine
 10
86.7780806848
 20
229.9222052915
 30
0.0
 11
86.7780806848
 21
118.9222052915
 31
0.0
  0
MTEXT
  5
268
330
260
100
AcDbEntity
  8
RIQUADRO
100
AcDbMText
 10
77.7546068556
 20
166.9118817417
 30
0.0
 40
7.0
 41
0.0
 46
0.0
 71
     1
 72
     1
  1
111
  7
SLDTEXTSTYLE1
 11
-7.044195017643634E-15
 21
1.0
 31
0.0
 73
     1
 44
1.0
  0
ENDBLK
  5
262
330
260
100
AcDbEntity
  8
0
100
AcDbBlockEnd
  0
BLOCK
  5
26B
330
26A
100
AcDbEntity
  8
0
100
AcDbBlockBegin
  2
_D_12
 70
     0
 10
0.0
 20
0.0
 30
0.0
  3
_D_12
  1

  0
INSERT
  5
26D
330
26A
100
AcDbEntity
  8
RIQUADRO
100
AcDbBlockReference
  2
_CLOSED
 10
104.7012993611
 20
204.4222052915
 30
7.376874813
 41
5.0
 42
5.0
 50
90.0
  0
INSERT
  5
26E
330
26A
100
AcDbEntity
  8
RIQUADRO
100
AcDbBlockReference
  2
_CLOSED
 10
104.7012993611
 20
144.4222052915
 30
7.376874813
 41
5.0
 42
5.0
 50
270.0
  0
LINE
  5
26F
330
26A
100
AcDbEntity
  8
RIQUADRO
100
AcDbLine
 10
202.1461221104
 20
204.4222052915
 30
0.0
 11
102.7012993611
 21
204.4222052915
 31
0.0
  0
LINE
  5
270
330
26A
100
AcDbEntity
  8
RIQUADRO
100
AcDbLine
 10
202.1461221104
 20
144.4222052915
 30
0.0
 11
102.7012993611
 21
144.4222052915
 31
0.0
  0
LINE
  5
271
330
26A
100
AcDbEntity
  8
RIQUADRO
100
AcDbLine
 10
104.7012993611
 20
204.4222052915
 30
0.0
 11
104.7012993611
 21
144.4222052915
 31
0.0
  0
MTEXT
  5
272
330
26A
100
AcDbEntity
  8
RIQUADRO
100
AcDbMText
 10
95.6778255319
 20
169.4947968612
 30
0.0
 40
7.0
 41
0.0
 46
0.0
 71
     1
 72
     1
  1
60
  7
SLDTEXTSTYLE1
 11
-7.044195017643634E-15
 21
1.0
 31
0.0
 73
     1
 44
1.0
  0
ENDBLK
  5
26C
330
26A
100
AcDbEntity
  8
0
100
AcDbBlockEnd
  0
BLOCK
  5
275
330
274
100
AcDbEntity
  8
0
100
AcDbBlockBegin
  2
_D_13
 70
     0
 10
0.0
 20
0.0
 30
0.0
  3
_D_13
  1

  0
INSERT
  5
277
330
274
100
AcDbEntity
  8
RIQUADRO
100
AcDbBlockReference
  2
_CLOSED
 10
123.6854037447
 20
199.4222052915
 30
7.376874813
 41
5.0
 42
5.0
 50
90.0
  0
INSERT
  5
278
330
274
100
AcDbEntity
  8
RIQUADRO
100
AcDbBlockReference
  2
_CLOSED
 10
123.6854037447
 20
149.4222052915
 30
7.376874813
 41
5.0
 42
5.0
 50
270.0
  0
LINE
  5
279
330
274
100
AcDbEntity
  8
RIQUADRO
100
AcDbLine
 10
232.1461221104
 20
199.4222052915
 30
0.0
 11
121.6854037447
 21
199.4222052915
 31
0.0
  0
LINE
  5
27A
330
274
100
AcDbEntity
  8
RIQUADRO
100
AcDbLine
 10
232.1461221104
 20
149.4222052915
 30
0.0
 11
121.6854037447
 21
149.4222052915
 31
0.0
  0
LINE
  5
27B
330
274
100
AcDbEntity
  8
RIQUADRO
100
AcDbLine
 10
123.6854037447
 20
199.4222052915
 30
0.0
 11
123.6854037447
 21
149.4222052915
 31
0.0
  0
MTEXT
  5
27C
330
274
100
AcDbEntity
  8
RIQUADRO
100
AcDbMText
 10
114.6619299156
 20
169.4947968612
 30
0.0
 40
7.0
 41
0.0
 46
0.0
 71
     1
 72
     1
  1
50
  7
SLDTEXTSTYLE1
 11
-7.044195017643634E-15
 21
1.0
 31
0.0
 73
     1
 44
1.0
  0
ENDBLK
  5
276
330
274
100
AcDbEntity
  8
0
100
AcDbBlockEnd
  0
BLOCK
  5
27E
330
27D
100
AcDbEntity
  8
0
100
AcDbBlockBegin
  2
SW_NOTE_10
 70
     0
 10
0.0
 20
0.0
 30
0.0
  3
SW_NOTE_10
  1

  0
MTEXT
  5
280
330
27D
100
AcDbEntity
  8
RIQUADRO
 62
     0
100
AcDbMText
 10
1.1558189165
 20
3.2435456601
 30
0.0
 40
7.0
 41
0.0
 46
0.0
 71
     1
 72
     1
  1
n°4 trough all
  7
SLDTEXTSTYLE1
 73
     1
 44
1.0
  0
MTEXT
  5
281
330
27D
100
AcDbEntity
  8
RIQUADRO
 62
     0
100
AcDbMText
 10
1.1558189165
 20
-5.8078434008
 30
0.0
 40
7.0
 41
0.0
 46
0.0
 71
     1
 72
     1
  1
holes for M6 screws
  7
SLDTEXTSTYLE1
 73
     1
 44
1.0
  0
ENDBLK
  5
27F
330
27D
100
AcDbEntity
  8
0
100
AcDbBlockEnd
  0
BLOCK
  5
286
330
285
100
AcDbEntity
  8
0
100
AcDbBlockBegin
  2
SW_NOTE_11
 70
     0
 10
0.0
 20
0.0
 30
0.0
  3
SW_NOTE_11
  1

  0
MTEXT
  5
288
330
285
100
AcDbEntity
  8
RIQUADRO
 62
     0
100
AcDbMText
 10
1.1513076497
 20
4.280455393
 30
0.0
 40
7.0
 41
0.0
 46
0.0
 71
     1
 72
     1
  1
n°4 counterbored holes
  7
SLDTEXTSTYLE1
 73
     1
 44
1.0
  0
MTEXT
  5
289
330
285
100
AcDbEntity
  8
RIQUADRO
 62
     0
100
AcDbMText
 10
1.1513076497
 20
-4.7709336679
 30
0.0
 40
7.0
 41
0.0
 46
0.0
 71
     1
 72
     1
  1
for M4 screws
  7
SLDTEXTSTYLE1
 73
     1
 44
1.0
  0
ENDBLK
  5
287
330
285
100
AcDbEntity
  8
0
100
AcDbBlockEnd
  0
BLOCK
  5
28D
330
28C
100
AcDbEntity
  8
0
100
AcDbBlockBegin
  2
SW_NOTE_12
 70
     0
 10
0.0
 20
0.0
 30
0.0
  3
SW_NOTE_12
  1

  0
MTEXT
  5
28F
330
28C
100
AcDbEntity
  8
RIQUADRO
 62
     0
100
AcDbMText
 10
-64.6427700943
 20
5.1384407149
 30
0.0
 40
7.0
 41
0.0
 46
0.0
 71
     1
 72
     1
  1
n° 2 dowelling
  7
SLDTEXTSTYLE1
 73
     1
 44
1.0
  0
MTEXT
  5
290
330
28C
100
AcDbEntity
  8
RIQUADRO
 62
     0
100
AcDbMText
 10
-62.0177700943
 20
-3.912948346
 30
0.0
 40
7.0
 41
0.0
 46
0.0
 71
     1
 72
     1
  1
holes
  7
SLDTEXTSTYLE1
 73
     1
 44
1.0
  0
MTEXT
  5
291
330
28C
100
AcDbEntity
  8
RIQUADRO
 62
     0
100
AcDbMText
 10
-38.6941599375
 20
-3.912948346
 30
0.0
 40
7.0
 41
0.0
 46
0.0
 71
     1
 72
     1
  1
%%c
  7
SLDTEXTSTYLE1
 73
     1
 44
1.0
  0
MTEXT
  5
293
330
28C
100
AcDbEntity
  8
RIQUADRO
 62
     0
100
AcDbMText
 10
-28.1372832781
 20
-3.912948346
 30
0.0
 40
7.0
 41
0.0
 46
0.0
 71
     1
 72
     1
  1
4 F6
  7
SLDTEXTSTYLE4
 73
     1
 44
1.0
  0
ENDBLK
  5
28E
330
28C
100
AcDbEntity
  8
0
100
AcDbBlockEnd
  0
ENDSEC
  0
SECTION
  2
ENTITIES
  0
LINE
  5
4B
330
1F
100
AcDbEntity
  8
RIQUADRO
100
AcDbLine
 10
809.2129391868
 20
296.8377978596
 30
0.0
 11
819.2129391868
 21
296.8377978596
 31
0.0
  0
LINE
  5
4C
330
1F
100
AcDbEntity
  8
RIQUADRO
100
AcDbLine
 10
552.1665590222
 20
81.8377978596
 30
0.0
 11
552.1665590222
 21
39.8377978596
 31
0.0
  0
LINE
  5
4D
330
1F
100
AcDbEntity
  8
RIQUADRO
100
AcDbLine
 10
619.3056273927
 20
72.8377978596
 30
0.0
 11
619.3056273927
 21
39.8377978596
 31
0.0
  0
LINE
  5
4E
330
1F
100
AcDbEntity
  8
RIQUADRO
  6
Continuous
 62
     7
100
AcDbLine
 10
829.2129391868
 20
9.8377978596
 30
0.0
 11
809.2129391868
 21
9.8377978596
 31
0.0
  0
LINE
  5
4F
330
1F
100
AcDbEntity
  8
RIQUADRO
  6
Continuous
 62
     7
100
AcDbLine
 10
829.2129391868
 20
9.8377978596
 30
0.0
 11
829.2129391868
 21
29.8377978596
 31
0.0
  0
LINE
  5
50
330
1F
100
AcDbEntity
  8
CONTORNO
  6
Continuous
 62
     7
100
AcDbLine
 10
829.2129391868
 20
583.8377978596
 30
0.0
 11
829.2129391868
 21
563.8377978596
 31
0.0
  0
LINE
  5
51
330
1F
100
AcDbEntity
  8
CONTORNO
  6
Continuous
 62
     7
100
AcDbLine
 10
829.2129391868
 20
583.8377978596
 30
0.0
 11
809.2129391868
 21
583.8377978596
 31
0.0
  0
LINE
  5
52
330
1F
100
AcDbEntity
  8
RIQUADRO
100
AcDbLine
 10
19.2129391868
 20
573.8377978596
 30
0.0
 11
19.2129391868
 21
19.8377978596
 31
0.0
  0
LINE
  5
53
330
1F
100
AcDbEntity
  8
RIQUADRO
100
AcDbLine
 10
19.2129391868
 20
19.8377978596
 30
0.0
 11
819.2129391868
 21
19.8377978596
 31
0.0
  0
LINE
  5
54
330
1F
100
AcDbEntity
  8
RIQUADRO
100
AcDbLine
 10
819.2129391868
 20
573.8377978596
 30
0.0
 11
819.2129391868
 21
19.8377978596
 31
0.0
  0
LINE
  5
55
330
1F
100
AcDbEntity
  8
RIQUADRO
100
AcDbLine
 10
19.2129391868
 20
573.8377978596
 30
0.0
 11
819.2129391868
 21
573.8377978596
 31
0.0
  0
LINE
  5
56
330
1F
100
AcDbEntity
  8
RIQUADRO
100
AcDbLine
 10
29.2129391868
 20
573.8377978596
 30
0.0
 11
29.2129391868
 21
19.8377978596
 31
0.0
  0
LINE
  5
57
330
1F
100
AcDbEntity
  8
CARTIGLIO
100
AcDbLine
 10
449.2129391868
 20
29.8377978596
 30
0.0
 11
819.2129391868
 21
29.8377978596
 31
0.0
  0
LINE
  5
58
330
1F
100
AcDbEntity
  8
RIQUADRO
100
AcDbLine
 10
809.2129391868
 20
573.8377978596
 30
0.0
 11
809.2129391868
 21
19.8377978596
 31
0.0
  0
LINE
  5
59
330
1F
100
AcDbEntity
  8
RIQUADRO
100
AcDbLine
 10
19.2129391868
 20
563.8377978596
 30
0.0
 11
819.2129391868
 21
563.8377978596
 31
0.0
  0
LINE
  5
5A
330
1F
100
AcDbEntity
  8
CARTIGLIO
100
AcDbLine
 10
809.2129391868
 20
149.8377978596
 30
0.0
 11
449.2129391868
 21
149.8377978596
 31
0.0
  0
LINE
  5
5B
330
1F
100
AcDbEntity
  8
CARTIGLIO
100
AcDbLine
 10
449.2129391868
 20
149.8377978596
 30
0.0
 11
449.2129391868
 21
29.8377978596
 31
0.0
  0
LINE
  5
5C
330
1F
100
AcDbEntity
  8
CARTIGLIO
100
AcDbLine
 10
809.2129391868
 20
115.8377978596
 30
0.0
 11
449.2129391868
 21
115.8377978596
 31
0.0
  0
LINE
  5
5D
330
1F
100
AcDbEntity
  8
CARTIGLIO
100
AcDbLine
 10
809.2129391868
 20
39.8377978596
 30
0.0
 11
449.2129391868
 21
39.8377978596
 31
0.0
  0
LINE
  5
5E
330
1F
100
AcDbEntity
  8
CARTIGLIO
100
AcDbLine
 10
809.2129391868
 20
50.8377978596
 30
0.0
 11
669.1613712321
 21
50.8377978596
 31
0.0
  0
LINE
  5
5F
330
1F
100
AcDbEntity
  8
CARTIGLIO
100
AcDbLine
 10
669.1613712321
 20
149.8377978596
 30
0.0
 11
669.1613712321
 21
39.8377978596
 31
0.0
  0
LINE
  5
60
330
1F
100
AcDbEntity
  8
CARTIGLIO
100
AcDbLine
 10
809.2129391868
 20
81.8377978596
 30
0.0
 11
449.2129391868
 21
81.8377978596
 31
0.0
  0
LINE
  5
61
330
1F
100
AcDbEntity
  8
CARTIGLIO
100
AcDbLine
 10
789.8122713236
 20
81.8377978596
 30
0.0
 11
789.8122713236
 21
50.8377978596
 31
0.0
  0
LINE
  5
62
330
1F
100
AcDbEntity
  8
RIQUADRO
100
AcDbLine
 10
621.6322287719
 20
149.8377978596
 30
0.0
 11
621.6322287719
 21
115.8377978596
 31
0.0
  0
LINE
  5
63
330
1F
100
AcDbEntity
  8
CARTIGLIO
100
AcDbLine
 10
809.2129391868
 20
149.8377978596
 30
0.0
 11
809.2129391868
 21
29.8377978596
 31
0.0
  0
LINE
  5
64
330
1F
100
AcDbEntity
  8
PROIEZ
  6
CENTERX2
100
AcDbLine
 10
645.4323437127
 20
132.4235365691
 30
0.0
 11
668.2008675145
 21
132.4235365691
 31
0.0
  0
LINE
  5
65
330
1F
100
AcDbEntity
  8
PROIEZ
  6
CENTERX2
100
AcDbLine
 10
656.8166056136
 20
143.8077984701
 30
0.0
 11
656.8166056136
 21
121.0392746682
 31
0.0
  0
LINE
  5
66
330
1F
100
AcDbEntity
  8
CONTORNO
  6
Continuous
 62
     7
100
AcDbLine
 10
9.2129391868
 20
9.8377978596
 30
0.0
 11
9.2129391868
 21
29.8377978596
 31
0.0
  0
LINE
  5
67
330
1F
100
AcDbEntity
  8
CONTORNO
  6
Continuous
 62
     7
100
AcDbLine
 10
9.2129391868
 20
9.8377978596
 30
0.0
 11
29.2129391868
 21
9.8377978596
 31
0.0
  0
LINE
  5
68
330
1F
100
AcDbEntity
  8
PROIEZ
  6
Continuous
 62
    16
100
AcDbLine
 10
638.742612136
 20
124.030081576
 30
0.0
 11
638.742612136
 21
140.8169915622
 31
0.0
  0
LINE
  5
69
330
1F
100
AcDbEntity
  8
PROIEZ
  6
CENTERX2
100
AcDbLine
 10
641.3982922617
 20
132.4235365691
 30
0.0
 11
624.742612136
 21
132.4235365691
 31
0.0
  0
LINE
  5
6A
330
1F
100
AcDbEntity
  8
PROIEZ
  6
Continuous
 62
    16
100
AcDbLine
 10
624.742612136
 20
128.030081576
 30
0.0
 11
624.742612136
 21
136.8169915622
 31
0.0
  0
LINE
  5
6B
330
1F
100
AcDbEntity
  8
PROIEZ
100
AcDbLine
 10
624.742612136
 20
128.030081576
 30
0.0
 11
638.742612136
 21
124.030081576
 31
0.0
  0
LINE
  5
6C
330
1F
100
AcDbEntity
  8
PROIEZ
  6
Continuous
 62
    16
100
AcDbLine
 10
624.742612136
 20
136.8169915622
 30
0.0
 11
638.742612136
 21
140.8169915622
 31
0.0
  0
LINE
  5
6D
330
1F
100
AcDbEntity
  8
CARTIGLIO
100
AcDbLine
 10
669.1613712321
 20
134.7398159365
 30
0.0
 11
809.2129391868
 21
134.7398159365
 31
0.0
  0
LINE
  5
6E
330
1F
100
AcDbEntity
  8
CARTIGLIO
100
AcDbLine
 10
621.6322287719
 20
132.8377978596
 30
0.0
 11
449.2129391868
 21
132.8377978596
 31
0.0
  0
LINE
  5
6F
330
1F
100
AcDbEntity
  8
CARTIGLIO
100
AcDbLine
 10
601.2129391868
 20
115.8377978596
 30
0.0
 11
601.2129391868
 21
81.8377978596
 31
0.0
  0
LINE
  5
70
330
1F
100
AcDbEntity
  8
CARTIGLIO
100
AcDbLine
 10
601.2129391868
 20
98.8377978596
 30
0.0
 11
669.1613712321
 21
98.8377978596
 31
0.0
  0
LINE
  5
71
330
1F
100
AcDbEntity
  8
CARTIGLIO
100
AcDbLine
 10
643.426343532
 20
115.8377978596
 30
0.0
 11
643.426343532
 21
81.8377978596
 31
0.0
  0
LINE
  5
72
330
1F
100
AcDbEntity
  8
CARTIGLIO
100
AcDbLine
 10
601.2129391868
 20
101.8377978596
 30
0.0
 11
449.2129391868
 21
101.8377978596
 31
0.0
  0
LINE
  5
73
330
1F
100
AcDbEntity
  8
CARTIGLIO
100
AcDbLine
 10
601.2129391868
 20
89.8377978596
 30
0.0
 11
449.2129391868
 21
89.8377978596
 31
0.0
  0
LINE
  5
74
330
1F
100
AcDbEntity
  8
CARTIGLIO
100
AcDbLine
 10
468.2129391868
 20
101.8377978596
 30
0.0
 11
468.2129391868
 21
81.8377978596
 31
0.0
  0
LINE
  5
75
330
1F
100
AcDbEntity
  8
CARTIGLIO
100
AcDbLine
 10
487.2129391868
 20
101.8377978596
 30
0.0
 11
487.2129391868
 21
81.8377978596
 31
0.0
  0
LINE
  5
76
330
1F
100
AcDbEntity
  8
CARTIGLIO
100
AcDbLine
 10
506.2129391868
 20
101.8377978596
 30
0.0
 11
506.2129391868
 21
81.8377978596
 31
0.0
  0
LINE
  5
77
330
1F
100
AcDbEntity
  8
CARTIGLIO
100
AcDbLine
 10
525.2129391868
 20
101.8377978596
 30
0.0
 11
525.2129391868
 21
81.8377978596
 31
0.0
  0
LINE
  5
78
330
1F
100
AcDbEntity
  8
CARTIGLIO
100
AcDbLine
 10
544.2129391868
 20
101.8377978596
 30
0.0
 11
544.2129391868
 21
81.8377978596
 31
0.0
  0
LINE
  5
79
330
1F
100
AcDbEntity
  8
CARTIGLIO
100
AcDbLine
 10
563.2129391868
 20
101.8377978596
 30
0.0
 11
563.2129391868
 21
81.8377978596
 31
0.0
  0
LINE
  5
7A
330
1F
100
AcDbEntity
  8
CARTIGLIO
100
AcDbLine
 10
582.2129391868
 20
101.8377978596
 30
0.0
 11
582.2129391868
 21
39.8377978596
 31
0.0
  0
LINE
  5
7B
330
1F
100
AcDbEntity
  8
CARTIGLIO
100
AcDbLine
 10
449.2129391868
 20
108.8377978596
 30
0.0
 11
601.2129391868
 21
108.8377978596
 31
0.0
  0
LINE
  5
7C
330
1F
100
AcDbEntity
  8
CARTIGLIO
100
AcDbLine
 10
569.1860795461
 20
115.8377978596
 30
0.0
 11
569.1860795461
 21
101.8377978596
 31
0.0
  0
LINE
  5
7D
330
1F
100
AcDbEntity
  8
CARTIGLIO
100
AcDbLine
 10
586.7623708936
 20
115.8377978596
 30
0.0
 11
586.7623708936
 21
101.8377978596
 31
0.0
  0
LINE
  5
7E
330
1F
100
AcDbEntity
  8
CARTIGLIO
100
AcDbLine
 10
669.1613712321
 20
50.8377978596
 30
0.0
 11
552.1665590222
 21
50.8377978596
 31
0.0
  0
LINE
  5
7F
330
1F
100
AcDbEntity
  8
CARTIGLIO
100
AcDbLine
 10
669.1613712321
 20
61.8377978596
 30
0.0
 11
552.1665590222
 21
61.8377978596
 31
0.0
  0
LINE
  5
80
330
1F
100
AcDbEntity
  8
CARTIGLIO
100
AcDbLine
 10
669.1613712321
 20
72.8377978596
 30
0.0
 11
552.1665590222
 21
72.8377978596
 31
0.0
  0
LINE
  5
81
330
1F
100
AcDbEntity
  8
CARTIGLIO
100
AcDbLine
 10
752.0832460733
 20
134.7398159365
 30
0.0
 11
752.0832460733
 21
149.8377978596
 31
0.0
  0
LINE
  5
82
330
1F
100
AcDbEntity
  8
RIQUADRO
100
AcDbLine
 10
419.2129391868
 20
29.8377978596
 30
0.0
 11
419.2129391868
 21
39.8377978596
 31
0.0
  0
LINE
  5
83
330
1F
100
AcDbEntity
  8
RIQUADRO
100
AcDbLine
 10
126.7129391868
 20
573.8377978596
 30
0.0
 11
126.7129391868
 21
563.8377978596
 31
0.0
  0
LINE
  5
84
330
1F
100
AcDbEntity
  8
RIQUADRO
100
AcDbLine
 10
224.2129391868
 20
573.8377978596
 30
0.0
 11
224.2129391868
 21
563.8377978596
 31
0.0
  0
LINE
  5
85
330
1F
100
AcDbEntity
  8
RIQUADRO
100
AcDbLine
 10
321.7129391868
 20
573.8377978596
 30
0.0
 11
321.7129391868
 21
563.8377978596
 31
0.0
  0
LINE
  5
86
330
1F
100
AcDbEntity
  8
CONTORNO
  6
Continuous
 62
     7
100
AcDbLine
 10
9.2129391868
 20
583.8377978596
 30
0.0
 11
29.2129391868
 21
583.8377978596
 31
0.0
  0
LINE
  5
87
330
1F
100
AcDbEntity
  8
RIQUADRO
100
AcDbLine
 10
29.2129391868
 20
163.3377978596
 30
0.0
 11
19.2129391868
 21
163.3377978596
 31
0.0
  0
LINE
  5
88
330
1F
100
AcDbEntity
  8
CONTORNO
  6
Continuous
 62
     7
100
AcDbLine
 10
9.2129391868
 20
583.8377978596
 30
0.0
 11
9.2129391868
 21
563.8377978596
 31
0.0
  0
LINE
  5
89
330
1F
100
AcDbEntity
  8
CONTORNO
100
AcDbLine
 10
29.2129391868
 20
563.8377978596
 30
0.0
 11
809.2129391868
 21
563.8377978596
 31
0.0
  0
LINE
  5
8A
330
1F
100
AcDbEntity
  8
RIQUADRO
100
AcDbLine
 10
29.2129391868
 20
430.3377978596
 30
0.0
 11
19.2129391868
 21
430.3377978596
 31
0.0
  0
LINE
  5
8B
330
1F
100
AcDbEntity
  8
RIQUADRO
100
AcDbLine
 10
809.2129391868
 20
163.3377978596
 30
0.0
 11
819.2129391868
 21
163.3377978596
 31
0.0
  0
LINE
  5
8C
330
1F
100
AcDbEntity
  8
RIQUADRO
100
AcDbLine
 10
19.2129391868
 20
296.8377978596
 30
0.0
 11
29.2129391868
 21
296.8377978596
 31
0.0
  0
LINE
  5
8D
330
1F
100
AcDbEntity
  8
RIQUADRO
100
AcDbLine
 10
809.2129391868
 20
430.3377978596
 30
0.0
 11
819.2129391868
 21
430.3377978596
 31
0.0
  0
LINE
  5
8E
330
1F
100
AcDbEntity
  8
CONTORNO
100
AcDbLine
 10
809.2129391868
 20
563.8377978596
 30
0.0
 11
809.2129391868
 21
29.8377978596
 31
0.0
  0
LINE
  5
8F
330
1F
100
AcDbEntity
  8
CONTORNO
100
AcDbLine
 10
809.2129391868
 20
29.8377978596
 30
0.0
 11
29.2129391868
 21
29.8377978596
 31
0.0
  0
LINE
  5
90
330
1F
100
AcDbEntity
  8
CONTORNO
100
AcDbLine
 10
29.2129391868
 20
29.8377978596
 30
0.0
 11
29.2129391868
 21
563.8377978596
 31
0.0
  0
LINE
  5
91
330
1F
100
AcDbEntity
  8
RIQUADRO
100
AcDbLine
 10
419.2129391868
 20
573.8377978596
 30
0.0
 11
419.2129391868
 21
553.8377978596
 31
0.0
  0
LINE
  5
92
330
1F
100
AcDbEntity
  8
RIQUADRO
100
AcDbLine
 10
516.7129391868
 20
573.8377978596
 30
0.0
 11
516.7129391868
 21
563.8377978596
 31
0.0
  0
LINE
  5
93
330
1F
100
AcDbEntity
  8
RIQUADRO
100
AcDbLine
 10
614.2129391868
 20
573.8377978596
 30
0.0
 11
614.2129391868
 21
563.8377978596
 31
0.0
  0
LINE
  5
94
330
1F
100
AcDbEntity
  8
RIQUADRO
100
AcDbLine
 10
711.7129391868
 20
573.8377978596
 30
0.0
 11
711.7129391868
 21
563.8377978596
 31
0.0
  0
LINE
  5
95
330
1F
100
AcDbEntity
  8
RIQUADRO
100
AcDbLine
 10
126.7129391868
 20
29.8377978596
 30
0.0
 11
126.7129391868
 21
19.8377978596
 31
0.0
  0
LINE
  5
96
330
1F
100
AcDbEntity
  8
RIQUADRO
100
AcDbLine
 10
224.2129391868
 20
29.8377978596
 30
0.0
 11
224.2129391868
 21
19.8377978596
 31
0.0
  0
LINE
  5
97
330
1F
100
AcDbEntity
  8
CONTORNO
100
AcDbLine
 10
439.2129391868
 20
29.8377978596
 30
0.0
 11
439.2129391868
 21
19.8377978596
 31
0.0
  0
LINE
  5
98
330
1F
100
AcDbEntity
  8
CONTORNO
100
AcDbLine
 10
419.2129391868
 20
29.8377978596
 30
0.0
 11
419.2129391868
 21
19.8377978596
 31
0.0
  0
LINE
  5
99
330
1F
100
AcDbEntity
  8
CONTORNO
100
AcDbLine
 10
459.2129391868
 20
29.8377978596
 30
0.0
 11
459.2129391868
 21
19.8377978596
 31
0.0
  0
LINE
  5
9A
330
1F
100
AcDbEntity
  8
CONTORNO
100
AcDbLine
 10
479.2129391868
 20
29.8377978596
 30
0.0
 11
479.2129391868
 21
19.8377978596
 31
0.0
  0
LINE
  5
9B
330
1F
100
AcDbEntity
  8
CONTORNO
100
AcDbLine
 10
499.2129391868
 20
29.8377978596
 30
0.0
 11
499.2129391868
 21
19.8377978596
 31
0.0
  0
LINE
  5
9C
330
1F
100
AcDbEntity
  8
RIQUADRO
100
AcDbLine
 10
519.2129391868
 20
29.8377978596
 30
0.0
 11
519.2129391868
 21
19.8377978596
 31
0.0
  0
LINE
  5
9D
330
1F
100
AcDbEntity
  8
CONTORNO
100
AcDbLine
 10
399.2129391868
 20
29.8377978596
 30
0.0
 11
399.2129391868
 21
19.8377978596
 31
0.0
  0
LINE
  5
9E
330
1F
100
AcDbEntity
  8
CONTORNO
100
AcDbLine
 10
379.2129391868
 20
29.8377978596
 30
0.0
 11
379.2129391868
 21
19.8377978596
 31
0.0
  0
LINE
  5
9F
330
1F
100
AcDbEntity
  8
TABELLA_REV
100
AcDbLine
 10
449.2129391868
 20
543.8377978596
 30
0.0
 11
449.2129391868
 21
563.8377978596
 31
0.0
  0
LINE
  5
A0
330
1F
100
AcDbEntity
  8
TABELLA_REV
100
AcDbLine
 10
809.2129391868
 20
543.8377978596
 30
0.0
 11
449.2129391868
 21
543.8377978596
 31
0.0
  0
LINE
  5
A1
330
1F
100
AcDbEntity
  8
TABELLA_REV
100
AcDbLine
 10
809.2129391868
 20
554.8377978596
 30
0.0
 11
449.2129391868
 21
554.8377978596
 31
0.0
  0
LINE
  5
A2
330
1F
100
AcDbEntity
  8
TABELLA_REV
100
AcDbLine
 10
481.2129391868
 20
563.8377978596
 30
0.0
 11
481.2129391868
 21
543.8377978596
 31
0.0
  0
LINE
  5
A3
330
1F
100
AcDbEntity
  8
TABELLA_REV
100
AcDbLine
 10
703.2129391868
 20
563.8377978596
 30
0.0
 11
703.2129391868
 21
543.8377978596
 31
0.0
  0
LINE
  5
A4
330
1F
100
AcDbEntity
  8
TABELLA_REV
100
AcDbLine
 10
749.2129391868
 20
563.8377978596
 30
0.0
 11
749.2129391868
 21
543.8377978596
 31
0.0
  0
LINE
  5
A5
330
1F
100
AcDbEntity
  8
RIQUADRO
100
AcDbLine
 10
614.2129391868
 20
29.8377978596
 30
0.0
 11
614.2129391868
 21
19.8377978596
 31
0.0
  0
LINE
  5
A6
330
1F
100
AcDbEntity
  8
RIQUADRO
100
AcDbLine
 10
711.7129391868
 20
29.8377978596
 30
0.0
 11
711.7129391868
 21
19.8377978596
 31
0.0
  0
LINE
  5
A7
330
1F
100
AcDbEntity
  8
CONTORNO
100
AcDbLine
 10
359.2129391868
 20
29.8377978596
 30
0.0
 11
359.2129391868
 21
19.8377978596
 31
0.0
  0
LINE
  5
A8
330
1F
100
AcDbEntity
  8
CONTORNO
100
AcDbLine
 10
339.2129391868
 20
29.8377978596
 30
0.0
 11
339.2129391868
 21
19.8377978596
 31
0.0
  0
LINE
  5
A9
330
1F
100
AcDbEntity
  8
RIQUADRO
100
AcDbLine
 10
319.2129391868
 20
29.8377978596
 30
0.0
 11
319.2129391868
 21
19.8377978596
 31
0.0
  0
LINE
  5
AA
330
1F
100
AcDbEntity
  8
RIQUADRO
100
AcDbLine
 10
19.2129391868
 20
29.8377978596
 30
0.0
 11
809.2129391868
 21
29.8377978596
 31
0.0
  0
LINE
  5
AB
330
1F
100
AcDbEntity
  8
RIQUADRO
100
AcDbLine
 10
419.2129391868
 20
39.8377978596
 30
0.0
 11
419.2129391868
 21
19.8377978596
 31
0.0
  0
LINE
  5
AC
330
1F
100
AcDbEntity
  8
CONTORNO
100
AcDbLine
 10
319.2129391868
 20
29.8377978596
 30
0.0
 11
519.2129391868
 21
29.8377978596
 31
0.0
  0
LINE
  5
AD
330
1F
100
AcDbEntity
  8
CONTORNO
100
AcDbLine
 10
319.2129391868
 20
29.8377978596
 30
0.0
 11
319.2129391868
 21
19.8377978596
 31
0.0
  0
LINE
  5
AE
330
1F
100
AcDbEntity
  8
CONTORNO
100
AcDbLine
 10
319.2129391868
 20
19.8377978596
 30
0.0
 11
519.2129391868
 21
19.8377978596
 31
0.0
  0
LINE
  5
AF
330
1F
100
AcDbEntity
  8
CONTORNO
100
AcDbLine
 10
519.2129391868
 20
29.8377978596
 30
0.0
 11
519.2129391868
 21
19.8377978596
 31
0.0
  0
CIRCLE
  5
B0
330
1F
100
AcDbEntity
  8
PROIEZ
100
AcDbCircle
 10
656.8166056136
 20
132.4235365691
 30
0.0
 40
7.99999999999998
  0
CIRCLE
  5
B1
330
1F
100
AcDbEntity
  8
PROIEZ
100
AcDbCircle
 10
656.8166056136
 20
132.4235365691
 30
0.0
 40
3.99999999999999
  0
MTEXT
  5
B3
330
1F
100
AcDbEntity
  8
CARTIGLIO
100
AcDbMText
 10
670.3082341982
 20
147.5898708381
 30
0.0
 40
4.0
 41
0.0
 46
0.0
 71
     1
 72
     1
  1
Mass
  7
SLDTEXTSTYLE0
 73
     1
 44
1.0
  0
MTEXT
  5
B4
330
1F
100
AcDbEntity
  8
CARTIGLIO
100
AcDbMText
 10
672.8770494324
 20
80.0980897825
 30
0.0
 40
4.0
 41
0.0
 46
0.0
 71
     1
 72
     1
  1
Drawing No.
  7
SLDTEXTSTYLE0
 73
     1
 44
1.0
  0
MTEXT
  5
B5
330
1F
100
AcDbEntity
  8
CARTIGLIO
100
AcDbMText
 10
759.6691753508
 20
147.8406429285
 30
0.0
 40
4.0
 41
0.0
 46
0.0
 71
     1
 72
     1
  1
Scale
  7
SLDTEXTSTYLE0
 73
     1
 44
1.0
  0
MTEXT
  5
B6
330
1F
100
AcDbEntity
  8
CARTIGLIO
100
AcDbMText
 10
793.0750769468
 20
79.4558693149
 30
0.0
 40
4.0
 41
0.0
 46
0.0
 71
     1
 72
     1
  1
Sheet
  7
SLDTEXTSTYLE0
 73
     1
 44
1.0
  0
MTEXT
  5
B8
330
1F
100
AcDbEntity
  8
CARTIGLIO
100
AcDbMText
 10
779.1491393901
 20
146.1723522791
 30
0.0
 40
7.0
 41
0.0
 46
0.0
 71
     1
 72
     1
  1
1:2
  7
SLDTEXTSTYLE1
 73
     1
 44
1.0
  0
MTEXT
  5
B9
330
1F
100
AcDbEntity
  8
CARTIGLIO
100
AcDbMText
 10
674.2448674845
 20
69.3454785907
 30
0.0
 40
9.0
 41
0.0
 46
0.0
 71
     1
 72
     1
  1
18893-0-A
  7
SLDTEXTSTYLE1
 73
     1
 44
1.0
  0
MTEXT
  5
BA
330
1F
100
AcDbEntity
  8
CARTIGLIO
100
AcDbMText
 10
793.233798418
 20
64.5607504627
 30
0.0
 40
7.0
 41
0.0
 46
0.0
 71
     1
 72
     1
  1
1/1
  7
SLDTEXTSTYLE1
 73
     1
 44
1.0
  0
MTEXT
  5
BC
330
1F
100
AcDbEntity
  8
CARTIGLIO
100
AcDbMText
 10
456.6477111601
 20
37.5058064073
 30
0.0
 40
3.0
 41
0.0
 46
0.0
 71
     1
 72
     1
  1
{OPTO  ENGINEERING S.r.l.    -   46100 Mantova Italy   -   Via Cremona, 29/2 -   Tel/fax  +39 0376 223525   - e-mai: info@opto-enginering.com   -   http://www.opto-engineering.com}
  7
SLDTEXTSTYLE2
 73
     1
 44
1.0
  0
MTEXT
  5
BD
330
1F
100
AcDbEntity
  8
CARTIGLIO
100
AcDbMText
 10
672.5981860439
 20
46.9069809682
 30
0.0
 40
3.8
 41
0.0
 46
0.0
 71
     1
 72
     1
  1
Reproduction forbidden without specific authorization
  7
SLDTEXTSTYLE1
 73
     1
 44
1.0
  0
MTEXT
  5
BE
330
1F
100
AcDbEntity
  8
CARTIGLIO
100
AcDbMText
 10
671.35910951
 20
111.8527069905
 30
0.0
 40
4.0
 41
0.0
 46
0.0
 71
     1
 72
     1
  1
Description
  7
SLDTEXTSTYLE1
 73
     1
 44
1.0
  0
MTEXT
  5
BF
330
1F
100
AcDbEntity
  8
CARTIGLIO
100
AcDbMText
 10
675.4616161613
 20
102.9138242391
 30
0.0
 40
7.0
 41
0.0
 46
0.0
 71
     1
 72
     1
  1
CMHO48
  7
SLDTEXTSTYLE1
 73
     1
 44
1.0
  0
MTEXT
  5
C0
330
1F
100
AcDbEntity
  8
CARTIGLIO
100
AcDbMText
 10
670.233672529
 20
133.0761203166
 30
0.0
 40
4.0
 41
0.0
 46
0.0
 71
     1
 72
     1
  1
Project-Prod.item/Instrument
  7
SLDTEXTSTYLE1
 73
     1
 44
1.0
  0
MTEXT
  5
C1
330
1F
100
AcDbEntity
  8
CARTIGLIO
100
AcDbMText
 10
677.4965154195
 20
127.2606523935
 30
0.0
 40
7.0
 41
0.0
 46
0.0
 71
     1
 72
     1
  1
CMHO48
  7
SLDTEXTSTYLE1
 73
     1
 44
1.0
  0
MTEXT
  5
C2
330
1F
100
AcDbEntity
  8
CARTIGLIO
100
AcDbMText
 10
450.3960819803
 20
148.2323886938
 30
0.0
 40
4.0
 41
0.0
 46
0.0
 71
     1
 72
     1
  1
Material
  7
SLDTEXTSTYLE1
 73
     1
 44
1.0
  0
MTEXT
  5
C3
330
1F
100
AcDbEntity
  8
CARTIGLIO
100
AcDbMText
 10
451.4261079318
 20
130.8876600274
 30
0.0
 40
4.0
 41
0.0
 46
0.0
 71
     1
 72
     1
  1
Surface treatment
  7
SLDTEXTSTYLE1
 73
     1
 44
1.0
  0
INSERT
  5
C9
330
1F
100
AcDbEntity
  8
CARTIGLIO
100
AcDbBlockReference
  2
SW_NOTE_0
 10
602.5183513614
 20
90.5273092558
 30
0.0
  0
INSERT
  5
CF
330
1F
100
AcDbEntity
  8
CARTIGLIO
100
AcDbBlockReference
  2
SW_NOTE_1
 10
602.3081346192
 20
105.9590514586
 30
0.0
  0
MTEXT
  5
D0
330
1F
100
AcDbEntity
  8
CARTIGLIO
100
AcDbMText
 10
646.2040607771
 20
94.0855137084
 30
0.0
 40
6.0
 41
0.0
 46
0.0
 71
     1
 72
     1
  1
R 0.5
  7
SLDTEXTSTYLE2
 73
     1
 44
1.0
  0
MTEXT
  5
D1
330
1F
100
AcDbEntity
  8
CARTIGLIO
100
AcDbMText
 10
645.2473912868
 20
109.3435195443
 30
0.0
 40
6.0
 41
0.0
 46
0.0
 71
     1
 72
     1
  1
0.5x45°
  7
SLDTEXTSTYLE1
 73
     1
 44
1.0
  0
MTEXT
  5
D2
330
1F
100
AcDbEntity
  8
CARTIGLIO
100
AcDbMText
 10
452.3327984654
 20
113.2629006043
 30
0.0
 40
3.0
 41
0.0
 46
0.0
 71
     1
 72
     1
  1
Geometrical tolerance (ISO 2768-2)
  7
SLDTEXTSTYLE1
 73
     1
 44
1.0
  0
MTEXT
  5
D3
330
1F
100
AcDbEntity
  8
CARTIGLIO
100
AcDbMText
 10
452.6840808056
 20
107.0934229134
 30
0.0
 40
3.0
 41
0.0
 46
0.0
 71
     1
 72
     1
  1
Linear tolerance (ISO 2768-2)
  7
SLDTEXTSTYLE1
 73
     1
 44
1.0
  0
INSERT
  5
D9
330
1F
100
AcDbEntity
  8
CARTIGLIO
100
AcDbBlockReference
  2
SW_NOTE_2
 10
454.3697957021
 20
95.9907582281
 30
0.0
  0
INSERT
  5
DF
330
1F
100
AcDbEntity
  8
CARTIGLIO
100
AcDbBlockReference
  2
SW_NOTE_3
 10
472.3663180778
 20
95.312478459
 30
0.0
  0
INSERT
  5
E5
330
1F
100
AcDbEntity
  8
CARTIGLIO
100
AcDbBlockReference
  2
SW_NOTE_4
 10
492.0022034344
 20
96.1287930093
 30
0.0
  0
INSERT
  5
EB
330
1F
100
AcDbEntity
  8
CARTIGLIO
100
AcDbBlockReference
  2
SW_NOTE_5
 10
509.666106572
 20
95.691948402
 30
0.0
  0
INSERT
  5
F1
330
1F
100
AcDbEntity
  8
CARTIGLIO
100
AcDbBlockReference
  2
SW_NOTE_6
 10
528.4176563488
 20
95.4804842663
 30
0.0
  0
INSERT
  5
F7
330
1F
100
AcDbEntity
  8
CARTIGLIO
100
AcDbBlockReference
  2
SW_NOTE_7
 10
545.8874555103
 20
95.38121123
 30
0.0
  0
INSERT
  5
FD
330
1F
100
AcDbEntity
  8
CARTIGLIO
100
AcDbBlockReference
  2
SW_NOTE_8
 10
565.6844504233
 20
95.7518560376
 30
0.0
  0
INSERT
  5
103
330
1F
100
AcDbEntity
  8
CARTIGLIO
100
AcDbBlockReference
  2
SW_NOTE_9
 10
584.0830364199
 20
95.608232471
 30
0.0
  0
MTEXT
  5
104
330
1F
100
AcDbEntity
  8
CARTIGLIO
100
AcDbMText
 10
452.4566743804
 20
87.7086140083
 30
0.0
 40
4.0
 41
0.0
 46
0.0
 71
     1
 72
     1
  1
±0.1
  7
SLDTEXTSTYLE1
 73
     1
 44
1.0
  0
MTEXT
  5
105
330
1F
100
AcDbEntity
  8
CARTIGLIO
100
AcDbMText
 10
472.2453134739
 20
87.4572156416
 30
0.0
 40
4.0
 41
0.0
 46
0.0
 71
     1
 72
     1
  1
±0.1
  7
SLDTEXTSTYLE1
 73
     1
 44
1.0
  0
MTEXT
  5
106
330
1F
100
AcDbEntity
  8
CARTIGLIO
100
AcDbMText
 10
492.6431699899
 20
87.7774833435
 30
0.0
 40
4.0
 41
0.0
 46
0.0
 71
     1
 72
     1
  1
±0.2
  7
SLDTEXTSTYLE1
 73
     1
 44
1.0
  0
MTEXT
  5
107
330
1F
100
AcDbEntity
  8
CARTIGLIO
100
AcDbMText
 10
510.7229177998
 20
87.5543342282
 30
0.0
 40
4.0
 41
0.0
 46
0.0
 71
     1
 72
     1
  1
±0.3
  7
SLDTEXTSTYLE1
 73
     1
 44
1.0
  0
MTEXT
  5
108
330
1F
100
AcDbEntity
  8
CARTIGLIO
100
AcDbMText
 10
529.7518487138
 20
87.7783795334
 30
0.0
 40
4.0
 41
0.0
 46
0.0
 71
     1
 72
     1
  1
±0.5
  7
SLDTEXTSTYLE1
 73
     1
 44
1.0
  0
MTEXT
  5
109
330
1F
100
AcDbEntity
  8
CARTIGLIO
100
AcDbMText
 10
548.4547601707
 20
88.0917542257
 30
0.0
 40
4.0
 41
0.0
 46
0.0
 71
     1
 72
     1
  1
±0.8
  7
SLDTEXTSTYLE1
 73
     1
 44
1.0
  0
MTEXT
  5
10A
330
1F
100
AcDbEntity
  8
CARTIGLIO
100
AcDbMText
 10
568.0888394403
 20
87.9126555369
 30
0.0
 40
4.0
 41
0.0
 46
0.0
 71
     1
 72
     1
  1
±1.2
  7
SLDTEXTSTYLE1
 73
     1
 44
1.0
  0
MTEXT
  5
10B
330
1F
100
AcDbEntity
  8
CARTIGLIO
100
AcDbMText
 10
588.8089158896
 20
87.8386363785
 30
0.0
 40
4.0
 41
0.0
 46
0.0
 71
     1
 72
     1
  1
±2
  7
SLDTEXTSTYLE1
 73
     1
 44
1.0
  0
MTEXT
  5
10C
330
1F
100
AcDbEntity
  8
CARTIGLIO
100
AcDbMText
 10
570.8679410985
 20
113.6307988662
 30
0.0
 40
3.0
 41
0.0
 46
0.0
 71
     1
 72
     1
  1
Class
  7
SLDTEXTSTYLE1
 73
     1
 44
1.0
  0
MTEXT
  5
10D
330
1F
100
AcDbEntity
  8
CARTIGLIO
100
AcDbMText
 10
570.4819591598
 20
106.3250441834
 30
0.0
 40
3.0
 41
0.0
 46
0.0
 71
     1
 72
     1
  1
Class
  7
SLDTEXTSTYLE1
 73
     1
 44
1.0
  0
MTEXT
  5
10E
330
1F
100
AcDbEntity
  8
CARTIGLIO
100
AcDbMText
 10
590.4624218552
 20
106.8441659993
 30
0.0
 40
4.0
 41
0.0
 46
0.0
 71
     1
 72
     1
  1
m
  7
SLDTEXTSTYLE1
 73
     1
 44
1.0
  0
MTEXT
  5
10F
330
1F
100
AcDbEntity
  8
CARTIGLIO
100
AcDbMText
 10
591.0158667743
 20
114.4846415142
 30
0.0
 40
4.0
 41
0.0
 46
0.0
 71
     1
 72
     1
  1
K
  7
SLDTEXTSTYLE1
 73
     1
 44
1.0
  0
MTEXT
  5
110
330
1F
100
AcDbEntity
  8
CARTIGLIO
100
AcDbMText
 10
555.424075624
 20
70.2467235293
 30
0.0
 40
4.0
 41
0.0
 46
0.0
 71
     1
 72
     1
  1
Designed
  7
SLDTEXTSTYLE1
 73
     1
 44
1.0
  0
MTEXT
  5
111
330
1F
100
AcDbEntity
  8
CARTIGLIO
100
AcDbMText
 10
555.4099019663
 20
59.3753766622
 30
0.0
 40
4.0
 41
0.0
 46
0.0
 71
     1
 72
     1
  1
Draw
  7
SLDTEXTSTYLE1
 73
     1
 44
1.0
  0
MTEXT
  5
112
330
1F
100
AcDbEntity
  8
CARTIGLIO
100
AcDbMText
 10
555.0233746255
 20
48.0945446703
 30
0.0
 40
4.0
 41
0.0
 46
0.0
 71
     1
 72
     1
  1
Checked
  7
SLDTEXTSTYLE1
 73
     1
 44
1.0
  0
MTEXT
  5
113
330
1F
100
AcDbEntity
  8
CARTIGLIO
100
AcDbMText
 10
623.0274340804
 20
71.5000451001
 30
0.0
 40
6.0
 41
0.0
 46
0.0
 71
     1
 72
     1
  1
N.Santini
  7
SLDTEXTSTYLE1
 73
     1
 44
1.0
  0
MTEXT
  5
114
330
1F
100
AcDbEntity
  8
CARTIGLIO
100
AcDbMText
 10
623.0868471279
 20
60.7933783381
 30
0.0
 40
6.0
 41
0.0
 46
0.0
 71
     1
 72
     1
  1
N.Santini
  7
SLDTEXTSTYLE1
 73
     1
 44
1.0
  0
MTEXT
  5
115
330
1F
100
AcDbEntity
  8
CARTIGLIO
100
AcDbMText
 10
583.4696227702
 20
70.2984383192
 30
0.0
 40
6.0
 41
0.0
 46
0.0
 71
     1
 72
     1
  1
16/09/09
  7
SLDTEXTSTYLE1
 73
     1
 44
1.0
  0
MTEXT
  5
116
330
1F
100
AcDbEntity
  8
CARTIGLIO
100
AcDbMText
 10
583.7449894649
 20
60.6726917694
 30
0.0
 40
6.0
 41
0.0
 46
0.0
 71
     1
 72
     1
  1
16/09/09
  7
SLDTEXTSTYLE1
 73
     1
 44
1.0
  0
MTEXT
  5
117
330
1F
100
AcDbEntity
  8
CARTIGLIO
100
AcDbMText
 10
598.1651282433
 20
49.8411289349
 30
0.0
 40
6.0
 41
0.0
 46
0.0
 71
     1
 72
     1
  1
x
  7
SLDTEXTSTYLE1
 73
     1
 44
1.0
  0
MTEXT
  5
118
330
1F
100
AcDbEntity
  8
CARTIGLIO
100
AcDbMText
 10
636.3835847153
 20
80.3727498153
 30
0.0
 40
4.0
 41
0.0
 46
0.0
 71
     1
 72
     1
  1
Name
  7
SLDTEXTSTYLE1
 73
     1
 44
1.0
  0
MTEXT
  5
119
330
1F
100
AcDbEntity
  8
CARTIGLIO
100
AcDbMText
 10
587.8680667538
 20
79.8874648383
 30
0.0
 40
4.0
 41
0.0
 46
0.0
 71
     1
 72
     1
  1
Date
  7
SLDTEXTSTYLE1
 73
     1
 44
1.0
  0
MTEXT
  5
11A
330
1F
100
AcDbEntity
  8
RIQUADRO
100
AcDbMText
 10
74.4667934989
 20
572.9187515867
 30
0.0
 40
7.0
 41
0.0
 46
0.0
 71
     1
 72
     1
  1
1
  7
SLDTEXTSTYLE1
 73
     1
 44
1.0
  0
MTEXT
  5
11B
330
1F
100
AcDbEntity
  8
RIQUADRO
100
AcDbMText
 10
171.2575214217
 20
573.0912374273
 30
0.0
 40
7.0
 41
0.0
 46
0.0
 71
     1
 72
     1
  1
2
  7
SLDTEXTSTYLE1
 73
     1
 44
1.0
  0
MTEXT
  5
11C
330
1F
100
AcDbEntity
  8
RIQUADRO
100
AcDbMText
 10
269.6556118771
 20
572.9998735187
 30
0.0
 40
7.0
 41
0.0
 46
0.0
 71
     1
 72
     1
  1
3
  7
SLDTEXTSTYLE1
 73
     1
 44
1.0
  0
MTEXT
  5
11D
330
1F
100
AcDbEntity
  8
RIQUADRO
100
AcDbMText
 10
369.1015351445
 20
573.1790191998
 30
0.0
 40
7.0
 41
0.0
 46
0.0
 71
     1
 72
     1
  1
4
  7
SLDTEXTSTYLE1
 73
     1
 44
1.0
  0
MTEXT
  5
11E
330
1F
100
AcDbEntity
  8
RIQUADRO
100
AcDbMText
 10
21.2194596573
 20
85.8889580981
 30
0.0
 40
7.0
 41
0.0
 46
0.0
 71
     1
 72
     1
  1
A
  7
SLDTEXTSTYLE1
 73
     1
 44
1.0
  0
MTEXT
  5
11F
330
1F
100
AcDbEntity
  8
RIQUADRO
100
AcDbMText
 10
21.4062526645
 20
235.0866323761
 30
0.0
 40
7.0
 41
0.0
 46
0.0
 71
     1
 72
     1
  1
B
  7
SLDTEXTSTYLE1
 73
     1
 44
1.0
  0
MTEXT
  5
120
330
1F
100
AcDbEntity
  8
RIQUADRO
100
AcDbMText
 10
21.1765875232
 20
374.5937716075
 30
0.0
 40
7.0
 41
0.0
 46
0.0
 71
     1
 72
     1
  1
C
  7
SLDTEXTSTYLE1
 73
     1
 44
1.0
  0
MTEXT
  5
121
330
1F
100
AcDbEntity
  8
RIQUADRO
100
AcDbMText
 10
20.2622196861
 20
509.1996690195
 30
0.0
 40
7.0
 41
0.0
 46
0.0
 71
     1
 72
     1
  1
D
  7
SLDTEXTSTYLE1
 73
     1
 44
1.0
  0
MTEXT
  5
122
330
1F
100
AcDbEntity
  8
RIQUADRO
100
AcDbMText
 10
810.8118214071
 20
505.8512012831
 30
0.0
 40
7.0
 41
0.0
 46
0.0
 71
     1
 72
     1
  1
D
  7
SLDTEXTSTYLE1
 73
     1
 44
1.0
  0
MTEXT
  5
123
330
1F
100
AcDbEntity
  8
RIQUADRO
100
AcDbMText
 10
810.7548237027
 20
369.6624768437
 30
0.0
 40
7.0
 41
0.0
 46
0.0
 71
     1
 72
     1
  1
C
  7
SLDTEXTSTYLE1
 73
     1
 44
1.0
  0
MTEXT
  5
124
330
1F
100
AcDbEntity
  8
RIQUADRO
100
AcDbMText
 10
810.8680988898
 20
236.627474331
 30
0.0
 40
7.0
 41
0.0
 46
0.0
 71
     1
 72
     1
  1
B
  7
SLDTEXTSTYLE1
 73
     1
 44
1.0
  0
MTEXT
  5
125
330
1F
100
AcDbEntity
  8
RIQUADRO
100
AcDbMText
 10
811.6905451408
 20
103.9211323072
 30
0.0
 40
7.0
 41
0.0
 46
0.0
 71
     1
 72
     1
  1
A
  7
SLDTEXTSTYLE1
 73
     1
 44
1.0
  0
MTEXT
  5
126
330
1F
100
AcDbEntity
  8
TABELLA_REV
100
AcDbMText
 10
575.1196602158
 20
560.9260534699
 30
0.0
 40
4.0
 41
0.0
 46
0.0
 71
     1
 72
     1
  1
Description
  7
SLDTEXTSTYLE1
 73
     1
 44
1.0
  0
MTEXT
  5
127
330
1F
100
AcDbEntity
  8
TABELLA_REV
100
AcDbMText
 10
718.8292904602
 20
561.5222542149
 30
0.0
 40
4.0
 41
0.0
 46
0.0
 71
     1
 72
     1
  1
Date
  7
SLDTEXTSTYLE1
 73
     1
 44
1.0
  0
MTEXT
  5
128
330
1F
100
AcDbEntity
  8
TABELLA_REV
100
AcDbMText
 10
769.8639331714
 20
561.5492324345
 30
0.0
 40
4.0
 41
0.0
 46
0.0
 71
     1
 72
     1
  1
Name
  7
SLDTEXTSTYLE1
 73
     1
 44
1.0
  0
MTEXT
  5
129
330
1F
100
AcDbEntity
  8
TABELLA_REV
100
AcDbMText
 10
453.5525445203
 20
561.4667621065
 30
0.0
 40
4.0
 41
0.0
 46
0.0
 71
     1
 72
     1
  1
Rev No.
  7
SLDTEXTSTYLE1
 73
     1
 44
1.0
  0
MTEXT
  5
12A
330
1F
100
AcDbEntity
  8
TABELLA_REV
100
AcDbMText
 10
483.0898129194
 20
553.3910905467
 30
0.0
 40
7.0
 41
0.0
 46
0.0
 71
     1
 72
     1
  1
new part
  7
SLDTEXTSTYLE1
 73
     1
 44
1.0
  0
MTEXT
  5
12B
330
1F
100
AcDbEntity
  8
TABELLA_REV
100
AcDbMText
 10
463.3863080757
 20
552.3009802168
 30
0.0
 40
6.0
 41
0.0
 46
0.0
 71
     1
 72
     1
  1
A
  7
SLDTEXTSTYLE1
 73
     1
 44
1.0
  0
MTEXT
  5
12C
330
1F
100
AcDbEntity
  8
TABELLA_REV
100
AcDbMText
 10
752.5696171743
 20
553.1782062716
 30
0.0
 40
6.0
 41
0.0
 46
0.0
 71
     1
 72
     1
  1
N.Santini
  7
SLDTEXTSTYLE1
 73
     1
 44
1.0
  0
MTEXT
  5
12D
330
1F
100
AcDbEntity
  8
TABELLA_REV
100
AcDbMText
 10
707.2204625586
 20
553.0400408499
 30
0.0
 40
6.0
 41
0.0
 46
0.0
 71
     1
 72
     1
  1
16/09/09
  7
SLDTEXTSTYLE1
 73
     1
 44
1.0
  0
MTEXT
  5
12E
330
1F
100
AcDbEntity
  8
RIQUADRO
100
AcDbMText
 10
515.39685534
 20
18.2078662014
 30
0.0
 40
5.0
 41
0.0
 46
0.0
 71
     1
 72
     1
  1
10
  7
SLDTEXTSTYLE1
 73
     1
 44
1.0
  0
MTEXT
  5
12F
330
1F
100
AcDbEntity
  8
RIQUADRO
100
AcDbMText
 10
495.5602561908
 20
18.2078662014
 30
0.0
 40
5.0
 41
0.0
 46
0.0
 71
     1
 72
     1
  1
9
  7
SLDTEXTSTYLE1
 73
     1
 44
1.0
  0
MTEXT
  5
130
330
1F
100
AcDbEntity
  8
RIQUADRO
100
AcDbMText
 10
475.2595255854
 20
18.0528927705
 30
0.0
 40
5.0
 41
0.0
 46
0.0
 71
     1
 72
     1
  1
8
  7
SLDTEXTSTYLE1
 73
     1
 44
1.0
  0
MTEXT
  5
131
330
1F
100
AcDbEntity
  8
RIQUADRO
100
AcDbMText
 10
455.5771110309
 20
18.0528927705
 30
0.0
 40
5.0
 41
0.0
 46
0.0
 71
     1
 72
     1
  1
7
  7
SLDTEXTSTYLE1
 73
     1
 44
1.0
  0
MTEXT
  5
132
330
1F
100
AcDbEntity
  8
RIQUADRO
100
AcDbMText
 10
435.6491111493
 20
18.1303794859
 30
0.0
 40
5.0
 41
0.0
 46
0.0
 71
     1
 72
     1
  1
6
  7
SLDTEXTSTYLE1
 73
     1
 44
1.0
  0
MTEXT
  5
133
330
1F
100
AcDbEntity
  8
RIQUADRO
100
AcDbMText
 10
415.5164791555
 20
18.2078662014
 30
0.0
 40
5.0
 41
0.0
 46
0.0
 71
     1
 72
     1
  1
5
  7
SLDTEXTSTYLE1
 73
     1
 44
1.0
  0
MTEXT
  5
134
330
1F
100
AcDbEntity
  8
RIQUADRO
100
AcDbMText
 10
395.2958186649
 20
18.1442687002
 30
0.0
 40
5.0
 41
0.0
 46
0.0
 71
     1
 72
     1
  1
4
  7
SLDTEXTSTYLE1
 73
     1
 44
1.0
  0
MTEXT
  5
135
330
1F
100
AcDbEntity
  8
RIQUADRO
100
AcDbMText
 10
375.3448231611
 20
17.9940696657
 30
0.0
 40
5.0
 41
0.0
 46
0.0
 71
     1
 72
     1
  1
3
  7
SLDTEXTSTYLE1
 73
     1
 44
1.0
  0
MTEXT
  5
136
330
1F
100
AcDbEntity
  8
RIQUADRO
100
AcDbMText
 10
355.094563164
 20
17.8555189826
 30
0.0
 40
5.0
 41
0.0
 46
0.0
 71
     1
 72
     1
  1
2
  7
SLDTEXTSTYLE1
 73
     1
 44
1.0
  0
MTEXT
  5
137
330
1F
100
AcDbEntity
  8
RIQUADRO
100
AcDbMText
 10
335.6849823633
 20
17.7835121277
 30
0.0
 40
5.0
 41
0.0
 46
0.0
 71
     1
 72
     1
  1
1
  7
SLDTEXTSTYLE1
 73
     1
 44
1.0
  0
MTEXT
  5
138
330
1F
100
AcDbEntity
  8
RIQUADRO
100
AcDbMText
 10
316.1659635281
 20
17.8585153089
 30
0.0
 40
5.0
 41
0.0
 46
0.0
 71
     1
 72
     1
  1
0
  7
SLDTEXTSTYLE1
 73
     1
 44
1.0
  0
MTEXT
  5
139
330
1F
100
AcDbEntity
  8
RIQUADRO
100
AcDbMText
 10
463.3958461937
 20
572.9620991375
 30
0.0
 40
7.0
 41
0.0
 46
0.0
 71
     1
 72
     1
  1
5
  7
SLDTEXTSTYLE1
 73
     1
 44
1.0
  0
MTEXT
  5
13A
330
1F
100
AcDbEntity
  8
RIQUADRO
100
AcDbMText
 10
566.861492699
 20
572.6183189142
 30
0.0
 40
7.0
 41
0.0
 46
0.0
 71
     1
 72
     1
  1
6
  7
SLDTEXTSTYLE1
 73
     1
 44
1.0
  0
MTEXT
  5
13B
330
1F
100
AcDbEntity
  8
RIQUADRO
100
AcDbMText
 10
663.2554087412
 20
572.8574940487
 30
0.0
 40
7.0
 41
0.0
 46
0.0
 71
     1
 72
     1
  1
7
  7
SLDTEXTSTYLE1
 73
     1
 44
1.0
  0
MTEXT
  5
13C
330
1F
100
AcDbEntity
  8
RIQUADRO
100
AcDbMText
 10
759.9429721596
 20
572.0484441871
 30
0.0
 40
7.0
 41
0.0
 46
0.0
 71
     1
 72
     1
  1
8
  7
SLDTEXTSTYLE1
 73
     1
 44
1.0
  0
MTEXT
  5
13D
330
1F
100
AcDbEntity
  8
RIQUADRO
100
AcDbMText
 10
268.8343221567
 20
29.5288932351
 30
0.0
 40
7.0
 41
0.0
 46
0.0
 71
     1
 72
     1
  1
3
  7
SLDTEXTSTYLE1
 73
     1
 44
1.0
  0
MTEXT
  5
13E
330
1F
100
AcDbEntity
  8
RIQUADRO
100
AcDbMText
 10
170.4362317013
 20
29.6202571436
 30
0.0
 40
7.0
 41
0.0
 46
0.0
 71
     1
 72
     1
  1
2
  7
SLDTEXTSTYLE1
 73
     1
 44
1.0
  0
MTEXT
  5
13F
330
1F
100
AcDbEntity
  8
RIQUADRO
100
AcDbMText
 10
73.6455037785
 20
29.447771303
 30
0.0
 40
7.0
 41
0.0
 46
0.0
 71
     1
 72
     1
  1
1
  7
SLDTEXTSTYLE1
 73
     1
 44
1.0
  0
MTEXT
  5
140
330
1F
100
AcDbEntity
  8
RIQUADRO
100
AcDbMText
 10
757.512534657
 20
28.685571793
 30
0.0
 40
7.0
 41
0.0
 46
0.0
 71
     1
 72
     1
  1
8
  7
SLDTEXTSTYLE1
 73
     1
 44
1.0
  0
MTEXT
  5
141
330
1F
100
AcDbEntity
  8
RIQUADRO
100
AcDbMText
 10
660.8249712386
 20
29.4946216546
 30
0.0
 40
7.0
 41
0.0
 46
0.0
 71
     1
 72
     1
  1
7
  7
SLDTEXTSTYLE1
 73
     1
 44
1.0
  0
MTEXT
  5
142
330
1F
100
AcDbEntity
  8
RIQUADRO
100
AcDbMText
 10
564.4310551964
 20
29.2554465201
 30
0.0
 40
7.0
 41
0.0
 46
0.0
 71
     1
 72
     1
  1
6
  7
SLDTEXTSTYLE1
 73
     1
 44
1.0
  0
MTEXT
  5
143
330
1F
100
AcDbEntity
  8
CARTIGLIO
100
AcDbMText
 10
620.5811967189
 20
49.4769287196
 30
0.0
 40
6.0
 41
0.0
 46
0.0
 71
     1
 72
     1
  1
C. Sedazzari
  7
SLDTEXTSTYLE1
 73
     1
 44
1.0
  0
MTEXT
  5
144
330
1F
100
AcDbEntity
  8
CARTIGLIO
100
AcDbMText
 10
542.5434270605
 20
127.0124542801
 30
0.0
 40
7.0
 41
0.0
 46
0.0
 71
     2
 72
     1
  1
Gray Anodization
  7
SLDTEXTSTYLE1
 73
     1
 44
1.0
  0
MTEXT
  5
146
330
1F
100
AcDbEntity
  8
RIQUADRO
100
AcDbMText
 10
536.3871232416
 20
143.7804283979
 30
0.0
 40
7.0
 41
0.0
 46
0.0
 71
     2
 72
     1
  1
Aluminum - UNI EN 573 EN AW 6063
  7
SLDTEXTSTYLE3
 73
     1
 44
1.0
  0
MTEXT
  5
147
330
1F
100
AcDbEntity
  8
CARTIGLIO
100
AcDbMText
 10
684.9988412766
 20
145.457544576
 30
0.0
 40
7.0
 41
0.0
 46
0.0
 71
     1
 72
     1
  1
639.3
  7
SLDTEXTSTYLE1
 73
     1
 44
1.0
  0
LINE
  5
148
330
1F
100
AcDbEntity
  8
0
  6
Continuous
 62
     7
100
AcDbLine
 10
294.946115983
 20
458.1046640455
 30
0.0
 11
294.146117342
 21
457.3046616792
 31
0.0
  0
LINE
  5
149
330
1F
100
AcDbEntity
  8
0
  6
Continuous
 62
     7
100
AcDbLine
 10
303.3461240654
 20
458.1046640455
 30
0.0
 11
294.946115983
 21
458.1046640455
 31
0.0
  0
LINE
  5
14A
330
1F
100
AcDbEntity
  8
0
  6
Continuous
 62
     7
100
AcDbLine
 10
304.1461227064
 20
457.3046616792
 30
0.0
 11
303.3461240654
 21
458.1046640455
 31
0.0
  0
LINE
  5
14B
330
1F
100
AcDbEntity
  8
0
  6
Continuous
 62
     7
100
AcDbLine
 10
174.1461218869
 20
478.4046612262
 30
0.0
 11
173.3461223145
 21
479.2046635925
 31
0.0
  0
LINE
  5
14C
330
1F
100
AcDbEntity
  8
0
  6
Continuous
 62
     7
100
AcDbLine
 10
173.3461223145
 20
479.2046635925
 30
0.0
 11
164.9461220902
 21
479.2046635925
 31
0.0
  0
LINE
  5
14D
330
1F
100
AcDbEntity
  8
0
  6
Continuous
 62
     7
100
AcDbLine
 10
164.9461220902
 20
479.2046635925
 30
0.0
 11
164.1461221104
 21
478.4046612262
 31
0.0
  0
LINE
  5
14E
330
1F
100
AcDbEntity
  8
0
  6
Continuous
 62
     7
100
AcDbLine
 10
303.3461240654
 20
356.7046612084
 30
0.0
 11
303.3461240654
 21
425.9546627804
 31
0.0
  0
LINE
  5
14F
330
1F
100
AcDbEntity
  8
0
  6
Continuous
 62
     7
100
AcDbLine
 10
294.946115983
 20
425.9546627804
 30
0.0
 11
294.946115983
 21
356.7046612084
 31
0.0
  0
LINE
  5
150
330
1F
100
AcDbEntity
  8
0
  6
Continuous
 62
     7
100
AcDbLine
 10
294.946115983
 20
425.9546627804
 30
0.0
 11
303.3461240654
 21
425.9546627804
 31
0.0
  0
LINE
  5
151
330
1F
100
AcDbEntity
  8
0
  6
Continuous
 62
     7
100
AcDbLine
 10
304.1461227064
 20
425.9546627804
 30
0.0
 11
303.3461240654
 21
425.9546627804
 31
0.0
  0
LINE
  5
152
330
1F
100
AcDbEntity
  8
0
  6
Continuous
 62
     7
100
AcDbLine
 10
304.1461227064
 20
425.9546627804
 30
0.0
 11
304.1461227064
 21
357.5046598494
 31
0.0
  0
LINE
  5
153
330
1F
100
AcDbEntity
  8
0
  6
Continuous
 62
     7
100
AcDbLine
 10
303.3461240654
 20
356.7046612084
 30
0.0
 11
304.1461227064
 21
357.5046598494
 31
0.0
  0
LINE
  5
154
330
1F
100
AcDbEntity
  8
0
  6
Continuous
 62
     7
100
AcDbLine
 10
294.146117342
 20
357.5046598494
 30
0.0
 11
294.146117342
 21
425.9546627804
 31
0.0
  0
LINE
  5
155
330
1F
100
AcDbEntity
  8
0
  6
Continuous
 62
     7
100
AcDbLine
 10
294.946115983
 20
425.9546627804
 30
0.0
 11
294.146117342
 21
425.9546627804
 31
0.0
  0
LINE
  5
156
330
1F
100
AcDbEntity
  8
0
  6
Continuous
 62
     7
100
AcDbLine
 10
294.146117342
 20
357.5046598494
 30
0.0
 11
294.946115983
 21
356.7046612084
 31
0.0
  0
LINE
  5
157
330
1F
100
AcDbEntity
  8
0
  6
Continuous
 62
     7
100
AcDbLine
 10
294.146117342
 20
427.7046626016
 30
0.0
 11
294.146117342
 21
457.3046616792
 31
0.0
  0
LINE
  5
158
330
1F
100
AcDbEntity
  8
0
  6
Continuous
 62
     7
100
AcDbLine
 10
294.946115983
 20
458.1046640455
 30
0.0
 11
294.946115983
 21
427.7046626016
 31
0.0
  0
LINE
  5
159
330
1F
100
AcDbEntity
  8
0
  6
Continuous
 62
     7
100
AcDbLine
 10
294.946115983
 20
427.7046626016
 30
0.0
 11
294.146117342
 21
427.7046626016
 31
0.0
  0
LINE
  5
15A
330
1F
100
AcDbEntity
  8
0
  6
Continuous
 62
     7
100
AcDbLine
 10
294.946115983
 20
427.7046626016
 30
0.0
 11
303.3461240654
 21
427.7046626016
 31
0.0
  0
LINE
  5
15B
330
1F
100
AcDbEntity
  8
0
  6
Continuous
 62
     7
100
AcDbLine
 10
303.3461240654
 20
427.7046626016
 30
0.0
 11
303.3461240654
 21
458.1046640455
 31
0.0
  0
LINE
  5
15C
330
1F
100
AcDbEntity
  8
0
  6
Continuous
 62
     7
100
AcDbLine
 10
295.6461278324
 20
442.5110607922
 30
0.0
 11
295.6461278324
 21
433.7046626538
 31
0.0
  0
LINE
  5
15D
330
1F
100
AcDbEntity
  8
0
  6
Continuous
 62
     7
100
AcDbLine
 10
302.6461271172
 20
433.7046626538
 30
0.0
 11
295.6461278324
 21
433.7046626538
 31
0.0
  0
LINE
  5
15E
330
1F
100
AcDbEntity
  8
0
  6
Continuous
 62
     7
100
AcDbLine
 10
302.6461271172
 20
433.7046626538
 30
0.0
 11
302.6461271172
 21
442.5110607922
 31
0.0
  0
SPLINE
  5
15F
330
1F
100
AcDbEntity
  8
0
  6
Continuous
 62
     7
100
AcDbSpline
210
0.0
220
0.0
230
1.0
 70
     8
 71
     3
 72
    19
 73
    15
 74
     0
 42
0.00000001
 43
0.00000001
 12
1.0
 22
0.0
 32
0.0
 13
1.0
 23
0.0
 33
0.0
 40
0.0
 40
0.0
 40
0.0
 40
0.0
 40
0.0421315455133484
 40
0.1731206134421053
 40
0.304977841570286
 40
0.3787364509679643
 40
0.4406097626594843
 40
0.4999142392536032
 40
0.5576329454811708
 40
0.6150667017000754
 40
0.6968555444402694
 40
0.8212925568180294
 40
0.9105799127538543
 40
1.0
 40
1.0
 40
1.0
 40
1.0
 10
302.6461271171862
 20
442.5110607921702
 30
0.0
 10
302.6429983557425
 20
442.6956322450492
 30
0.0
 10
302.6301421195463
 20
443.4540455137055
 30
0.0
 10
302.4243997452078
 20
444.7474916926165
 30
0.0
 10
301.8002696000118
 20
446.0515370879605
 30
0.0
 10
300.9207236603643
 20
446.8733288638696
 30
0.0
 10
300.0694049408853
 20
447.2859295354476
 30
0.0
 10
299.1542041570281
 20
447.4263108836909
 30
0.0
 10
298.2619232324748
 20
447.2932069255906
 30
0.0
 10
297.3918621485341
 20
446.8921267180797
 30
0.0
 10
296.5154106537896
 20
446.0830014749939
 30
0.0
 10
295.9616993223273
 20
444.9438721712241
 30
0.0
 10
295.6840579606102
 20
443.68234666229
 30
0.0
 10
295.658777467355
 20
442.9016826896272
 30
0.0
 10
295.6461278324419
 20
442.5110607921702
 30
0.0
  0
LINE
  5
160
330
1F
100
AcDbEntity
  8
0
  6
Continuous
 62
     7
100
AcDbLine
 10
304.1461227064
 20
457.3046616792
 30
0.0
 11
304.1461227064
 21
427.7046626016
 31
0.0
  0
LINE
  5
161
330
1F
100
AcDbEntity
  8
0
  6
Continuous
 62
     7
100
AcDbLine
 10
304.1461227064
 20
427.7046626016
 30
0.0
 11
303.3461240654
 21
427.7046626016
 31
0.0
  0
LINE
  5
162
330
1F
100
AcDbEntity
  8
0
  6
Continuous
 62
     7
100
AcDbLine
 10
246.1743471747
 20
346.7046632945
 30
0.0
 11
164.1461221104
 21
346.7046632945
 31
0.0
  0
LINE
  5
163
330
1F
100
AcDbEntity
  8
0
  6
Continuous
 62
     7
100
AcDbLine
 10
164.1461221104
 20
353.7046625793
 30
0.0
 11
164.1461221104
 21
346.7046632945
 31
0.0
  0
LINE
  5
164
330
1F
100
AcDbEntity
  8
0
  6
Continuous
 62
     7
100
AcDbLine
 10
246.1743471747
 20
353.7046625793
 30
0.0
 11
164.1461221104
 21
353.7046625793
 31
0.0
  0
LINE
  5
165
330
1F
100
AcDbEntity
  8
0
  6
Continuous
 62
     7
100
AcDbLine
 10
246.1743471747
 20
346.7046632945
 30
0.0
 11
246.1743471747
 21
353.7046625793
 31
0.0
  0
LINE
  5
166
330
1F
100
AcDbEntity
  8
0
  6
Continuous
 62
     7
100
AcDbLine
 10
164.1461221104
 20
356.7046612084
 30
0.0
 11
245.6453708535
 21
356.7046612084
 31
0.0
  0
LINE
  5
167
330
1F
100
AcDbEntity
  8
0
  6
Continuous
 62
     7
100
AcDbLine
 10
245.6453708535
 20
356.7046612084
 30
0.0
 11
246.1743471747
 21
353.7046625793
 31
0.0
  0
LINE
  5
168
330
1F
100
AcDbEntity
  8
0
  6
Continuous
 62
     7
100
AcDbLine
 10
164.1461221104
 20
353.7046625793
 30
0.0
 11
164.1461221104
 21
356.7046612084
 31
0.0
  0
LINE
  5
169
330
1F
100
AcDbEntity
  8
0
  6
Continuous
 62
     7
100
AcDbLine
 10
246.1743471747
 20
346.7046632945
 30
0.0
 11
304.1461227064
 21
346.7046632945
 31
0.0
  0
LINE
  5
16A
330
1F
100
AcDbEntity
  8
0
  6
Continuous
 62
     7
100
AcDbLine
 10
304.1461227064
 20
353.7046625793
 30
0.0
 11
246.1743471747
 21
353.7046625793
 31
0.0
  0
LINE
  5
16B
330
1F
100
AcDbEntity
  8
0
  6
Continuous
 62
     7
100
AcDbLine
 10
304.1461227064
 20
346.7046632945
 30
0.0
 11
304.1461227064
 21
353.7046625793
 31
0.0
  0
LINE
  5
16C
330
1F
100
AcDbEntity
  8
0
  6
Continuous
 62
     7
100
AcDbLine
 10
245.6453708535
 20
356.7046612084
 30
0.0
 11
304.1461227064
 21
356.7046612084
 31
0.0
  0
LINE
  5
16D
330
1F
100
AcDbEntity
  8
0
  6
Continuous
 62
     7
100
AcDbLine
 10
304.1461227064
 20
356.7046612084
 30
0.0
 11
304.1461227064
 21
353.7046625793
 31
0.0
  0
LINE
  5
16E
330
1F
100
AcDbEntity
  8
0
  6
Continuous
 62
     7
100
AcDbLine
 10
164.1461221104
 20
357.5046598494
 30
0.0
 11
164.1461221104
 21
425.7046627394
 31
0.0
  0
LINE
  5
16F
330
1F
100
AcDbEntity
  8
0
  6
Continuous
 62
     7
100
AcDbLine
 10
164.9461220902
 20
425.7046627394
 30
0.0
 11
164.1461221104
 21
425.7046627394
 31
0.0
  0
LINE
  5
170
330
1F
100
AcDbEntity
  8
0
  6
Continuous
 62
     7
100
AcDbLine
 10
164.9461220902
 20
425.7046627394
 30
0.0
 11
164.9461220902
 21
356.7046612084
 31
0.0
  0
LINE
  5
171
330
1F
100
AcDbEntity
  8
0
  6
Continuous
 62
     7
100
AcDbLine
 10
164.1461221104
 20
357.5046598494
 30
0.0
 11
164.9461220902
 21
356.7046612084
 31
0.0
  0
LINE
  5
172
330
1F
100
AcDbEntity
  8
0
  6
Continuous
 62
     7
100
AcDbLine
 10
173.3461223145
 20
356.7046612084
 30
0.0
 11
173.3461223145
 21
425.7046627394
 31
0.0
  0
LINE
  5
173
330
1F
100
AcDbEntity
  8
0
  6
Continuous
 62
     7
100
AcDbLine
 10
174.1461218869
 20
425.7046627394
 30
0.0
 11
173.3461223145
 21
425.7046627394
 31
0.0
  0
LINE
  5
174
330
1F
100
AcDbEntity
  8
0
  6
Continuous
 62
     7
100
AcDbLine
 10
174.1461218869
 20
425.7046627394
 30
0.0
 11
174.1461218869
 21
357.5046598494
 31
0.0
  0
LINE
  5
175
330
1F
100
AcDbEntity
  8
0
  6
Continuous
 62
     7
100
AcDbLine
 10
174.1461218869
 20
357.5046598494
 30
0.0
 11
173.3461223145
 21
356.7046612084
 31
0.0
  0
LINE
  5
176
330
1F
100
AcDbEntity
  8
0
  6
Continuous
 62
     7
100
AcDbLine
 10
164.9461220902
 20
356.7046612084
 30
0.0
 11
173.3461223145
 21
356.7046612084
 31
0.0
  0
LINE
  5
177
330
1F
100
AcDbEntity
  8
0
  6
Continuous
 62
     7
100
AcDbLine
 10
164.9461220902
 20
425.7046627394
 30
0.0
 11
173.3461223145
 21
425.7046627394
 31
0.0
  0
LINE
  5
178
330
1F
100
AcDbEntity
  8
0
  6
Continuous
 62
     7
100
AcDbLine
 10
174.1461218869
 20
478.4046612262
 30
0.0
 11
174.1461218869
 21
427.7046626016
 31
0.0
  0
LINE
  5
179
330
1F
100
AcDbEntity
  8
0
  6
Continuous
 62
     7
100
AcDbLine
 10
174.1461218869
 20
427.7046626016
 30
0.0
 11
173.3461223145
 21
427.7046626016
 31
0.0
  0
LINE
  5
17A
330
1F
100
AcDbEntity
  8
0
  6
Continuous
 62
     7
100
AcDbLine
 10
173.3461223145
 20
427.7046626016
 30
0.0
 11
173.3461223145
 21
479.2046635925
 31
0.0
  0
LINE
  5
17B
330
1F
100
AcDbEntity
  8
0
  6
Continuous
 62
     7
100
AcDbLine
 10
164.9461220902
 20
479.2046635925
 30
0.0
 11
164.9461220902
 21
427.7046626016
 31
0.0
  0
LINE
  5
17C
330
1F
100
AcDbEntity
  8
0
  6
Continuous
 62
     7
100
AcDbLine
 10
165.6461221234
 20
449.0776039242
 30
0.0
 11
165.6461221234
 21
433.7046626538
 31
0.0
  0
LINE
  5
17D
330
1F
100
AcDbEntity
  8
0
  6
Continuous
 62
     7
100
AcDbLine
 10
172.6461225723
 20
433.7046626538
 30
0.0
 11
165.6461221234
 21
433.7046626538
 31
0.0
  0
LINE
  5
17E
330
1F
100
AcDbEntity
  8
0
  6
Continuous
 62
     7
100
AcDbLine
 10
172.6461225723
 20
433.7046626538
 30
0.0
 11
172.6461225723
 21
449.0776039242
 31
0.0
  0
SPLINE
  5
17F
330
1F
100
AcDbEntity
  8
0
  6
Continuous
 62
     7
100
AcDbSpline
210
0.0
220
0.0
230
1.0
 70
     8
 71
     3
 72
    21
 73
    17
 74
     0
 42
0.00000001
 43
0.00000001
 12
1.0
 22
0.0
 32
0.0
 13
1.0
 23
0.0
 33
0.0
 40
0.0
 40
0.0
 40
0.0
 40
0.0
 40
0.1096426872790415
 40
0.205432677396515
 40
0.3008717256161533
 40
0.3962864768470925
 40
0.4421269586099132
 40
0.488349066898406
 40
0.4999788010875308
 40
0.538910585780934
 40
0.5776627201028204
 40
0.6416501226192743
 40
0.7494212112022852
 40
0.8522129754293846
 40
0.9552551941683702
 40
1.0
 40
1.0
 40
1.0
 40
1.0
 10
172.646122572332
 20
449.0776039242369
 30
0.0
 10
172.6280601073343
 20
449.6495819500777
 30
0.0
 10
172.5942172616605
 20
450.7212720023415
 30
0.0
 10
172.2952055150894
 20
452.2388785458795
 30
0.0
 10
171.7610665322609
 20
453.6062638953126
 30
0.0
 10
171.0061371274898
 20
454.6125850503913
 30
0.0
 10
170.1356170067982
 20
455.1770785533085
 30
0.0
 10
169.5484306115528
 20
455.3387471506452
 30
0.0
 10
168.9881885508399
 20
455.3636291126837
 30
0.0
 10
168.4676045335626
 20
455.2841148711584
 30
0.0
 10
167.7394073622713
 20
454.9481711722773
 30
0.0
 10
166.8919104854457
 20
454.1819879804833
 30
0.0
 10
166.2136816815873
 20
452.9256901845171
 30
0.0
 10
165.7967013567662
 20
451.3739284763093
 30
0.0
 10
165.6602011254328
 20
450.0841019276663
 30
0.0
 10
165.6493941133668
 20
449.3115161954664
 30
0.0
 10
165.6461221234345
 20
449.0776039242369
 30
0.0
  0
LINE
  5
180
330
1F
100
AcDbEntity
  8
0
  6
Continuous
 62
     7
100
AcDbLine
 10
164.9461220902
 20
427.7046626016
 30
0.0
 11
173.3461223145
 21
427.7046626016
 31
0.0
  0
LINE
  5
181
330
1F
100
AcDbEntity
  8
0
  6
Continuous
 62
     7
100
AcDbLine
 10
164.1461221104
 20
427.7046626016
 30
0.0
 11
164.1461221104
 21
478.4046612262
 31
0.0
  0
LINE
  5
182
330
1F
100
AcDbEntity
  8
0
  6
Continuous
 62
     7
100
AcDbLine
 10
164.9461220902
 20
427.7046626016
 30
0.0
 11
164.1461221104
 21
427.7046626016
 31
0.0
  0
LINE
  5
183
330
1F
100
AcDbEntity
  8
RIQUADRO
100
AcDbLine
 10
141.1310818842
 20
426.7046626662
 30
0.0
 11
330.0351475567
 21
426.7046626662
 31
0.0
  0
DIMENSION
  5
184
330
1F
100
AcDbEntity
  8
RIQUADRO
100
AcDbDimension
280
     0
  2
_D
 10
138.8808826819
 20
426.7046626662
 30
0.0
 11
138.8808826819
 21
396.8402183599
 31
0.0
 70
   160
  1
<>
 71
     5
 42
-1.0
 73
     0
 74
     0
 75
     0
  3
SLDDIMSTYLE0
100
AcDbAlignedDimension
 13
164.1461221104
 23
346.7046626662
 33
0.0
 14
141.1310818842
 24
426.7046626662
 34
0.0
 50
90.0
100
AcDbRotatedDimension
  0
DIMENSION
  5
196
330
1F
100
AcDbEntity
  8
RIQUADRO
100
AcDbDimension
280
     0
  2
_D_1
 10
304.1461221104
 20
514.0432533446
 30
0.0
 11
230.5185833014
 21
514.0432533446
 31
0.0
 70
   160
  1
<>
 71
     5
 42
-1.0
 73
     0
 74
     0
 75
     0
  3
SLDDIMSTYLE0
100
AcDbAlignedDimension
 13
164.1461221104
 23
478.4046626662
 33
0.0
 14
304.1461221104
 24
457.3046626662
 34
0.0
100
AcDbRotatedDimension
  0
DIMENSION
  5
1A0
330
1F
100
AcDbEntity
  8
RIQUADRO
100
AcDbDimension
280
     0
  2
_D_2
 10
104.8952656068
 20
346.7046626662
 30
0.0
 11
104.8952656068
 21
418.4656818992
 31
0.0
 70
   160
  1
<>
 71
     5
 42
-1.0
 73
     0
 74
     0
 75
     0
  3
SLDDIMSTYLE0
100
AcDbAlignedDimension
 13
164.9461221104
 23
479.2046626662
 33
0.0
 14
164.1461221104
 24
346.7046626662
 34
0.0
 50
90.0
100
AcDbRotatedDimension
  0
LINE
  5
1AA
330
1F
100
AcDbEntity
  8
0
  6
Continuous
 62
     7
100
AcDbLine
 10
294.146117342
 20
205.0222054644
 30
0.0
 11
294.146117342
 21
205.0058607532
 31
0.0
  0
LINE
  5
1AB
330
1F
100
AcDbEntity
  8
0
  6
Continuous
 62
     7
100
AcDbLine
 10
304.1461227064
 20
205.0058607532
 30
0.0
 11
304.1461227064
 21
205.0222054644
 31
0.0
  0
CIRCLE
  5
1AC
330
1F
100
AcDbEntity
  8
0
  6
Continuous
 62
     7
100
AcDbCircle
 10
299.1461221104
 20
201.5536957875
 30
0.0
 40
1.650000000000006
  0
LINE
  5
1AD
330
1F
100
AcDbEntity
  8
0
  6
Continuous
 62
     7
100
AcDbLine
 10
303.3461240654
 20
205.8222041054
 30
0.0
 11
304.1461227064
 21
205.0222054644
 31
0.0
  0
LINE
  5
1AE
330
1F
100
AcDbEntity
  8
0
  6
Continuous
 62
     7
100
AcDbLine
 10
303.3461240654
 20
205.8222041054
 30
0.0
 11
294.946115983
 21
205.8222041054
 31
0.0
  0
LINE
  5
1AF
330
1F
100
AcDbEntity
  8
0
  6
Continuous
 62
     7
100
AcDbLine
 10
294.146117342
 20
205.0222054644
 30
0.0
 11
294.946115983
 21
205.8222041054
 31
0.0
  0
LINE
  5
1B0
330
1F
100
AcDbEntity
  8
0
  6
Continuous
 62
     7
100
AcDbLine
 10
304.1461227064
 20
143.8222051187
 30
0.0
 11
304.1461227064
 21
143.8385498298
 31
0.0
  0
LINE
  5
1B1
330
1F
100
AcDbEntity
  8
0
  6
Continuous
 62
     7
100
AcDbLine
 10
304.1461227064
 20
143.8222051187
 30
0.0
 11
303.3461240654
 21
143.0222064776
 31
0.0
  0
LINE
  5
1B2
330
1F
100
AcDbEntity
  8
0
  6
Continuous
 62
     7
100
AcDbLine
 10
294.946115983
 20
143.0222064776
 30
0.0
 11
303.3461240654
 21
143.0222064776
 31
0.0
  0
LINE
  5
1B3
330
1F
100
AcDbEntity
  8
0
  6
Continuous
 62
     7
100
AcDbLine
 10
294.946115983
 20
143.0222064776
 30
0.0
 11
294.146117342
 21
143.8222051187
 31
0.0
  0
CIRCLE
  5
1B4
330
1F
100
AcDbEntity
  8
0
  6
Continuous
 62
     7
100
AcDbCircle
 10
299.1461221104
 20
147.2907147956
 30
0.0
 40
1.650000000000006
  0
LINE
  5
1B5
330
1F
100
AcDbEntity
  8
0
  6
Continuous
 62
     7
100
AcDbLine
 10
294.146117342
 20
143.8385498298
 30
0.0
 11
294.146117342
 21
143.8222051187
 31
0.0
  0
LINE
  5
1B6
330
1F
100
AcDbEntity
  8
0
  6
Continuous
 62
     7
100
AcDbLine
 10
294.146117342
 20
143.8385498298
 30
0.0
 11
294.146117342
 21
205.0058607532
 31
0.0
  0
LINE
  5
1B7
330
1F
100
AcDbEntity
  8
0
  6
Continuous
 62
     7
100
AcDbLine
 10
294.146117342
 20
205.0058607532
 30
0.0
 11
294.946115983
 21
205.8062784894
 31
0.0
  0
LINE
  5
1B8
330
1F
100
AcDbEntity
  8
0
  6
Continuous
 62
     7
100
AcDbLine
 10
294.946115983
 20
205.8062784894
 30
0.0
 11
294.946115983
 21
143.0381320937
 31
0.0
  0
LINE
  5
1B9
330
1F
100
AcDbEntity
  8
0
  6
Continuous
 62
     7
100
AcDbLine
 10
294.946115983
 20
143.0381320937
 30
0.0
 11
294.146117342
 21
143.8385498298
 31
0.0
  0
LINE
  5
1BA
330
1F
100
AcDbEntity
  8
0
  6
Continuous
 62
     7
100
AcDbLine
 10
302.6461271172
 20
201.5536957009
 30
0.0
 11
302.6461271172
 21
205.0320085658
 31
0.0
  0
LINE
  5
1BB
330
1F
100
AcDbEntity
  8
0
  6
Continuous
 62
     7
100
AcDbLine
 10
302.6461271172
 20
205.0320085658
 30
0.0
 11
295.6461278324
 21
205.0320085658
 31
0.0
  0
LINE
  5
1BC
330
1F
100
AcDbEntity
  8
0
  6
Continuous
 62
     7
100
AcDbLine
 10
295.6461278324
 20
205.0320085658
 30
0.0
 11
295.6461278324
 21
201.5536957009
 31
0.0
  0
SPLINE
  5
1BD
330
1F
100
AcDbEntity
  8
0
  6
Continuous
 62
     7
100
AcDbSpline
210
0.0
220
0.0
230
1.0
 70
     8
 71
     3
 72
    18
 73
    14
 74
     0
 42
0.00000001
 43
0.00000001
 12
1.0
 22
0.0
 32
0.0
 13
1.0
 23
0.0
 33
0.0
 40
0.0
 40
0.0
 40
0.0
 40
0.0
 40
0.1171748245582109
 40
0.233842687283547
 40
0.3188469828398919
 40
0.4045433804646112
 40
0.4606786922888055
 40
0.5170752536821012
 40
0.5683575692803216
 40
0.621994774205579
 40
0.7068293249066551
 40
0.8371566195484078
 40
1.0
 40
1.0
 40
1.0
 40
1.0
 10
295.6461278324419
 20
201.5536957008865
 30
0.0
 10
295.6671629926432
 20
201.2441536370384
 30
0.0
 10
295.7091423035357
 20
200.6264087561697
 30
0.0
 10
296.1153959695548
 20
199.7083392465005
 30
0.0
 10
296.7847832417423
 20
198.904721683243
 30
0.0
 10
297.60473293636
 20
198.3579194478567
 30
0.0
 10
298.534190970659
 20
198.0719282107026
 30
0.0
 10
299.3861088107363
 20
198.0286325274008
 30
0.0
 10
300.1879458756608
 20
198.1829855033106
 30
0.0
 10
301.0012150211813
 20
198.5367890525582
 30
0.0
 10
301.8575766577214
 20
199.230073750944
 30
0.0
 10
302.5310834920719
 20
200.3359636797451
 30
0.0
 10
302.6050448466174
 20
201.1188415633976
 30
0.0
 10
302.6461271171862
 20
201.5536957008865
 30
0.0
  0
LINE
  5
1BE
330
1F
100
AcDbEntity
  8
0
  6
Continuous
 62
     7
100
AcDbLine
 10
294.946115983
 20
143.0381320937
 30
0.0
 11
303.3461240654
 21
143.0381320937
 31
0.0
  0
LINE
  5
1BF
330
1F
100
AcDbEntity
  8
0
  6
Continuous
 62
     7
100
AcDbLine
 10
303.3461240654
 20
205.8062784894
 30
0.0
 11
294.946115983
 21
205.8062784894
 31
0.0
  0
LINE
  5
1C0
330
1F
100
AcDbEntity
  8
0
  6
Continuous
 62
     7
100
AcDbLine
 10
303.3461240654
 20
143.0381320937
 30
0.0
 11
303.3461240654
 21
205.8062784894
 31
0.0
  0
LINE
  5
1C1
330
1F
100
AcDbEntity
  8
0
  6
Continuous
 62
     7
100
AcDbLine
 10
295.6461278324
 20
147.2907148821
 30
0.0
 11
295.6461278324
 21
143.8124020172
 31
0.0
  0
LINE
  5
1C2
330
1F
100
AcDbEntity
  8
0
  6
Continuous
 62
     7
100
AcDbLine
 10
302.6461271172
 20
143.8124020172
 30
0.0
 11
295.6461278324
 21
143.8124020172
 31
0.0
  0
LINE
  5
1C3
330
1F
100
AcDbEntity
  8
0
  6
Continuous
 62
     7
100
AcDbLine
 10
302.6461271172
 20
143.8124020172
 30
0.0
 11
302.6461271172
 21
147.2907148821
 31
0.0
  0
SPLINE
  5
1C4
330
1F
100
AcDbEntity
  8
0
  6
Continuous
 62
     7
100
AcDbSpline
210
0.0
220
0.0
230
1.0
 70
     8
 71
     3
 72
    19
 73
    15
 74
     0
 42
0.00000001
 43
0.00000001
 12
1.0
 22
0.0
 32
0.0
 13
1.0
 23
0.0
 33
0.0
 40
0.0
 40
0.0
 40
0.0
 40
0.0
 40
0.0421315455133484
 40
0.1731206134421053
 40
0.304977841570286
 40
0.3787364509679643
 40
0.4406097626594843
 40
0.4999142392536032
 40
0.5576329454811708
 40
0.6150667017000754
 40
0.6968555444402694
 40
0.8212925568180294
 40
0.9105799127538543
 40
1.0
 40
1.0
 40
1.0
 40
1.0
 10
302.6461271171862
 20
147.290714882138
 30
0.0
 10
302.6429983557425
 20
147.3998223593061
 30
0.0
 10
302.6301421195463
 20
147.8481504030156
 30
0.0
 10
302.4243997452078
 20
148.6988964195582
 30
0.0
 10
301.8002696000118
 20
149.6779903868151
 30
0.0
 10
300.9207236603643
 20
150.3527151747365
 30
0.0
 10
300.0694049408853
 20
150.7070229240745
 30
0.0
 10
299.1542041570281
 20
150.8305406097573
 30
0.0
 10
298.2619232324748
 20
150.713456131552
 30
0.0
 10
297.3918621485341
 20
150.3685609865844
 30
0.0
 10
296.5154106537896
 20
149.7023327155308
 30
0.0
 10
295.9616993223273
 20
148.8466958125114
 30
0.0
 10
295.6840579606102
 20
147.9936780841809
 30
0.0
 10
295.658777467355
 20
147.525151945565
 30
0.0
 10
295.6461278324419
 20
147.290714882138
 30
0.0
  0
LINE
  5
1C5
330
1F
100
AcDbEntity
  8
0
  6
Continuous
 62
     7
100
AcDbLine
 10
304.1461227064
 20
205.0058607532
 30
0.0
 11
304.1461227064
 21
143.8385498298
 31
0.0
  0
LINE
  5
1C6
330
1F
100
AcDbEntity
  8
0
  6
Continuous
 62
     7
100
AcDbLine
 10
304.1461227064
 20
143.8385498298
 30
0.0
 11
303.3461240654
 21
143.0381320937
 31
0.0
  0
LINE
  5
1C7
330
1F
100
AcDbEntity
  8
0
  6
Continuous
 62
     7
100
AcDbLine
 10
303.3461240654
 20
205.8062784894
 30
0.0
 11
304.1461227064
 21
205.0058607532
 31
0.0
  0
CIRCLE
  5
1C8
330
1F
100
AcDbEntity
  8
0
  6
Continuous
 62
     7
100
AcDbCircle
 10
299.1461221104
 20
201.5536957875
 30
0.0
 40
2.25
  0
CIRCLE
  5
1C9
330
1F
100
AcDbEntity
  8
0
  6
Continuous
 62
     7
100
AcDbCircle
 10
299.1461221104
 20
147.2907147956
 30
0.0
 40
2.250000000000028
  0
LINE
  5
1CA
330
1F
100
AcDbEntity
  8
0
  6
Continuous
 62
     7
100
AcDbLine
 10
164.1461221104
 20
229.9222060068
 30
0.0
 11
246.1743471747
 21
229.9222060068
 31
0.0
  0
LINE
  5
1CB
330
1F
100
AcDbEntity
  8
0
  6
Continuous
 62
     7
100
AcDbLine
 10
246.1743471747
 20
229.9222060068
 30
0.0
 11
245.6453708535
 21
226.9222036524
 31
0.0
  0
LINE
  5
1CC
330
1F
100
AcDbEntity
  8
0
  6
Continuous
 62
     7
100
AcDbLine
 10
245.6453708535
 20
226.9222036524
 30
0.0
 11
173.3461223145
 21
226.9222036524
 31
0.0
  0
LINE
  5
1CD
330
1F
100
AcDbEntity
  8
0
  6
Continuous
 62
     7
100
AcDbLine
 10
164.9461220902
 20
226.9222036524
 30
0.0
 11
164.1461221104
 21
226.9222036524
 31
0.0
  0
LINE
  5
1CE
330
1F
100
AcDbEntity
  8
0
  6
Continuous
 62
     7
100
AcDbLine
 10
164.1461221104
 20
226.9222036524
 30
0.0
 11
164.1461221104
 21
229.9222060068
 31
0.0
  0
LINE
  5
1CF
330
1F
100
AcDbEntity
  8
0
  6
Continuous
 62
     7
100
AcDbLine
 10
246.1743471747
 20
229.9222060068
 30
0.0
 11
304.1461227064
 21
208.8222064598
 31
0.0
  0
LINE
  5
1D0
330
1F
100
AcDbEntity
  8
0
  6
Continuous
 62
     7
100
AcDbLine
 10
304.1461227064
 20
208.8222064598
 30
0.0
 11
304.1461227064
 21
205.6296717895
 31
0.0
  0
LINE
  5
1D1
330
1F
100
AcDbEntity
  8
0
  6
Continuous
 62
     7
100
AcDbLine
 10
304.1461227064
 20
205.6296717895
 30
0.0
 11
245.6453708535
 21
226.9222036524
 31
0.0
  0
LINE
  5
1D2
330
1F
100
AcDbEntity
  8
0
  6
Continuous
 62
     7
100
AcDbLine
 10
304.1461227064
 20
205.6296717895
 30
0.0
 11
304.1461227064
 21
205.0222054644
 31
0.0
  0
LINE
  5
1D3
330
1F
100
AcDbEntity
  8
0
  6
Continuous
 62
     7
100
AcDbLine
 10
304.1461227064
 20
143.8222051187
 30
0.0
 11
304.1461227064
 21
143.2147387935
 31
0.0
  0
LINE
  5
1D4
330
1F
100
AcDbEntity
  8
0
  6
Continuous
 62
     7
100
AcDbLine
 10
245.6453708535
 20
121.9222069306
 30
0.0
 11
304.1461227064
 21
143.2147387935
 31
0.0
  0
LINE
  5
1D5
330
1F
100
AcDbEntity
  8
0
  6
Continuous
 62
     7
100
AcDbLine
 10
164.1461221104
 20
121.9222069306
 30
0.0
 11
164.9461220902
 21
121.9222069306
 31
0.0
  0
LINE
  5
1D6
330
1F
100
AcDbEntity
  8
0
  6
Continuous
 62
     7
100
AcDbLine
 10
173.3461223145
 20
121.9222069306
 30
0.0
 11
245.6453708535
 21
121.9222069306
 31
0.0
  0
CIRCLE
  5
1D7
330
1F
100
AcDbEntity
  8
0
  6
Continuous
 62
     7
100
AcDbCircle
 10
204.1461221104
 20
204.4222052915
 30
0.0
 40
4.0
  0
CIRCLE
  5
1D8
330
1F
100
AcDbEntity
  8
0
  6
Continuous
 62
     7
100
AcDbCircle
 10
204.1461221104
 20
144.4222052915
 30
0.0
 40
3.999999999999972
  0
CIRCLE
  5
1D9
330
1F
100
AcDbEntity
  8
0
  6
Continuous
 62
     7
100
AcDbCircle
 10
264.1461221104
 20
144.4222052915
 30
0.0
 40
3.999999999999943
  0
CIRCLE
  5
1DA
330
1F
100
AcDbEntity
  8
0
  6
Continuous
 62
     7
100
AcDbCircle
 10
264.1461221104
 20
204.4222052915
 30
0.0
 40
4.0
  0
CIRCLE
  5
1DB
330
1F
100
AcDbEntity
  8
0
  6
Continuous
 62
     7
100
AcDbCircle
 10
184.1461221104
 20
174.4222052915
 30
0.0
 40
2.0
  0
CIRCLE
  5
1DC
330
1F
100
AcDbEntity
  8
0
  6
Continuous
 62
     7
100
AcDbCircle
 10
234.1461221104
 20
174.4222052915
 30
0.0
 40
2.000000000000028
  0
CIRCLE
  5
1DD
330
1F
100
AcDbEntity
  8
0
  6
Continuous
 62
     7
100
AcDbCircle
 10
209.1461221104
 20
174.4222052915
 30
0.0
 40
3.500000000000028
  0
CIRCLE
  5
1DE
330
1F
100
AcDbEntity
  8
0
  6
Continuous
 62
     7
100
AcDbCircle
 10
259.1461221104
 20
174.4222052915
 30
0.0
 40
3.5
  0
CIRCLE
  5
1DF
330
1F
100
AcDbEntity
  8
0
  6
Continuous
 62
     7
100
AcDbCircle
 10
234.1461221104
 20
199.4222052915
 30
0.0
 40
3.500000000000028
  0
CIRCLE
  5
1E0
330
1F
100
AcDbEntity
  8
0
  6
Continuous
 62
     7
100
AcDbCircle
 10
234.1461221104
 20
149.4222052915
 30
0.0
 40
3.500000000000028
  0
LINE
  5
1E1
330
1F
100
AcDbEntity
  8
0
  6
Continuous
 62
     7
100
AcDbLine
 10
164.1461221104
 20
226.9222036524
 30
0.0
 11
164.1461221104
 21
226.1222050114
 31
0.0
  0
LINE
  5
1E2
330
1F
100
AcDbEntity
  8
0
  6
Continuous
 62
     7
100
AcDbLine
 10
164.1461221104
 20
122.7222055717
 30
0.0
 11
164.1461221104
 21
121.9222069306
 31
0.0
  0
LINE
  5
1E3
330
1F
100
AcDbEntity
  8
0
  6
Continuous
 62
     7
100
AcDbLine
 10
304.1461227064
 20
140.0222041233
 30
0.0
 11
246.1743471747
 21
118.9222045763
 31
0.0
  0
LINE
  5
1E4
330
1F
100
AcDbEntity
  8
0
  6
Continuous
 62
     7
100
AcDbLine
 10
245.6453708535
 20
121.9222069306
 30
0.0
 11
246.1743471747
 21
118.9222045763
 31
0.0
  0
LINE
  5
1E5
330
1F
100
AcDbEntity
  8
0
  6
Continuous
 62
     7
100
AcDbLine
 10
304.1461227064
 20
143.2147387935
 30
0.0
 11
304.1461227064
 21
140.0222041233
 31
0.0
  0
LINE
  5
1E6
330
1F
100
AcDbEntity
  8
0
  6
Continuous
 62
     7
100
AcDbLine
 10
246.1743471747
 20
118.9222045763
 30
0.0
 11
164.1461221104
 21
118.9222045763
 31
0.0
  0
LINE
  5
1E7
330
1F
100
AcDbEntity
  8
0
  6
Continuous
 62
     7
100
AcDbLine
 10
164.1461221104
 20
118.9222045763
 30
0.0
 11
164.1461221104
 21
121.9222069306
 31
0.0
  0
CIRCLE
  5
1E8
330
1F
100
AcDbEntity
  8
0
  6
Continuous
 62
     7
100
AcDbCircle
 10
264.1461221104
 20
204.4222052915
 30
0.0
 40
2.25
  0
CIRCLE
  5
1E9
330
1F
100
AcDbEntity
  8
0
  6
Continuous
 62
     7
100
AcDbCircle
 10
204.1461221104
 20
204.4222052915
 30
0.0
 40
2.25
  0
CIRCLE
  5
1EA
330
1F
100
AcDbEntity
  8
0
  6
Continuous
 62
     7
100
AcDbCircle
 10
204.1461221104
 20
144.4222052915
 30
0.0
 40
2.25
  0
CIRCLE
  5
1EB
330
1F
100
AcDbEntity
  8
0
  6
Continuous
 62
     7
100
AcDbCircle
 10
264.1461221104
 20
144.4222052915
 30
0.0
 40
2.25
  0
LINE
  5
1EC
330
1F
100
AcDbEntity
  8
0
  6
Continuous
 62
     7
100
AcDbLine
 10
164.1461221104
 20
226.1222050114
 30
0.0
 11
164.9461220902
 21
226.9222036524
 31
0.0
  0
LINE
  5
1ED
330
1F
100
AcDbEntity
  8
0
  6
Continuous
 62
     7
100
AcDbLine
 10
173.3461223145
 20
226.9222036524
 30
0.0
 11
164.9461220902
 21
226.9222036524
 31
0.0
  0
LINE
  5
1EE
330
1F
100
AcDbEntity
  8
0
  6
Continuous
 62
     7
100
AcDbLine
 10
173.3461223145
 20
226.9222036524
 30
0.0
 11
174.1461218869
 21
226.1222050114
 31
0.0
  0
LINE
  5
1EF
330
1F
100
AcDbEntity
  8
0
  6
Continuous
 62
     7
100
AcDbLine
 10
174.1461218869
 20
226.1125341578
 30
0.0
 11
174.1461218869
 21
226.1222050114
 31
0.0
  0
LINE
  5
1F0
330
1F
100
AcDbEntity
  8
0
  6
Continuous
 62
     7
100
AcDbLine
 10
164.1461221104
 20
226.1222050114
 30
0.0
 11
164.1461221104
 21
226.1125341578
 31
0.0
  0
CIRCLE
  5
1F1
330
1F
100
AcDbEntity
  8
0
  6
Continuous
 62
     7
100
AcDbCircle
 10
169.1461221104
 20
221.9164308494
 30
0.0
 40
1.650000000000006
  0
LINE
  5
1F2
330
1F
100
AcDbEntity
  8
0
  6
Continuous
 62
     7
100
AcDbLine
 10
164.9461220902
 20
121.9222069306
 30
0.0
 11
164.1461221104
 21
122.7222055717
 31
0.0
  0
LINE
  5
1F3
330
1F
100
AcDbEntity
  8
0
  6
Continuous
 62
     7
100
AcDbLine
 10
164.1461221104
 20
122.7318764253
 30
0.0
 11
164.1461221104
 21
122.7222055717
 31
0.0
  0
LINE
  5
1F4
330
1F
100
AcDbEntity
  8
0
  6
Continuous
 62
     7
100
AcDbLine
 10
174.1461218869
 20
122.7222055717
 30
0.0
 11
174.1461218869
 21
122.7318764253
 31
0.0
  0
LINE
  5
1F5
330
1F
100
AcDbEntity
  8
0
  6
Continuous
 62
     7
100
AcDbLine
 10
174.1461218869
 20
122.7222055717
 30
0.0
 11
173.3461223145
 21
121.9222069306
 31
0.0
  0
LINE
  5
1F6
330
1F
100
AcDbEntity
  8
0
  6
Continuous
 62
     7
100
AcDbLine
 10
164.9461220902
 20
121.9222069306
 30
0.0
 11
173.3461223145
 21
121.9222069306
 31
0.0
  0
CIRCLE
  5
1F7
330
1F
100
AcDbEntity
  8
0
  6
Continuous
 62
     7
100
AcDbCircle
 10
169.1461221104
 20
126.9279797336
 30
0.0
 40
1.649999999999977
  0
LINE
  5
1F8
330
1F
100
AcDbEntity
  8
0
  6
Continuous
 62
     7
100
AcDbLine
 10
172.6461225723
 20
221.9164304955
 30
0.0
 11
172.6461225723
 21
226.4534466488
 31
0.0
  0
LINE
  5
1F9
330
1F
100
AcDbEntity
  8
0
  6
Continuous
 62
     7
100
AcDbLine
 10
172.6461225723
 20
226.4534466488
 30
0.0
 11
165.6461221234
 21
226.4534466488
 31
0.0
  0
LINE
  5
1FA
330
1F
100
AcDbEntity
  8
0
  6
Continuous
 62
     7
100
AcDbLine
 10
165.6461221234
 20
226.4534466488
 30
0.0
 11
165.6461221234
 21
221.9164304955
 31
0.0
  0
SPLINE
  5
1FB
330
1F
100
AcDbEntity
  8
0
  6
Continuous
 62
     7
100
AcDbSpline
210
0.0
220
0.0
230
1.0
 70
     8
 71
     3
 72
    21
 73
    17
 74
     0
 42
0.00000001
 43
0.00000001
 12
1.0
 22
0.0
 32
0.0
 13
1.0
 23
0.0
 33
0.0
 40
0.0
 40
0.0
 40
0.0
 40
0.0
 40
0.0165020413937953
 40
0.1176367778160893
 40
0.2185998467141173
 40
0.3176959735718701
 40
0.3967788392408793
 40
0.4449887474633908
 40
0.4850663628151966
 40
0.5252986176932648
 40
0.5625726888486974
 40
0.6187564590903945
 40
0.7089782921026264
 40
0.7925426958687827
 40
0.876312821446658
 40
1.0
 40
1.0
 40
1.0
 40
1.0
 10
165.6461221234345
 20
221.9164304955032
 30
0.0
 10
165.6465889726342
 20
221.875549965289
 30
0.0
 10
165.6499169630484
 20
221.5841282111527
 30
0.0
 10
165.7276828261789
 20
221.0177373306397
 30
0.0
 10
166.0494723677764
 20
220.1998229659358
 30
0.0
 10
166.6142025309117
 20
219.4296333842937
 30
0.0
 10
167.3741053373854
 20
218.8521786353255
 30
0.0
 10
168.1600105401146
 20
218.5324431823643
 30
0.0
 10
168.8805011631103
 20
218.4025477815613
 30
0.0
 10
169.5771200960477
 20
218.4213068253547
 30
0.0
 10
170.3032280434403
 20
218.584706830593
 30
0.0
 10
171.1194719960968
 20
218.9677651341527
 30
0.0
 10
171.8034280027097
 20
219.5780197338626
 30
0.0
 10
172.2757016765444
 20
220.2847094246235
 30
0.0
 10
172.5862839452135
 20
221.0782422512569
 30
0.0
 10
172.6237719932229
 20
221.6033552535818
 30
0.0
 10
172.646122572332
 20
221.9164304955032
 30
0.0
  0
LINE
  5
1FC
330
1F
100
AcDbEntity
  8
0
  6
Continuous
 62
     7
100
AcDbLine
 10
164.9461220902
 20
121.9317287726
 30
0.0
 11
173.3461223145
 21
121.9317287726
 31
0.0
  0
LINE
  5
1FD
330
1F
100
AcDbEntity
  8
0
  6
Continuous
 62
     7
100
AcDbLine
 10
164.9461220902
 20
226.9126818104
 30
0.0
 11
164.9461220902
 21
121.9317287726
 31
0.0
  0
LINE
  5
1FE
330
1F
100
AcDbEntity
  8
0
  6
Continuous
 62
     7
100
AcDbLine
 10
173.3461223145
 20
226.9126818104
 30
0.0
 11
164.9461220902
 21
226.9126818104
 31
0.0
  0
LINE
  5
1FF
330
1F
100
AcDbEntity
  8
0
  6
Continuous
 62
     7
100
AcDbLine
 10
173.3461223145
 20
121.9317287726
 30
0.0
 11
173.3461223145
 21
226.9126818104
 31
0.0
  0
LINE
  5
200
330
1F
100
AcDbEntity
  8
0
  6
Continuous
 62
     7
100
AcDbLine
 10
165.6461221234
 20
126.9279800875
 30
0.0
 11
165.6461221234
 21
122.3909639342
 31
0.0
  0
LINE
  5
201
330
1F
100
AcDbEntity
  8
0
  6
Continuous
 62
     7
100
AcDbLine
 10
172.6461225723
 20
122.3909639342
 30
0.0
 11
165.6461221234
 21
122.3909639342
 31
0.0
  0
LINE
  5
202
330
1F
100
AcDbEntity
  8
0
  6
Continuous
 62
     7
100
AcDbLine
 10
172.6461225723
 20
122.3909639342
 30
0.0
 11
172.6461225723
 21
126.9279800875
 31
0.0
  0
SPLINE
  5
203
330
1F
100
AcDbEntity
  8
0
  6
Continuous
 62
     7
100
AcDbSpline
210
0.0
220
0.0
230
1.0
 70
     8
 71
     3
 72
    21
 73
    17
 74
     0
 42
0.00000001
 43
0.00000001
 12
1.0
 22
0.0
 32
0.0
 13
1.0
 23
0.0
 33
0.0
 40
0.0
 40
0.0
 40
0.0
 40
0.0
 40
0.1096426872790415
 40
0.205432677396515
 40
0.3008717256161533
 40
0.3962864768470925
 40
0.4421269586099132
 40
0.488349066898406
 40
0.4999788010875308
 40
0.538910585780934
 40
0.5776627201028204
 40
0.6416501226192743
 40
0.7494212112022852
 40
0.8522129754293846
 40
0.9552551941683702
 40
1.0
 40
1.0
 40
1.0
 40
1.0
 10
172.646122572332
 20
126.9279800875213
 30
0.0
 10
172.6280601073343
 20
127.2046298858075
 30
0.0
 10
172.5942172616605
 20
127.7229764365309
 30
0.0
 10
172.2952055150894
 20
128.5422797076658
 30
0.0
 10
171.7610665322609
 20
129.3291194459791
 30
0.0
 10
171.0061371274898
 20
129.9514325997798
 30
0.0
 10
170.1356170067982
 20
130.3130336578094
 30
0.0
 10
169.5484306115528
 20
130.4183484245713
 30
0.0
 10
168.9881885508399
 20
130.4345526583131
 30
0.0
 10
168.4676045335626
 20
130.3826683411558
 30
0.0
 10
167.7394073622713
 20
130.1656113673351
 30
0.0
 10
166.8919104854457
 20
129.6812373408048
 30
0.0
 10
166.2136816815873
 20
128.9273546106098
 30
0.0
 10
165.7967013567662
 20
128.0692227219943
 30
0.0
 10
165.6602011254328
 20
127.407593472253
 30
0.0
 10
165.6493941133668
 20
127.0394432556075
 30
0.0
 10
165.6461221234345
 20
126.9279800875213
 30
0.0
  0
LINE
  5
204
330
1F
100
AcDbEntity
  8
0
  6
Continuous
 62
     7
100
AcDbLine
 10
174.1461218869
 20
226.1125341578
 30
0.0
 11
174.1461218869
 21
122.7318764253
 31
0.0
  0
LINE
  5
205
330
1F
100
AcDbEntity
  8
0
  6
Continuous
 62
     7
100
AcDbLine
 10
174.1461218869
 20
122.7318764253
 30
0.0
 11
173.3461223145
 21
121.9317287726
 31
0.0
  0
LINE
  5
206
330
1F
100
AcDbEntity
  8
0
  6
Continuous
 62
     7
100
AcDbLine
 10
173.3461223145
 20
226.9126818104
 30
0.0
 11
174.1461218869
 21
226.1125341578
 31
0.0
  0
LINE
  5
207
330
1F
100
AcDbEntity
  8
0
  6
Continuous
 62
     7
100
AcDbLine
 10
164.1461221104
 20
122.7318764253
 30
0.0
 11
164.1461221104
 21
226.1125341578
 31
0.0
  0
LINE
  5
208
330
1F
100
AcDbEntity
  8
0
  6
Continuous
 62
     7
100
AcDbLine
 10
164.1461221104
 20
226.1125341578
 30
0.0
 11
164.9461220902
 21
226.9126818104
 31
0.0
  0
LINE
  5
209
330
1F
100
AcDbEntity
  8
0
  6
Continuous
 62
     7
100
AcDbLine
 10
164.9461220902
 20
121.9317287726
 30
0.0
 11
164.1461221104
 21
122.7318764253
 31
0.0
  0
CIRCLE
  5
20A
330
1F
100
AcDbEntity
  8
0
  6
Continuous
 62
     7
100
AcDbCircle
 10
169.1461221104
 20
221.9164308494
 30
0.0
 40
2.25
  0
CIRCLE
  5
20B
330
1F
100
AcDbEntity
  8
0
  6
Continuous
 62
     7
100
AcDbCircle
 10
169.1461221104
 20
126.9279797336
 30
0.0
 40
2.25
  0
LINE
  5
20C
330
1F
100
AcDbEntity
  8
RIQUADRO
100
AcDbLine
 10
319.8374432125
 20
174.4222052915
 30
0.0
 11
133.4624063468
 21
174.4222052915
 31
0.0
  0
DIMENSION
  5
20D
330
1F
100
AcDbEntity
  8
RIQUADRO
100
AcDbDimension
280
     0
  2
_D_3
 10
328.0712438275
 20
174.4222052915
 30
0.0
 11
328.0712438275
 21
188.0382794262
 31
0.0
 70
   160
  1
<>
 71
     5
 42
-1.0
 73
     0
 74
     0
 75
     0
  3
SLDDIMSTYLE0
100
AcDbAlignedDimension
 13
234.1461221104
 23
199.4222052915
 33
0.0
 14
319.8374432125
 24
174.4222052915
 34
0.0
 50
90.0
100
AcDbRotatedDimension
  0
DIMENSION
  5
217
330
1F
100
AcDbEntity
  8
RIQUADRO
100
AcDbDimension
280
     0
  2
_D_4
 10
348.3529339684
 20
174.4222052915
 30
0.0
 11
348.3529339684
 21
188.0382794262
 31
0.0
 70
   160
  1
<>
 71
     5
 42
-1.0
 73
     0
 74
     0
 75
     0
  3
SLDDIMSTYLE0
100
AcDbAlignedDimension
 13
264.1461221104
 23
204.4222052915
 33
0.0
 14
319.8374432125
 24
174.4222052915
 34
0.0
 50
90.0
100
AcDbRotatedDimension
  0
DIMENSION
  5
221
330
1F
100
AcDbEntity
  8
RIQUADRO
100
AcDbDimension
280
     0
  2
_D_5
 10
184.1461221104
 20
174.4222052915
 30
0.1
 11
184.1461221104
 21
277.2659566477
 31
0.0
 70
   102
  1
<>
 71
     5
 42
-1.0
 73
     0
 74
     0
 75
     0
  3
SLDDIMSTYLE1
100
AcDbOrdinateDimension
 13
184.1461221104
 23
174.4222052915
 33
0.1
 14
184.1461221104
 24
271.5080415282
 34
0.1
  0
DIMENSION
  5
22E
330
1F
100
AcDbEntity
  8
RIQUADRO
100
AcDbDimension
280
     0
  2
_D_6
 10
184.1461221104
 20
174.4222052915
 30
0.1
 11
164.1461221104
 21
279.8538774166
 31
0.0
 70
   102
  1
<>
 71
     5
 42
-1.0
 73
     0
 74
     0
 75
     0
  3
SLDDIMSTYLE2
100
AcDbOrdinateDimension
 13
164.1461221104
 23
226.1125332069
 33
0.1
 14
164.1461221104
 24
271.5080415282
 34
0.1
  0
DIMENSION
  5
237
330
1F
100
AcDbEntity
  8
RIQUADRO
100
AcDbDimension
280
     0
  2
_D_7
 10
184.1461221104
 20
174.4222052915
 30
0.1
 11
208.2615488161
 21
279.8538774166
 31
0.0
 70
   102
  1
<>
 71
     5
 42
-1.0
 73
     0
 74
     0
 75
     0
  3
SLDDIMSTYLE2
100
AcDbOrdinateDimension
 13
204.1461221104
 23
204.4222052915
 33
0.1
 14
208.2615488161
 24
271.5080415282
 34
0.1
  0
DIMENSION
  5
241
330
1F
100
AcDbEntity
  8
RIQUADRO
100
AcDbDimension
280
     0
  2
_D_8
 10
184.1461221104
 20
174.4222052915
 30
0.1
 11
227.2221707516
 21
279.8538774166
 31
0.0
 70
   102
  1
<>
 71
     5
 42
-1.0
 73
     0
 74
     0
 75
     0
  3
SLDDIMSTYLE2
100
AcDbOrdinateDimension
 13
209.1461221104
 23
174.4222052915
 33
0.1
 14
227.2221707516
 24
271.5080415282
 34
0.1
  0
DIMENSION
  5
24B
330
1F
100
AcDbEntity
  8
RIQUADRO
100
AcDbDimension
280
     0
  2
_D_9
 10
184.1461221104
 20
174.4222052915
 30
0.1
 11
252.2751911604
 21
279.8538774166
 31
0.0
 70
   102
  1
<>
 71
     5
 42
-1.0
 73
     0
 74
     0
 75
     0
  3
SLDDIMSTYLE2
100
AcDbOrdinateDimension
 13
234.1461221104
 23
199.4222052915
 33
0.1
 14
252.2751911604
 24
271.5080415282
 34
0.1
  0
DIMENSION
  5
255
330
1F
100
AcDbEntity
  8
RIQUADRO
100
AcDbDimension
280
     0
  2
_D_10
 10
184.1461221104
 20
174.4222052915
 30
0.1
 11
280.4978314496
 21
279.8538774166
 31
0.0
 70
   102
  1
<>
 71
     5
 42
-1.0
 73
     0
 74
     0
 75
     0
  3
SLDDIMSTYLE2
100
AcDbOrdinateDimension
 13
264.1461221104
 23
204.4222052915
 33
0.1
 14
280.4978314496
 24
271.5080415282
 34
0.1
  0
DIMENSION
  5
25F
330
1F
100
AcDbEntity
  8
RIQUADRO
100
AcDbDimension
280
     0
  2
_D_11
 10
86.7780806848
 20
118.9222052915
 30
0.0
 11
86.7780806848
 21
174.6656327496
 31
0.0
 70
   160
  1
<>
 71
     5
 42
-1.0
 73
     0
 74
     0
 75
     0
  3
SLDDIMSTYLE0
100
AcDbAlignedDimension
 13
164.1461221104
 23
229.9222052915
 33
0.0
 14
164.1461221104
 24
118.9222052915
 34
0.0
 50
90.0
100
AcDbRotatedDimension
  0
DIMENSION
  5
269
330
1F
100
AcDbEntity
  8
RIQUADRO
100
AcDbDimension
280
     0
  2
_D_12
 10
104.7012993611
 20
144.4222052915
 30
0.0
 11
104.7012993611
 21
174.6656327496
 31
0.0
 70
   160
  1
<>
 71
     5
 42
-1.0
 73
     0
 74
     0
 75
     0
  3
SLDDIMSTYLE0
100
AcDbAlignedDimension
 13
204.1461221104
 23
204.4222052915
 33
0.0
 14
204.1461221104
 24
144.4222052915
 34
0.0
 50
90.0
100
AcDbRotatedDimension
  0
DIMENSION
  5
273
330
1F
100
AcDbEntity
  8
RIQUADRO
100
AcDbDimension
280
     0
  2
_D_13
 10
123.6854037447
 20
149.4222052915
 30
0.0
 11
123.6854037447
 21
174.6656327496
 31
0.0
 70
   160
  1
<>
 71
     5
 42
-1.0
 73
     0
 74
     0
 75
     0
  3
SLDDIMSTYLE0
100
AcDbAlignedDimension
 13
234.1461221104
 23
199.4222052915
 33
0.0
 14
234.1461221104
 24
149.4222052915
 34
0.0
 50
90.0
100
AcDbRotatedDimension
  0
INSERT
  5
282
330
1F
100
AcDbEntity
  8
RIQUADRO
100
AcDbBlockReference
  2
SW_NOTE_10
 10
323.5305164319
 20
154.4600938967
 30
0.0
  0
LEADER
  5
284
330
1F
100
AcDbEntity
  8
RIQUADRO
100
AcDbLeader
  3
SLDDIMSTYLE3
 76
     2
 10
260.7419911717
 20
171.3072089931
 30
0.0
 10
323.5305164319
 20
154.4600938967
 30
0.0
1001
ACAD
1000
DSTYLE
1002
{
1070
   341
1005
0
1070
     6
1000

1002
}
  0
INSERT
  5
28A
330
1F
100
AcDbEntity
  8
RIQUADRO
100
AcDbBlockReference
  2
SW_NOTE_11
 10
312.9671361502
 20
86.6197183099
 30
0.0
  0
LEADER
  5
28B
330
1F
100
AcDbEntity
  8
RIQUADRO
100
AcDbLeader
  3
SLDDIMSTYLE3
 76
     2
 10
265.0734386309
 20
140.5311791967
 30
0.0
 10
312.9671361502
 20
86.6197183099
 30
0.0
1001
ACAD
1000
DSTYLE
1002
{
1070
   341
1005
0
1070
     6
1000

1002
}
  0
INSERT
  5
294
330
1F
100
AcDbEntity
  8
RIQUADRO
100
AcDbBlockReference
  2
SW_NOTE_12
 10
180.6948356808
 20
89.4366197183
 30
0.0
  0
LEADER
  5
295
330
1F
100
AcDbEntity
  8
RIQUADRO
100
AcDbLeader
  3
SLDDIMSTYLE3
 76
     2
 10
184.3198664229
 20
172.4297663555
 30
0.0
 10
180.6948356808
 20
89.4366197183
 30
0.0
1001
ACAD
1000
DSTYLE
1002
{
1070
   341
1005
0
1070
     6
1000

1002
}
  0
LEADER
  5
296
330
1F
100
AcDbEntity
  8
RIQUADRO
100
AcDbLeader
  3
SLDDIMSTYLE3
 76
     2
 10
233.9931063417
 20
172.4280673388
 30
0.0
 10
180.6948356808
 20
89.4366197183
 30
0.0
1001
ACAD
1000
DSTYLE
1002
{
1070
   341
1005
0
1070
     6
1000

1002
}
  0
LINE
  5
297
330
1F
100
AcDbEntity
  8
0
  6
Continuous
 62
     7
100
AcDbLine
 10
686.5613092896
 20
363.2353112632
 30
0.0
 11
680.6216066126
 21
366.6642286321
 31
0.0
  0
LINE
  5
298
330
1F
100
AcDbEntity
  8
0
  6
Continuous
 62
     7
100
AcDbLine
 10
664.9192741855
 20
365.1075942839
 30
0.0
 11
664.3536816612
 21
364.7809754678
 31
0.0
  0
LINE
  5
299
330
1F
100
AcDbEntity
  8
0
  6
Continuous
 62
     7
100
AcDbLine
 10
605.1865693112
 20
434.575470768
 30
0.0
 11
599.2468721906
 21
438.0043849292
 31
0.0
  0
LINE
  5
29A
330
1F
100
AcDbEntity
  8
0
  6
Continuous
 62
     7
100
AcDbLine
 10
572.9929720377
 20
435.4017299484
 30
0.0
 11
572.4273785667
 21
435.0751116788
 31
0.0
  0
LINE
  5
29B
330
1F
100
AcDbEntity
  8
0
  6
Continuous
 62
     7
100
AcDbLine
 10
649.7908023368
 20
322.6113651301
 30
0.0
 11
648.6594334088
 21
322.6113651301
 31
0.0
  0
LINE
  5
29C
330
1F
100
AcDbEntity
  8
0
  6
Continuous
 62
     7
100
AcDbLine
 10
649.7908023368
 20
322.6113651301
 30
0.0
 11
649.7908023368
 21
266.7191441631
 31
0.0
  0
LINE
  5
29D
330
1F
100
AcDbEntity
  8
0
  6
Continuous
 62
     7
100
AcDbLine
 10
648.6594334088
 20
266.0659126233
 30
0.0
 11
649.7908023368
 21
266.7191441631
 31
0.0
  0
LINE
  5
29E
330
1F
100
AcDbEntity
  8
0
  6
Continuous
 62
     7
100
AcDbLine
 10
648.6594334088
 20
266.0659126233
 30
0.0
 11
648.6594334088
 21
322.6113651301
 31
0.0
  0
SPLINE
  5
29F
330
1F
100
AcDbEntity
  8
0
  6
Continuous
 62
     7
100
AcDbSpline
210
0.0
220
0.0
230
1.0
 70
     8
 71
     3
 72
     9
 73
     5
 74
     0
 42
0.00000001
 43
0.00000001
 12
1.0
 22
0.0
 32
0.0
 13
1.0
 23
0.0
 33
0.0
 40
0.0
 40
0.0
 40
0.0
 40
0.0
 40
0.3556703194199786
 40
1.0
 40
1.0
 40
1.0
 40
1.0
 10
653.9931025999125
 20
325.6904268143871
 30
0.0
 10
653.9925440511547
 20
325.6127074940433
 30
0.0
 10
653.9909736396603
 20
325.3941924364172
 30
0.0
 10
653.9897180209124
 20
325.1756766931386
 30
0.0
 10
653.9889089884856
 20
325.0348805140702
 30
0.0
  0
LINE
  5
2A0
330
1F
100
AcDbEntity
  8
0
  6
Continuous
 62
     7
100
AcDbLine
 10
649.7908023368
 20
322.6113651301
 30
0.0
 11
653.9889089885
 21
325.0348805141
 31
0.0
  0
LINE
  5
2A1
330
1F
100
AcDbEntity
  8
0
  6
Continuous
 62
     7
100
AcDbLine
 10
642.7197307318
 20
326.040282499
 30
0.0
 11
648.6594334088
 21
322.6113651301
 31
0.0
  0
LINE
  5
2A2
330
1F
100
AcDbEntity
  8
0
  6
Continuous
 62
     7
100
AcDbLine
 10
642.7197307318
 20
326.040282499
 30
0.0
 11
642.7197307318
 21
326.6934078789
 31
0.0
  0
LINE
  5
2A3
330
1F
100
AcDbEntity
  8
0
  6
Continuous
 62
     7
100
AcDbLine
 10
643.4029456341
 20
327.0878194468
 30
0.0
 11
642.7197307318
 21
326.6934078789
 31
0.0
  0
LINE
  5
2A4
330
1F
100
AcDbEntity
  8
0
  6
Continuous
 62
     7
100
AcDbLine
 10
653.3211448574
 20
326.0783397622
 30
0.0
 11
653.9931025999
 21
325.6904268144
 31
0.0
  0
LINE
  5
2A5
330
1F
100
AcDbEntity
  8
0
  6
Continuous
 62
     7
100
AcDbLine
 10
642.7197307318
 20
269.4948299922
 30
0.0
 11
648.6594334088
 21
266.0659126233
 31
0.0
  0
LINE
  5
2A6
330
1F
100
AcDbEntity
  8
0
  6
Continuous
 62
     7
100
AcDbLine
 10
642.7197307318
 20
326.040282499
 30
0.0
 11
642.7197307318
 21
269.4948299922
 31
0.0
  0
ARC
  5
2A7
330
1F
100
AcDbEntity
  8
0
  6
Continuous
 62
     7
100
AcDbCircle
 10
656.3728889692
 20
324.9950762616
 30
0.0
 40
2.384312254466653
100
AcDbArc
 50
179.0434467564
 51
300.154975865
  0
LINE
  5
2A8
330
1F
100
AcDbEntity
  8
0
  6
Continuous
 62
     7
100
AcDbLine
 10
660.913491319
 20
318.1771338271
 30
0.0
 11
657.5706258832
 21
322.9334334187
 31
0.0
  0
LWPOLYLINE
  5
2A9
330
1F
100
AcDbEntity
  8
0
  6
Continuous
 62
     7
100
AcDbPolyline
 90
        9
 70
   128
 43
0.0
 10
662.6172006204
 20
313.2143250751
 10
662.0147292016
 20
313.3622509544
 10
661.4991770968
 20
313.6772693715
 10
661.0873187517
 20
314.1491315148
 10
660.79255423
 20
314.7624839022
 10
660.6244745737
 20
315.4973710874
 10
660.5885476781
 20
316.3298817029
 10
660.6859431181
 20
317.2329302321
 10
660.913491319
 20
318.1771338271
  0
LWPOLYLINE
  5
2AA
330
1F
100
AcDbEntity
  8
0
  6
Continuous
 62
     7
100
AcDbPolyline
 90
        9
 70
   128
 43
0.0
 10
680.2393393064
 20
323.3873691992
 10
678.1747337852
 20
321.0062988601
 10
675.9924005916
 20
318.8818975046
 10
673.7304218728
 20
317.0512347907
 10
671.4282699634
 20
315.5462566271
 10
669.1261180539
 20
314.3932267733
 10
666.8641393351
 20
313.6122644485
 10
664.6818061415
 20
313.2169975313
 10
662.6172006204
 20
313.2143250751
  0
ARC
  5
2AB
330
1F
100
AcDbEntity
  8
0
  6
Continuous
 62
     7
100
AcDbCircle
 10
674.8255588342
 20
328.3927111833
 30
0.0
 40
7.37309076166058
100
AcDbArc
 50
317.2448939877
 51
15.130622164
  0
LINE
  5
2AC
330
1F
100
AcDbEntity
  8
0
  6
Continuous
 62
     7
100
AcDbLine
 10
685.2859140436
 20
338.9331287106
 30
0.0
 11
681.9430486077
 21
330.3172388405
 31
0.0
  0
ARC
  5
2AD
330
1F
100
AcDbEntity
  8
0
  6
Continuous
 62
     7
100
AcDbCircle
 10
679.7240340518
 20
346.2741135478
 30
0.0
 40
9.21002537578495
100
AcDbArc
 50
307.1493041254
 51
353.1143366701
  0
LINE
  5
2AE
330
1F
100
AcDbEntity
  8
0
  6
Continuous
 62
     7
100
AcDbLine
 10
688.8676309383
 20
345.1699381089
 30
0.0
 11
693.0657375899
 21
347.5934534929
 31
0.0
  0
LINE
  5
2AF
330
1F
100
AcDbEntity
  8
0
  6
Continuous
 62
     7
100
AcDbLine
 10
693.0657375899
 20
291.701232526
 30
0.0
 11
693.0657375899
 21
347.5934534929
 31
0.0
  0
LINE
  5
2B0
330
1F
100
AcDbEntity
  8
0
  6
Continuous
 62
     7
100
AcDbLine
 10
649.7908023368
 20
266.7191441631
 30
0.0
 11
693.0657375899
 21
291.701232526
 31
0.0
  0
ARC
  5
2B1
330
1F
100
AcDbEntity
  8
0
  6
Continuous
 62
     7
100
AcDbCircle
 10
656.0578326177
 20
325.7282201739
 30
0.0
 40
2.065075878578183
100
AcDbArc
 50
181.0486398635
 51
303.2567960132
  0
LINE
  5
2B2
330
1F
100
AcDbEntity
  8
0
  6
Continuous
 62
     7
100
AcDbLine
 10
657.5706258832
 20
322.9334334187
 30
0.0
 11
657.4696314974
 21
323.4573015714
 31
0.0
  0
LINE
  5
2B3
330
1F
100
AcDbEntity
  8
0
  6
Continuous
 62
     7
100
AcDbLine
 10
657.4696314974
 20
323.4573015714
 30
0.0
 11
657.348992729
 21
324.0769367615
 31
0.0
  0
LINE
  5
2B4
330
1F
100
AcDbEntity
  8
0
  6
Continuous
 62
     7
100
AcDbLine
 10
657.348992729
 20
324.0769367615
 30
0.0
 11
657.3795557796
 21
324.24048929
 31
0.0
  0
LINE
  5
2B5
330
1F
100
AcDbEntity
  8
0
  6
Continuous
 62
     7
100
AcDbLine
 10
657.3795557796
 20
324.24048929
 30
0.0
 11
660.9150896066
 21
319.2100586355
 31
0.0
  0
LINE
  5
2B6
330
1F
100
AcDbEntity
  8
0
  6
Continuous
 62
     7
100
AcDbLine
 10
660.9150896066
 20
319.2100586355
 30
0.0
 11
660.9835512351
 21
318.9056126045
 31
0.0
  0
LINE
  5
2B7
330
1F
100
AcDbEntity
  8
0
  6
Continuous
 62
     7
100
AcDbLine
 10
660.9835512351
 20
318.9056126045
 30
0.0
 11
660.9448959895
 21
318.5126246092
 31
0.0
  0
LINE
  5
2B8
330
1F
100
AcDbEntity
  8
0
  6
Continuous
 62
     7
100
AcDbLine
 10
660.9448959895
 20
318.5126246092
 30
0.0
 11
660.913491319
 21
318.1771338271
 31
0.0
  0
LINE
  5
2B9
330
1F
100
AcDbEntity
  8
0
  6
Continuous
 62
     7
100
AcDbLine
 10
657.190304576
 20
324.0013601194
 30
0.0
 11
657.348992729
 21
324.0769367615
 31
0.0
  0
LINE
  5
2BA
330
1F
100
AcDbEntity
  8
0
  6
Continuous
 62
     7
100
AcDbLine
 10
657.3795557796
 20
324.24048929
 30
0.0
 11
653.7585514367
 21
326.3308506026
 31
0.0
  0
ARC
  5
2BB
330
1F
100
AcDbEntity
  8
0
  6
Continuous
 62
     7
100
AcDbCircle
 10
662.7626124952
 20
316.3960236785
 30
0.0
 40
2.16857193587883
100
AcDbArc
 50
177.9126329009
 51
258.6786039759
  0
LWPOLYLINE
  5
2BC
330
1F
100
AcDbEntity
  8
0
  6
Continuous
 62
     7
100
AcDbPolyline
 90
        9
 70
   128
 43
0.0
 10
662.3368951018
 20
314.2696490779
 10
664.3346306965
 20
314.2722350323
 10
666.446280991
 20
314.6546985845
 10
668.6349972918
 20
315.4103668031
 10
670.8625854994
 20
316.5260523779
 10
673.0901737069
 20
317.9822854027
 10
675.2788900078
 20
319.7536552355
 10
677.3905403022
 20
321.8092512178
 10
679.3882758969
 20
324.113201685
  0
ARC
  5
2BD
330
1F
100
AcDbEntity
  8
0
  6
Continuous
 62
     7
100
AcDbCircle
 10
651.92049822
 20
343.3425542218
 30
0.0
 40
26.704152573923
100
AcDbArc
 50
289.6559277789
 51
323.7233578967
  0
ARC
  5
2BE
330
1F
100
AcDbEntity
  8
0
  6
Continuous
 62
     7
100
AcDbCircle
 10
647.5498488758
 20
347.3590605358
 30
0.0
 40
32.43303106498519
100
AcDbArc
 50
301.8094345108
 51
322.1749216599
  0
LINE
  5
2BF
330
1F
100
AcDbEntity
  8
0
  6
Continuous
 62
     7
100
AcDbLine
 10
681.392268323
 20
330.3166414018
 30
0.0
 11
680.7416197637
 21
330.3117027806
 31
0.0
  0
LINE
  5
2C0
330
1F
100
AcDbEntity
  8
0
  6
Continuous
 62
     7
100
AcDbLine
 10
680.7416197637
 20
330.3117027806
 30
0.0
 11
680.5272338918
 21
330.5319085391
 31
0.0
  0
LINE
  5
2C1
330
1F
100
AcDbEntity
  8
0
  6
Continuous
 62
     7
100
AcDbLine
 10
680.5272338918
 20
330.5319085391
 30
0.0
 11
684.0627677187
 21
339.6443796614
 31
0.0
  0
LINE
  5
2C2
330
1F
100
AcDbEntity
  8
0
  6
Continuous
 62
     7
100
AcDbLine
 10
684.0627677187
 20
339.6443796614
 30
0.0
 11
684.3761782697
 21
339.6793988664
 31
0.0
  0
LINE
  5
2C3
330
1F
100
AcDbEntity
  8
0
  6
Continuous
 62
     7
100
AcDbLine
 10
684.3761782697
 20
339.6793988664
 30
0.0
 11
684.8675328151
 21
339.273773339
 31
0.0
  0
LINE
  5
2C4
330
1F
100
AcDbEntity
  8
0
  6
Continuous
 62
     7
100
AcDbLine
 10
684.8675328151
 20
339.273773339
 30
0.0
 11
685.2859140436
 21
338.9331287106
 31
0.0
  0
LINE
  5
2C5
330
1F
100
AcDbEntity
  8
0
  6
Continuous
 62
     7
100
AcDbLine
 10
681.9430486077
 20
330.3172388405
 30
0.0
 11
681.392268323
 21
330.3166414018
 31
0.0
  0
LINE
  5
2C6
330
1F
100
AcDbEntity
  8
0
  6
Continuous
 62
     7
100
AcDbLine
 10
680.5272338918
 20
330.5319085391
 30
0.0
 11
674.8703787151
 21
333.7975415216
 31
0.0
  0
LINE
  5
2C7
330
1F
100
AcDbEntity
  8
0
  6
Continuous
 62
     7
100
AcDbLine
 10
678.405912542
 20
342.9100126439
 30
0.0
 11
674.8703787151
 21
333.7975415216
 31
0.0
  0
LINE
  5
2C8
330
1F
100
AcDbEntity
  8
0
  6
Continuous
 62
     7
100
AcDbLine
 10
684.0627677187
 20
339.6443796614
 30
0.0
 11
678.405912542
 21
342.9100126439
 31
0.0
  0
ARC
  5
2C9
330
1F
100
AcDbEntity
  8
0
  6
Continuous
 62
     7
100
AcDbCircle
 10
679.8785037888
 20
346.1941199098
 30
0.0
 40
7.920378162083619
100
AcDbArc
 50
306.0078794221001
 51
352.5526335882
  0
SPLINE
  5
2CA
330
1F
100
AcDbEntity
  8
0
  6
Continuous
 62
     7
100
AcDbSpline
210
0.0
220
0.0
230
1.0
 70
     8
 71
     3
 72
     9
 73
     5
 74
     0
 42
0.00000001
 43
0.00000001
 12
1.0
 22
0.0
 32
0.0
 13
1.0
 23
0.0
 33
0.0
 40
0.0
 40
0.0
 40
0.0
 40
0.0
 40
0.6443296805800214
 40
1.0
 40
1.0
 40
1.0
 40
1.0
 10
688.8676309382632
 20
345.169938108925
 30
0.0
 10
688.6237383763382
 20
345.1694710644463
 30
0.0
 10
688.2452169931456
 20
345.1687462111721
 30
0.0
 10
687.866696797667
 20
345.1678396319135
 30
0.0
 10
687.7320683988343
 20
345.167517188579
 30
0.0
  0
ARC
  5
2CB
330
1F
100
AcDbEntity
  8
0
  6
Continuous
 62
     7
100
AcDbCircle
 10
673.9388011118
 20
349.6230372787
 30
0.0
 40
7.920378162084234
100
AcDbArc
 50
306.0078794221001
 51
352.5526335882
  0
LINE
  5
2CC
330
1F
100
AcDbEntity
  8
0
  6
Continuous
 62
     7
100
AcDbLine
 10
687.7320683988
 20
345.1675171886
 30
0.0
 11
681.7923657218
 21
348.5964345575
 31
0.0
  0
LINE
  5
2CD
330
1F
100
AcDbEntity
  8
0
  6
Continuous
 62
     7
100
AcDbLine
 10
684.3761782697
 20
339.6793988664
 30
0.0
 11
684.5348664227
 21
339.7870396658
 31
0.0
  0
SPLINE
  5
2CE
330
1F
100
AcDbEntity
  8
0
  6
Continuous
 62
     7
100
AcDbSpline
210
0.0
220
0.0
230
1.0
 70
     8
 71
     3
 72
     9
 73
     5
 74
     0
 42
0.00000001
 43
0.00000001
 12
1.0
 22
0.0
 32
0.0
 13
1.0
 23
0.0
 33
0.0
 40
0.0
 40
0.0
 40
0.0
 40
0.0
 40
0.3556610765106942
 40
1.0
 40
1.0
 40
1.0
 40
1.0
 10
681.7923657217547
 20
348.5964345574987
 30
0.0
 10
681.7929287551196
 20
348.6741518481049
 30
0.0
 10
681.7945118166415
 20
348.89266687755
 30
0.0
 10
681.7957570079525
 20
349.1111826440583
 30
0.0
 10
681.7965593331814
 20
349.2519808578157
 30
0.0
  0
LINE
  5
2CF
330
1F
100
AcDbEntity
  8
0
  6
Continuous
 62
     7
100
AcDbLine
 10
693.0657375899
 20
348.2465788729
 30
0.0
 11
692.3937798474
 21
348.6344918207
 31
0.0
  0
LINE
  5
2D0
330
1F
100
AcDbEntity
  8
0
  6
Continuous
 62
     7
100
AcDbLine
 10
693.0657375899
 20
348.2465788729
 30
0.0
 11
693.0657375899
 21
347.5934534929
 31
0.0
  0
LWPOLYLINE
  5
2D1
330
1F
100
AcDbEntity
  8
0
  6
Continuous
 62
     7
100
AcDbPolyline
 90
        3
 70
   128
 43
0.0
 10
685.9108740987
 20
347.545075384
 10
686.4461680508
 20
347.3385961218
 10
686.4981693593
 20
347.3267545974
  0
LWPOLYLINE
  5
2D2
330
1F
100
AcDbEntity
  8
0
  6
Continuous
 62
     7
100
AcDbPolyline
 90
        3
 70
   128
 43
0.0
 10
685.5326798903
 20
347.884119804
 10
685.5531922347
 20
347.8541000876
 10
685.9108740987
 20
347.545075384
  0
LINE
  5
2D3
330
1F
100
AcDbEntity
  8
0
  6
Continuous
 62
     7
100
AcDbLine
 10
682.4798888223
 20
349.6464585752
 30
0.0
 11
681.7965593332
 21
349.2519808578
 31
0.0
  0
LINE
  5
2D4
330
1F
100
AcDbEntity
  8
0
  6
Continuous
 62
     7
100
AcDbLine
 10
678.4364755926
 20
343.1083162353
 30
0.0
 11
678.405912542
 21
342.9100126439
 31
0.0
  0
LINE
  5
2D5
330
1F
100
AcDbEntity
  8
0
  6
Continuous
 62
     7
100
AcDbLine
 10
678.5951637456
 20
343.2159570347
 30
0.0
 11
678.4364755926
 21
343.1083162353
 31
0.0
  0
ARC
  5
2D6
330
1F
100
AcDbEntity
  8
0
  6
Continuous
 62
     7
100
AcDbCircle
 10
674.8393306503
 20
328.3793133732
 30
0.0
 40
6.23639413385052
100
AcDbArc
 50
316.8377206035
 51
16.8194283431
  0
ARC
  5
2D7
330
1F
100
AcDbEntity
  8
0
  6
Continuous
 62
     7
100
AcDbCircle
 10
668.8996279732
 20
331.8082307421
 30
0.0
 40
6.236394133850025
100
AcDbArc
 50
316.8377206035
 51
16.8194283431
  0
LINE
  5
2D8
330
1F
100
AcDbEntity
  8
0
  6
Continuous
 62
     7
100
AcDbLine
 10
674.8019170866
 20
333.7406201495
 30
0.0
 11
674.8405723321
 21
334.0988549907
 31
0.0
  0
LINE
  5
2D9
330
1F
100
AcDbEntity
  8
0
  6
Continuous
 62
     7
100
AcDbLine
 10
674.8405723321
 20
334.0988549907
 30
0.0
 11
674.8719770026
 21
334.3992815894
 31
0.0
  0
LINE
  5
2DA
330
1F
100
AcDbEntity
  8
0
  6
Continuous
 62
     7
100
AcDbLine
 10
678.2148424385
 20
343.0151714595
 30
0.0
 11
678.3158368242
 21
343.0559869278
 31
0.0
  0
LINE
  5
2DB
330
1F
100
AcDbEntity
  8
0
  6
Continuous
 62
     7
100
AcDbLine
 10
678.3158368242
 20
343.0559869278
 30
0.0
 11
678.4364755926
 21
343.1083162353
 31
0.0
  0
LINE
  5
2DC
330
1F
100
AcDbEntity
  8
0
  6
Continuous
 62
     7
100
AcDbLine
 10
674.8703787151
 20
333.7975415216
 30
0.0
 11
674.8019170866
 21
333.7406201495
 31
0.0
  0
LINE
  5
2DD
330
1F
100
AcDbEntity
  8
0
  6
Continuous
 62
     7
100
AcDbLine
 10
674.8719770026
 20
334.3992815894
 30
0.0
 11
678.2148424385
 21
343.0151714595
 31
0.0
  0
LINE
  5
2DE
330
1F
100
AcDbEntity
  8
0
  6
Continuous
 62
     7
100
AcDbLine
 10
680.8089407931
 20
330.1838539063
 30
0.0
 11
680.7416197637
 21
330.3117027806
 31
0.0
  0
LINE
  5
2DF
330
1F
100
AcDbEntity
  8
0
  6
Continuous
 62
     7
100
AcDbLine
 10
674.8019170866
 20
333.7406201495
 30
0.0
 11
674.869238116
 21
333.6127712753
 31
0.0
  0
ARC
  5
2E0
330
1F
100
AcDbEntity
  8
0
  6
Continuous
 62
     7
100
AcDbCircle
 10
672.6529624467
 20
350.3561562967
 30
0.0
 40
9.21002537578604
100
AcDbArc
 50
307.1493041254
 51
353.1143366701
  0
ARC
  5
2E1
330
1F
100
AcDbEntity
  8
0
  6
Continuous
 62
     7
100
AcDbCircle
 10
666.2580892198
 20
333.184717326
 30
0.0
 40
8.967456841742047
100
AcDbArc
 50
320.4063577207
 51
354.8960466729
  0
LINE
  5
2E2
330
1F
100
AcDbEntity
  8
0
  6
Continuous
 62
     7
100
AcDbLine
 10
693.0657375899
 20
291.7011263662
 30
0.0
 11
648.6594334088
 21
266.0659126233
 31
0.0
  0
LINE
  5
2E3
330
1F
100
AcDbEntity
  8
0
  6
Continuous
 62
     7
100
AcDbLine
 10
693.0657375899
 20
291.701232526
 30
0.0
 11
693.0657375899
 21
291.7011263662
 31
0.0
  0
LWPOLYLINE
  5
2E4
330
1F
100
AcDbEntity
  8
0
  6
Continuous
 62
     7
100
AcDbPolyline
 90
       29
 70
   128
 43
0.0
 10
693.0541801338
 20
349.0157277903
 10
692.8462657788
 20
351.6289008374
 10
692.3800887071
 20
354.0501785772
 10
691.6612702544
 20
356.2503640306
 10
690.6984781838
 20
358.2029291572
 10
689.5033226347
 20
359.8843274156
 10
688.0902138782
 20
361.2742842733
 10
686.4761937291
 20
362.3560413316
 10
684.6807221774
 20
363.1165540652
 10
682.7254495326
 20
363.5466507813
 10
680.633953005
 20
363.641143671
 10
678.4314528737
 20
363.3988961374
 10
676.1445072508
 20
362.8228290979
 10
673.8006921938
 20
361.9198914514
 10
671.4282699634
 20
360.7009628649
 10
669.0558477329
 20
359.1807510484
 10
666.7120326759
 20
357.3775774313
 10
664.4250870531
 20
355.3131932582
 10
662.2225869218
 20
353.0124882684
 10
660.1310903942
 20
350.5032048883
 10
658.1758177493
 20
347.8155984289
 10
656.3803461977
 20
344.9820783669
 10
654.7663260485
 20
342.0368133103
 10
653.353217292
 20
339.0153158106
 10
652.158061743
 20
335.9540203273
 10
651.1952696723
 20
332.8898391373
 10
650.4764512197
 20
329.859723564
 10
650.0102741479
 20
326.9002092338
 10
649.802359793
 20
324.0469833822
  0
LINE
  5
2E5
330
1F
100
AcDbEntity
  8
0
  6
Continuous
 62
     7
100
AcDbLine
 10
649.802359793
 20
324.0469833822
 30
0.0
 11
648.6706945199
 21
324.0468123059
 31
0.0
  0
LWPOLYLINE
  5
2E6
330
1F
100
AcDbEntity
  8
0
  6
Continuous
 62
     7
100
AcDbPolyline
 90
       30
 70
   128
 43
0.0
 10
648.6706945199
 20
324.0468123059
 10
648.8704745331
 20
326.8722759415
 10
649.3177500604
 20
329.800927138
 10
650.0074898217
 20
332.799808666
 10
650.9319282603
 20
335.8351688694
 10
652.080664324
 20
338.872850252
 10
653.4407694673
 20
341.8786666571
 10
654.9969377985
 20
344.8187903293
 10
656.7316559851
 20
347.6601359319
 10
658.6254021337
 20
350.3707232693
 10
660.6568631097
 20
352.920050654
 10
662.8031781992
 20
355.2794302476
 10
665.0401926482
 20
357.4223032489
 10
667.3427319465
 20
359.3245609739
 10
669.6848831085
 20
360.9647924072
 10
672.0402878903
 20
362.3245386447
 10
674.3824390523
 20
363.3884973828
 10
676.6849783505
 20
364.1446949447
 10
678.9219927995
 20
364.5846238497
 10
681.068307889
 20
364.703326911
 10
683.0997688651
 20
364.4994744445
 10
684.9935150137
 20
363.9753598697
 10
686.7282332002
 20
363.1368772533
 10
688.2844015315
 20
361.9934672922
 10
689.6445066747
 20
360.5579948598
 10
690.7932427385
 20
358.8466159053
 10
691.717681177
 20
356.8785896041
 10
692.4074209383
 20
354.6760646536
 10
692.8546964656
 20
352.2638267888
 10
693.0544764788
 20
349.6690242467
  0
LINE
  5
2E7
330
1F
100
AcDbEntity
  8
0
  6
Continuous
 62
     7
100
AcDbLine
 10
693.0544764788
 20
349.6690242467
 30
0.0
 11
693.0541801338
 21
349.0157277903
 31
0.0
  0
LINE
  5
2E8
330
1F
100
AcDbEntity
  8
0
  6
Continuous
 62
     7
100
AcDbLine
 10
642.7309918428
 20
327.4757296748
 30
0.0
 11
648.6706945199
 21
324.0468123059
 31
0.0
  0
LWPOLYLINE
  5
2E9
330
1F
100
AcDbEntity
  8
0
  6
Continuous
 62
     7
100
AcDbPolyline
 90
       23
 70
   128
 43
0.0
 10
680.6216066126
 20
366.6642286321
 10
679.0538123366
 20
367.4042772387
 10
677.160066188
 20
367.9283918134
 10
675.1286052119
 20
368.13224428
 10
672.9822901224
 20
368.0135412187
 10
670.7452756734
 20
367.5736123137
 10
668.4427363752
 20
366.8174147517
 10
666.1005852132
 20
365.7534560136
 10
663.7451804314
 20
364.3937097761
 10
661.4030292694
 20
362.7534783428
 10
659.1004899711
 20
360.8512206179
 10
656.8634755222
 20
358.7083476165
 10
654.7171604326
 20
356.348968023
 10
652.6856994566
 20
353.7996406382
 10
650.791953308
 20
351.0890533008
 10
649.0572351214
 20
348.2477076982
 10
647.5010667902
 20
345.307584026
 10
646.140961647
 20
342.3017676209
 10
644.9922255832
 20
339.2640862384
 10
644.0677871447
 20
336.2287260349
 10
643.3780473833
 20
333.2298445069
 10
642.9307718561
 20
330.3011933105
 10
642.7309918428
 20
327.4757296748
  0
ARC
  5
2EA
330
1F
100
AcDbEntity
  8
0
  6
Continuous
 62
     7
100
AcDbCircle
 10
688.8435031083
 20
324.1881060631
 30
0.0
 40
45.812992312672
100
AcDbArc
 50
158.4498428417
 51
169.6673093584
  0
LINE
  5
2EB
330
1F
100
AcDbEntity
  8
0
  6
Continuous
 62
     7
100
AcDbLine
 10
648.7232134444
 20
329.5478589364
 30
0.0
 11
643.7734664819
 21
332.4052870358
 31
0.0
  0
ARC
  5
2EC
330
1F
100
AcDbEntity
  8
0
  6
Continuous
 62
     7
100
AcDbCircle
 10
693.7932500708
 20
321.3306779637
 30
0.0
 40
45.81299231265434
100
AcDbArc
 50
158.4498428417
 51
169.6673093584
  0
SPLINE
  5
2ED
330
1F
100
AcDbEntity
  8
0
  6
Continuous
 62
     7
100
AcDbSpline
210
0.0
220
0.0
230
1.0
 70
     8
 71
     3
 72
    18
 73
    14
 74
     0
 42
0.00000001
 43
0.00000001
 12
1.0
 22
0.0
 32
0.0
 13
1.0
 23
0.0
 33
0.0
 40
0.0
 40
0.0
 40
0.0
 40
0.0
 40
0.0421488028093706
 40
0.1731915245287342
 40
0.3051027620503691
 40
0.3788915833508165
 40
0.4407902386665192
 40
0.5001190066768573
 40
0.5578613547810106
 40
0.6153186361595231
 40
0.6971409800270383
 40
0.8216289624400188
 40
1.0
 40
1.0
 40
1.0
 40
1.0
 10
651.1827520582951
 20
338.1585038412676
 30
0.0
 10
651.2576903321085
 20
338.3550292505842
 30
0.0
 10
651.5656154218434
 20
339.1625619200669
 30
0.0
 10
652.0217014395851
 20
340.649976563457
 30
0.0
 10
652.2727003692222
 20
342.3692246757609
 30
0.0
 10
652.1278665488112
 20
343.6747124207342
 30
0.0
 10
651.7764356517085
 20
344.5037550980244
 30
0.0
 10
651.2166005588596
 20
345.0424057686718
 30
0.0
 10
650.5029817331737
 20
345.2501071115764
 30
0.0
 10
649.6434129110766
 20
345.1372036098358
 30
0.0
 10
648.5555242332916
 20
344.560937958534
 30
0.0
 10
647.2382650336347
 20
343.1999672397678
 30
0.0
 10
646.6056112023962
 20
341.8254587694116
 30
0.0
 10
646.2330050957514
 20
341.0159319406768
 30
0.0
  0
LWPOLYLINE
  5
2EE
330
1F
100
AcDbEntity
  8
0
  6
Continuous
 62
     7
100
AcDbPolyline
 90
        9
 70
   128
 43
0.0
 10
662.7740362877
 20
348.2373622726
 10
663.46319192
 20
348.9963502197
 10
664.1980795172
 20
349.6293662396
 10
664.9536737293
 20
350.1148516564
 10
665.7042471981
 20
350.436276801
 10
666.4242408234
 20
350.5826981591
 10
667.0891376517
 20
350.5491274934
 10
667.6762975814
 20
350.3367095238
 10
668.1657268719
 20
349.9526779383
  0
ARC
  5
2EF
330
1F
100
AcDbEntity
  8
0
  6
Continuous
 62
     7
100
AcDbCircle
 10
692.3468409557
 20
323.6263399043
 30
0.0
 40
38.47405876619487
100
AcDbArc
 50
140.2321610691
 51
175.7807796748
  0
LINE
  5
2F0
330
1F
100
AcDbEntity
  8
0
  6
Continuous
 62
     7
100
AcDbLine
 10
653.9770525532
 20
326.4569822144
 30
0.0
 11
649.802359793
 21
324.0469833822
 31
0.0
  0
LINE
  5
2F1
330
1F
100
AcDbEntity
  8
0
  6
Continuous
 62
     7
100
AcDbLine
 10
693.0541801338
 20
349.0157277903
 30
0.0
 11
688.8794873736
 21
346.6057289581
 31
0.0
  0
LWPOLYLINE
  5
2F2
330
1F
100
AcDbEntity
  8
0
  6
Continuous
 62
     7
100
AcDbPolyline
 90
        9
 70
   128
 43
0.0
 10
680.0825036391
 20
358.2293277896
 10
681.9271276357
 20
357.8935799195
 10
683.6040084923
 20
357.2034743634
 10
685.0863526671
 20
356.1700380659
 10
686.3504788996
 20
354.8097828985
 10
687.3761883125
 20
353.144441744
 10
688.1470923674
 20
351.2006224554
 10
688.6508749647
 20
349.0093812115
 10
688.8794873736
 20
346.6057289581
  0
LWPOLYLINE
  5
2F3
330
1F
100
AcDbEntity
  8
0
  6
Continuous
 62
     7
100
AcDbPolyline
 90
        9
 70
   128
 43
0.0
 10
674.6908130548
 20
353.719530012
 10
675.1802423454
 20
354.6686446282
 10
675.767402275
 20
355.5589830226
 10
676.4322991033
 20
356.3602272259
 10
677.1522927286
 20
357.0450928132
 10
677.9028661974
 20
357.5902613497
 10
678.6584604096
 20
357.9771664409
 10
679.3933480067
 20
358.1926335802
 10
680.0825036391
 20
358.2293277896
  0
LINE
  5
2F4
330
1F
100
AcDbEntity
  8
0
  6
Continuous
 62
     7
100
AcDbLine
 10
674.6693267232
 20
353.6716916879
 30
0.0
 11
674.6908130548
 21
353.719530012
 31
0.0
  0
LINE
  5
2F5
330
1F
100
AcDbEntity
  8
0
  6
Continuous
 62
     7
100
AcDbLine
 10
668.1872132036
 20
349.9296472047
 30
0.0
 11
674.6693267232
 21
353.6716916879
 31
0.0
  0
LINE
  5
2F6
330
1F
100
AcDbEntity
  8
0
  6
Continuous
 62
     7
100
AcDbLine
 10
668.1657268719
 20
349.9526779383
 30
0.0
 11
668.1872132036
 21
349.9296472047
 31
0.0
  0
LWPOLYLINE
  5
2F7
330
1F
100
AcDbEntity
  8
0
  6
Continuous
 62
     7
100
AcDbPolyline
 90
       15
 70
   128
 43
0.0
 10
642.7312881879
 20
328.1290261311
 10
642.9392025428
 20
330.9822519827
 10
643.4053796146
 20
333.9417663129
 10
644.1241980672
 20
336.9718818862
 10
645.0869901379
 20
340.0360630762
 10
646.2821456869
 20
343.0973585595
 10
647.6952544434
 20
346.1188560592
 10
649.3092745926
 20
349.0641211158
 10
651.1047461442
 20
351.8976411778
 10
653.0600187891
 20
354.5852476371
 10
655.1515153167
 20
357.0945310173
 10
657.354015448
 20
359.3952360071
 10
659.6409610708
 20
361.4596201802
 10
661.9847761279
 20
363.2627937973
 10
664.3536816612
 20
364.7809754678
  0
LINE
  5
2F8
330
1F
100
AcDbEntity
  8
0
  6
Continuous
 62
     7
100
AcDbLine
 10
642.7309918428
 20
327.4757296748
 30
0.0
 11
642.7312881879
 21
328.1290261311
 31
0.0
  0
ARC
  5
2F9
330
1F
100
AcDbEntity
  8
0
  6
Continuous
 62
     7
100
AcDbCircle
 10
648.7250711337
 20
328.9282601231
 30
0.0
 40
5.494534418189
100
AcDbArc
 50
78.11191347059999
 51
116.9719108795
  0
LINE
  5
2FA
330
1F
100
AcDbEntity
  8
0
  6
Continuous
 62
     7
100
AcDbLine
 10
646.2330050958
 20
333.825148455
 30
0.0
 11
643.7734664819
 21
332.4052870358
 31
0.0
  0
LWPOLYLINE
  5
2FB
330
1F
100
AcDbEntity
  8
0
  6
Continuous
 62
     7
100
AcDbPolyline
 90
       12
 70
   128
 43
0.0
 10
649.6468906055
 20
333.576810233
 10
649.5689083991
 20
333.5964634833
 10
648.7078733087
 20
333.6953342048
 10
647.8468421695
 20
333.5964581609
 10
647.1168877293
 20
333.3148938717
 10
646.6291512274
 20
332.8935001429
 10
646.4578743376
 20
332.3964374466
 10
646.6291420078
 20
331.8993724693
 10
647.1168877293
 20
331.4779749388
 10
647.8468382183
 20
331.1964114099
 10
648.7078733087
 20
331.0975406884
 10
649.032829462
 20
331.1111560843
  0
ARC
  5
2FC
330
1F
100
AcDbEntity
  8
0
  6
Continuous
 62
     7
100
AcDbCircle
 10
665.6804160606
 20
347.9762719291
 30
0.0
 40
2.208812623934927
100
AcDbArc
 50
48.75440054989999
 51
121.9291529031
  0
LINE
  5
2FD
330
1F
100
AcDbEntity
  8
0
  6
Continuous
 62
     7
100
AcDbLine
 10
667.3270516725
 20
349.4329788416
 30
0.0
 11
668.1872132036
 21
349.9296472047
 31
0.0
  0
LINE
  5
2FE
330
1F
100
AcDbEntity
  8
0
  6
Continuous
 62
     7
100
AcDbLine
 10
667.3270516725
 20
349.4329788416
 30
0.0
 11
667.1366598698
 21
349.6370570375
 31
0.0
  0
LINE
  5
2FF
330
1F
100
AcDbEntity
  8
0
  6
Continuous
 62
     7
100
AcDbLine
 10
674.3981193263
 20
353.5150193094
 30
0.0
 11
667.3270516725
 21
349.4329788416
 31
0.0
  0
LINE
  5
300
330
1F
100
AcDbEntity
  8
0
  6
Continuous
 62
     7
100
AcDbLine
 10
674.6693267232
 20
353.6716916879
 30
0.0
 11
674.3981193263
 21
353.5150193094
 31
0.0
  0
LINE
  5
301
330
1F
100
AcDbEntity
  8
0
  6
Continuous
 62
     7
100
AcDbLine
 10
667.3270516725
 20
349.4329788416
 30
0.0
 11
666.0387805642
 21
350.1766819222
 31
0.0
  0
ARC
  5
302
330
1F
100
AcDbEntity
  8
0
  6
Continuous
 62
     7
100
AcDbCircle
 10
679.1233033531
 20
354.8508757216
 30
0.0
 40
2.977953431130993
100
AcDbArc
 50
87.82118365979998
 51
117.3237041935
  0
LWPOLYLINE
  5
303
330
1F
100
AcDbEntity
  8
0
  6
Continuous
 62
     7
100
AcDbPolyline
 90
        9
 70
   128
 43
0.0
 10
687.7476377081
 20
346.6054514343
 10
687.5240289204
 20
348.9262561094
 10
687.0349265972
 20
351.0417447463
 10
686.2881252714
 20
352.9182106168
 10
685.2955248421
 20
354.525750443
 10
684.0729422314
 20
355.8387495901
 10
682.6398585029
 20
356.8362881773
 10
681.0191093459
 20
357.5024688666
 10
679.236520242
 20
357.8266762146
  0
LINE
  5
304
330
1F
100
AcDbEntity
  8
0
  6
Continuous
 62
     7
100
AcDbLine
 10
688.8794873736
 20
346.6057289581
 30
0.0
 11
687.7476377081
 21
346.6054514343
 31
0.0
  0
ARC
  5
305
330
1F
100
AcDbEntity
  8
0
  6
Continuous
 62
     7
100
AcDbCircle
 10
667.8226733651
 20
350.0591898182
 30
0.0
 40
13.98528369205631
100
AcDbArc
 50
359.8983116696999
 51
33.6324128957
  0
LINE
  5
306
330
1F
100
AcDbEntity
  8
0
  6
Continuous
 62
     7
100
AcDbLine
 10
687.7476377081
 20
346.6054514343
 30
0.0
 11
681.807935031
 21
350.0343688032
 31
0.0
  0
LINE
  5
307
330
1F
100
AcDbEntity
  8
0
  6
Continuous
 62
     7
100
AcDbLine
 10
647.1037958645
 20
262.0651154883
 30
0.0
 11
591.1916075058
 21
277.1163239939
 31
0.0
  0
LINE
  5
308
330
1F
100
AcDbEntity
  8
0
  6
Continuous
 62
     7
100
AcDbLine
 10
592.9388867704
 20
281.0064887188
 30
0.0
 11
591.1916075058
 21
277.1163239939
 31
0.0
  0
LINE
  5
309
330
1F
100
AcDbEntity
  8
0
  6
Continuous
 62
     7
100
AcDbLine
 10
592.9388867704
 20
281.0064887188
 30
0.0
 11
649.361258779
 21
265.8179424055
 31
0.0
  0
LINE
  5
30A
330
1F
100
AcDbEntity
  8
0
  6
Continuous
 62
     7
100
AcDbLine
 10
649.361258779
 20
265.8179424055
 30
0.0
 11
647.1037958645
 21
262.0651154883
 31
0.0
  0
LINE
  5
30B
330
1F
100
AcDbEntity
  8
0
  6
Continuous
 62
     7
100
AcDbLine
 10
591.1916075058
 20
271.4005388947
 30
0.0
 11
647.1037958645
 21
256.3493303891
 31
0.0
  0
LINE
  5
30C
330
1F
100
AcDbEntity
  8
0
  6
Continuous
 62
     7
100
AcDbLine
 10
591.1916075058
 20
271.4005388947
 30
0.0
 11
591.1916075058
 21
277.1163239939
 31
0.0
  0
LINE
  5
30D
330
1F
100
AcDbEntity
  8
0
  6
Continuous
 62
     7
100
AcDbLine
 10
647.1037958645
 20
256.3493303891
 30
0.0
 11
647.1037958645
 21
262.0651154883
 31
0.0
  0
LINE
  5
30E
330
1F
100
AcDbEntity
  8
0
  6
Continuous
 62
     7
100
AcDbLine
 10
535.8758997865
 20
314.6013752994
 30
0.0
 11
535.3102153225
 21
314.2748126094
 31
0.0
  0
LINE
  5
30F
330
1F
100
AcDbEntity
  8
0
  6
Continuous
 62
     7
100
AcDbLine
 10
667.1850964769
 20
323.8679132512
 30
0.0
 11
654.5508674077
 21
331.1614984446
 31
0.0
  0
LINE
  5
310
330
1F
100
AcDbEntity
  8
0
  6
Continuous
 62
     7
100
AcDbLine
 10
644.1742527182
 20
337.1517905979
 30
0.0
 11
616.0618075603
 21
353.3807597442
 31
0.0
  0
LINE
  5
311
330
1F
100
AcDbEntity
  8
0
  6
Continuous
 62
     7
100
AcDbLine
 10
693.4952811478
 20
291.295971204
 30
0.0
 11
693.0657375899
 21
291.8277441499
 31
0.0
  0
LINE
  5
312
330
1F
100
AcDbEntity
  8
0
  6
Continuous
 62
     7
100
AcDbLine
 10
668.3300419584
 20
322.4504735128
 30
0.0
 11
667.1850964769
 21
323.8679132512
 31
0.0
  0
LINE
  5
313
330
1F
100
AcDbEntity
  8
0
  6
Continuous
 62
     7
100
AcDbLine
 10
693.4952811478
 20
291.295971204
 30
0.0
 11
649.361258779
 21
265.8179424055
 31
0.0
  0
LINE
  5
314
330
1F
100
AcDbEntity
  8
0
  6
Continuous
 62
     7
100
AcDbLine
 10
535.3102153225
 20
314.2748126094
 30
0.0
 11
592.9388867704
 21
281.0064887188
 31
0.0
  0
LWPOLYLINE
  5
315
330
1F
100
AcDbEntity
  8
0
  6
Continuous
 62
     7
100
AcDbPolyline
 90
       22
 70
   128
 43
0.0
 10
624.7592213409
 20
329.9906679165
 10
625.4672567857
 20
330.5444899419
 10
625.861059816
 20
331.194186952
 10
625.9056432792
 20
331.8820279039
 10
625.5970440544
 20
332.5468959641
 10
624.9626813008
 20
333.1297142892
 10
624.058923794
 20
333.5786992107
 10
622.966069183
 20
333.8539526837
 10
621.7812317093
 20
333.9310206756
 10
620.6096783954
 20
333.80305405
 10
619.5555132743
 20
333.4814221604
 10
618.7124037654
 20
332.994705401
 10
618.1552606236
 20
332.38614883
 10
617.9335932252
 20
331.7098262582
 10
618.0670907336
 20
331.0258326231
 10
618.5438980308
 20
330.3949426058
 10
619.3216456802
 20
329.8732137421
 10
620.3312260211
 20
329.5070039194
 10
621.4829360719
 20
329.3288533789
 10
622.6744406502
 20
329.3545908644
 10
623.7998695067
 20
329.5819277545
 10
624.7592213409
 20
329.9906679165
  0
LWPOLYLINE
  5
316
330
1F
100
AcDbEntity
  8
0
  6
Continuous
 62
     7
100
AcDbPolyline
 90
       22
 70
   128
 43
0.0
 10
582.332815418
 20
305.4984251093
 10
583.0408508628
 20
306.0522471347
 10
583.4346525761
 20
306.7019433844
 10
583.4792360392
 20
307.3897843363
 10
583.1706368144
 20
308.0546523965
 10
582.5362740608
 20
308.6374707217
 10
581.6325152369
 20
309.0864548828
 10
580.5396632601
 20
309.3617098765
 10
579.3548231522
 20
309.4387763477
 10
578.1832711554
 20
309.3108104824
 10
577.1291060343
 20
308.9891785928
 10
576.2859965254
 20
308.5024618334
 10
575.7288533837
 20
307.8939052624
 10
575.5071846681
 20
307.2175819303
 10
575.6406848108
 20
306.5335898159
 10
576.1174894738
 20
305.9026982779
 10
576.8952384402
 20
305.3809701745
 10
577.9048187811
 20
305.0147603518
 10
579.0565288319
 20
304.8366098114
 10
580.2480334102
 20
304.8623472968
 10
581.3734635838
 20
305.0896849472
 10
582.332815418
 20
305.4984251093
  0
LWPOLYLINE
  5
317
330
1F
100
AcDbEntity
  8
0
  6
Continuous
 62
     7
100
AcDbPolyline
 90
       22
 70
   128
 43
0.0
 10
624.759223975
 20
281.0061807813
 10
625.4672567857
 20
281.5600043274
 10
625.8610584989
 20
282.2097005771
 10
625.9056419621
 20
282.8975415291
 10
625.5970453715
 20
283.5624080686
 10
624.9626799837
 20
284.1452279144
 10
624.058923794
 20
284.5942105548
 10
622.966069183
 20
284.8694670692
 10
621.7812317093
 20
284.9465320198
 10
620.6096797125
 20
284.8185661545
 10
619.5555119572
 20
284.4969357856
 10
618.7124024483
 20
284.0102190261
 10
618.1552619407
 20
283.4016609345
 10
617.9335932252
 20
282.7253376024
 10
618.0670907336
 20
282.0413470087
 10
618.5438980308
 20
281.41045395
 10
619.3216443631
 20
280.8887273673
 10
620.3312273382
 20
280.5225160239
 10
621.4829347548
 20
280.3443670041
 10
622.6744393331
 20
280.3701044896
 10
623.7998695067
 20
280.59744214
 10
624.759223975
 20
281.0061807813
  0
LWPOLYLINE
  5
318
330
1F
100
AcDbEntity
  8
0
  6
Continuous
 62
     7
100
AcDbPolyline
 90
       17
 70
   128
 43
0.0
 10
585.1612416892
 20
328.3578521855
 10
585.8100887589
 20
328.6081324804
 10
586.5754556481
 20
328.696019269
 10
587.3408226607
 20
328.6081324092
 10
587.989669113
 20
328.3578520905
 10
588.4232143165
 20
327.9832810066
 10
588.5754553188
 20
327.5414440349
 10
588.42321444
 20
327.0996071346
 10
587.9896692776
 20
326.7250356943
 10
587.3408222079
 20
326.4747553994
 10
586.5754553188
 20
326.3868686108
 10
585.8100883062
 20
326.4747554706
 10
585.1612418539
 20
326.7250357893
 10
584.7276966503
 20
327.0996068732
 10
584.575455648
 20
327.5414438449
 10
584.7276965268
 20
327.9832807452
 10
585.1612416892
 20
328.3578521855
  0
LWPOLYLINE
  5
319
330
1F
100
AcDbEntity
  8
0
  6
Continuous
 62
     7
100
AcDbPolyline
 90
       17
 70
   128
 43
0.0
 10
620.5165839096
 20
307.9476475652
 10
621.1654283451
 20
308.1979293807
 10
621.9307926
 20
308.28581769
 10
622.6961609298
 20
308.1979300698
 10
623.3450086991
 20
307.9476489908
 10
623.7785552198
 20
307.5730771465
 10
623.9307922708
 20
307.1312424559
 10
623.7785540262
 20
306.6894040349
 10
623.3450062296
 20
306.3148341152
 10
622.6961617941
 20
306.0645522997
 10
621.9307922708
 20
305.9766670317
 10
621.1654292094
 20
306.0645516106
 10
620.51658144
 20
306.3148326896
 10
620.0830349194
 20
306.6894045339
 10
619.9307926
 20
307.1312422658
 10
620.083036113
 20
307.5730776455
 10
620.5165839096
 20
307.9476475652
  0
LWPOLYLINE
  5
31A
330
1F
100
AcDbEntity
  8
0
  6
Continuous
 62
     7
100
AcDbPolyline
 90
       20
 70
   128
 43
0.0
 10
606.7280000749
 20
315.90762758
 10
607.3974947786
 20
316.4489419764
 10
607.726247194
 20
317.0864205714
 10
607.6786329444
 20
317.7509821198
 10
607.2598141131
 20
318.3706098013
 10
606.51517199
 20
318.8781593824
 10
605.5254033021
 20
319.2186286783
 10
604.39776223
 20
319.3551235547
 10
603.2544491979
 20
319.2728513729
 10
602.2193556492
 20
318.9807298437
 10
601.4046540217
 20
318.5104126051
 10
600.8986298623
 20
317.9128658186
 10
600.7561148216
 20
317.2528452541
 10
600.9925565015
 20
316.6018719195
 10
601.5823305236
 20
316.0304906182
 10
602.4615274483
 20
315.6006178706
 10
603.5348703733
 20
315.3588389057
 10
604.6860494726
 20
315.3313517845
 10
605.7903144373
 20
315.5211365142
 10
606.7280000749
 20
315.90762758
  0
LINE
  5
31B
330
1F
100
AcDbEntity
  8
0
  6
Continuous
 62
     7
100
AcDbLine
 10
642.0833370268
 20
295.497426001
 30
0.0
 11
642.7197317196
 21
296.0006784295
 31
0.0
  0
LWPOLYLINE
  5
31C
330
1F
100
AcDbEntity
  8
0
  6
Continuous
 62
     7
100
AcDbPolyline
 90
       18
 70
   128
 43
0.0
 10
642.7197350123
 20
297.8516016719
 10
642.6151536993
 20
297.9604067016
 10
641.8705142104
 20
298.467954762
 10
640.8807428883
 20
298.8084255786
 10
639.7531018161
 20
298.944920455
 10
638.6097887841
 20
298.8626482732
 10
637.5746952353
 20
298.570526744
 10
636.7599936079
 20
298.1002095054
 10
636.2539694485
 20
297.5026627189
 10
636.1114544077
 20
296.8426421544
 10
636.3478960876
 20
296.1916688198
 10
636.9376727439
 20
295.6202859978
 10
637.8168670345
 20
295.1904147709
 10
638.8902125937
 20
294.9486342853
 10
640.0413864246
 20
294.9211502055
 10
641.1456513893
 20
295.1109349352
 10
642.0833370268
 20
295.497426001
 10
642.0833370268
 20
295.497426001
  0
LINE
  5
31D
330
1F
100
AcDbEntity
  8
0
  6
Continuous
 62
     7
100
AcDbLine
 10
642.0833383439
 20
315.9076283403
 30
0.0
 11
642.7197333659
 21
316.410880959
 31
0.0
  0
LWPOLYLINE
  5
31E
330
1F
100
AcDbEntity
  8
0
  6
Continuous
 62
     7
100
AcDbPolyline
 90
       18
 70
   128
 43
0.0
 10
642.7197360001
 20
318.2618038211
 10
642.615155181
 20
318.370609136
 10
641.8705099298
 20
318.8781599527
 10
640.8807438761
 20
319.2186277279
 10
639.75310231
 20
319.3551223192
 10
638.6097900188
 20
319.272850565
 10
637.5746963466
 20
318.9807289645
 10
636.7599951307
 20
318.5104119636
 10
636.2539708479
 20
317.9128651058
 10
636.1114552309
 20
317.2528442086
 10
636.347897734
 20
316.6018713492
 10
636.9376691219
 20
316.0304915686
 10
637.8168681869
 20
315.6006170152
 10
638.8902088071
 20
315.3588397611
 10
640.0413880709
 20
315.3313527349
 10
641.1456526241
 20
315.521137227
 10
642.0833383439
 20
315.9076283403
 10
642.0833383439
 20
315.9076283403
  0
LWPOLYLINE
  5
31F
330
1F
100
AcDbEntity
  8
0
  6
Continuous
 62
     7
100
AcDbPolyline
 90
       20
 70
   128
 43
0.0
 10
606.7279987578
 20
295.4974252406
 10
607.3974935438
 20
296.0387396845
 10
607.7262455477
 20
296.6762180419
 10
607.6786314626
 20
297.3407796854
 10
607.2598155948
 20
297.9604060363
 10
606.5151703437
 20
298.467956853
 10
605.52540429
 20
298.8084246282
 10
604.397764041
 20
298.9449199798
 10
603.2544504327
 20
298.8626474653
 10
602.2193567605
 20
298.5705258648
 10
601.4046555446
 20
298.1002088639
 10
600.8986312617
 20
297.5026620061
 10
600.7561169619
 20
296.8426418693
 10
600.9925581478
 20
296.1916682495
 10
601.5823295357
 20
295.6202884689
 10
602.4615286008
 20
295.1904139155
 10
603.5348692209
 20
294.9486366614
 10
604.6860484848
 20
294.9211496352
 10
605.7903130379
 20
295.1109341273
 10
606.7279987578
 20
295.4974252406
  0
LINE
  5
320
330
1F
100
AcDbEntity
  8
0
  6
Continuous
 62
     7
100
AcDbLine
 10
695.7527440623
 20
290.1495554887
 30
0.0
 11
693.4952811478
 21
291.295971204
 31
0.0
  0
LINE
  5
321
330
1F
100
AcDbEntity
  8
0
  6
Continuous
 62
     7
100
AcDbLine
 10
695.7527440623
 20
284.4337703896
 30
0.0
 11
695.7527440623
 21
290.1495554887
 31
0.0
  0
LINE
  5
322
330
1F
100
AcDbEntity
  8
0
  6
Continuous
 62
     7
100
AcDbLine
 10
647.1037958645
 20
256.3493303891
 30
0.0
 11
695.7527440623
 21
284.4337703896
 31
0.0
  0
ARC
  5
323
330
1F
100
AcDbEntity
  8
0
  6
Continuous
 62
     7
100
AcDbCircle
 10
621.9307966249
 20
275.0861234316
 30
0.0
 40
6.208093199654879
100
AcDbArc
 50
67.0254261862
 51
112.974591792
  0
LINE
  5
324
330
1F
100
AcDbEntity
  8
0
  6
Continuous
 62
     7
100
AcDbLine
 10
591.1916075058
 20
277.1163239939
 30
0.0
 11
533.1888933142
 21
310.6005781643
 31
0.0
  0
LINE
  5
325
330
1F
100
AcDbEntity
  8
0
  6
Continuous
 62
     7
100
AcDbLine
 10
533.1888933142
 20
310.6005781643
 30
0.0
 11
535.3102153225
 21
314.2748126094
 31
0.0
  0
LINE
  5
326
330
1F
100
AcDbEntity
  8
0
  6
Continuous
 62
     7
100
AcDbLine
 10
533.1888933142
 20
310.6005781643
 30
0.0
 11
533.1888933142
 21
304.8847930652
 31
0.0
  0
LINE
  5
327
330
1F
100
AcDbEntity
  8
0
  6
Continuous
 62
     7
100
AcDbLine
 10
591.1916075058
 20
271.4005388947
 30
0.0
 11
533.1888933142
 21
304.8847930652
 31
0.0
  0
LINE
  5
328
330
1F
100
AcDbEntity
  8
0
  6
Continuous
 62
     7
100
AcDbLine
 10
693.0657402241
 20
293.476061236
 30
0.0
 11
695.7527440623
 21
290.1495554887
 31
0.0
  0
LINE
  5
329
330
1F
100
AcDbEntity
  8
0
  6
Continuous
 62
     7
100
AcDbLine
 10
668.8540194817
 20
322.9042012966
 30
0.0
 11
667.1850964769
 21
323.8679132512
 31
0.0
  0
ARC
  5
32A
330
1F
100
AcDbEntity
  8
0
  6
Continuous
 62
     7
100
AcDbCircle
 10
579.5043875914
 20
299.5781382591
 30
0.0
 40
6.208304310403419
100
AcDbArc
 50
67.0262209954
 51
112.9737610264
  0
ARC
  5
32B
330
1F
100
AcDbEntity
  8
0
  6
Continuous
 62
     7
100
AcDbCircle
 10
621.9307948314
 20
324.0704054307
 30
0.0
 40
6.208282578571523
100
AcDbArc
 50
67.0261359704
 51
112.9738460514
  0
LINE
  5
32C
330
1F
100
AcDbEntity
  8
0
  6
Continuous
 62
     7
100
AcDbLine
 10
535.8759007332
 20
370.2895666432
 30
0.0
 11
535.8758997865
 21
370.9426925697
 31
0.0
  0
LINE
  5
32D
330
1F
100
AcDbEntity
  8
0
  6
Continuous
 62
     7
100
AcDbLine
 10
536.7313912493
 20
371.4365572789
 30
0.0
 11
535.8758997865
 21
370.9426925697
 31
0.0
  0
LINE
  5
32E
330
1F
100
AcDbEntity
  8
0
  6
Continuous
 62
     7
100
AcDbLine
 10
548.0462277138
 20
371.4374734878
 30
0.0
 11
548.8949855589
 21
370.9474960133
 31
0.0
  0
LINE
  5
32F
330
1F
100
AcDbEntity
  8
0
  6
Continuous
 62
     7
100
AcDbLine
 10
548.8949855589
 20
370.9474960133
 30
0.0
 11
548.894830801
 21
370.2942805331
 31
0.0
  0
LINE
  5
330
330
1F
100
AcDbEntity
  8
0
  6
Continuous
 62
     7
100
AcDbLine
 10
542.9469674403
 20
366.8606521018
 30
0.0
 11
548.894830801
 21
370.2942805331
 31
0.0
  0
LINE
  5
331
330
1F
100
AcDbEntity
  8
0
  6
Continuous
 62
     7
100
AcDbLine
 10
542.9469674403
 20
366.8606521018
 30
0.0
 11
541.8155978538
 21
366.860652482
 31
0.0
  0
LINE
  5
332
330
1F
100
AcDbEntity
  8
0
  6
Continuous
 62
     7
100
AcDbLine
 10
535.8759007332
 20
370.2895666432
 30
0.0
 11
541.8155978538
 21
366.860652482
 31
0.0
  0
LINE
  5
333
330
1F
100
AcDbEntity
  8
0
  6
Continuous
 62
     7
100
AcDbLine
 10
542.9469674403
 20
311.1725663714
 30
0.0
 11
541.8155978538
 21
310.5193352117
 31
0.0
  0
LINE
  5
334
330
1F
100
AcDbEntity
  8
0
  6
Continuous
 62
     7
100
AcDbLine
 10
541.8155978538
 20
310.5193352117
 30
0.0
 11
541.8155978538
 21
366.860652482
 31
0.0
  0
LINE
  5
335
330
1F
100
AcDbEntity
  8
0
  6
Continuous
 62
     7
100
AcDbLine
 10
542.9469674403
 20
366.8606521018
 30
0.0
 11
542.9469674403
 21
311.1725663714
 31
0.0
  0
LINE
  5
336
330
1F
100
AcDbEntity
  8
0
  6
Continuous
 62
     7
100
AcDbLine
 10
535.8759007332
 20
313.9482493729
 30
0.0
 11
541.8155978538
 21
310.5193352117
 31
0.0
  0
LINE
  5
337
330
1F
100
AcDbEntity
  8
0
  6
Continuous
 62
     7
100
AcDbLine
 10
535.8759007332
 20
370.2895666432
 30
0.0
 11
535.8759007332
 21
313.9482493729
 31
0.0
  0
LINE
  5
338
330
1F
100
AcDbEntity
  8
0
  6
Continuous
 62
     7
100
AcDbLine
 10
542.9469674403
 20
311.1725663714
 30
0.0
 11
616.0618082189
 21
353.3808655239
 31
0.0
  0
ARC
  5
339
330
1F
100
AcDbEntity
  8
0
  6
Continuous
 62
     7
100
AcDbCircle
 10
581.717086452
 20
370.7346598391
 30
0.0
 40
32.82520982350958
100
AcDbArc
 50
180.7686967642
 51
193.8000747671
  0
ARC
  5
33A
330
1F
100
AcDbEntity
  8
0
  6
Continuous
 62
     7
100
AcDbCircle
 10
552.1393831184
 20
363.3955683508
 30
0.0
 40
2.351769549850991
100
AcDbArc
 50
192.0473406725
 51
304.0320090825001
  0
LINE
  5
33B
330
1F
100
AcDbEntity
  8
0
  6
Continuous
 62
     7
100
AcDbLine
 10
554.4299948552
 20
361.9106794578
 30
0.0
 11
553.4555649859
 21
361.4465980311
 31
0.0
  0
LINE
  5
33C
330
1F
100
AcDbEntity
  8
0
  6
Continuous
 62
     7
100
AcDbLine
 10
557.6710519442
 20
357.299237115
 30
0.0
 11
554.4299948552
 21
361.9106794578
 31
0.0
  0
LINE
  5
33D
330
1F
100
AcDbEntity
  8
0
  6
Continuous
 62
     7
100
AcDbLine
 10
557.2576664344
 20
356.0368900142
 30
0.0
 11
557.6710519442
 21
357.299237115
 31
0.0
  0
LWPOLYLINE
  5
33E
330
1F
100
AcDbEntity
  8
0
  6
Continuous
 62
     7
100
AcDbPolyline
 90
        9
 70
   128
 43
0.0
 10
558.1086982337
 20
351.1389941551
 10
557.6921820033
 20
351.4469507464
 10
557.3535347097
 20
351.8672173583
 10
557.1007905959
 20
352.3898235683
 10
556.9399476853
 20
353.0023747893
 10
556.8748229018
 20
353.6903366966
 10
556.9069546054
 20
354.4373865701
 10
557.0355867871
 20
355.2258056956
 10
557.2576664344
 20
356.0368900142
  0
LWPOLYLINE
  5
33F
330
1F
100
AcDbEntity
  8
0
  6
Continuous
 62
     7
100
AcDbPolyline
 90
       18
 70
   128
 43
0.0
 10
600.9000774255
 20
375.8419315457
 10
598.8206612383
 20
372.5003462533
 10
596.5813069807
 20
369.2935702972
 10
594.2005566318
 20
366.2481496972
 10
591.6981217458
 20
363.3893071577
 10
589.0947234256
 20
360.7407082407
 10
586.4119171501
 20
358.3242841943
 10
583.6719162841
 20
356.1600464164
 10
580.8974088383
 20
354.2659107096
 10
578.1113668209
 20
352.6575628875
 10
575.3368593751
 20
351.3483204833
 10
572.5968585091
 20
350.3490205991
 10
569.9140522336
 20
349.667942452
 10
567.3106539134
 20
349.3107216492
 10
564.8082190274
 20
349.2803143687
 10
562.4274686785
 20
349.5769791248
 10
560.1881144209
 20
350.198251689
 10
558.1086982337
 20
351.1389941551
  0
ARC
  5
340
330
1F
100
AcDbEntity
  8
0
  6
Continuous
 62
     7
100
AcDbCircle
 10
595.5330165429
 20
379.6204805238
 30
0.0
 40
6.563747016587533
100
AcDbArc
 50
324.8534686583001
 51
18.6770060281
  0
LINE
  5
341
330
1F
100
AcDbEntity
  8
0
  6
Continuous
 62
     7
100
AcDbLine
 10
601.337723715
 20
382.5074701559
 30
0.0
 11
601.7511092248
 21
381.7224078054
 31
0.0
  0
LINE
  5
342
330
1F
100
AcDbEntity
  8
0
  6
Continuous
 62
     7
100
AcDbLine
 10
604.5787808041
 20
390.8609573621
 30
0.0
 11
601.337723715
 21
382.5074701559
 31
0.0
  0
LINE
  5
343
330
1F
100
AcDbEntity
  8
0
  6
Continuous
 62
     7
100
AcDbLine
 10
605.5532106733
 20
391.521928715
 30
0.0
 11
604.5787808041
 21
390.8609573621
 31
0.0
  0
ARC
  5
344
330
1F
100
AcDbEntity
  8
0
  6
Continuous
 62
     7
100
AcDbCircle
 10
600.0868791787
 20
399.0082240685
 30
0.0
 40
9.269595359477169
100
AcDbArc
 50
306.1361133554
 51
348.4684449029
  0
ARC
  5
345
330
1F
100
AcDbEntity
  8
0
  6
Continuous
 62
     7
100
AcDbCircle
 10
560.8676367758
 20
406.8280317795
 30
0.0
 40
49.26074922701289
100
AcDbArc
 50
348.6757831078
 51
358.6126100579
  0
LINE
  5
346
330
1F
100
AcDbEntity
  8
0
  6
Continuous
 62
     7
100
AcDbLine
 10
610.1139448582
 20
405.6353228231
 30
0.0
 11
616.0618082189
 21
409.0689512544
 31
0.0
  0
LINE
  5
347
330
1F
100
AcDbEntity
  8
0
  6
Continuous
 62
     7
100
AcDbLine
 10
616.0618082189
 20
353.3808655239
 30
0.0
 11
616.0618082189
 21
409.0689512544
 31
0.0
  0
LWPOLYLINE
  5
348
330
1F
100
AcDbEntity
  8
0
  6
Continuous
 62
     7
100
AcDbPolyline
 90
       22
 70
   128
 43
0.0
 10
554.469868408
 20
355.7529179499
 10
554.3442102134
 20
356.6430964222
 10
553.9783992759
 20
357.3090947174
 10
553.4049387183
 20
357.6917366471
 10
552.6747814464
 20
357.7570224576
 10
551.8528098991
 20
357.4991528545
 10
551.0120566625
 20
356.9410398154
 10
550.2272296597
 20
356.1322760015
 10
549.5680582173
 20
355.1447186131
 10
549.0931159181
 20
354.0661203322
 10
548.8446049284
 20
352.9923190973
 10
548.8446049284
 20
352.0187273553
 10
549.0931159181
 20
351.2318500414
 10
549.5680582173
 20
350.7016092274
 10
550.2272296597
 20
350.4751149866
 10
551.0120566625
 20
350.5724931425
 10
551.8528098991
 20
350.9850931282
 10
552.6747814464
 20
351.6762509124
 10
553.4049387183
 20
352.5845583649
 10
553.9783992759
 20
353.6293045215
 10
554.3442102134
 20
354.7176583746
 10
554.469868408
 20
355.7529179499
  0
LWPOLYLINE
  5
349
330
1F
100
AcDbEntity
  8
0
  6
Continuous
 62
     7
100
AcDbPolyline
 90
       22
 70
   128
 43
0.0
 10
610.1957597937
 20
387.9227902918
 10
610.0701015991
 20
388.8129687642
 10
609.7042906616
 20
389.4789670594
 10
609.130830104
 20
389.8616089891
 10
608.4006728321
 20
389.9268947996
 10
607.5787012848
 20
389.6690251964
 10
606.7379506824
 20
389.1109136781
 10
605.9531210454
 20
388.3021483435
 10
605.293949603
 20
387.3145909551
 10
604.819009938
 20
386.2359941948
 10
604.5704989483
 20
385.16219296
 10
604.5704989483
 20
384.188601218
 10
604.819009938
 20
383.401723904
 10
605.293949603
 20
382.8714815694
 10
605.9531210454
 20
382.6449873286
 10
606.7379506824
 20
382.7423670051
 10
607.5787012848
 20
383.1549654702
 10
608.4006728321
 20
383.8461232544
 10
609.130830104
 20
384.7544307069
 10
609.7042906616
 20
385.7991768635
 10
610.0701015991
 20
386.8875307166
 10
610.1957597937
 20
387.9227902918
  0
ARC
  5
34A
330
1F
100
AcDbEntity
  8
0
  6
Continuous
 62
     7
100
AcDbCircle
 10
581.0989223408
 20
371.3927113995
 30
0.0
 40
32.20701415821744
100
AcDbArc
 50
180.7920565058
 51
193.8016487975
  0
ARC
  5
34B
330
1F
100
AcDbEntity
  8
0
  6
Continuous
 62
     7
100
AcDbCircle
 10
551.8045421771
 20
364.1325143031
 30
0.0
 40
2.027385979650613
100
AcDbArc
 50
192.0472766902
 51
304.0321090158
  0
ARC
  5
34C
330
1F
100
AcDbEntity
  8
0
  6
Continuous
 62
     7
100
AcDbCircle
 10
545.013385811
 20
357.9463963139
 30
0.0
 40
6.301124990144968
100
AcDbArc
 50
307.3762395587
 51
352.6291523875
  0
LINE
  5
34D
330
1F
100
AcDbEntity
  8
0
  6
Continuous
 62
     7
100
AcDbLine
 10
552.9391837736
 20
362.4523707504
 30
0.0
 11
554.2069688794
 21
363.0561650301
 31
0.0
  0
LINE
  5
34E
330
1F
100
AcDbEntity
  8
0
  6
Continuous
 62
     7
100
AcDbLine
 10
554.4299948552
 20
361.9106794578
 30
0.0
 11
554.2069688794
 21
363.0561650301
 31
0.0
  0
LINE
  5
34F
330
1F
100
AcDbEntity
  8
0
  6
Continuous
 62
     7
100
AcDbLine
 10
554.2069688794
 20
363.0561650301
 30
0.0
 11
549.3682437951
 21
365.8495015634
 31
0.0
  0
LINE
  5
350
330
1F
100
AcDbEntity
  8
0
  6
Continuous
 62
     7
100
AcDbLine
 10
554.2069688794
 20
363.0561650301
 30
0.0
 11
557.7425033648
 21
358.0257347558
 31
0.0
  0
LINE
  5
351
330
1F
100
AcDbEntity
  8
0
  6
Continuous
 62
     7
100
AcDbLine
 10
557.6710519442
 20
357.299237115
 30
0.0
 11
557.7425033648
 21
358.0257347558
 31
0.0
  0
ARC
  5
352
330
1F
100
AcDbEntity
  8
0
  6
Continuous
 62
     7
100
AcDbCircle
 10
559.2419628452
 20
354.1262037866
 30
0.0
 40
2.358264884788367
100
AcDbArc
 50
179.2195393746
 51
236.4407107977
  0
LWPOLYLINE
  5
353
330
1F
100
AcDbEntity
  8
0
  6
Continuous
 62
     7
100
AcDbPolyline
 90
       18
 70
   128
 43
0.0
 10
557.9383149888
 20
352.1610280862
 10
559.9793116894
 20
351.2376673231
 10
562.1772922297
 20
350.6278717447
 10
564.5140570739
 20
350.3366894906
 10
566.9702568671
 20
350.3665338042
 10
569.5255557549
 20
350.7171556408
 10
572.1587953609
 20
351.3856501165
 10
574.8481722642
 20
352.3664874799
 10
577.5714188525
 20
353.6515399493
 10
580.3059865616
 20
355.2301722857
 10
583.0292331499
 20
357.089313401
 10
585.7186100532
 20
359.2135645165
 10
588.3518496592
 20
361.5853437759
 10
590.9071485471
 20
364.1850072366
 10
593.3633483403
 20
366.9910308411
 10
595.7001131844
 20
369.9801843563
 10
597.8980937248
 20
373.1277142494
 10
599.9390904253
 20
376.4075596437
  0
LWPOLYLINE
  5
354
330
1F
100
AcDbEntity
  8
0
  6
Continuous
 62
     7
100
AcDbPolyline
 90
       16
 70
   128
 43
0.0
 10
593.9993933047
 20
379.836473805
 10
591.9583966041
 20
376.5566284106
 10
589.7604160638
 20
373.4090985176
 10
587.4236512196
 20
370.4199450023
 10
584.9674514264
 20
367.6139213978
 10
582.4121525386
 20
365.0142579371
 10
579.7789129326
 20
362.6424786777
 10
577.0895360293
 20
360.5182275622
 10
574.366289441
 20
358.6590864469
 10
571.6317217319
 20
357.0804541105
 10
568.9084751436
 20
355.7954016411
 10
566.2190982403
 20
354.8145642777
 10
563.5858586343
 20
354.146069802
 10
561.0305597465
 20
353.7954479654
 10
558.5743599533
 20
353.7656036519
 10
556.8749397523
 20
353.9435768284
  0
ARC
  5
355
330
1F
100
AcDbEntity
  8
0
  6
Continuous
 62
     7
100
AcDbCircle
 10
539.5241971984
 20
410.3060679602
 30
0.0
 40
62.22607510302594
100
AcDbArc
 50
302.2428987807
 51
330.7741494796001
  0
LINE
  5
356
330
1F
100
AcDbEntity
  8
0
  6
Continuous
 62
     7
100
AcDbLine
 10
616.0618082189
 20
353.3808655239
 30
0.0
 11
616.0618075603
 21
353.3807597442
 31
0.0
  0
LINE
  5
357
330
1F
100
AcDbEntity
  8
0
  6
Continuous
 62
     7
100
AcDbLine
 10
616.0618075603
 20
353.3807597442
 30
0.0
 11
541.8155978538
 21
310.5193352117
 31
0.0
  0
ARC
  5
358
330
1F
100
AcDbEntity
  8
0
  6
Continuous
 62
     7
100
AcDbCircle
 10
560.6329475898
 20
406.8230449548
 30
0.0
 40
48.36406066942391
100
AcDbArc
 50
348.6767048863
 51
358.592685832
  0
LINE
  5
359
330
1F
100
AcDbEntity
  8
0
  6
Continuous
 62
     7
100
AcDbLine
 10
610.1139448582
 20
405.6353228231
 30
0.0
 11
608.9824198552
 21
405.6352334832
 31
0.0
  0
ARC
  5
35A
330
1F
100
AcDbEntity
  8
0
  6
Continuous
 62
     7
100
AcDbCircle
 10
554.6932504691
 20
410.251959116
 30
0.0
 40
48.3640606694419
100
AcDbArc
 50
348.6767048863
 51
358.592685832
  0
LINE
  5
35B
330
1F
100
AcDbEntity
  8
0
  6
Continuous
 62
     7
100
AcDbLine
 10
608.9824198552
 20
405.6352334832
 30
0.0
 11
603.0427227346
 21
409.0641476445
 31
0.0
  0
LINE
  5
35C
330
1F
100
AcDbEntity
  8
0
  6
Continuous
 62
     7
100
AcDbLine
 10
616.0618075603
 20
409.7220770145
 30
0.0
 11
615.2130497152
 21
410.212054489
 31
0.0
  0
LINE
  5
35D
330
1F
100
AcDbEntity
  8
0
  6
Continuous
 62
     7
100
AcDbLine
 10
616.0618075603
 20
409.7220770145
 30
0.0
 11
616.0618082189
 21
409.0689512544
 31
0.0
  0
LINE
  5
35E
330
1F
100
AcDbEntity
  8
0
  6
Continuous
 62
     7
100
AcDbLine
 10
603.0427227346
 20
409.0641476445
 30
0.0
 11
603.0428772044
 21
409.717363291
 31
0.0
  0
LINE
  5
35F
330
1F
100
AcDbEntity
  8
0
  6
Continuous
 62
     7
100
AcDbLine
 10
603.8914829258
 20
410.2072529463
 30
0.0
 11
603.0428772044
 21
409.717363291
 31
0.0
  0
LINE
  5
360
330
1F
100
AcDbEntity
  8
0
  6
Continuous
 62
     7
100
AcDbLine
 10
601.337723715
 20
382.5074701559
 30
0.0
 11
600.1349020493
 21
382.4983456022
 31
0.0
  0
LINE
  5
361
330
1F
100
AcDbEntity
  8
0
  6
Continuous
 62
     7
100
AcDbLine
 10
600.1349020493
 20
382.4983456022
 30
0.0
 11
603.6704365348
 21
391.6108171047
 31
0.0
  0
LINE
  5
362
330
1F
100
AcDbEntity
  8
0
  6
Continuous
 62
     7
100
AcDbLine
 10
604.5787808041
 20
390.8609573621
 30
0.0
 11
603.6704365348
 21
391.6108171047
 31
0.0
  0
LINE
  5
363
330
1F
100
AcDbEntity
  8
0
  6
Continuous
 62
     7
100
AcDbLine
 10
597.7307394141
 20
395.0397312659
 30
0.0
 11
594.1952049287
 21
385.9272597635
 31
0.0
  0
LINE
  5
364
330
1F
100
AcDbEntity
  8
0
  6
Continuous
 62
     7
100
AcDbLine
 10
603.6704365348
 20
391.6108171047
 30
0.0
 11
597.7307394141
 21
395.0397312659
 31
0.0
  0
LINE
  5
365
330
1F
100
AcDbEntity
  8
0
  6
Continuous
 62
     7
100
AcDbLine
 10
600.1349020493
 20
382.4983456022
 30
0.0
 11
594.1952049287
 21
385.9272597635
 31
0.0
  0
ARC
  5
366
330
1F
100
AcDbEntity
  8
0
  6
Continuous
 62
     7
100
AcDbCircle
 10
600.2258792532
 20
398.9244727876
 30
0.0
 40
7.991017987040583
100
AcDbArc
 50
306.1360691354
 51
348.4684769258
  0
ARC
  5
367
330
1F
100
AcDbEntity
  8
0
  6
Continuous
 62
     7
100
AcDbCircle
 10
594.2861821325
 20
402.3533869489
 30
0.0
 40
7.991017987041644
100
AcDbArc
 50
306.1360691354
 51
348.4684769258
  0
LINE
  5
368
330
1F
100
AcDbEntity
  8
0
  6
Continuous
 62
     7
100
AcDbLine
 10
603.6704365348
 20
391.6108171047
 30
0.0
 11
604.9382216405
 21
392.4707763512
 31
0.0
  0
LINE
  5
369
330
1F
100
AcDbEntity
  8
0
  6
Continuous
 62
     7
100
AcDbLine
 10
598.9985245199
 20
395.8996905124
 30
0.0
 11
597.7307394141
 21
395.0397312659
 31
0.0
  0
ARC
  5
36A
330
1F
100
AcDbEntity
  8
0
  6
Continuous
 62
     7
100
AcDbCircle
 10
553.796569122
 20
410.9100722473
 30
0.0
 40
49.26074922699171
100
AcDbArc
 50
348.6757831078
 51
358.6126100579
  0
LINE
  5
36B
330
1F
100
AcDbEntity
  8
0
  6
Continuous
 62
     7
100
AcDbLine
 10
600.6727379832
 20
381.4769356773
 30
0.0
 11
600.1349020493
 21
382.4983456022
 31
0.0
  0
LINE
  5
36C
330
1F
100
AcDbEntity
  8
0
  6
Continuous
 62
     7
100
AcDbLine
 10
594.1952049287
 20
385.9272597635
 30
0.0
 11
594.2666560612
 21
386.5895106237
 31
0.0
  0
LINE
  5
36D
330
1F
100
AcDbEntity
  8
0
  6
Continuous
 62
     7
100
AcDbLine
 10
597.7307394141
 20
395.0397312659
 30
0.0
 11
597.5077131502
 21
394.9429978299
 31
0.0
  0
LINE
  5
36E
330
1F
100
AcDbEntity
  8
0
  6
Continuous
 62
     7
100
AcDbLine
 10
594.2666560612
 20
386.5895106237
 30
0.0
 11
597.5077131502
 21
394.9429978299
 31
0.0
  0
LINE
  5
36F
330
1F
100
AcDbEntity
  8
0
  6
Continuous
 62
     7
100
AcDbLine
 10
594.1952049287
 20
385.9272597635
 30
0.0
 11
594.7330408625
 21
384.9058498386
 31
0.0
  0
ARC
  5
370
330
1F
100
AcDbEntity
  8
0
  6
Continuous
 62
     7
100
AcDbCircle
 10
595.3123159643
 20
379.6649285446
 30
0.0
 40
5.658400310132053
100
AcDbArc
 50
324.8534635735
 51
18.6770230119
  0
ARC
  5
371
330
1F
100
AcDbEntity
  8
0
  6
Continuous
 62
     7
100
AcDbCircle
 10
600.7392505609
 20
390.11628766
 30
0.0
 40
6.301156261244929
100
AcDbArc
 50
307.3763271253
 51
352.6290288707
  0
ARC
  5
372
330
1F
100
AcDbEntity
  8
0
  6
Continuous
 62
     7
100
AcDbCircle
 10
589.3726188437
 20
383.0938427058
 30
0.0
 40
5.658400310132635
100
AcDbArc
 50
324.8534635735
 51
18.6770230119
  0
ARC
  5
373
330
1F
100
AcDbEntity
  8
0
  6
Continuous
 62
     7
100
AcDbCircle
 10
593.0158115248
 20
403.0902645363
 30
0.0
 40
9.269595359475513
100
AcDbArc
 50
306.1361133554
 51
348.4684449029
  0
LINE
  5
374
330
1F
100
AcDbEntity
  8
0
  6
Continuous
 62
     7
100
AcDbLine
 10
597.5077131502
 20
394.9429978299
 30
0.0
 11
598.4821430195
 21
395.6039691829
 31
0.0
  0
ARC
  5
375
330
1F
100
AcDbEntity
  8
0
  6
Continuous
 62
     7
100
AcDbCircle
 10
586.5353321012
 20
384.3800270412
 30
0.0
 40
8.547172653638883
100
AcDbArc
 50
328.5772550752
 51
355.3022914036001
  0
LWPOLYLINE
  5
376
330
1F
100
AcDbEntity
  8
0
  6
Continuous
 62
     7
100
AcDbPolyline
 90
       38
 70
   128
 43
0.0
 10
616.0549698927
 20
410.6980850839
 10
615.8672873421
 20
414.122319564
 10
615.4240183996
 20
417.3684388339
 10
614.7282766636
 20
420.4136241518
 10
613.784956437
 20
423.2364748724
 10
612.6006853115
 20
425.8171483759
 10
611.1837899241
 20
428.1375053201
 10
609.5442248335
 20
430.1812389257
 10
607.6935198369
 20
431.9339814459
 10
605.6446772371
 20
433.3834121618
 10
603.4121033537
 20
434.5193471234
 10
601.011484717
 20
435.3338015195
 10
598.4596985055
 20
435.8210474808
 10
595.7746808376
 20
435.9776627622
 10
592.9753029646
 20
435.8025474845
 10
590.0812408793
 20
435.2969279492
 10
587.112836363
 20
434.4643646358
 10
584.0909537522
 20
433.3107029759
 10
581.0368335767
 20
431.8440588227
 10
577.9719420825
 20
430.0747346243
 10
574.917821907
 20
428.0151666804
 10
571.8959392962
 20
425.6798369431
 10
568.9275347799
 20
423.085153353
 10
566.0334726946
 20
420.2493599286
 10
563.2340948216
 20
417.1923823111
 10
560.5490771537
 20
413.9357116168
 10
557.9972909422
 20
410.502236008
 10
555.5966723055
 20
406.9160863312
 10
553.3640984221
 20
403.2024764312
 10
551.3152558223
 20
399.3875024016
 10
549.4645508257
 20
395.4979813749
 10
547.8249857351
 20
391.5612462093
 10
546.4080903477
 20
387.6049766722
 10
545.2238192222
 20
383.6569728317
 10
544.2804989956
 20
379.7449877604
 10
543.5847572596
 20
375.8965161325
 10
543.1414883171
 20
372.1386094353
 10
542.9538057665
 20
368.4976812947
  0
LINE
  5
377
330
1F
100
AcDbEntity
  8
0
  6
Continuous
 62
     7
100
AcDbLine
 10
542.9538057665
 20
368.4976812947
 30
0.0
 11
541.8223308129
 21
368.4976208477
 31
0.0
  0
LWPOLYLINE
  5
378
330
1F
100
AcDbEntity
  8
0
  6
Continuous
 62
     7
100
AcDbPolyline
 90
       38
 70
   128
 43
0.0
 10
541.8223308129
 20
368.4976208477
 10
542.012062754
 20
372.1951394026
 10
542.4614429895
 20
376.011579876
 10
543.1673105058
 20
379.9201043082
 10
544.1246998773
 20
383.8932323177
 10
545.3268834134
 20
387.903028171
 10
546.7654080366
 20
391.9212977391
 10
548.4301558692
 20
395.9197831703
 10
550.3094206241
 20
399.8703697291
 10
552.3899918983
 20
403.7452819876
 10
554.6572394671
 20
407.517272412
 10
557.0952199679
 20
411.1598198343
 10
559.6867914873
 20
414.6473081495
 10
562.4137307815
 20
417.9552187021
 10
565.2568663029
 20
421.0602952939
 10
568.1962033231
 20
423.9406955046
 10
571.2110753984
 20
426.5761724279
 10
574.2802843103
 20
428.9481950019
 10
577.3822485675
 20
431.0400824069
 10
580.4951568466
 20
432.8371261053
 10
583.5971211038
 20
434.3266903983
 10
586.6663300157
 20
435.4983010056
 10
589.681202091
 20
436.3437212874
 10
592.6205391112
 20
436.8570073637
 10
595.4636746326
 20
437.0345451725
 10
598.1906139268
 20
436.8750917122
 10
600.7821854462
 20
436.3797681833
 10
603.220165947
 20
435.5520531318
 10
605.4874135158
 20
434.3977710308
 10
607.56798479
 20
432.9250352338
 10
609.4472495449
 20
431.1442015764
 10
611.1119973775
 20
429.0677930802
 10
612.5505220007
 20
426.7104086892
 10
613.7527055368
 20
424.0886244019
 10
614.7100949083
 20
421.2208746321
 10
615.4159624246
 20
418.127327487
 10
615.8653426602
 20
414.8297303896
 10
616.0550746013
 20
411.3512716712
  0
LINE
  5
379
330
1F
100
AcDbEntity
  8
0
  6
Continuous
 62
     7
100
AcDbLine
 10
616.0550746013
 20
411.3512716712
 30
0.0
 11
616.0549698927
 21
410.6980850839
 31
0.0
  0
LINE
  5
37A
330
1F
100
AcDbEntity
  8
0
  6
Continuous
 62
     7
100
AcDbLine
 10
535.8826336922
 20
371.926535009
 30
0.0
 11
541.8223308129
 21
368.4976208477
 31
0.0
  0
LWPOLYLINE
  5
37B
330
1F
100
AcDbEntity
  8
0
  6
Continuous
 62
     7
100
AcDbPolyline
 90
       29
 70
   128
 43
0.0
 10
599.2468721906
 20
438.0043849292
 10
597.2804688264
 20
438.9809672931
 10
594.8424883256
 20
439.8086823445
 10
592.2509168062
 20
440.3040058735
 10
589.523977512
 20
440.4634593337
 10
586.6808419906
 20
440.2859215249
 10
583.7415049704
 20
439.7726354487
 10
580.7266328951
 20
438.9272151668
 10
577.6574239832
 20
437.7556045595
 10
574.555459726
 20
436.2660402666
 10
571.4425514469
 20
434.4689965682
 10
568.3405871897
 20
432.3771091631
 10
565.2713782778
 20
430.0050865891
 10
562.2565062025
 20
427.3696096658
 10
559.3171691823
 20
424.4892094552
 10
556.4740336609
 20
421.3841328634
 10
553.7470943667
 20
418.0762223108
 10
551.1555228473
 20
414.5887339956
 10
548.7175423465
 20
410.9461865733
 10
546.4502947777
 20
407.1741961488
 10
544.3697235035
 20
403.2992838904
 10
542.4904587486
 20
399.3486973316
 10
540.825710916
 20
395.3502119003
 10
539.3871862928
 20
391.3319423322
 10
538.1850027567
 20
387.3221464789
 10
537.2276133852
 20
383.3490184694
 10
536.5217458689
 20
379.4404940372
 10
536.0723656333
 20
375.6240535638
 10
535.8826336922
 20
371.926535009
  0
ARC
  5
37C
330
1F
100
AcDbEntity
  8
0
  6
Continuous
 62
     7
100
AcDbCircle
 10
606.9104428492
 20
368.6505859516
 30
0.0
 40
70.67117291132467
100
AcDbArc
 50
161.4510209067
 51
173.4374029582
  0
LINE
  5
37D
330
1F
100
AcDbEntity
  8
0
  6
Continuous
 62
     7
100
AcDbLine
 10
541.6520845452
 20
373.8700701511
 30
0.0
 11
536.7023367595
 21
376.7274987257
 31
0.0
  0
ARC
  5
37E
330
1F
100
AcDbEntity
  8
0
  6
Continuous
 62
     7
100
AcDbCircle
 10
611.8601906349
 20
365.793157377
 30
0.0
 40
70.67117291132435
100
AcDbArc
 50
161.4510209067
 51
173.4374029582
  0
SPLINE
  5
37F
330
1F
100
AcDbEntity
  8
0
  6
Continuous
 62
     7
100
AcDbSpline
210
0.0
220
0.0
230
1.0
 70
     8
 71
     3
 72
    21
 73
    17
 74
     0
 42
0.00000001
 43
0.00000001
 12
1.0
 22
0.0
 32
0.0
 13
1.0
 23
0.0
 33
0.0
 40
0.0
 40
0.0
 40
0.0
 40
0.0
 40
0.1096426872790415
 40
0.205432677396515
 40
0.3008717256161533
 40
0.3962864768470925
 40
0.4421269586099132
 40
0.488349066898406
 40
0.4999788010875308
 40
0.538910585780934
 40
0.5776627201028204
 40
0.6416501226192743
 40
0.7494212112022852
 40
0.8522129754293846
 40
0.9552551941683702
 40
1.0
 40
1.0
 40
1.0
 40
1.0
 10
544.8602394335701
 20
388.2747324927025
 30
0.0
 10
545.0430882904674
 20
388.8620786355025
 30
0.0
 10
545.3856841458179
 20
389.9625632521086
 30
0.0
 10
545.7535858110309
 20
391.6582516573063
 30
0.0
 10
545.9322722288451
 20
393.3140064724358
 30
0.0
 10
545.8384983784886
 20
394.6979047638043
 30
0.0
 10
545.4786382582051
 20
395.6617936095088
 30
0.0
 10
545.137903562043
 20
396.0764844002894
 30
0.0
 10
544.7532107253697
 20
396.3321092531851
 30
0.0
 10
544.3484144840764
 20
396.4585077484468
 30
0.0
 10
543.680018868123
 20
396.3928455095614
 30
0.0
 10
542.738243920695
 20
395.9154538843654
 30
0.0
 10
541.7255881435505
 20
394.8587532225006
 30
0.0
 10
540.8239476506556
 20
393.411596599815
 30
0.0
 10
540.2595848823229
 20
392.1440407874034
 30
0.0
 10
539.9916216561212
 20
391.3673240609198
 30
0.0
 10
539.9104916478459
 20
391.1321610673238
 30
0.0
  0
LWPOLYLINE
  5
380
330
1F
100
AcDbEntity
  8
0
  6
Continuous
 62
     7
100
AcDbPolyline
 90
       15
 70
   128
 43
0.0
 10
587.7736758986
 20
427.5973884996
 10
590.4188825754
 20
428.1156128642
 10
592.9737369457
 20
428.3082215804
 10
595.4170898527
 20
428.173621562
 10
597.7287154188
 20
427.7129246023
 10
599.8894763406
 20
426.929945458
 10
601.8814852323
 20
425.8311641909
 10
603.6882547735
 20
424.4256820471
 10
605.2948241501
 20
422.7251271474
 10
606.6878986656
 20
420.7435814702
 10
607.8559406202
 20
418.497446241
 10
608.7892852146
 20
416.0053172051
 10
609.4802064048
 20
413.2878234039
 10
609.9229801218
 20
410.3674606274
 10
610.1139448582
 20
407.2684043343
  0
ARC
  5
381
330
1F
100
AcDbEntity
  8
0
  6
Continuous
 62
     7
100
AcDbCircle
 10
590.496079526
 20
420.3799796524
 30
0.0
 40
7.713784543221849
100
AcDbArc
 50
110.6664546477
 51
158.755787196
  0
LINE
  5
382
330
1F
100
AcDbEntity
  8
0
  6
Continuous
 62
     7
100
AcDbLine
 10
582.7454445894
 20
421.925876927
 30
0.0
 11
583.3064892781
 21
423.1750224152
 31
0.0
  0
LINE
  5
383
330
1F
100
AcDbEntity
  8
0
  6
Continuous
 62
     7
100
AcDbLine
 10
576.2633310698
 20
418.1838324438
 30
0.0
 11
582.7454445894
 21
421.925876927
 31
0.0
  0
LINE
  5
384
330
1F
100
AcDbEntity
  8
0
  6
Continuous
 62
     7
100
AcDbLine
 10
575.7022863811
 20
418.7852095225
 30
0.0
 11
576.2633310698
 21
418.1838324438
 31
0.0
  0
LWPOLYLINE
  5
385
330
1F
100
AcDbEntity
  8
0
  6
Continuous
 62
     7
100
AcDbPolyline
 90
        9
 70
   128
 43
0.0
 10
571.2350997606
 20
418.0498717198
 10
571.8546413116
 20
418.5498628045
 10
572.4857627091
 20
418.94498497
 10
573.1134912854
 20
419.2258646347
 10
573.722936032
 20
419.3858400199
 10
574.2996386041
 20
419.4211151108
 10
574.829918069
 20
419.3308522106
 10
575.3011939216
 20
419.1171941533
 10
575.7022863811
 20
418.7852095225
  0
LWPOLYLINE
  5
386
330
1F
100
AcDbEntity
  8
0
  6
Continuous
 62
     7
100
AcDbPolyline
 90
       15
 70
   128
 43
0.0
 10
548.894830801
 20
371.9273620443
 10
549.0857955374
 20
375.2469015289
 10
549.5285692544
 20
378.6784799576
 10
550.2194904446
 20
382.193694385
 10
551.1528350391
 20
385.7634401519
 10
552.3208769936
 20
389.3581679163
 10
553.7139515091
 20
392.9481231931
 10
555.3205208857
 20
396.5035836122
 10
557.1272904269
 20
399.9951174655
 10
559.1192993186
 20
403.3938232437
 10
561.2800602404
 20
406.6715638458
 10
563.5916858065
 20
409.801206874
 10
566.0350387135
 20
412.7568421114
 10
568.5898930838
 20
415.5140054634
 10
571.2350997606
 20
418.0498717198
  0
LINE
  5
387
330
1F
100
AcDbEntity
  8
0
  6
Continuous
 62
     7
100
AcDbLine
 10
542.9538057665
 20
368.4976812947
 30
0.0
 11
548.894830801
 21
371.9273620443
 31
0.0
  0
LINE
  5
388
330
1F
100
AcDbEntity
  8
0
  6
Continuous
 62
     7
100
AcDbLine
 10
610.1139448582
 20
407.2684043343
 30
0.0
 11
616.0549698927
 21
410.6980850839
 31
0.0
  0
LINE
  5
389
330
1F
100
AcDbEntity
  8
0
  6
Continuous
 62
     7
100
AcDbLine
 10
582.3328150887
 20
426.3419533126
 30
0.0
 11
582.3328150887
 21
428.7915776707
 31
0.0
  0
LWPOLYLINE
  5
38A
330
1F
100
AcDbEntity
  8
0
  6
Continuous
 62
     7
100
AcDbPolyline
 90
       11
 70
   128
 43
0.0
 10
582.3328150887
 20
428.7915776707
 10
582.1943819538
 20
429.7209604396
 10
581.7926334193
 20
430.3995381669
 10
581.1668956231
 20
430.760887098
 10
580.3784198721
 20
430.7696346852
 10
579.5043878296
 20
430.4249251524
 10
578.6303557871
 20
429.7604987691
 10
577.8418800361
 20
428.8413964572
 10
577.2161422399
 20
427.7575860446
 10
576.8143937054
 20
426.6151593327
 10
576.6759605705
 20
425.5259450683
  0
LINE
  5
38B
330
1F
100
AcDbEntity
  8
0
  6
Continuous
 62
     7
100
AcDbLine
 10
576.6759605705
 20
425.5259450683
 30
0.0
 11
576.6759605705
 21
423.0763207102
 31
0.0
  0
LWPOLYLINE
  5
38C
330
1F
100
AcDbEntity
  8
0
  6
Continuous
 62
     7
100
AcDbPolyline
 90
       11
 70
   128
 43
0.0
 10
576.6759605705
 20
423.0763207102
 10
576.8143937054
 20
422.1469379413
 10
577.2161422399
 20
421.468360214
 10
577.8418800361
 20
421.1070112829
 10
578.6303557871
 20
421.0982636957
 10
579.5043878296
 20
421.4429762704
 10
580.3784198721
 20
422.1073996119
 10
581.1668956231
 20
423.0265019238
 10
581.7926334193
 20
424.1103123363
 10
582.1943819538
 20
425.2527390483
 10
582.3328150887
 20
426.3419533126
  0
LWPOLYLINE
  5
38D
330
1F
100
AcDbEntity
  8
0
  6
Continuous
 62
     7
100
AcDbPolyline
 90
       20
 70
   128
 43
0.0
 10
535.8827381127
 20
372.5797217626
 10
536.0704206633
 20
376.2206499032
 10
536.5136896058
 20
379.9785566004
 10
537.2094313418
 20
383.8270282282
 10
538.1527515684
 20
387.7390132996
 10
539.3370226939
 20
391.68701714
 10
540.7539180813
 20
395.6432866772
 10
542.3934831719
 20
399.5800218428
 10
544.2441881685
 20
403.4695428695
 10
546.2930307683
 20
407.2845168991
 10
548.5256046517
 20
410.9981267991
 10
550.9262232884
 20
414.5842764759
 10
553.4780094999
 20
418.0177520847
 10
556.1630271678
 20
421.274422779
 10
558.9624050408
 20
424.3314003965
 10
561.8564671261
 20
427.1671938209
 10
564.8248716424
 20
429.7618774109
 10
567.8467542532
 20
432.0972071482
 10
570.9008744287
 20
434.1567750921
 10
572.4273785667
 20
435.0751116788
  0
LINE
  5
38E
330
1F
100
AcDbEntity
  8
0
  6
Continuous
 62
     7
100
AcDbLine
 10
535.8826336922
 20
371.926535009
 30
0.0
 11
535.8827381127
 21
372.5797217626
 31
0.0
  0
ARC
  5
38F
330
1F
100
AcDbEntity
  8
0
  6
Continuous
 62
     7
100
AcDbCircle
 10
542.3280753689
 20
373.94817185
 30
0.0
 40
5.22438156123618
100
AcDbArc
 50
88.5295243753
 51
117.564717108
  0
LINE
  5
390
330
1F
100
AcDbEntity
  8
0
  6
Continuous
 62
     7
100
AcDbLine
 10
539.9104916478
 20
378.5795271213
 30
0.0
 11
536.7023367595
 21
376.7274987257
 31
0.0
  0
LWPOLYLINE
  5
391
330
1F
100
AcDbEntity
  8
0
  6
Continuous
 62
     7
100
AcDbPolyline
 90
        9
 70
   128
 43
0.0
 10
542.3254145298
 20
378.449248684
 10
541.5243275692
 20
378.3508374925
 10
540.7943751046
 20
378.0692720628
 10
540.3066366271
 20
377.6478794745
 10
540.1353658288
 20
377.1508132616
 10
540.30663531
 20
376.6537457181
 10
540.794374446
 20
376.2323535101
 10
541.5243265814
 20
375.9507875101
 10
541.9057285601
 20
375.8817703709
  0
ARC
  5
392
330
1F
100
AcDbEntity
  8
0
  6
Continuous
 62
     7
100
AcDbCircle
 10
573.2187121485
 20
416.8301229992
 30
0.0
 40
2.191673596744173
100
AcDbArc
 50
48.421076251
 51
122.2624677932
  0
LINE
  5
393
330
1F
100
AcDbEntity
  8
0
  6
Continuous
 62
     7
100
AcDbLine
 10
579.1508347103
 20
428.1788714851
 30
0.0
 11
579.1508347103
 21
430.1952053808
 31
0.0
  0
ARC
  5
394
330
1F
100
AcDbEntity
  8
0
  6
Continuous
 62
     7
100
AcDbCircle
 10
572.985847462
 20
428.4560188461
 30
0.0
 40
6.171213691975757
100
AcDbArc
 50
306.7236368275
 51
357.4259979431
  0
ARC
  5
395
330
1F
100
AcDbEntity
  8
0
  6
Continuous
 62
     7
100
AcDbCircle
 10
574.3872470517
 20
427.6475641134
 30
0.0
 40
3.530898641877537
100
AcDbArc
 50
310.4057135623
 51
357.0283239013
  0
LINE
  5
396
330
1F
100
AcDbEntity
  8
0
  6
Continuous
 62
     7
100
AcDbLine
 10
577.9133976404
 20
427.4645142702
 30
0.0
 11
577.9133976404
 21
428.9407552531
 31
0.0
  0
LINE
  5
397
330
1F
100
AcDbEntity
  8
0
  6
Continuous
 62
     7
100
AcDbLine
 10
575.4031688802
 20
417.6871659818
 30
0.0
 11
574.6732187204
 21
418.4695874809
 31
0.0
  0
LINE
  5
398
330
1F
100
AcDbEntity
  8
0
  6
Continuous
 62
     7
100
AcDbLine
 10
575.4031688802
 20
417.6871659818
 30
0.0
 11
576.2633310698
 21
418.1838324438
 31
0.0
  0
LINE
  5
399
330
1F
100
AcDbEntity
  8
0
  6
Continuous
 62
     7
100
AcDbLine
 10
575.4031688802
 20
417.6871659818
 30
0.0
 11
573.1160335965
 21
419.0075010769
 31
0.0
  0
LINE
  5
39A
330
1F
100
AcDbEntity
  8
0
  6
Continuous
 62
     7
100
AcDbLine
 10
582.474236534
 20
421.7692064497
 30
0.0
 11
575.4031688802
 21
417.6871659818
 31
0.0
  0
LINE
  5
39B
330
1F
100
AcDbEntity
  8
0
  6
Continuous
 62
     7
100
AcDbLine
 10
582.474236534
 20
421.7692064497
 30
0.0
 11
582.7454445894
 21
421.925876927
 31
0.0
  0
LWPOLYLINE
  5
39C
330
1F
100
AcDbEntity
  8
0
  6
Continuous
 62
     7
100
AcDbPolyline
 90
        3
 70
   128
 43
0.0
 10
587.0552097673
 20
427.2067954064
 10
586.5211222688
 20
427.0211785066
 10
586.3720475485
 20
426.9520626157
  0
LWPOLYLINE
  5
39D
330
1F
100
AcDbEntity
  8
0
  6
Continuous
 62
     7
100
AcDbPolyline
 90
       15
 70
   128
 43
0.0
 10
608.9824198552
 20
407.2683149945
 10
608.7939049043
 20
410.3083256769
 10
608.3584120554
 20
413.1729557264
 10
607.6795422297
 20
415.8385064999
 10
606.762914129
 20
418.2829270882
 10
605.6161115519
 20
420.4859983528
 10
604.2486175393
 20
422.4294926293
 10
602.6717458859
 20
424.0973341916
 10
600.8985436753
 20
425.4757239766
 10
598.943678011
 20
426.5532612694
 10
596.8233214289
 20
427.3210311669
 10
594.5550136034
 20
427.7726813977
 10
592.1575191018
 20
427.9044770888
 10
589.6506719676
 20
427.7153266356
 10
587.0552097673
 20
427.2067954064
  0
LINE
  5
39E
330
1F
100
AcDbEntity
  8
0
  6
Continuous
 62
     7
100
AcDbLine
 10
610.1139448582
 20
407.2684043343
 30
0.0
 11
608.9824198552
 21
407.2683149945
 31
0.0
  0
LWPOLYLINE
  5
39F
330
1F
100
AcDbEntity
  8
0
  6
Continuous
 62
     7
100
AcDbPolyline
 90
        8
 70
   128
 43
0.0
 10
597.0086242877
 20
427.2682627417
 10
598.3089204187
 20
425.8584067906
 10
599.6764144313
 20
423.914912514
 10
600.8232170084
 20
421.7118412494
 10
601.7398451091
 20
419.2674206611
 10
602.4187149348
 20
416.6018698876
 10
602.8542077837
 20
413.7372398381
 10
603.0427227346
 20
410.6972291557
  0
LINE
  5
3A0
330
1F
100
AcDbEntity
  8
0
  6
Continuous
 62
     7
100
AcDbLine
 10
608.9824198552
 20
407.2683149945
 30
0.0
 11
603.0427227346
 21
410.6972291557
 31
0.0
  0
OLE2FRAME
  5
3A1
330
1F
100
AcDbEntity
  8
0
100
AcDbOle2Frame
 70
     2
  3
Picture (Device Independent Bitmap)
 10
461.5284504262494
 20
80.98338696855903
 30
0.0
 11
541.7312080260958
 21
40.55059181491738
 31
0.0
 71
     3
 72
     0
 73
     1
 90
    41600
310
8055C6246F8874D87C408351E5CFEF3E544000000000000000003CF59783D9ED
310
80408351E5CFEF3E544000000000000000003CF59783D9ED8040FA41E7CA7946
310
44400000000000000000C6246F8874D87C40FA41E7CA79464440000000000000
310
0000000000000100000000010000010000000100000000000100000000A20000
310
D0CF11E0A1B11AE1000000000000000000000000000000003E000300FEFF0900
310
0600000000000000000000000100000001000000000000000010000002000000
310
01000000FEFFFFFF0000000000000000FFFFFFFFFFFFFFFFFFFFFFFFFFFFFFFF
310
FFFFFFFFFFFFFFFFFFFFFFFFFFFFFFFFFFFFFFFFFFFFFFFFFFFFFFFFFFFFFFFF
310
FFFFFFFFFFFFFFFFFFFFFFFFFFFFFFFFFFFFFFFFFFFFFFFFFFFFFFFFFFFFFFFF
310
FFFFFFFFFFFFFFFFFFFFFFFFFFFFFFFFFFFFFFFFFFFFFFFFFFFFFFFFFFFFFFFF
310
FFFFFFFFFFFFFFFFFFFFFFFFFFFFFFFFFFFFFFFFFFFFFFFFFFFFFFFFFFFFFFFF
310
FFFFFFFFFFFFFFFFFFFFFFFFFFFFFFFFFFFFFFFFFFFFFFFFFFFFFFFFFFFFFFFF
310
FFFFFFFFFFFFFFFFFFFFFFFFFFFFFFFFFFFFFFFFFFFFFFFFFFFFFFFFFFFFFFFF
310
FFFFFFFFFFFFFFFFFFFFFFFFFFFFFFFFFFFFFFFFFFFFFFFFFFFFFFFFFFFFFFFF
310
FFFFFFFFFFFFFFFFFFFFFFFFFFFFFFFFFFFFFFFFFFFFFFFFFFFFFFFFFFFFFFFF
310
FFFFFFFFFFFFFFFFFFFFFFFFFFFFFFFFFFFFFFFFFFFFFFFFFFFFFFFFFFFFFFFF
310
FFFFFFFFFFFFFFFFFFFFFFFFFFFFFFFFFFFFFFFFFFFFFFFFFFFFFFFFFFFFFFFF
310
FFFFFFFFFFFFFFFFFFFFFFFFFFFFFFFFFFFFFFFFFFFFFFFFFFFFFFFFFFFFFFFF
310
FFFFFFFFFFFFFFFFFFFFFFFFFFFFFFFFFFFFFFFFFFFFFFFFFFFFFFFFFFFFFFFF
310
FFFFFFFFFFFFFFFFFFFFFFFFFFFFFFFFFFFFFFFFFFFFFFFFFFFFFFFFFFFFFFFF
310
FDFFFFFFFEFFFFFFFEFFFFFFFEFFFFFF05000000060000000700000008000000
310
090000000A0000000B0000000C0000000D0000000E0000000F00000010000000
310
1100000012000000130000001400000015000000160000001700000018000000
310
190000001A0000001B0000001C0000001D0000001E0000001F00000020000000
310
2100000022000000230000002400000025000000260000002700000028000000
310
290000002A0000002B0000002C0000002D0000002E0000002F00000030000000
310
3100000032000000330000003400000035000000360000003700000038000000
310
390000003A0000003B0000003C0000003D0000003E0000003F00000040000000
310
4100000042000000430000004400000045000000460000004700000048000000
310
490000004A0000004B0000004C0000004D0000004E0000004F000000FEFFFFFF
310
FFFFFFFFFFFFFFFFFFFFFFFFFFFFFFFFFFFFFFFFFFFFFFFFFFFFFFFFFFFFFFFF
310
FFFFFFFFFFFFFFFFFFFFFFFFFFFFFFFFFFFFFFFFFFFFFFFFFFFFFFFFFFFFFFFF
310
FFFFFFFFFFFFFFFFFFFFFFFFFFFFFFFFFFFFFFFFFFFFFFFFFFFFFFFFFFFFFFFF
310
FFFFFFFFFFFFFFFFFFFFFFFFFFFFFFFFFFFFFFFFFFFFFFFFFFFFFFFFFFFFFFFF
310
FFFFFFFFFFFFFFFFFFFFFFFFFFFFFFFFFFFFFFFFFFFFFFFFFFFFFFFFFFFFFFFF
310
FFFFFFFFFFFFFFFFFFFFFFFFFFFFFFFFFFFFFFFFFFFFFFFFFFFFFFFFFFFFFFFF
310
52006F006F007400200045006E00740072007900000000000000000000000000
310
0000000000000000000000000000000000000000000000000000000000000000
310
16000500FFFFFFFFFFFFFFFF020000001603000000000000C000000000000046
310
0000000000000000000000005029ED936E3ACE0103000000C000000000000000
310
01004F006C006500000000000000000000000000000000000000000000000000
310
0000000000000000000000000000000000000000000000000000000000000000
310
0A000200FFFFFFFFFFFFFFFFFFFFFFFF00000000000000000000000000000000
310
0000000000000000000000000000000000000000000000001400000000000000
310
010043006F006D0070004F0062006A0000000000000000000000000000000000
310
0000000000000000000000000000000000000000000000000000000000000000
310
120002010100000003000000FFFFFFFF00000000000000000000000000000000
310
0000000000000000000000000000000000000000010000006B00000000000000
310
43004F004E00540045004E005400530000000000000000000000000000000000
310
0000000000000000000000000000000000000000000000000000000000000000
310
12000200FFFFFFFFFFFFFFFFFFFFFFFF00000000000000000000000000000000
310
000000000000000000000000000000000000000004000000D696000000000000
310
FEFFFFFF02000000FEFFFFFFFFFFFFFFFFFFFFFFFFFFFFFFFFFFFFFFFFFFFFFF
310
FFFFFFFFFFFFFFFFFFFFFFFFFFFFFFFFFFFFFFFFFFFFFFFFFFFFFFFFFFFFFFFF
310
FFFFFFFFFFFFFFFFFFFFFFFFFFFFFFFFFFFFFFFFFFFFFFFFFFFFFFFFFFFFFFFF
310
FFFFFFFFFFFFFFFFFFFFFFFFFFFFFFFFFFFFFFFFFFFFFFFFFFFFFFFFFFFFFFFF
310
FFFFFFFFFFFFFFFFFFFFFFFFFFFFFFFFFFFFFFFFFFFFFFFFFFFFFFFFFFFFFFFF
310
FFFFFFFFFFFFFFFFFFFFFFFFFFFFFFFFFFFFFFFFFFFFFFFFFFFFFFFFFFFFFFFF
310
FFFFFFFFFFFFFFFFFFFFFFFFFFFFFFFFFFFFFFFFFFFFFFFFFFFFFFFFFFFFFFFF
310
FFFFFFFFFFFFFFFFFFFFFFFFFFFFFFFFFFFFFFFFFFFFFFFFFFFFFFFFFFFFFFFF
310
FFFFFFFFFFFFFFFFFFFFFFFFFFFFFFFFFFFFFFFFFFFFFFFFFFFFFFFFFFFFFFFF
310
FFFFFFFFFFFFFFFFFFFFFFFFFFFFFFFFFFFFFFFFFFFFFFFFFFFFFFFFFFFFFFFF
310
FFFFFFFFFFFFFFFFFFFFFFFFFFFFFFFFFFFFFFFFFFFFFFFFFFFFFFFFFFFFFFFF
310
FFFFFFFFFFFFFFFFFFFFFFFFFFFFFFFFFFFFFFFFFFFFFFFFFFFFFFFFFFFFFFFF
310
FFFFFFFFFFFFFFFFFFFFFFFFFFFFFFFFFFFFFFFFFFFFFFFFFFFFFFFFFFFFFFFF
310
FFFFFFFFFFFFFFFFFFFFFFFFFFFFFFFFFFFFFFFFFFFFFFFFFFFFFFFFFFFFFFFF
310
FFFFFFFFFFFFFFFFFFFFFFFFFFFFFFFFFFFFFFFFFFFFFFFFFFFFFFFFFFFFFFFF
310
FFFFFFFFFFFFFFFFFFFFFFFFFFFFFFFFFFFFFFFFFFFFFFFFFFFFFFFFFFFFFFFF
310
0100000200000000000000000000000000000000000000000000000000000000
310
0000000000000000000000000000000000000000000000000000000000000000
310
0100FEFF030A0000FFFFFFFF1603000000000000C00000000000004625000000
310
496D6D6167696E6520284269746D61702044657669636520496E646570656E64
310
656E742900FFFFFFFF080000000A00000053746174696344696200F439B27100
310
0000000000000000000000000000000000000000000000000000000000000000
310
0000000000000000000000000000000000000000000000000000000000000000
310
0000000000000000000000000000000000000000000000000000000000000000
310
0000000000000000000000000000000000000000000000000000000000000000
310
0000000000000000000000000000000000000000000000000000000000000000
310
0000000000000000000000000000000000000000000000000000000000000000
310
0000000000000000000000000000000000000000000000000000000000000000
310
0000000000000000000000000000000000000000000000000000000000000000
310
0000000000000000000000000000000000000000000000000000000000000000
310
0000000000000000000000000000000000000000000000000000000000000000
310
0000000000000000000000000000000000000000000000000000000000000000
310
424DD69600000000000036000000280000009E00000051000000010018000000
310
00000000000074120000741200000000000000000000FFFFFFFFFFFFFFFFFFFF
310
FFFFFFFFFFFFFFFFFFFFFFFFFFFFFFFFFFFFFFFFFFFFFFFFFFFFFFFFFFFFFFFF
310
FFFFFFFFFFFFFFFFFFFFFFFFFFFFFFFFFFFFFFFFFFFFFFFFFFFFFFFFFFFFFFFF
310
FFFFFFFFFFFFFFFFFFFFFFFFFFFFFFFFFFFFFFFFFFFFFFFFFFFCFCFCFFFFFFFE
310
FEFEFEFEFEEAEAEADBDBDBFFFFFFFFFFFFFFFFFFFFFFFFFFFFFFFFFFFFFFFFFF
310
FFFFFFFFFFFFFFFFFFFFFFFFFFFFFFFFFFFFFFFFFFFFFFFFFFFFFFFFFFFFFFFF
310
FFFFFFFFFFFFFFFFFFFFFFFFFFFFFFFFFFFFFFFFFFFFFFFFFFFFFFFFFFFFFFFF
310
FFFFFFFFFFFFFFFFFFFFFFFFFFFEFFFFFFFFFFFEFCFDFBFFFFFEFEFCFB989695
310
2826252A28279E9E9EFFFFFFFEFEFEFEFEFEFEFEFEFFFFFFFDFDFDFFFFFFFFFF
310
FFFFFFFFFFFFFFFFFFFFFFFFFFFFFFFFFFFFFFFFFFFFFFFFFFFFFFFFFFFFFFFF
310
FFFFFFFFFFFFFFFFFFFFFFFFFFFFFFFFFFFFFFFFFFFFFFFFFFFFFFFFFFFFFFFF
310
FFFFFFFFFFFFFFFFFFFFFFFFFFFFFFFFFFFFFFFFFFFFFFFFFFFFFFFFFFFFFEFE
310
FEFEFEFEC0C0C0323232212121787878FEFEFEFFFFFFFBFBFBFEFEFEFFFFFFFF
310
FFFFFFFFFFFEFEFEFFFFFFFFFFFFFFFFFFFFFFFFFFFFFFFFFFFFFFFFFFFFFFFF
310
FFFFFFFFFFFFFFFFFFFFFFFFFFFFFFFFFFFFFFFFFFFFFFFFFFFFFFFFFFFFFFFF
310
FFFFFFFFFFFFFFFFFFFFFFFFFFFFFFFF0000FFFFFFF9F9F9FFFFFFFFFFFFEFEF
310
EFFFFFFFF8F8F8FFFFFFFFFFFFF6F6F6FFFFFFFFFFFFFCFCFCFFFFFFFFFFFFF5
310
F5F5FFFFFFE1E1E1FFFFFFFFFFFFF7F7F7FFFFFFF5F5F5FFFFFFF6F6F6FFFFFF
310
F5F5F5FDFDFDFFFFFFF4F4F4FFFFFFFAFAFAFFFFFFF2F2F2FFFFFFFFFFFFF9F9
310
F9BFBFBF5D5D5DFFFFFFFDFDFDFEFEFEFFFFFFFFFFFFF8F8F8FFFFFFFFFFFFFD
310
FDFDFEFEFEF9F9F9FFFFFFFDFDFDFFFFFFFFFFFFF0F0F0FFFFFFFFFFFFFFFFFF
310
FBFBFBF7F7F7FAFAFAFCFCFCFFFFFFFEFEFEFAFCFCFDFFFFFDFFFFFDFFFFFFFF
310
FEF0F1EFFEFCFBFEFDF9FFFFFEFAF9F5FFFEFAFFFFFC64615C383530DBD8D3D1
310
CECA1B1918949494FFFFFFF9F9F9FDFDFDFFFFFFFDFDFDF7F7F7FFFFFFFFFFFF
310
FCFCFCFFFFFFEFEFEFFFFFFFFFFFFFF6F6F6FFFFFFFAFAFAF7F7F7FFFFFFF2F2
310
F2FFFFFFFBFBFBFFFFFFFAFAFAFFFFFFFCFCFCFFFFFFFDFDFDFFFFFFF2F2F2FF
310
FFFFFFFFFFFAFAFAFFFFFFF2F2F2FFFFFFFFFFFFF5F5F5FFFFFFFDFDFDBABABA
310
000000C8C8C8DDDDDD4A4A4A404040FFFFFFFBFBFBFFFFFFFFFFFFFDFDFDFFFF
310
FFFFFFFFF5F5F5FFFFFFF8F8F8FBFBFBFFFFFFFAFAFAF3F3F3FFFFFFFCFCFCFB
310
FBFBFDFDFDFFFFFFF0F0F0FFFFFFFFFFFFFCFCFCFFFFFFFBFBFBFFFFFFFFFFFF
310
F2F2F2FDFDFDFEFEFEFFFFFF0000FFFFFFFBFBFBFFFFFFFFFFFFFFFFFFFDFDFD
310
FFFFFFFCFCFCFFFFFFFFFFFFFAFAFAFFFFFFFFFFFFFCFCFCFFFFFFFFFFFFF8F8
310
F8FAFAFAFFFFFFF9F9F9FFFFFFFAFAFAFFFFFFFEFEFEFFFFFFECECECFFFFFFFD
310
FDFDFEFEFEFAFAFAF5F5F5FFFFFFF4F4F4FFFFFFFFFFFFF6F6F6FEFEFEBBBBBB
310
646464FFFFFFFFFFFFFFFFFFEBEBEBFFFFFFFCFCFCFFFFFFF6F6F6FDFDFDFFFF
310
FFF6F6F6F4F4F4FFFFFFF5F5F5FFFFFFFDFDFDFEFEFEF6F6F6FAFAFAFDFDFDFF
310
FFFFFFFFFFF3F3F3FFFFFFFCFCFCFAFCFCFDFFFFF4F6F6F6F8F8F2F3F1FFFFFE
310
FFFFFCFFFEFAFFFFFCFFFEFAFFFFFCFFFFFB494641EAE8E0FFFFFBFCF9F4F2F0
310
EF141414FAFAFAF4F4F4FFFFFFEFEFEFFFFFFFFFFFFFF6F6F6E8E8E8FFFFFFF3
310
F3F3FFFFFFFFFFFFEEEEEEFFFFFFFFFFFFF1F1F1FFFFFFFFFFFFFBFBFBFFFFFF
310
FFFFFFF1F1F1FBFBFBEEEEEEFFFFFFF7F7F7F5F5F5FFFFFFFFFFFFFBFBFBF1F1
310
F1FFFFFFF5F5F5FFFFFFF3F3F3FEFEFEFBFBFBFFFFFFFEFEFE484848D9D9D9FF
310
FFFFFEFEFEF0F0F0393939D6D6D6FFFFFFFAFAFAFFFFFFFCFCFCF9F9F9FFFFFF
310
FFFFFFFAFAFAFFFFFFFAFAFAF6F6F6FFFFFFFFFFFFFCFCFCF8F8F8FFFFFFF8F8
310
F8FFFFFFFDFDFDEDEDEDF7F7F7F8F8F8F3F3F3FFFFFFF7F7F7FAFAFAFBFBFBFE
310
FEFEFEFEFEEEEEEE0000FBFBFBFFFFFFB2B2B2E7E7E7FFFFFFFDFDFD9E9E9EF9
310
F9F9F9F9F9FFFFFFFEFEFEA2A2A2FDFDFDF6F6F6FBFBFBA9A9A9F6F6F6FFFFFF
310
FFFFFFF7F7F7A2A2A2FEFEFEFBFBFBEDEDEDC3C3C3FFFFFFF7F7F79F9F9FF2F2
310
F2FFFFFFFFFFFFCECECE5656563232328E8E8EFFFFFFFFFFFFADADAD969696D1
310
D1D13B3B3B2A2A2A9A9A9AFFFFFFFCFCFCFDFDFDB3B3B3E2E2E2F4F4F4FFFFFF
310
E6E6E64F4F4F2222227B7B7BFFFFFFF9F9F9FFFFFFF7F7F7FFFFFFFFFFFFEAEA
310
EAF4F4F4D3D3D34242424647458D8E8CFFFFFEFFFFFED5D6D4B2B3B1F4F5F3FF
310
FFFEF5F6F4B5B6B4C5C6C4F4F3EFFFFFFCC2C2BC3B3834555450FCFDFB5B5B5B
310
D5D5D5D1D1D1BBBBBBF8F8F8989898F2F2F2FFFFFFFFFFFFE6E6E69F9F9FF1F1
310
F1FFFFFFD3D3D33C3C3C272727989898FFFFFFFCFCFCFEFEFEEAEAEAA9A9A938
310
3838444444CACACAF9F9F9F0F0F0BCBCBCD3D3D3F2F2F2D0D0D0BBBBBBF6F6F6
310
9D9D9DFFFFFFF5F5F5FEFEFEDDDDDDAFAFAFFFFFFFE9E9E9E2E2E24242423D3D
310
3DD8D8D8959595929292FDFDFD999999E9E9E9FFFFFFEDEDEDF8F8F86666662B
310
2B2B656565FFFFFFECECECFFFFFFF4F4F4CFCFCF3838382A2A2AA5A5A5F7F7F7
310
F1F1F1E2E2E2BDBDBDFEFEFEFFFFFFF2F2F2B7B7B7D4D4D4FFFFFFFFFFFFF3F3
310
F39898980000F6F6F6FFFFFF3B3B3BABABABF5F5F5FFFFFF0A0A0AEDEDEDFBFB
310
FBFBFBFBFEFEFE151515E3E3E3FDFDFDDBDBDB111111FFFFFFFFFFFFFFFFFFEB
310
EBEB090909FFFFFFF0F0F0B6B6B63D3D3DEFEFEFFFFFFF202020F0F0F0FAFAFA
310
CACACA0000009A9A9AB6B6B62E2E2E707070F4F4F4C2C2C2343434141414B0B0
310
B0D1D1D12626264E4E4EFCFCFCFFFFFF2B2B2BDDDDDDFFFFFFE5E5E508080872
310
7272D9D9D9626262313131FDFDFDFCFCFCFFFFFFE6E6E6FFFFFFFFFFFFB5B5B5
310
171717ACACACB3B4B22122206E6F6DF8F9F7A2A3A17F807EF1F2F0FFFFFEFFFF
310
FE787977B7B8B6FFFFFE797A7820211FC6C7C59394921313133F3F3FCACACACA
310
CACA666666FFFFFF2C2C2CFFFFFFFEFEFEFEFEFEBBBBBB5B5B5BFFFFFFD1D1D1
310
080808B5B5B5C9C9C92F2F2F626262DDDDDDFFFFFF8B8B8B2F2F2FC7C7C7AAAA
310
AA040404ACACACFFFFFF616161B5B5B5FDFDFD9393938A8A8ADEDEDE444444FC
310
FCFCFBFBFBFFFFFFC1C1C1575757EBEBEBDADADA000000919191B0B0B0272727
310
6969696F6F6FFFFFFF383838C9C9C9F8F8F8FCFCFC000000828282C2C2C25F5F
310
5F1C1C1CFFFFFFFBFBFBC5C5C50B0B0BA9A9A9C8C8C81B1B1B8A8A8AFFFFFF94
310
94946A6A6AFBFBFBFFFFFFFFFFFF797979ADADADFFFFFFFFFFFFF1F1F14C4C4C
310
0000FEFEFEFBFBFB111111717171FEFEFED8D8D8000000ACACACFFFFFFFEFEFE
310
D4D4D4040404A4A4A4FFFFFF9B9B9B000000DFDFDFFDFDFDFFFFFFA9A9A90000
310
00DCDCDCFAFAFA686868030303FFFFFFF2F2F2919191FFFFFFF2F2F2121212F4
310
F4F4FAFAFAFFFFFFFFFFFF1D1D1DE0E0E0CBCBCB080808C9C9C9FEFEFEF2F2F2
310
FDFDFD2C2C2CC6C6C6FFFFFF3F3F3FE8E8E8F8F8F83E3E3EB1B1B1FFFFFFFFFF
310
FFEFEFEF3B3B3BABABABFFFFFFFFFFFFFFFFFFFFFFFFFBFBFB1E1E1EE4E4E4FF
310
FFFFFFFFFEFFFFFE050604EEEFED969795868785FDFFFFFDFFFFFDFFFF6F7171
310
B1B3B3E9EBEB0C0E0EFAFCFCFDFFFFFDFFFFDDDDDD040404DBDBDBB3B3B36B6B
310
6BFFFFFF363636F8F8F8F9F9F9FFFFFFE0E0E04C4C4CECECEC2A2A2ADADADAFD
310
FDFDFAFAFAFFFFFF151515DDDDDDD6D6D61E1E1EFFFFFFF5F5F5FFFFFFDDDDDD
310
121212FFFFFF5A5A5AB1B1B1FFFFFF9E9E9E848484F2F2F2333333FFFFFFF7F7
310
F7FEFEFEC9C9C9606060FFFFFF020202DADADAFFFFFFFFFFFFFFFFFF0303038A
310
8A8AEAEAEAB4B4B4D5D5D5FAFAFA6A6A6AA0A0A0F9F9F9FFFFFFFFFFFF5A5A5A
310
858585F7F7F7000000DFDFDFFFFFFFE9E9E9FFFFFF0B0B0BE6E6E6C0C0C08A8A
310
8AF0F0F0FFFFFFFAFAFA737373A9A9A9FFFFFFFFFFFFFCFCFC4242420000FFFF
310
FFC1C1C1575757555555FFFFFF8787877E7E7E525252FFFFFFFFFFFF8787877C
310
7C7C646464FFFFFF5B5B5B7F7F7F8F8F8FFFFFFFFDFDFD5050508A8A8A969696
310
FFFFFF3D3D3D656565BCBCBCFFFFFFF3F3F3FFFFFFE0E0E0323232E4E4E4F6F6
310
F6FBFBFBEFEFEF9F9F9F7E7E7EC1C1C1303030FFFFFFFCFCFCFFFFFFFFFFFF9E
310
9E9E585858FFFFFF565656C6C6C6F8F8F8232323FFFFFFF7F7F7F8F8F8FFFFFF
310
E0E0E0464646FAFAFAEFEFEFFFFFFFFFFFFFBBBBBB676767FFFFFFFFFFFFF5F6
310
F4F6F7F5FFFFFEFCFDFBB6B7B56D6E6CFDFFFFE3E5E5FDFFFF717675BFC3C477
310
7B7C8F9394E8ECEDFBFFFFF9FDFEFDFFFF1C1C1CD2D2D2C6C6C6727272FAFAFA
310
323232FCFCFCFFFFFFF4F4F4CACACA797979EBEBEB535353FFFFFFFEFEFEFAFA
310
FAFFFFFFEFEFEFFBFBFB939393959595FFFFFFFFFFFFFFFFFFF3F3F3EBEBEBF7
310
F7F7636363D6D6D6E8E8E8A6A6A6868686FCFCFC383838FFFFFFFAFAFAFFFFFF
310
CECECE6D6D6DE4E4E43E3E3EFFFFFFF5F5F5F3F3F3F6F6F68888886F6F6FFFFF
310
FFFBFBFBFFFFFFF6F6F6070707FFFFFFE8E8E8FFFFFFF6F6F6E7E7E7F9F9F9D0
310
D0D0484848FFFFFFF6F6F6FFFFFFF2F2F27A7A7AA2A2A2A1A1A1848484FEFEFE
310
F8F8F8FFFFFF7E7E7EB3B3B3FEFEFEFFFFFFFFFFFF4040400000FEFEFE6F6F6F
310
C0C0C05E5E5EECECEC535353E5E5E5343434F0F0F0FFFFFF4A4A4AE3E3E34F4F
310
4FEFEFEF434343EFEFEF464646FFFFFFF0F0F02C2C2CF9F9F9595959E6E6E657
310
5757C4C4C4757575F3F3F3FFFFFFF5F5F5B7B7B7696969FFFFFFFFFFFFFFFFFF
310
FFFFFFB3B3B3575757DADADA565656FBFBFBFFFFFFE6E6E6FFFFFFC5C5C54545
310
45FFFFFF4C4C4CDEDEDEE8E8E82E2E2EFCFCFCFFFFFFFFFFFFFFFFFFDCDCDC2D
310
2D2DE2E2E23737370B0B0B828282BFBFBF3131315F5F5F5959596162605C5D5B
310
686967B2B3B1B5B7B77E8080F3F5F5FDFFFFF0F4F5747879BCBFC3515659BCC1
310
C4FAFFFFEDF2F5FAFFFFF8FAFB858585ABABABB7B7B76B6B6BFFFFFF323232FF
310
FFFFFFFFFFF9F9F9D9D9D9474747C9C9C91E1E1E5B5B5B6E6E6E636363565656
310
7777778F8F8F6060605050505D5D5D5353535959595F5F5F676767E1E1E16767
310
67B8B8B8FFFFFFA0A0A0828282EEEEEE383838FDFDFDFFFFFFFFFFFFC5C5C561
310
6161AEAEAE707070FEFEFEFFFFFFFFFFFFEEEEEEC9C9C9656565EFEFEFFCFCFC
310
F1F1F1FFFFFF373737FFFFFFFFFFFFFDFDFDFFFFFFFFFFFFFEFEFE8F8F8F6D6D
310
6DFFFFFFF2F2F2F4F4F4F6F6F6D8D8D8606060C6C6C6838383FFFFFFFFFFFFF0
310
F0F0787878B7B7B7FBFBFBFFFFFFFCFCFC3535350000FBFBFB383838FFFFFF74
310
7474C0C0C0515151F7F7F74F4F4FDDDDDDF4F4F4343434F6F6F65A5A5AD1D1D1
310
4B4B4BFFFFFF272727FBFBFBE8E8E83A3A3AFFFFFF3C3C3CB4B4B4898989F9F9
310
F9292929FFFFFFEEEEEEFFFFFFB1B1B1535353FEFEFEFEFEFEE8E8E8FFFFFFC0
310
C0C05D5D5DBEBEBE626262FDFDFDF8F8F8FFFFFFFFFFFFC4C4C4595959F2F2F2
310
545454D7D7D7EDEDED2E2E2EFFFFFFF7F7F7FFFFFFF6F6F6F3F3F3313131FFFF
310
FFBEBEBED2D2D2E9E9E9ABABAB3B3B3BCDCDCDB4B4B4B8B9B7CDCECC6D6E6C77
310
7876BBBDBD717373FDFFFFF6F8F8FBFFFF5D6162CED2D362676AA6ABAEEFF4F7
310
FAFFFFEDF2F5FDFFFF444444CFCFCFC2C2C27F7F7FEDEDED2F2F2FF7F7F7F0F0
310
F0FFFFFFCBCBCB5B5B5BDFDFDF333333D1D1D1B5B5B5ABABABC4C4C47C7C7C5A
310
5A5A868686828282B5B5B5BCBCBCB4B4B4CDCDCD373737C3C3C3707070C5C5C5
310
FFFFFF969696888888EFEFEF474747F6F6F6FFFFFFFFFFFFC6C6C6707070C3C3
310
C3636363FCFCFCFCFCFCF8F8F8FDFDFDACACAC5E5E5EFFFFFFFFFFFFF5F5F5ED
310
EDED292929FEFEFEFDFDFDFFFFFFF8F8F8FFFFFFFCFCFCB1B1B1717171F9F9F9
310
F8F8F8FFFFFFFFFFFFAAAAAA797979C0C0C07A7A7AF5F5F5FFFFFFFFFFFF7171
310
71B8B8B8FAFAFAFFFFFFFFFFFF3C3C3C0000FBFBFB2A2A2AFFFFFFCACACA2B2B
310
2B6E6E6EFEFEFE9393938F8F8FDADADA555555FDFDFDA0A0A02D2D2DA4A4A4FF
310
FFFF595959CACACA818181A0A0A0FFFFFF6868682F2F2FDEDEDEF9F9F93D3D3D
310
D7D7D7FFFFFFFEFEFEF5F5F5252525F7F7F7FFFFFFFFFFFFFAFAFA6E6E6EA0A0
310
A0C7C7C7000000FFFFFFFFFFFFF7F7F7FFFFFF4949499F9F9FFFFFFF484848DC
310
DCDCFCFCFC262626E5E5E5FFFFFFF7F7F7FFFFFF999999626262FFFFFFFCFCFC
310
FFFFFFFEFEFEE2E2E2121212FFFFFFFFFFFFFBFCFAFFFFFE545553BABBB9BEC0
310
C0525454F5F7F7FDFFFFF9FBFB585A5AD1D3D3ACB0B155595AF5F9FAF3F7F8FB
310
FFFFFDFFFF000000DADADAB9B9B9787878FCFCFC232323F6F6F6FFFFFFFDFDFD
310
BDBDBD595959FBFBFB1D1D1DF7F7F7FFFFFFFFFFFFF4F4F4585858A9A9A9ADAD
310
AD5F5F5FF4F4F4FFFFFFF8F8F8FFFFFF212121ECECEC5F5F5FB8B8B8FAFAFAA3
310
A3A3888888F1F1F1191919FFFFFFFEFEFEFFFFFFA5A5A57D7D7DF0F0F01C1C1C
310
FEFEFEFBFBFBFCFCFCFFFFFF4646467A7A7AFFFFFFF5F5F5FFFFFFFFFFFF2F2F
310
2FDADADAFFFFFFFDFDFDFFFFFFB7B7B7AAAAAAF1F1F1202020FBFBFBFDFDFDFF
310
FFFFFFFFFF4E4E4EB9B9B9C1C1C15A5A5AF3F3F3FFFFFFFFFFFF555555878787
310
FFFFFFFBFBFBFCFCFC41414100009D9D9D888888FFFFFFFFFFFF080808B5B5B5
310
EFEFEFE1E1E1555555686868C4C4C4FDFDFDE3E3E3000000DDDDDDF8F8F8ABAB
310
AB7979793E3E3EE5E5E5FFFFFFB3B3B30B0B0BF2F2F2FFFFFF626262BFBFBFFF
310
FFFFEEEEEEFBFBFB606060636363FEFEFEF8F8F8CCCCCC050505F1F1F1DCDCDC
310
060606494949FCFCFCFFFFFF989898171717FFFFFFFFFFFF585858C5C5C5FFFF
310
FF858585484848F6F6F6FFFFFFDCDCDC151515EEEEEEECECECFFFFFFF8F8F8FF
310
FFFFFFFFFF555555797979FFFFFFFFFFFEB1B2B00F100EF7F8F6C1C3C3000000
310
DBDDDDF0F2F2DDDFDF050604EFF0EEF4F5F30A0C0CC0C2C2FDFFFFF1F3F36B6B
310
6B0A0A0AC5C5C5D5D5D5616161FFFFFF0000008B8B8BFFFFFFFFFFFF282828C0
310
C0C0FFFFFF525252696969F2F2F2EFEFEFD4D4D40E0E0EFFFFFFFFFFFF171717
310
D9D9D9EDEDEDFAFAFA747474323232FFFFFF6C6C6C1C1C1CEFEFEFA0A0A08B8B
310
8BFEFEFE0202029B9B9BFFFFFFF3F3F31E1E1ED3D3D3FFFFFF343434696969FF
310
FFFFEEEEEEAFAFAF000000777777F2F2F2FFFFFFEEEEEEFAFAFAC1C1C1161616
310
FFFFFFF9F9F9E8E8E8050505D3D3D3F4F4F45353537B7B7BFAFAFAFBFBFBA8A8
310
A8282828FFFFFFA0A0A0000000E7E7E7F2F2F2DBDBDB000000393939E1E1E1F5
310
F5F5BBBBBB3131310000787878BABABAEFEFEFF9F9F9505050E7E7E7F3F3F3FF
310
FFFF2B2B2B3D3D3DEEEEEEFFFFFFFEFEFE434343FFFFFFFFFFFFDCDCDC464646
310
4B4B4BF3F3F3FFFFFFDDDDDD505050FFFFFFFBFBFBC4C4C4515151F9F9F9FFFF
310
FFF9F9F9FFFFFF4242420707072B2B2B050505EFEFEFFFFFFFB8B8B882828266
310
66660000001B1B1B282828ECECECFFFFFF0D0D0D0101010101018C8C8CFFFFFF
310
646464050505353535090909B3B3B3F1F1F1FDFDFDFFFFFFFFFFFFF1F1F1FFFF
310
FFEAEAEA4747471E1E1E1D1F1F1E2020CACCCCFDFFFFAFB0AE5D5E5C2E2F2D15
310
1614070806B3B2AEFFFFFCFDFCF8EFEEEA201F1B0B08032B2A26575856818181
310
BBBBBBB6B6B67B7B7BE6E6E65A5A5A595959151515000000686868FFFFFFE4E4
310
E4FAFAFA6060601A1A1A212121020202D0D0D0F3F3F3F8F8F8DBDBDB0B0B0B26
310
2626212121323232F7F7F7FBFBFB7979795B5B5B404040B7B7B7878787F7F7F7
310
434343555555131313000000888888F0F0F0FEFEFEFFFFFF4949490404042D2D
310
2D242424C3C3C3767676FDFDFDFFFFFFFDFDFDFFFFFFFAFAFA94949404040429
310
2929000000B6B6B6FFFFFFFFFFFFFFFFFF2828281F1F1F202020191919EFEFEF
310
FFFFFFC6C6C65A5A5A1D1D1D1313130D0D0DBBBBBBBBBBBB0F0F0F0E0E0E0505
310
05F5F5F50000F1F1F1FEFEFEFFFFFFFBFBFBF0F0F0FFFFFFFFFFFFFFFFFFFFFF
310
FFF6F6F6F6F6F6F0F0F0FFFFFFF1F1F1FFFFFFF7F7F7FEFEFEE3E3E3FDFDFDF1
310
F1F1FFFFFFFFFFFFFBFBFBF4F4F4FFFFFFFAFAFAF8F8F8FFFFFFF6F6F6FFFFFF
310
FFFFFFFFFFFFDDDDDDC2C2C2FFFFFFF5F5F5FFFFFFFFFFFFE7E7E7FDFDFDEBEB
310
EBE0E0E0FAFAFAEFEFEFFFFFFFFFFFFF4E4E4EE1E1E1FFFFFFF4F4F4FBFBFBE3
310
E3E3C6C6C6EDEDEDFFFFFFFFFFFFFFFFFFF4F4F4FFFFFFFFFFFFF0F0F0FFFFFF
310
FCFCFCDBDBDBD0D2D2F8FAFAFDFFFFFDFFFFF0F1EFFFFFFEFFFFFEDDDCD8FFFF
310
FCF1EEE9FFFFF9F5F2EAFFFFF9FFFFF8DCD7CEEFECE4FFFFFEFFFFFFFFFFFFFD
310
FDFDF7F7F7FFFFFFFFFFFFECECECE7E7E7FFFFFFFDFDFDF1F1F1FFFFFFFFFFFF
310
FFFFFFCBCBCBD0D0D0FFFFFFFFFFFFFDFDFDFFFFFFFFFFFFFFFFFFD5D5D5CDCD
310
CDFFFFFFF4F4F4FFFFFFEDEDEDFCFCFCF2F2F2FCFCFCFAFAFAF7F7F7FFFFFFF7
310
F7F7E1E1E1F5F5F5F8F8F8FFFFFFF3F3F3FFFFFFFFFFFFDBDBDBEAEAEAEEEEEE
310
F5F5F5F8F8F8FFFFFFEBEBEBF5F5F5F1F1F1FFFFFFFBFBFBFFFFFFBDBDBDFFFF
310
FFF0F0F0F5F5F5FEFEFEF5F5F5FFFFFFD0D0D0CBCBCBFAFAFAFDFDFDF1F1F1FB
310
FBFBFBFBFBFFFFFFE8E8E8F8F8F8FFFFFFFFFFFFE5E5E5DFDFDFFFFFFFF3F3F3
310
0000FFFFFFFCFCFCFAFAFAFFFFFFFFFFFFF5F5F5F7F7F7FAFAFAE5E5E5FFFFFF
310
FFFFFFF8F8F8FFFFFFFFFFFFECECECFFFFFFFFFFFFFFFFFFFFFFFFFFFFFFF8F8
310
F8EBEBEBF9F9F9FFFFFFFFFFFFFFFFFFF0F0F0F7F7F7FFFFFFF9F9F9E7E7E7FF
310
FFFFF8F8F8FFFFFFFDFDFDF2F2F2FFFFFFFFFFFFF0F0F0FFFFFFFFFFFFF6F6F6
310
FFFFFFFFFFFFF6F6F6FFFFFF323232D4D4D4FBFBFBE6E6E6FFFFFFFFFFFFFAFA
310
FAF3F3F3FFFFFFECECECFFFFFFF0F0F0F5F5F5FFFFFFFFFFFFFEFEFEFDFDFDFF
310
FFFFF7F9FAFAFEFFECF1F0EEF0F0FFFFFEFFFFFEF9F8F4FFFFFBFFFEF6FFFEF5
310
FFFEF3FFFFF7FFF7EAFFF8EBFFFFF5FAF4E9FFFEFAF1F1F1FBFBFBB8B8B87979
310
79FFFFFFF5F5F5FFFFFFFFFFFFECECECFFFFFFF6F6F6FBFBFBF4F4F4ECECECFF
310
FFFFFDFDFDF1F1F1FEFEFEFBFBFBFDFDFDFFFFFFF4F4F4FEFEFEFFFFFFFFFFFF
310
F2F2F2FFFFFFFFFFFFF5F5F5FFFFFFA4A4A47D7D7DFFFFFFF7F7F7FFFFFFFDFD
310
FDFFFFFFEAEAEAFFFFFFFAFAFAFFFFFFEEEEEEFFFFFFEEEEEEFFFFFFFFFFFFFF
310
FFFFFFFFFFFFFFFFFFFFFFF9F9F9F6F6F6FAFAFAF7F7F7FFFFFFFCFCFCFFFFFF
310
F2F2F2FFFFFFFFFFFFF7F7F7FAFAFAFFFFFFFFFFFFFFFFFFFAFAFAF9F9F9F9F9
310
F9FAFAFAEAEAEAFFFFFFEDEDEDF6F6F6FFFFFFFFFFFFF6F6F6FFFFFF0000F8F8
310
F8F4F4F4F2F2F2FFFFFFFDFDFDFFFFFFFFFFFFFFFFFFFFFFFFFAFAFAFFFFFFED
310
EDEDFBFBFBFFFFFFF7F7F7FFFFFFF3F3F3FFFFFFFFFFFFF1F1F1FEFEFEFFFFFF
310
FFFFFFFFFFFFFFFFFFFAFAFAFFFFFFFFFFFFFFFFFFFFFFFFFFFFFFFFFFFFFFFF
310
FFFCFCFCFFFFFFFFFFFFF4F4F4F8F8F8FEFEFEF2F2F2FDFDFDFFFFFFF9F9F9F7
310
F7F7FCFCFCFFFFFF898989D5D5D5FCFCFCFFFFFFF7F7F7FBFBFBFFFFFFFFFFFF
310
FFFFFFF9F9F9FEFEFEFFFFFFFFFFFFF6F6F6EBEBEBFFFFFFF5F5F5FDFFFFFBFF
310
FFFBFFFFFBFFFFFBFFFFF1F2F0F5F4F0FFFFFAFFFEF6FFFBF2FFFFF7FFFFF5F4
310
EBDDFFFFF4FFFFF2FFFFEFFFFFF5FFFFFCFFFFFFFFFFFFB8B8B8787878FFFFFF
310
FFFFFFFEFEFEFBFBFBFFFFFFFFFFFFFCFCFCFFFFFFFFFFFFFCFCFCFFFFFFFCFC
310
FCFFFFFFFCFCFCFFFFFFFFFFFFFBFBFBFFFFFFFAFAFAF5F5F5FFFFFFFFFFFFEB
310
EBEBFFFFFFFFFFFFF3F3F3ADADADA1A1A1F8F8F8FFFFFFFFFFFFDFDFDFFFFFFF
310
FFFFFFFFFFFFFFFFFFF4F4F4FFFFFFF7F7F7FFFFFFF9F9F9FFFFFFE8E8E8F7F7
310
F7F1F1F1F1F1F1FFFFFFFFFFFFF2F2F2FFFFFFF9F9F9ECECECFFFFFFFFFFFFE5
310
E5E5FFFFFFFFFFFFF4F4F4FFFFFFF3F3F3FCFCFCFFFFFFFFFFFFFFFFFFFFFFFF
310
F7F7F7FEFEFEFFFFFFFCFCFCF4F4F4FAFAFAF7F7F7FFFFFF0000FFFFFFFDFDFD
310
FFFFFFFEFEFEFBFBFBF8F8F8FFFFFFEFEFEFF9F9F9F1F1F1FFFFFFFFFFFFFAFA
310
FAF6F6F6F7F7F7FFFFFFFFFFFFF3F3F3FEFEFEF4F4F4FFFFFFF4F4F4F4F4F4FB
310
FBFBFFFFFFF6F6F6FFFFFFFFFFFFEEEEEEFBFBFBFFFFFFF9F9F9FFFFFFFEFEFE
310
EEEEEEF8F8F8F7F7F7FFFFFFF8F8F8FFFFFFFBFBFBFFFFFFFFFFFFFFFFFFFFFF
310
FFF9F9F9EFEFEFFFFFFFFCFCFCFAFAFAFFFFFFFEFEFEFFFFFFF3F3F3FDFDFDFF
310
FFFFFFFFFFF5F5F5FBFBFBFFFFFFF7F7F7FFFFFFF4F4F4FDFFFFFBFFFFE6EBEC
310
F1F5F6FBFFFFFDFEFCFFFFFCFFFFFBFDFAF2E5DFD4D5CDC0CDC4B6E5DBCAD2C6
310
B4FFFFEFF4E6D3FFFCEEFFFFFAF8F8F8F0F0F0FFFFFFFFFFFFF5F5F5FEFEFEF5
310
F5F5FFFFFFFFFFFFF4F4F4FFFFFFFFFFFFF8F8F8FFFFFFF5F5F5FFFFFFFFFFFF
310
F5F5F5FFFFFFFFFFFFF2F2F2FFFFFFFFFFFFFFFFFFE5E5E5FFFFFFFFFFFFE7E7
310
E7FFFFFFFFFFFFFFFFFFFFFFFFE6E6E6FEFEFEFFFFFFFFFFFFFFFFFFF3F3F3FD
310
FDFDF8F8F8F2F2F2FFFFFFFFFFFFFFFFFFFFFFFFFFFFFFFFFFFFFDFDFDFFFFFF
310
FFFFFFEFEFEFFFFFFFFBFBFBEEEEEEFEFEFEFFFFFFEDEDEDFFFFFFFFFFFFEEEE
310
EEFFFFFFFBFBFBFFFFFFFFFFFFFFFFFFF7F7F7FFFFFFFFFFFFFBFBFBFEFEFEFE
310
FEFEFAFAFAFFFFFFF9F9F9F5F5F5FFFFFFFFFFFF0000FFFFFFF7F7F7FFFFFFFF
310
FFFFFEFEFEFFFFFFFFFFFFFFFFFFFFFFFFFFFFFFFFFFFFEBEBEBFFFFFFFFFFFF
310
FFFFFFF8F8F8F5F5F5FFFFFFF8F8F8FFFFFFFFFFFFF0F0F0FFFFFFFDFDFDFFFF
310
FFFFFFFFF5F5F5FFFFFFFFFFFFF6F6F6FFFFFFF9F9F9F8F8F8FCFCFCFFFFFFFE
310
FEFEFFFFFFF9F9F9FFFFFFF7F7F7FFFFFFFAFAFAF7F7F7FFFFFFFFFFFFFFFFFF
310
FFFFFFFCFCFCFFFFFFFEFEFEFFFFFFF5F5F5FFFFFFF2F2F2FFFFFFF5F5F5F3F3
310
F3FFFFFFFEFEFEF4F4F4FFFFFFF2F2F2FCFCFCFDFFFFF1F5F6FBFFFFF7FBFCFB
310
FFFFFAFCFCF0F1EFFFFFFBFFFFF7F5ECDED0C4B2D2C4AEE0CFB5DCC9AED2BDA1
310
EFD9BDD9C5ACDDD0C0FFF7EDFFFFF6FFFAF3FFFFFBFFFFFCF8F6F5FFFFFFF8FA
310
FBFBFDFEFDFFFFFDFFFFEEF0F0FDFFFFF5F6F4FFFFFEFDFFFFFDFFFFFBFDFDFD
310
FFFFFCFEFEFBFBFBFEFEFEFFFFFFF7F7F7FFFFFFFEFEFEFDFDFDFFFFFFF9F9F9
310
FFFFFFF2F2F2F7F7F7FFFFFFFDFDFDFFFFFFF0F0F0FFFFFFFFFFFFFFFFFFFCFC
310
FCFFFFFFF6F6F6F5F5F5FEFEFEFCFCFCFFFFFFFBFBFBFFFFFFE9E9E9FFFFFFFF
310
FFFFF8F8F8FFFFFFFFFFFFFFFFFFF6F6F6FFFFFFF4F4F4FFFFFFFAFAFAFFFFFF
310
FFFFFFFAFAFAFFFFFFF2F2F2FFFFFFFFFFFFF6F6F6FEFEFEFFFFFFFFFFFFFBFB
310
FBF8F8F8FFFFFFFFFFFFF1F1F1F9F9F90000FDFDFDFFFFFFFFFFFFFFFFFFFCFC
310
FCFCFCFCFFFFFFFFFFFFFFFFFFFFFFFFFFFFFFFFFFFFFFFFFFFFFFFFFFFFFFFF
310
FFFFF5F5F5FFFFFFEBEBEBBABABACBCBCBD6D6D6BABABAD6D6D6D2D2D2CBCBCB
310
CECECED0D0D0CACACACCCCCCD1D1D1CDCDCDCCCCCCCECECEC5C5C5FFFFFFFBFB
310
FBFDFDFDFFFFFFFBFBFBFFFFFFFFFFFFFFFFFFFFFFFFFFFFFFFFFFFFFFFFFFFF
310
FFFFFFFFFFFFFFFFFFFFFFFFFFFFFFFFFFFFFFFFFFFFFFFFFFFFF2F2F2FEFEFE
310
FFFFFFFFFFFFFFFFFFFFFFFFFEFEFEF8F8F8FDFFFFFAFCFCF1F6F7F2F7FAF9FE
310
FFFBFFFFFFFFFCFFFCF1F7E9D6DEC9AEE5CAA8ECCDA6EDCBA0EFCCA0EBC69AF0
310
CCA4F6D3B1E1C3A6DFC4AAFDE8D3FFFFF4FFFFF8FBF6F3FAF9FBEFF4F7F1F7FC
310
F5FBFFF7FEFFFAFFFFFBFFFEFDFFFCFCFFFBF1F6F4FBFFFFF9FEFDF2F7F6F7FC
310
FBFBFDFDF9FBFBFCFEFEFCFCFCFCFCFCFEFCFCFFFDFDFFFDFDFFFDFDFFFDFEFF
310
FEFEFDFDFDFDFDFDFDFDFDFDFDFDFDFDFDFDFDFDFDFDFDFDFDFDFDFDFDFDFDFD
310
FDFDFDFDFDFDFDFDFDFDFDFDFDFDFDFDFDFDFEFEFEFDFDFDFCFCFCFCFCFCFCFC
310
FCFCFCFCFDFDFDFEFEFEFDFDFDFDFDFDFDFDFDFDFDFDFDFDFDFDFDFDFDFDFDFD
310
FDFDFBFBFBFCFCFCFCFCFCFDFDFDFDFDFDFEFEFEFEFEFEFEFEFEFFFFFFF3F3F3
310
FFFFFFFAFAFAF8F8F8FDFDFD0000FBFBFBFDFDFDFFFFFFFFFFFFFFFFFFFFFFFF
310
FEFEFEFDFDFDFFFFFFFFFFFFFFFFFFFFFFFFFFFFFFFFFFFFFFFFFFFFFFFFFFFF
310
FFFDFDFDEAEAEA8F8F8F8080807A7A7A8D8D8D8585858282827E7E7E83838386
310
86868080808282828585857F7F7F8585858585858F8F8FF7F7F7FBFBFBFDFDFD
310
FFFFFFFFFFFFFFFFFFFFFFFFFFFFFFFFFFFFFFFFFFFFFFFFFFFFFFFFFFFFFFFF
310
FFFFFFFFFFFFFFFFFFFFFFFFFFFFFFFFFFFFFFFFFFFFFFFFFFFFFFFFFAFAFAF6
310
F6F6FBFBFBFFFFFFFFFFFFFFFFFFF5F6F4FCFEFEFAFFFFF8FFFFF7FDFFF4F7FB
310
FDFBFAFFFFF7F6E7D4DFC7A9E7C7A3F0CB9FF2C99CF4CA9BECC293F1C79AE9BE
310
93FDD4ADF4CFADDABC9FDDC5B1F3E3D6FFFCF5FFFFFEFBFFFFF6FDFFEDF3F8F2
310
F9FCF7FFFEF7FEFBF9FFFAFBFFFCFBFFFEFAFFFFF2F8F7F5FBFAFBFFFFFBFFFF
310
FDFFFFF2F4F4FEFEFEFEFEFEFFFFFFFFFFFFFFFEFFFFFEFFFFFEFFFFFFFFFFFF
310
FFFFFFFFFFFFFFFFFFFFFFFFFFFFFFFFFFFFFFFFFFFFFEFEFEFEFEFEFEFEFEFE
310
FEFEFEFEFEFEFEFEFEFEFEFEFEFEFFFFFFFFFFFFFFFFFFFEFEFEFEFEFEFFFFFF
310
FFFFFFFFFFFFFCFCFCFCFCFCFCFCFCFCFCFCFCFCFCFCFCFCFCFCFCFCFCFCFEFE
310
FEFEFEFEFEFEFEFFFFFFFFFFFFFFFFFFFFFFFFFFFFFFF6F6F6F1F1F1FFFFFFFF
310
FFFFFFFFFFFEFEFE0000FFFFFFFEFEFEFEFEFEFFFFFFFFFFFFFFFFFFFEFEFEFC
310
FCFCFFFFFFFFFFFFFFFFFFFFFFFFFFFFFFFFFFFFFFFFFFFFFFFFF9F9F9FFFFFF
310
EBEBEBCBCBCB7070708484849494948080808989898686868D8D8D9292928D8D
310
8D8E8E8E9090908989898F8F8F878787919191FFFFFFFFFFFFFFFFFFFAFAFAFA
310
FAFAFFFFFFFFFFFFFFFFFFFFFFFFFFFFFFFFFFFFFFFFFFFFFFFFFFFFFFFFFFFF
310
FFFFFFFFFFFFFFFFFFFFFFFFFFFFFFFFFFFFFBFBFBFEFEFEFFFFFFFFFFFFFFFF
310
FFF8F8F8F6F6F6F9F9F9FFFFFEFFFFFEF6FAFBF0F5F8EEF4F9F6F9FDFFFFFEFF
310
FFF8FAECDADFCAAFE3C7A5E9C8A1EDC9A1F6D3A8F4D0A8FCD5AEEDC399FAD0A6
310
F4CEABE8C9AAE3CAB0DFCBB9DED2C6E8E0D9FEFBF7FBFCFAFAFCFCFAFFFEFBFF
310
FEFBFFFCFDFFFBFAFFFBFBFFFEF7FDFCFBFFFFFBFFFFFBFFFFEAEFEEFDFFFFFD
310
FFFFFDFDFDFDFDFDFFFDFDFFFDFDFFFDFDFFFDFDFFFBFCFEFCFCFFFDFDFDFDFD
310
FDFDFDFDFDFDFDFDFDFDFDFDFDFDFDFDFDFDFDFDFDFDFDFDFDFDFDFDFDFDFDFD
310
FDFDFDFDFDFDFDFDFDFDFDFDFDFDFDFDFDFDFDFDFDFDFDFDFDFDFDFDFDFDFDFD
310
FDFDFFFFFFFFFFFFFFFFFFFFFFFFFFFFFFFFFFFFFFFFFFFFFFFFFCFCFCFCFCFC
310
FCFCFCFDFDFDFDFDFDFDFDFDFEFEFEFEFEFEFFFFFFFFFFFFFDFDFDFFFFFFFAFA
310
FAFAFAFA0000FFFFFFFFFFFFFFFFFFFEFEFEFCFCFCFDFDFDFFFFFFFFFFFFFFFF
310
FFFFFFFFFFFFFFFFFFFFFFFFFFFFFFFFFFFFFFFFFFFFF6F6F6FFFFFFFAFAFAFF
310
FFFF9E9E9E8A8A8A8C8C8C8181818282827F7F7F8585858A8A8A858585878787
310
8A8A8A848484909090898989929292FFFFFFFFFFFFFDFDFDFDFDFDFFFFFFFFFF
310
FFFFFFFFFFFFFFFFFFFFFFFFFFFFFFFFFFFFFFFFFFFFFFFFFFFFFFFFFFFFFFFF
310
FFFFFFFFFFFFFFFFFFFFFFFFFFFFFDFDFDFCFCFCFFFFFFFFFFFFFFFFFFFDFDFD
310
FFFFFFFFFFFEFCFBF7F8F9F7F6FAFBFAFFFFF8FEFFFAFFFFFFFFFFFFFDF6F0E3
310
D5DAC8B1E3CBAFE9CCADEACBAAEBCCABDEBF9EDEBE9BFED7B0F4CBA4E6C19BE8
310
C8A5EBCEB3D8C2A9D0BEADDBD0C2E8E2D7FFFEF6FFFFFBFFFFFCFDFEFAFDFFFC
310
FDFFFCF5FBF6F9FEFCE9EFEEF4F9F8F6FBFAFBFFFFFBFFFFF4F6F6F4F6F6FFFF
310
FFFFFFFFFFFFFFFFFFFFFFFEFEFFFEFEFFFDFEFFFEFEFEFEFEFEFEFEFEFEFEFE
310
FEFEFEFEFEFEFEFEFEFEFEFEFEFEFFFFFFFFFFFFFFFFFFFFFFFFFFFFFFFFFFFF
310
FFFFFFFFFFFFFEFEFEFEFEFEFFFFFFFFFFFFFFFFFFFFFFFFFEFEFEFEFEFEFDFD
310
FDFDFDFDFDFDFDFDFDFDFDFDFDFDFDFDFDFDFDFDFDFDFEFEFEFEFEFEFEFEFEFE
310
FEFEFEFEFEFFFFFFFFFFFFFFFFFFF7F7F7FFFFFFF4F4F4FFFFFFFFFFFFFEFEFE
310
0000F8F8F8FEFEFEFFFFFFFFFFFFFEFEFEFCFCFCFFFFFFFFFFFFFFFFFFFFFFFF
310
FFFFFFFFFFFFFFFFFFFFFFFFFFFFFFFFFFFFFFFFFFF9F9F9FFFFFFF5F5F5DDDD
310
DD7575758585858888888989898383838888888B8B8B8686868A8A8A8F8F8F8A
310
8A8A818181878787929292F7F7F7F7F7F7FAFAFAFFFFFFFFFFFFFFFFFFFFFFFF
310
FFFFFFFFFFFFFFFFFFFFFFFFFFFFFFFFFFFFFFFFFFFFFFFFFFFFFFFFFFFFFFFF
310
FFFFFFFFFFFFFFFFFFFFFFFFFFFFFFFFFAFAFAFEFEFEFFFFFFFFFFFFF8F8F8F4
310
F5F3FFFFFBFFFFFCFDFFFFFAFFFFF2F8FDEEF2F7F3F5F6FFFBF8F6ECE2DDCDBC
310
DEC9B3DBC3ABD9C1A9E5CDB5E4CDB7F0D5BBE1BE9CF1CCA6EDC9A5E1C19EE3C6
310
A7E5CAAFE0CAB1DECDB8D7CBB9E6DDCFF7F1E6FDFAF2FFFFF9FFFFFCFDFFFCFA
310
FFFDFBFFFFFBFFFFFBFFFFF5FAF9F4F6F6FDFFFFEDEFEFFDFFFFFFFFFFFFFFFF
310
FFFFFFFFFFFFFFFFFFFFFFFFFFFFFFFFFFFFFFFFFFFFFFFFFFFFFFFFFFFFFFFF
310
FFFFFFFFFFFFFFFFFFFFFFFFFFFFFFFFFFFFFFFFFFFFFFFFFFFFFFFFFFFFFFFF
310
FFFFFFFFFFFFFFFFFFFFFFFFFFFFFFFFFFFFFFFFFFFFFFFFFFFFFFFFFFFFFFFF
310
FFFFFFFFFFFFFFFFFFFFFFFFFFFFFFFFFFFFFFFFFFFFFFFFFFFFFFFFFFFFFFFF
310
FFFFFFFFFFFFFFFFFFFFFFFFFFFFFFFFFBFBFBFFFFFFFEFEFEF8F8F80000E2E2
310
E2EDEDEDFBFBFBFFFFFFFFFFFFFFFFFFFDFDFDFCFCFCFFFFFFFFFFFFFFFFFFFF
310
FFFFFFFFFFFFFFFFFFFFFFFFFFFFFFFFFFF4F4F4FAFAFAFDFDFDFFFFFFA1A1A1
310
8A8A8A9696968989898282828686868888888282828686868C8C8C8888888585
310
859090909F9F9FFFFFFFFDFDFDFCFCFCFEFEFEF9F9F9FFFFFFFFFFFFFFFFFFFF
310
FFFFFFFFFFFFFFFFFFFFFFFFFFFFFFFFFFFFFFFFFFFFFFFFFFFFFFFFFFFFFFFF
310
FFFFFFFFFFFFFAFAFAFFFFFFFFFFFFFFFFFFFEFEFEFFFFFFFFFFFFFFFFFEFFFC
310
F8FEFDF9FAFCFCF4F7FBECF0F5E1E5EAD8DADBD5D3D2C0B9B0B9ADA1D2C2B2DD
310
CBBAE1CFBEE7D7C7DFCFC2E5D1BFE8CCAEEFCFACEBCAA9EACBAAF0D3B4E7CDAF
310
D7C1A5D3BFA6D5C7B1CBBFADDBD3C6FFFBF2FFFFFBF2F3EFDDE2E0DDE3E2D4D9
310
D8DDE2E1E6EBEAE2E7E6DCDEDEECEEEEEAECECC5C7C7C9C9C9C9C9C9C9C9C9CA
310
CACACCCACACDCBCBCDCBCBCDCBCBCACACACACACACACACACACACACACACACACACA
310
CACACACACACAC8C8C8C8C8C8C8C8C8C8C8C8C8C8C8C8C8C8C8C8C8C8C8C8C8C8
310
C8C9C9C9CBCBCBCCCCCCCCCCCCCBCBCBC9C9C9C8C8C8CCCCCCCCCCCCCCCCCCCC
310
CCCCCCCCCCCCCCCCCCCCCCCCCCCCCBCBCBCBCBCBCBCBCBCACACACACACACACACA
310
C9C9C9C9C9C9CBCBCBBFBFBFF4F4F4FAFAFAFCFCFCF6F6F60000D3D3D3D9D9D9
310
E4E4E4F3F3F3FEFEFEFFFFFFFFFFFFFBFBFBFFFFFFFFFFFFFFFFFFFFFFFFFFFF
310
FFFFFFFFFFFFFFFFFFFFFFFFFFFFFFFFF5F5F5FFFFFFFAFAFADEDEDE8C8C8C7E
310
7E7E8A8A8A8585858A8A8A8C8C8C8787878989898D8D8D8787877E7E7E808080
310
8F8F8FFFFFFFFFFFFFFEFEFEFFFFFFFFFFFFFFFFFFFFFFFFFFFFFFFFFFFFFFFF
310
FFFFFFFFFFFFFFFFFFFFFFFFFFFFFFFFFFFFFFFFFFFFFFFFFFFFFFFFFFFFFFFF
310
FFFFFCFCFCFFFFFFFFFFFFF7F7F7F8F8F8FFFFFFFFFFFFF7F5F4CAC7C295928D
310
4849470E1213000004000004000307060606100C070B02000F0300190D01372B
310
2172675FA49B97D0C4BAE2CAB6E8CDB3E0C5AADEC3A8E3C8ADDFC7ABDCC5ABE3
310
CFB6DAC9B4D6CAB8E4DCCFFDF8EFFFFFFCF7F9F9ECF1F2ECF4F4F2F6F7E6E8E8
310
DDDFDFEDEFEFE5E7E7D2D4D4FDFFFF4D4F4F4242424242424343434444444545
310
4546464647474748484845454545454545454545454545454545454545454545
310
4545434343434343434343434343434343434343434343434343434343444444
310
4646464747474747474646464444444343433D3D3D3D3D3D3D3D3D3D3D3D3D3D
310
3D3D3D3D3D3D3D3D3D3D46464646464645454545454545454544444444444444
310
4444383838434343DEDEDEFFFFFFFFFFFFFEFEFE0000D0D0D0CCCCCCCFCFCFDE
310
DEDEF4F4F4FFFFFFFFFFFFFFFFFFFFFFFFFFFFFFFFFFFFFFFFFFFFFFFFFFFFFF
310
FFFFFFFFFFFFFFFFFFF6F6F6FFFFFFF7F7F7FEFEFEFFFFFFBFBFBF8686868A8A
310
8A8686868C8C8C9090908A8A8A8A8A8A8C8C8C8484849C9C9C8B8B8B909090FF
310
FFFFFFFFFFF9F9F9F9F9F9FFFFFFFFFFFFFFFFFFFFFFFFFFFFFFFFFFFFFFFFFF
310
FFFFFFFFFFFFFFFFFFFFFFFFFFFFFFFFFFFFFFFFFFFFFFFFFFFFFFFFFFFFFFFF
310
FFFDFDFDFAFAFAFFFFFFFFFFFFDFDFDF7373730D0B0A04010004010000010000
310
010200030801050A0003070101010D0805090100170E05120900090100080300
310
0601020F08056A5A4DC6B2A0F5E1CFE2CDB8D8C3ADE9D4BEEFDAC4E0CFBAFFFF
310
F0FFFFF0DFD6CC88857D3E3F3D1B1F20060C110000040000010000000001010A
310
0C0C000000080A0AFDFFFF595B5B4B4B4B4B4B4B4C4C4C4E4E4E505050515151
310
5252525353534F4F4F4F4F4F4F4F4F4F4F4F4F4F4F4F4F4F4F4F4F4F4F4F5151
310
515151515151515151515151515151515151515151514C4C4C4E4E4E50505051
310
51515151515050504E4E4E4C4C4C545454545454545454545454545454545454
310
5454545454545050505050505050504F4F4F4E4E4E4E4E4E4D4D4D4D4D4D4545
310
45404040F3F3F3FCFCFCFDFDFDEEEEEE0000D9D9D9D9D9D9D2D2D2CACACACFCF
310
CFE3E3E3F8F8F8FFFFFFFAFAFAFFFFFFFFFFFFFCFCFCF8F8F8FBFBFBFFFFFFFF
310
FFFFFFFFFFF8F8F8FFFFFFFFFFFFEFEFEFFFFFFFF8F8F89C9C9C858585858585
310
8484849292928181817F7F7F9A9A9A7C7C7C878787888888949494FFFFFFFFFF
310
FFFDFDFDFEFEFEFEFEFEFFFFFFFFFFFFFFFFFFFFFFFFFFFFFFFFFFFFFFFFFFFF
310
FFFFFFFFFFF6F6F6FFFFFFFBFBFBFFFFFFFAFAFAFFFFFFF7F7F7FDFDFDFAFAFA
310
FEFEFEDFDFDF5C5C5C0000000C0C0C0200000401000E0B06070806090D0E050A
310
0D00010605080C030303060100070100160E0719110A0500000D08090A0B0F00
310
0001130A060C0200675B4FCDC0B2CCBDADFFF0E0FFFAE8EADDCD695E502D241A
310
07020007060200020200000300070E0000050408090000000606060606060D0D
310
0D040404EFEFEF6969694C4E4E4D4F4F4F51515153535153534F51514D4F4F4C
310
4E4E5454545252525050505151515252525353535353535252524E4E4E4F4F4F
310
5151515353535353535151514F4F4F4E4E4E4F4F4F5050505050505151515151
310
515252525252525353535454545454545454545454545252525151514F4F4F4E
310
4E4E5454545353535252525151515151515252525353535454545151513D3D3D
310
ECECECFFFFFFF8F8F8FFFFFF0000CCCCCCD8D8D8DCDCDCD1D1D1C7C7C7CFCFCF
310
E4E4E4F5F5F5FFFFFFFFFFFFFAFAFAF8F8F8FEFEFEFFFFFFFFFFFFFBFBFBFFFF
310
FFF7F7F7FFFFFFFFFFFFF7F7F7FFFFFFFFFFFFCBCBCB8181818686867C7C7C86
310
86868787878989897777778F8F8F878787888888949494FFFFFFFFFFFFFDFDFD
310
FEFEFEFEFEFEFFFFFFFFFFFFFFFFFFFFFFFFFFFFFFFFFFFFFFFFFFFFFFFFFCFC
310
FCFFFFFFF8F8F8F4F4F4FBFBFBFFFFFFF6F6F6FFFFFFFFFFFFF5F5F583838301
310
01010000001010100909090806050D0A050B0803000100000203000407000003
310
0204050200000B0702170F080901000901000904010A07090000042021250200
310
001B16130701006A625BFFFFF8D0C7BE4E453B0F06000902000701000703000E
310
0D0906080801060903090E000005090B0C0404040A0A0A000000000000000000
310
FFFFFF626262494B4B4B4D4D4C4E4E4E50504E50504C4E4E4B4D4D494B4B5151
310
514F4F4F4E4E4E4E4E4E4F4F4F5050505050504F4F4F4B4B4B4D4D4D4E4E4E50
310
50505050504E4E4E4D4D4D4B4B4B515151515151515151515151525252525252
310
5252525252525050505151515151515151515050504F4F4F4D4D4D4D4D4D5050
310
504F4F4F4F4F4F4E4E4E4E4E4E4F4F4F4F4F4F5050504545453E3E3EEBEBEBFF
310
FFFFFEFEFEFFFFFF0000D2D2D2D4D4D4D2D2D2CFCFCFCFCFCFD3D3D3D5D5D5D4
310
D4D4E8E8E8F5F5F5FFFFFFFFFFFFFDFDFDFDFDFDFFFFFFFFFFFFFFFFFFF9F9F9
310
FEFEFEFFFFFFFDFDFDFFFFFFFFFFFFFAFAFAA7A7A78181818585858585858F8F
310
8F8B8B8B767676979797878787888888949494FFFFFFFFFFFFFDFDFDFEFEFEFE
310
FEFEFFFFFFFFFFFFFFFFFFFFFFFFFFFFFFFFFFFFFFFFFFFFFFFFFAFAFAFCFCFC
310
FFFFFFF7F7F7FFFFFFF6F6F6FFFFFFFFFFFFD0D0D02323230000000808080707
310
070202020000000405030504001615110A0C0C0105060000030001051010100B
310
08040701001D140A170D030B020017110C040000121115000004000203030303
310
CCCCCCEEECEB5B57560501000E0906050000181511100D090704000200000001
310
000303030608080A0A0A0303030200000A08080200000B0B0B0B0B0BFFFFFF5E
310
5E5E4B4D4D4C4E4E4D4F4F4E50504C51504B504F4A4F4E4B4D4D525252505050
310
4E4E4E4E4E4E5050505151515151515050504D4D4D4E4E4E4F4F4F5050505050
310
504F4F4F4E4E4E4D4D4D5050505050505050505050505050504F4F4F4F4F4F4F
310
4F4F4F4F4F5050505151515151515151515050505050504F4F4F4E4E4E4E4E4E
310
4F4F4F4F4F4F4F4F4F4F4F4F4E4E4E4E4E4E4C4C4C4E4E4EE3E3E3FEFEFEF9F9
310
F9FDFDFD0000D9D9D9D3D3D3CECECED0D0D0D8D8D8D9D9D9D1D1D1C7C7C7CDCD
310
CDE1E1E1F8F8F8FFFFFFFEFEFEFAFAFAFCFCFCFFFFFFFFFFFFFFFFFFFDFDFDFE
310
FEFEFFFFFFFBFBFBFDFDFDFFFFFFE7E7E78383838E8E8E8B8B8B8D8D8D7D7D7D
310
939393878787878787888888949494FFFFFFFFFFFFFDFDFDFEFEFEFEFEFEFFFF
310
FFFFFFFFFFFFFFFFFFFFFFFFFFFFFFFFFFFFFFFFFFFFFDFDFDF5F5F5FFFFFFFB
310
FBFBFFFFFFFFFFFFF7F7F7A7A7A7030303020202121212080808000000020202
310
0000000F100E0001000001000001001317181B2023242829757674C4C0BBAAA1
310
97887C7061544633271B130902070000161113030206101115F7FBFCBEC0C111
310
13140000011416170000010808080402020200000502000E0B071F1B16322C25
310
3E3831544E49605C5B5755555A5858514F4F585858525252EEEEEE5757573F41
310
413F41414042424143433F44433E43423D42413D424143454543434341414141
310
4141434343444444444444434343414141414141424242434343434343424242
310
4141414141414343434343434242424141414141414040404040404040404141
310
414141414343434343434444444444444444444343433F3F3F40404041414142
310
42424242424141414040403F3F3F3A3A3A4C4C4CD2D2D2FDFDFDFFFFFFFFFFFF
310
0000CFCFCFD4D4D4D9D9D9D9D9D9D3D3D3CFCFCFD1D1D1D6D6D6D1D1D1CFCFCF
310
D6D6D6E8E8E8FDFDFDFFFFFFFFFFFFF6F6F6FAFAFAFFFFFFFFFFFFFAFAFAFFFF
310
FFFFFFFFFBFBFBFFFFFFFFFFFFADADAD7F7F7F8989898282827B7B7B9696967D
310
7D7D878787888888949494FFFFFFFFFFFFFDFDFDFEFEFEFEFEFEFFFFFFFFFFFF
310
FFFFFFFFFFFFFFFFFFFFFFFFFFFFFFFFFFFFFEFEFEFFFFFFF3F3F3FBFBFBFEFE
310
FEFFFFFF8D8D8D12121202020200000000000000000007070700000009090902
310
02021C1D1B4043414E53524A4F503D40445B5D5EBEBCBBFFFFF9FAF1E4E5D6C6
310
E8D8C7F6E6D5BDAFA38A81780700003C3738FFFFFF8688890000010004050000
310
03000003000003040509000000393736A39F9AE1DAD1FEF5E8FFFFF2FFFFF1FF
310
FFF4FFFAF5FFFEFFFFFFFFFFFFFFFEFCFCF7F5F5FFFFFFD7D7D7E2E4E4E3E5E5
310
E1E6E5E1E6E5E1E6E5E1E6E5E0E6E5E0E5E4E6E8E8E6E6E6E4E4E4E4E4E4E6E6
310
E6E7E7E7E6E6E6E5E5E5E4E4E4E5E5E5E5E5E5E5E5E5E5E5E5E5E5E5E5E5E5E4
310
E4E4E9E9E9E9E9E9E8E8E8E8E8E8E7E7E7E6E6E6E6E6E6E6E6E6E3E3E3E4E4E4
310
E5E5E5E6E6E6E7E7E7E7E7E7E7E7E7E7E7E7E2E2E2E3E3E3E4E4E4E5E5E5E5E5
310
E5E4E4E4E3E3E3E2E2E2F0F0F0DFDFDFFFFFFFFCFCFCF4F4F4F8F8F80000D3D3
310
D3D1D1D1D2D2D2D5D5D5D5D5D5D3D3D3D4D4D4D7D7D7D6D6D6CECECECBCBCBD6
310
D6D6E7E7E7F4F4F4FAFAFAFDFDFDF7F7F7FFFFFFFFFFFFFBFBFBFFFFFFFFFFFF
310
FFFFFFFAFAFAFFFFFFF2F2F28383838787878080808F8F8F8080808B8B8B8787
310
87888888949494FFFFFFFFFFFFFDFDFDFEFEFEFEFEFEFFFFFFFFFFFFFFFFFFFF
310
FFFFFFFFFFFFFFFFFFFFFFFFFFFFFFFFFFFBFBFBFFFFFFFFFFFFFFFFFF878787
310
1717170000000000002626260909090000000909090000001414143232324A4D
310
4B4E53523E434451565795989CE5E7E7FFFFFCFFFFF8F5E8D8D9CAB7CCB9A4D9
310
C6B1DECEBEC9BBAFF0E6DFFFFCF7757372020301020404000001080D1005090E
310
070B1026292DDDDFE0E4E1DDFFFFF8EEE3D5D0BFACE4D0B7E3CBAFD5C0AAD8CE
310
C7E9E4E5FFFEFEFFFFFFFFFEFEFFFFFFF5F5F5FFFFFFFDFFFFFDFFFFFBFFFFFB
310
FFFFFBFFFFFBFFFFFAFFFFFBFFFFFDFFFFFFFFFFFEFEFEFEFEFEFFFFFFFFFFFF
310
FFFFFFFFFFFFFFFFFFFFFFFFFFFFFFFFFFFFFFFFFFFFFFFFFFFFFFFFFFFFFFFF
310
FFFFFFFFFFFFFFFFFFFFFFFFFFFFFFFFFFFFFFFFFFFFFDFDFDFEFEFEFFFFFFFF
310
FFFFFFFFFFFFFFFFFFFFFFFFFFFFFDFDFDFEFEFEFEFEFEFFFFFFFFFFFFFEFEFE
310
FEFEFEFDFDFDF2F2F2F0F0F0FEFEFEFFFFFFFFFFFFFFFFFF0000DCDCDCD1D1D1
310
CACACAD1D1D1D9D9D9D9D9D9D3D3D3D0D0D0D3D3D3D0D0D0D0D0D0D1D1D1D2D2
310
D2D7D7D7E8E8E8FAFAFAFBFBFBFEFEFEFFFFFFFFFFFFFFFFFFFFFFFFFFFFFFFC
310
FCFCF8F8F8FFFFFFBDBDBD8C8C8C8585859595957E7E7E949494878787888888
310
949494FFFFFFFFFFFFFDFDFDFEFEFEFEFEFEFFFFFFFFFFFFFFFFFFFFFFFFFFFF
310
FFFFFFFFFFFFFFFFFFFFFFFFFFECECECFFFFFFFFFFFFB5B5B512121200000014
310
14141515150000000000000C0C0C060606242424545454515151404242636867
310
A5AAABF9FEFFFBFFFFEEEEEEF4F0EBFFFFF7E8DAC8DFCCB7DEC8AFD7C2ACE4D0
310
BECDBDADFFFDF3736A6105010008070300010004060600000400000491979EFA
310
FEFF848484716D68BBB1A7DCCCBBD7C0A6F0D4B5ECCCA8D9BFA1CCC2B8D9D4D5
310
F8F3F4FFFEFFFBF9F9FCFAFAF0F0F0FFFFFFFCFEFEFBFDFDF9FEFDF8FDFCF7FD
310
FCF8FEFDF8FEFDFAFFFEFDFFFFFDFDFDFBFBFBFBFBFBFDFDFDFEFEFEFEFEFEFD
310
FDFDFEFEFEFDFDFDFDFDFDFCFCFCFCFCFCFDFDFDFDFDFDFEFEFEFAFAFAFAFAFA
310
FBFBFBFBFBFBFBFBFBFBFBFBFCFCFCFCFCFCFCFCFCFCFCFCFDFDFDFEFEFEFEFE
310
FEFEFEFEFDFDFDFDFDFDFDFDFDFDFDFDFCFCFCFCFCFCFCFCFCFCFCFCFDFDFDFD
310
FDFDFFFFFFFFFFFFFBFBFBFCFCFCFEFEFEFBFBFB0000D7D4D6D8D5D7DDDADCDD
310
DADCD3D2D4CBCACCCFCED0D7D9DAD6D8D9C9CDCEC2C5C9C6CBCCCCD1D4D0D5D6
310
D2D9DCD9DEDFFDFFFFFAFBF9FDFEFCFFFFFEFCFDFBFAFBF9FFFFFEFFFFFEFEFC
310
FBFFFFFEFFFFFE918F8E888685878584918F8E8A8B89878787888888949494FF
310
FFFFFFFFFFFDFDFDFEFEFEFEFEFEFFFFFFFFFFFFFFFFFFFFFFFFFFFFFFFFFFFF
310
FFFFFFFFFFFFFFFFFFFFFDFDF3F1F1F4F2F20301010C090B0603050200010200
310
010F0C0E0F0D0D0200003331304F4D4C3E3C3B646563C3C5C5F4F8F9FBFFFFF6
310
FAFBF3F5F5FFFFFEFFFFF9FCF3E6F2E3D3D6C5B2D9C6B1D8C5B0D4C2B1FFFFF4
310
867A700C05000906010506020F0D0C020000191416E0DCE1DDDBE126272B0D0F
310
10020100746F66DCD2C1DFCBB2DFC2A3E5C09AF5D4B3D6C3B4D5C9C3F0E8E1FF
310
FEF9FFFFFCFFFEFDFFFFFFF5F7F8FCFEFFFCFEFFFBFDFEFBFDFEFBFDFDF9FEFD
310
FAFFFEFAFFFEFFFFFFFDFDFDFCFCFCFCFCFCFDFDFDFEFEFEFEFEFEFDFDFDFEFE
310
FEFEFEFEFDFDFDFDFDFDFDFDFDFDFDFDFEFEFEFEFEFEFDFDFDFDFDFDFEFEFEFE
310
FEFEFFFFFFFFFFFFFFFFFFFFFFFFFDFDFDFDFDFDFEFEFEFEFEFEFEFEFEFEFEFE
310
FDFDFDFCFCFCFFFFFFFEFEFEFDFDFDFCFCFCFCFCFCFDFDFDFEFEFEFFFFFFF6F6
310
F6FFFFFFF5F5F5FCFCFCFFFFFFFDFDFD0000DFD4DCDBD3DAD9D0DAD8D0DAD8D3
310
DCD8D5DED6D5DED2D5DDD5DBE2CFD9E0CBD6DEC6D4DAC3D3DAC0D3D8BFD2D9C5
310
D4D7D4D9D8F0EFEBFFFFFCFFFFFBFEFDF9FFFFFCFFFFFCFFFFFCFFFFFBF1F1EB
310
FFFFFBF7F4EF787570918E898E8C8482827C8C8D8B898C8A939694FCFFFDFFFF
310
FEFDFEFCFFFFFFFFFFFFFBF9F9FFFFFFFFFEFFFFFBFDFFFAFCFFFEFFFFFEFFFF
310
F9FAFFFEFFFFF9F9FFFEFF322A2B0E05080700030A000610060C0900050C0208
310
090003292121534C498D8782DED8D3FFFCF8FDFFFFFBFFFFFDFFFFFFFFFFFFFF
310
FEFFFFFBFFFFF8FFFFF7F4E9DBC8BDAFD8CBBDCEC3B5FFFBEEBDB4AA11090202
310
0200000605000707110F0F0B0000F2DFE2D8C3C618090D080207000003081212
310
000200888C81E7DDCBDFC5ADEDC5A8F4C8ABE8C7ADE5CDB7DDCCB9FFFFF2FFFF
310
F8FEFDF9FDFFFFFAFDFFFDFDFFFDFCFFFFFDFFFFFDFFFFFEFFFFFFFFFFFFFEFF
310
FFFEFFFFFFFFFFFFFFFFFFFFFFFFFFFFFFFFFFFFFFFFFFFFFFFFFFFFFFFFFFFF
310
FFFFFFFFFFFFFFFFFFFFFFFFFFFFFFFFFFFFFFFFFFFFFFFFFFFFFFFFFFFFFFFF
310
FFFFFFFFFFFFFFFFFFFFFFFFFFFFFFFFFFFFFFFFFFFFFFFFFFFFFFFFFFFFFFFF
310
FFFFFFFFFFFFFFFFFFFFFFFFFFFFFFFFFFFFFFFFFFFFFFFFFFFFFFFFFFFFFFFF
310
FFFFFFFFFFFFFFFFFFFFFFFF0000D9D5DBD9D5DBD9D5DBD8D6DCD8D6DCD4D2D8
310
CCCDD1C6C9CDCCD1D4CED3D6CFD6D9D1D8DBCED8D8C9D5D5C5D1D1C5D0CECED1
310
CFCECFCDE2E3DFFFFFFCFFFFFCFCFDF9F8F7F3FFFFFBFFFFFBFFFFFAFFFFFBF5
310
F5EFC8C5C07B787394928A8686808A8B87888B89939694FCFFFDFFFFFEFDFEFC
310
FFFFFFFFFFFFFFFFFFFDFBFBFFFDFFFFFEFFFFFBFDF7F2F4FEF7FAFFFEFFF3EE
310
EDFFFFFE8A85840A05061A13160701060B0409040003050004211B20221C1D92
310
8E8DFAF5F2F6F4ECFFFFF9FFFFFBFDFFFFFBFFFFFFFEFFFFFFFEFFFFFCFFFFF9
310
FFFFF8FFFFF7F3E9DFC9C0B6C6BDB3E2DBD2F8F1E82620190501000F100C0410
310
10000101040000F4E2E3FFFBFB2102051300000B0003010609000103000F0E2C
310
3630C3BDB0DFC7B3F0C6AFEFBFA3EFC8A8EDCEAFE1CAB0FFF5DFFFFFF4FCFDF4
310
FCFEFEFBFEFFFDFCFFFFFBFFFFFCFFFFFCFFFFFDFFFFFEFFFFFFFEFFFFFEFFFF
310
FFFFFFFFFFFFFFFFFFFFFFFFFFFFFFFFFFFFFFFFFFFFFFFFFFFFFFFFFFFFFFFF
310
FFFFFFFFFFFFFFFFFFFFFFFFFFFFFFFFFFFFFFFFFFFFFFFFFFFFFFFFFFFFFFFF
310
FFFFFFFFFFFFFFFFFFFFFFFFFFFFFFFFFFFFFFFFFFFFFFFFFFFFFFFFFFFFFFFF
310
FFFFFFFFFFFFFFFFFFFFFFFFFFFFFFFFFFFFFFFFFFFFFFFFFFFFFFFFFFFFFFFF
310
FFFFFFFFFFFFFFFF0000C5D2D0C5D2D0C9D4D2CDD6D3D2D9D6D4D8D3D4D6D0D5
310
D3CBDAD8CEDDD7CCDED4CAE1D3C7E3D3C6E4D4C7E7D7C7E3D7CBD3D0CCCDCFCF
310
CFD1D1D8DADAEAECECFAFCFCFFFFFFFDFDFDFFFFFEFFFFFEFFFFFEF5F6F4FFFF
310
FE8A8B89848583929391888987898A88949593FEFFFDFFFFFEFEFFFDFFFFFFFF
310
FFFFF3F3F3FFFFFFFFFFFFFFFFFFFFFEFEFFFFFFFFFEFFFEFFFDFDFFFCF8FFF9
310
0F151000020004090700040303070800000106090D2B3031FAFFFEFAFFFEDDE3
310
DEFAFFF9FBFFF9F5FCF5FBFFFFFBFFFFFFFEFFFFFFFEFFFFFCFFFFFBFFFFF9FF
310
FFF8EDE4DBCCC3BACEC5BCFFFFF8706A630501000F0B06030400000200000400
310
BCB3AFFFFDF8D9BAB7A98A892E161616090B000001000305000201000802635D
310
52F7E1CFEBC2ACF6C7ACF1C8A8F0CDACE2C7ACEEDEC7FFFFF2FDFBF1FCFDFBFD
310
FFFFFDFDFFFFFCFFFFFCFFFFFCFFFFFDFFFFFFFFFFFFFEFFFFFEFFFFFFFFFFFF
310
FFFFFFFFFFFFFFFFFFFFFFFFFFFFFFFFFFFFFFFFFFFFFFFFFFFFFFFFFFFFFFFF
310
FFFFFFFFFFFFFFFFFFFFFFFFFFFFFFFFFFFFFFFFFFFFFFFFFFFFFFFFFFFFFFFF
310
FFFFFFFFFFFFFFFFFFFFFFFFFFFFFFFFFFFFFFFFFFFFFFFFFFFFFFFFFFFFFFFF
310
FFFFFFFFFFFFFFFFFFFFFFFFFFFFFFFFFFFFFFFFFFFFFFFFFFFFFFFFFFFFFFFF
310
FFFFFFFF0000C9DACFC5D6CBC0D1C6C2D0C5C7D3C7CED6CBD6DACFDBDAD0DEDA
310
CFE2D9CFE4D8CEE5D6CDE8D6CBEBD7CCEDD9CEE9D9D2DBD7D6D6DADBCBCED2BE
310
C2C3CACDD1E9EDEEFDFEFFFBFDFEFDFFFFFDFFFFFDFFFFFAFCFDFBFDFEC9CBCC
310
787A7B979999868785878886939492FEFFFDFFFFFEFEFFFDFFFFFFFFFFFFFFFF
310
FFFCFCFCF2F2F2FBFBFBFFFFFFFFFFFFFAFAFAF7FAF8EBF6EE7D8B8000040004
310
100A000300000502000A08000303000A0AF6FFFFF4FFFCEEF9F6F6FFFCDFECE4
310
F6FFF9F5FFF8FAFFFFFBFEFFFDFFFFFFFFFFFFFFFEFFFFFCFFFFF9FFFFF9E9E1
310
DAC7BFB8F6EEE7D9D3CC050100100D0915120E020100070B05606157FDF1E7E6
310
D0C5E8C7BEF4D2CC664B471203010000000C1616000200000A04100A00D6C1B2
310
EEC9B5F5C7AFF1C5A6F1CBABE4C8AAE0CCB3FFFFF2FFFCF1FCFBF7FFFFFFFFFD
310
FFFFFCFFFFFCFFFFFDFFFFFDFFFFFFFFFDFFFFFBFFFEFFFFFFFFFFFFFFFFFFFF
310
FFFFFFFFFFFFFFFFFFFFFFFFFFFFFFFFFFFFFFFFFFFFFFFFFFFFFFFFFFFFFFFF
310
FFFFFFFFFFFFFFFFFFFFFFFFFFFFFFFFFFFFFFFFFFFFFFFFFFFFFFFFFFFFFFFF
310
FFFFFFFFFFFFFFFFFFFFFFFFFFFFFFFFFFFFFFFFFFFFFFFFFFFFFFFFFFFFFFFF
310
FFFFFFFFFFFFFFFFFFFFFFFFFFFFFFFFFFFFFFFFFFFFFFFFFFFFFFFFFFFFFFFF
310
0000E6F2DCDEEBD5D5E1CDCEDAC8CCD6C6CAD2C7C9D1C7C9CFCAC9CECCCDD1D2
310
D2D5D9D7D9E1D8D9E3D6D7E1D2D2DECFD0DAD4D7DCCCCFD3CFD2D7D8DBDFD4D7
310
DCCBCED2D6D9DEEBEEF2F4F7FBFAFDFFFBFEFFFBFEFFEFF2F6F4F7FB9A9DA183
310
8788838585878886939492FEFFFDFFFFFEFEFFFDFDFFFEFDFFFEF0F3F1FDFFFE
310
FDFFFEFAFDFBF9FCFAFDFFFEFAFDFBE2E8E36A756B000C0100050005120A0005
310
00000906000B08000200A5B0AEF0FBF9F0FBF8E9F4F1F6FFFCF6FFFBF6FFFBF7
310
FFFBFAFFFFFBFEFFFDFFFFFFFFFFFFFFFEFFFFFCFFFFFCFFFFFBE8E2DDC9C5C0
310
FFFFFB5A55520F0C08120E0D0400000D0A05040400FFFFF2ECDCCBD4BAAAEDCA
310
BCE8C6B9DABFB5100000050400091110000705000400070200665548FDDBCBE8
310
BEA7F0C4A5F3CAA9EACBACDAC5AAFFFCEAFFFFF3FDFAF5FFFDFCFFFDFFFFFDFF
310
FFFDFFFFFDFFFFFEFFFDFFFFFAFFFFFAFFFEFDFFFFFFFFFFFFFFFFFFFFFFFFFF
310
FFFFFFFFFFFFFFFFFFFFFFFFFFFFFFFFFFFFFFFFFFFFFFFFFFFFFFFFFFFFFFFF
310
FFFFFFFFFFFFFFFFFFFFFFFFFFFFFFFFFFFFFFFFFFFFFFFFFFFFFFFFFFFFFFFF
310
FFFFFFFFFFFFFFFFFFFFFFFFFFFFFFFFFFFFFFFFFFFFFFFFFFFFFFFFFFFFFFFF
310
FFFFFFFFFFFFFFFFFFFFFFFFFFFFFFFFFFFFFFFFFFFFFFFFFFFFFFFF0000FAFF
310
EFF7FDECF2F9EAEEF5E8E9EFE4E0E8DED7DED9D2D9D6CBD3D3C8CFD2C2CAD1BD
310
C6CFBEC7D1C1CAD7C7D0DDCCD5DFC8CBD3D2D3D7DBDCE0DADBDFD0D1D5C7C8CC
310
CBCBD1D5D6DAE4E4EAF9F9FFF9F9FFFDFDFFFDFDFFF6F9FEDBDEE37E81858385
310
85878886939492FFFFFEFFFFFEFDFEFCFCFFFDFBFEFCFDFFFEFAFFFDF4F9F7FB
310
FFFEFBFFFEF7FCFA9CA19F3C433E1F27200004000109020003000C130E000401
310
0209061F2524FAFFFFECF2F1FAFFFFFAFFFFEDF4F1F2F9F6F1F8F3FAFFFEFBFF
310
FFFBFEFFFDFFFFFDFFFFFFFFFFFFFFFEFFFFFEFFFFFCE4E1DDDDDAD6EDEAE615
310
13120D09080200000B0908050200837F6DFFFFEDD6C1ABF7DAC5EAC7B3EBCAB7
310
EED3C59281780501000001000008070006030D0A021E0E02E8CBBCF0CBB5F2C6
310
A7F4CAA7EDCBADDBC4AAFCEDDAFFFFF4FFFCF4FDFCF8FFFEFFFFFDFFFFFDFFFF
310
FEFFFDFFFFFAFFFFF8FFFFF8FFFEFDFFFFFFFFFFFFFFFFFFFFFFFFFFFFFFFFFF
310
FFFFFFFFFFFFFFFFFFFFFFFFFFFFFFFFFFFFFFFFFFFFFFFFFFFFFFFFFFFFFFFF
310
FFFFFFFFFFFFFFFFFFFFFFFFFFFFFFFFFFFFFFFFFFFFFFFFFFFFFFFFFFFFFFFF
310
FFFFFFFFFFFFFFFFFFFFFFFFFFFFFFFFFFFFFFFFFFFFFFFFFFFFFFFFFFFFFFFF
310
FFFFFFFFFFFFFFFFFFFFFFFFFFFFFFFFFFFFFFFFFFFFFFFF0000FEFDFFFFFEFF
310
FFFEFFFFFEFFFFFEFFFCFEFFF6F8F9F0F5F4E9EEEDE0E5E3D4D9D7C8CFCAC4CB
310
C6C6D1C9CDD8D0D5DCD7C8C8C8DBD8DADCD9DBCCC9CBC9C6C8D7D4D6D8D7DBCD
310
CCCED8D7DBE1E0E4F0EFF3FCFBFFFFFEFFFBFCFFFDFEFFAFB0B4868686878787
310
949494FFFFFFFDFFFEFBFEFCFAFDFBF9FCFAFAFFFBF4FAF5FBFFFCFAFFFCAFB6
310
B1454C472C332E545A552E2F2B1A17120F0C080400000E0A090500010500019A
310
9597FAF5F7FFFBFDFFFBFDFFFCFEFFFCFEFFFEFFFFFEFFFEFBFDFFFEFFFDFEFF
310
FDFFFFFDFFFFFFFFFFFFFFFFFFFFFFFFFFFEE1DFDEF1EFEE9A98971111110200
310
00000000191919090600FFF5E3F4E5CBD5BCA2F3D5BAD8B49CE6C4ADE5C9B8CE
310
BDB0120C050105000002000308060805001509009B8377FDDCC9F4CAADF3C8A7
310
EBC9ABDEC5ABE9D8C3FFFFF4FFFDF4FFFCF7FFFFFFFFFEFFFFFEFFFFFEFFFBFF
310
FFF8FFFFF6FFFFF6FFFFFBFFFFFFFFFFFFFFFFFFFFFFFFFFFFFFFFFFFFFFFFFF
310
FFFFFFFFFFFFFFFFFFFFFFFFFFFFFFFFFFFFFFFFFFFFFFFFFFFFFFFFFFFFFFFF
310
FFFFFFFFFFFFFFFFFFFFFFFFFFFFFFFFFFFFFFFFFFFFFFFFFFFFFFFFFFFFFFFF
310
FFFFFFFFFFFFFFFFFFFFFFFFFFFFFFFFFFFFFFFFFFFFFFFFFFFFFFFFFFFFFFFF
310
FFFFFFFFFFFFFFFFFFFFFFFFFFFFFFFFFFFFFFFF0000FFFDF9FFFEF9FFFCF7FF
310
FCF7FFFFF8FFFFF8FFFFF8FFFFF7FFFFF7FFFFF7FFFFF4FBFEEFF0F5E6E2E9DA
310
D6DDCED0D4C8D2CFCACCC5C2CEC6C6DBD6D5E5DDDDDDD8D7D7D2D1D8D3D4D6D1
310
D2C6C1C2E9E4E6F1ECEEF4F1F3FFFEFFFFFDFFF1EEF0868686888888959595FF
310
FFFFFDFFFEFAFDFBF9FCFAF8FBF9F2F8F3FBFFFCEAF0EB7C837E323934555D56
310
B2B9B4F4FAF53632310500000E0607110B0C070001110A0D070001FFFDFFFFFC
310
FFFFFDFFFBF1F7FFFDFFFFFCFFF8F0F7FFFBFFFFFCFFFFFDFFFDFFFFFDFFFFFD
310
FFFFFFFFFFFFFFFFFFFFFFFFFFFFE6E6E6F7F7F7545454030303090909080808
310
010101312E26FFFFF0D9C6ABF2D7BCE1C3A6E8C5ABEECCB4E9CEBAE6D5C83932
310
290F100C0D1210000100110E09110800513E36F2D6C5F5CEB2F0C7A7E7C7AADE
310
C5ABD8C9B6FFFFF4FFFEF5FFFDF8FFFFFEFFFFFFFFFEFFFDFFFFFBFFFFF8FFFF
310
F4FFFFF6FFFFFBFFFFFFFFFFFFFFFFFFFFFFFFFFFFFFFFFFFFFFFFFFFFFFFFFF
310
FFFFFFFFFFFFFFFFFFFFFFFFFFFFFFFFFFFFFFFFFFFFFFFFFFFFFFFFFFFFFFFF
310
FFFFFFFFFFFFFFFFFFFFFFFFFFFFFFFFFFFFFFFFFFFFFFFFFFFFFFFFFFFFFFFF
310
FFFFFFFFFFFFFFFFFFFFFFFFFFFFFFFFFFFFFFFFFFFFFFFFFFFFFFFFFFFFFFFF
310
FFFFFFFFFFFFFFFFFFFFFFFFFFFFFFFF0000A96C40A66A40B27A51D19D75F1C0
310
9AFFD8B5FFECCCFFFDE0FFFFE5FFFFEBFFFFEFFFFFEFFFFFF2FFFFF5FFFFF7FF
310
FFF8FFF8EFF2E7DFDFD3CDD4CAC3D5C9C3D8CEC7D9CFC8D5CCC8D2C9C5DAD1CD
310
D6CFCCD1CAC7E3DBDBFFFBFBFFFFFEFFFBFABCBABA858585939393FEFEFEFDFF
310
FEF8FBF9FDFFFCFBFFFAFBFFFAB0B4AF31352F4E554EC9D0C9F9FFF7F5FCF5EC
310
F0EB040202040003171015040003171015090308453E43FFFAFFFCF4FBFFFBFF
310
FFFCFFFFFBFFFFFAFFFFFBFFFFFAFFFDF6FDFFFEFFFFFFFFFFFFFFFEFEFEFEFE
310
FEFEFEFEFBFDFEFBFDFEE3E5E6FDFFFF0B0D0E0608090000010403050B0B0B81
310
7E76FFF5E2E7D4B9D9C1A5E7CBADECCEB1E0C2A9DEC5B1E7D7C7857E75020100
310
0C0E0E000101020100120C0522120BDDC6B7E3BFA7FBD4B8ECCEB3DAC3ADDACC
310
B9F2EBDCFEF9F0FFFFFBFFFFFCFFFFFFFFFFFFFFFFFFFBFFFFF8FFFFF4FFFFF6
310
FFFEFBFFFFFFFFFFFFFFFFFFFFFFFFFFFFFFFFFFFFFFFFFFFFFFFFFFFFFFFFFF
310
FFFFFFFFFFFFFFFFFFFFFFFFFFFFFFFFFFFFFFFFFFFFFFFFFFFFFFFFFFFFFFFF
310
FFFFFFFFFFFFFFFFFFFFFFFFFFFFFFFFFFFFFFFFFFFFFFFFFFFFFFFFFFFFFFFF
310
FFFFFDFDFDFDFDFDFDFDFDFDFDFDFDFDFDFDFDFDFDFDFDFDFDFDFFFFFFFFFFFF
310
FFFFFFFFFFFFFFFFFFFFFFFF0000C78C5AAD7240915928844E1F7B491B75481D
310
7A4F287F593681603F8F7355A58E74BDAB94D9C8B5F0E2D0FCF0DEFEF4E3FFFC
310
EEFFFFF3FFFFF5FFFFF5FFFDF1FAEEE4EADED4DDD2CADED3CBD9CFC8DBD1CADF
310
D6D2DFD6D2E3DAD6F4EDEAFFFFFCFFFFFF7575758F8F8FFFFFFFEDF0EEEEF1EF
310
FDFFFCE8ECE75C605B797B75BABCB6FFFFF9F3F8EFF7FCF3FDFFF9C4C8C20C0B
310
0D050309010005000003000003000003939294FFFEFFF9F8FAFCFBFFFBFAFEF6
310
F5F9F7F6FAFEFCFFFFFDFFFFFEFFFFFFFFFFFFFCFFFFFEFFFEFDFDFDFDFCFCFC
310
FBFAFCF8FAFBE1E3E4E1E3E407090A010304080709070707020202C4C0BBF3E6
310
D6E1CFB8D6C1A6DFC7ABE3C8ADDAC1A7D8C3AEDFD0C0AAA39A0A0703080A0A0B
310
0D0E090706060200160C05C9B8ABE0C1ACE6C4ACDCC1ACD4C1ACD1C7B6FFFDF0
310
F8F6ECFFFFFBFFFFFCFFFFFEFFFFFFFFFFFFFBFFFFF8FFFEF6FFFEF6FFFEFBFF
310
FFFFFFFFFFFFFFFFFFFFFFFFFFFFFFFFFFFFFFFFFFFFFFFFFFFFFFFFFFFFFFFF
310
FFFFFFFFFFFFFFFFFFFFFFFFFFFFFFFFFFFFFFFFFFFFFFFFFFFFFFFFFFFFFFFF
310
FFFFFFFFFFFFFFFFFFFFFFFFFFFFFFFFFFFFFFFFFFFFFFFFFFFFFFFFFFFFFFFF
310
FFFFFFFFFFFFFFFFFFFFFFFFFFFFFFFFFFFFFFFFFFFFFFFFFFFFFFFFFEFEFEFD
310
FDFDFDFDFDFDFDFD0000FFFFE9FFFDE1FFFBE0FFFEE2FFF6DAFBE0C5EBCFB1E4
310
C6A9BA9A7DB49275A47F63936C508961458C62458F654888654B816B598F8070
310
AE9E91CBBEB0E4D7C9F8ECE0FFFFF3FFFFF7F4EAE0F8EFE6F6EDE4E5DBD4CCC4
310
BDC3BBB4D2C9C5E2DDDAFFFFFFD1D3D48B8D8DF2F4F4FFFFFEFFFFFE9798946B
310
6C68E0E2DCF0F0EAFFFFFBFFFFF9F7F8EFFEFFF5FFFFF68C8E88000102000409
310
0000030C1414000202000201D7E0DDF0F9F6F8FFFEF8FFFEF8FFFEF8FFFEF8FF
310
FEF8FFFFF7FFFEF6FBFAF9F8F4FEFAF5FFFCF9FFFFFCFFFFFEFFFFFFFFFEFFFF
310
FEFFFDFFFFCCCECF060809000001010101000000020000EEEAE5E8DCD0E1D1C0
310
DDCAB5E0CBB5E0CCB3DDC8B2D9CAB7DBD0C2B3ABA4221E1D0000010000010200
310
0004010019130EA69A8EEBD2C2E1C8B4D8C4B2D5C8B8C8C2B5FFFFF5F3F3EDFF
310
FFFBFFFCFBFFFCFBFFFBFCFEFCFCFAFDFBF7FEFBF5FEFBF5FEFBFAFCFCFCFCFC
310
FCFCFCFCFCFCFCFCFCFCFCFCFCFCFCFCFCFCFCFCFCFCFCFCFCFCFCFCFCFCFCFC
310
FCFCFCFCFCFCFCFCFCFCFCFCFCFCFCFCFCFCFCFCFCFCFCFCFCFCFCFCFCFCFCFC
310
FCFCFBFBFBFBFBFBFBFBFBFBFBFBFBFBFBFBFBFBFBFBFBFBFBFBFDFDFDFDFDFD
310
FDFDFDFDFDFDFDFDFDFDFDFDFDFDFDFDFDFDFFFFFFFFFFFFFFFFFFFFFFFFFFFF
310
FFFFFFFF0000FFFFF5FFFFF3FFFFF3FFFFF4FFFFF4FFFFF2FFFDEBFFFCE9FFFF
310
F0FFFFEEFFFFEEFFFEEAFFF9E6FFF9E4FFF7E2FFF4E0FFF0DEF5E6D6E0D3C3C4
310
B7A9A89D8F988C80948B7E978D83B5ACA2B4ADA4C0B8B1D4CEC7EAE4DFF1EBE6
310
E9E3DEDDDAD6DADADAF3F5F6939595FDFFFFD8D9D7969795EDEEEAFFFFFCFCFC
310
F6FFFFF9FFFFF9FCFAF0FFFFF6FFFFF7FFFFF57C7A7200010000020200010004
310
0D0A000200000400F9FFF8F2FEF2F3FDF1F2FFF1F6FFF4F5FFF5F9FFF7F8FFF8
310
F9FFF8FAFFF6FFFFF8FFFFF9FFFFF9FFFFFAFFFDF9FAF8F7F7F5F5F3F2F4FCFB
310
FDA6A8A90000010000000F0F0F12100F151312E5E1DCFFFFF6FFFFF4FFFFF2FF
310
FDEBFFFBE8FFFDEAFFFDEDFFFCF2FFFFFBE9E5E4F3F2F4FFFEFFFFFEFFFCFAF9
310
E7E3DEFFFDF4FFF6E9FFFDEEFFFFF4FFFFF5F7F6ECF6F8F2FFFFFCF9FAF8FFFF
310
FEFFFFFEFFFEFFFFFFFEFFFFFEFDFFFCFAFFFCFAFFFCFDFFFEFFFFFFFFFFFFFF
310
FFFFFFFFFFFFFFFFFFFFFFFFFFFFFFFFFFFFFFFFFFFFFFFFFFFFFFFFFFFFFFFF
310
FFFFFFFFFFFFFFFFFFFFFFFFFFFFFFFFFFFFFFFFFFFFFFFFFFFFFFFFFFFFFFFF
310
FFFFFFFFFFFFFFFFFFFFFFFFFFFFFFFFFFFFFFFFFFFFFFFFFFFFFFFFFFFFFFFF
310
FFFFFFFFFFFFFFFFFFFFFFFFFFFFFCFCFCFCFCFCFEFEFEFFFFFFFFFFFFFFFFFF
310
0000FAFFF7F7FFF4F0FAEEEEF6EBF1F6EDF5F8EFFCFCF6FFFFFCF5F0EDFCF4F4
310
FFF8F9FFF7FAFFF8FCFFFBFFFFFBFFFFF9FAFFFEF4FFFFF1FFFFF2FFFFF3FFFF
310
F4FFFFF7FFFFF7FFFFF8FFFCF5F8F5EDF4F0EBF1EEE9E4E1DDD1D0CCD0CECDDA
310
DBD9E2E4E5E3E7E8E8EDECC2C4C4E0E1DFEFF0EEECEBE7F8F5F1FFFFFBFEF8F1
310
FFFFF9FFFFF8FFF6EDFFFFF7FFFFF7766F66110D080D0C080A08000E0F050909
310
000E1102F6F8E5FFFFF0FFFFF0FFFFF0FFFFEAF9FFE6FBFEE8FBFFEAFFFFEFFF
310
FFF2FFFFF2FFFFF5FFFFF8FFFFF9FFFFFBFFFFFCFFFFFFFFFFFFFFFFFFA1A1A1
310
040404090909020000040100040100443F3C3A3532443D3A474037433A304239
310
2B463D2F463E313E3930403D393B39393A393D31303435343644424140403A40
310
3D354A3F3750453D39342B33312930342E3A403BE7ECEAF9FBFBFDFDFDFFFCFD
310
FFFDFCFFFDFCFFFDFCFDFEFAF9FFFAF9FFFAFAFDFBFCFCFCFCFCFCFCFCFCFCFC
310
FCFCFCFCFCFCFCFCFCFCFDFDFDFDFDFDFDFDFDFDFDFDFDFDFDFDFDFDFDFDFDFD
310
FDFDFDFDFDFDFDFDFDFDFDFDFDFDFDFDFDFDFDFDFDFDFDFDFDFDFCFCFCFCFCFC
310
FCFCFCFCFCFCFCFCFCFCFCFCFCFCFCFCFCFCF9F9F9F9F9F9F9F9F9F9F9F9F9F9
310
F9F9F9F9F9F9F9F9F9F9F9F9F9FAFAFAFCFCFCFDFDFDFDFDFDFDFDFD0000F2FB
310
F1F5FEF4FAFFFBFAFFFBFAFFFCFAFFFEFAFFFFF9FFFEFAFFFFFAFFFFF8FEFFEF
310
F5FCF0F2FCF6F8FFFAFCFFFDFDFFFFFFF9FFFFF5FFFFF7FFFFF7FFFFF8FFFFF8
310
FFFCF4F8F5F0F1F0ECFFFFFCFFFFFEF5F8F6F7F9F9FBFFFFFBFFFFF5F9FACED2
310
D3D2D6D7A6ABAAEDF2F1E3E4E2D1CFCEEBE8E4D5D1CCCEC8C3CAC2BBC5BCB3B0
310
A69CC2B8AECFC3B9DDCFC372635A3828212A1A131E1004140700180C00352A14
310
F6ECD4FFFFEAFFFFE2FFFEDDFFFFDEFFFFE5FFFFE7FFFFE9FFFFE9FFFFEBFFFA
310
E8FFF9ECFFF9EFFFF9F0FEF8F1FDF9F4FCF8F7FBF9F9FFFFFFA0A0A00707070E
310
0C0B0805010805001B17120E0B070200010605070A08070705000705000B0900
310
0B090005020006040305020408070B0403070302040607050303000604000701
310
00110D08020100000300020B08000200E7EFEEF5FAF9FBFBFBFFFAFBFFFBFAFF
310
FAFAFFFCF8FDFCF8F9FDF7F9FDF8FAFBF9FAFAFAFAFAFAFAFAFAFAFAFAFAFAFA
310
FAFAFAFAFAFAFBFBFBFBFBFBFBFBFBFBFBFBFBFBFBFBFBFBFBFBFBFBFBFBFBFB
310
FBFBFBFBFBFBFBFBFBFBFBFBFBFBFBFBFBFBFBFBFBFBFBFBFBFBFBFBFBFBFBFB
310
FBFBFBFBFBFBFBFBFBFBFBFBFBFBF9F9F9F9F9F9F9F9F9F9F9F9F9F9F9F9F9F9
310
F9F9F9F9F9F9FEFEFEFFFFFFFFFFFFFFFFFFFFFFFFFFFFFF0000FFFFFEFFFFFE
310
FFFFFEF9FCFAF7FAF8F8FBF9F8FEF9F8FFFAECF3EEF2FCF6F6FFFBF6FFFBF4FF
310
FBF4FFFBF1FFF8EDF8F0FFFFF9FFFFF6FFFEF6FFFFF8FFFFFBFFFFFBFFFFFCFF
310
FFFEFDFFFFFBFFFFFAFFFFF6FDFFF8FEFFECF5F9BBC3CA868C91BBC0C3F9FEFF
310
ACB1B0D3D8D7F6F7F5F8F6F5C6C3BFCAC6C1CFC6C2F9EFE8FFFDF5EFE3D9FFF5
310
ECEEE0D4E5D5C98973687A5B5288645A997668A07F6C83634C73553ACAAD8EA6
310
8A68E9CEA9E9CFA7F3D9B1FFECC4FFFCD4FFFFDBFFFFDDFFFFE3FFFFEEFFFFF4
310
FFFFF5FFFFF6FFFEF7FFFFFAFFFFFEFFFFFEFCFCFC9F9F9F0E0C0B0301000401
310
00050100110B0604000002020802040C01050601040204060008090008080205
310
04000707070000030B090F0B0A0E09080A070806000200050500090706090909
310
000100000706000806000808EEF8F8FAFFFFFFFFFFFFFEFFFFFEFEFFFEFEFFFF
310
FCFFFFFCFFFFFBFFFFFCFFFFFEFFFFFFFFFFFFFFFFFFFFFFFFFFFFFFFFFFFFFF
310
FFFFFFFFFFFFFFFFFFFFFFFFFFFFFFFFFFFFFFFFFFFFFFFFFFFFFFFFFFFFFFFF
310
FFFFFFFFFFFFFFFFFFFFFFFFFFFFFFFFFFFFFFFFFFFFFFFFFFFFFFFFFFFFFFFF
310
FFFFFFFFFFFFFFFFFFFFFFFFFFFFFFFFFFFFFFFFFFFFFFFFFFFFFFFFFFFFFFFF
310
FFFFFAFAFAFBFBFBFEFEFEFFFFFFFFFFFFFFFFFF0000FDF8F9FDFBFBFFFDFDFD
310
FBFBFBFCFAFCFDFBFBFFFAF9FFFAFAFFFBFAFFFBF6FFF7EFFDF1EFFDF1F6FFF8
310
F4FFF8F8FFF8FFFFF9FFFFFBFFFFFBFFFEFAFCFDF9FBFCFAF9FBFBFAFCFCFBFF
310
FFEFF4F5FAFFFFF8FFFFB0B6BB5F686C8C9299F7FDFFFAFFFFAAAEAFB5BAB9B2
310
B4B4FFFFFEF2F0EFFFFCFBE3DEDBDFD9D4C3BAB6DDD3CCD7CEC5DFD4CCF6E9E1
310
FFFBF36C59511C00002400002D0A004726173D1D0A65462FDBBDA4B19479967A
310
5C8367487156346B502E6C5031705435775B3C7D63459E866AA28B71AE987FBD
310
A990D0BEA7E4D3BEF5E4CFFDEEDBFFF2DFBAA69448352047321D59442E4E3A21
310
4D39204C392449392D43342B43342445372148391F4B3A1F4A391F4A38214837
310
24402E1D4D3A2B412F1E43321F5240294534194C391E543E254A351F44331E53
310
46303D34203B321EF9EEDAF8E9D6FEEBD6FFEBD5FFEBD5FFEBD5FFEBD6FEEBD6
310
FAEBD8F9EBD8FAECD9FAECD9FAECD9FAECD9FAECD9FAECD9FAECD9FAECD9F9EB
310
D8F9EBD8F9EBD8F9EBD8F9EBD8F9EBD8F9EBD8F9EBD8FAEBD8FAEBD8FAEBD8FA
310
EBD8FAEBD8FAEBD8FAEBD8FAEBD8FCEDDAFCEDDAFCEDDAFCEDDAFCEDDAFCEDDA
310
FCEDDAFCEDDAF9EBD8F9EBD8F9EBD9F9EBD9F9EBD9F7EBD9F7EADAF5EADCF6ED
310
E0F8EFE5F9F4EBFCF8F3FFFCF8FFFFFB0000FFFFFFFFFFFFFFFFFFFFFFFFFFFF
310
FFFFFFFFFFFFFEFDFFFEFDFFFEFBFEFCFAFDFBF8FEF9F6FCF7F5FBF6F9FFFAFD
310
FFFCFCFDFBFFFFFEFFFFFEFFFFFEFDFEFCFDFDFDFDFDFDFAFAFAF8FAFAFDFFFF
310
A9ABAC4C4E4F565859D8DCDDFDFFFFF9FBFCD1D3D4AFB1B1B2B4B4B0B0B0EBEB
310
EBFFFFFFFFFEFEFFFDFCE3E1E0D9D5D4CBC7C6D5D2CEC7C4C0DBD6D3DFDAD769
310
625F0F0603160A080B00001207030F05000C0300FFFEF5FFFFF8FFFFF6FFFFF6
310
FFFFF7FFF7EDEEE5DBCDC4BACFC6BC9A8674A7825C9E7041885F2E7F5723754D
310
186D460F7B4F199061298C571E925B22975D229F652A905A1E9360229867298D
310
5D2385501DA069368F581F8F581BAA702F894F0DA16A27955F1E885516936224
310
92602495642695602197621F99611A985D15A3601B9D5A15A26523965C1BA067
310
298F581B965F22935A1C995C1C985B1B985B1B935A1D8E582189592586582885
310
5A27845C22865D1F865D1F865D1F865D1F865D1F865D1F865D1F845B1D845B1D
310
845B1D845B1D845B1D845B1D845B1D845B1D865A1D8A5D208C5F228B5E21885B
310
1E86591C895C1F8B5E21895C1F885B1E86591C86591C86591C86591C885B1E88
310
5C21855A21855A218458228259228258238059257D59297B5A2D73562F685131
310
F8E7CDFFFFF1FFF7EDFFFFF80000FFFFFFFFFFFFFFFFFFFFFFFFFFFFFFFFFFFF
310
FFFFFFFFFFFFFFFFFFFDFDFDFDFDFDFFFFFFFFFFFFFFFFFFFAFAFAF8F8F8FEFE
310
FEFEFEFEFAFAFAF8F8F8FFFFFFFFFFFFFDFDFDEEEEEE9D9D9D393939444444B0
310
B0B0FFFFFFFDFDFDF5F5F5F4F4F4BFBFBFACACACADADADB1B1B1D0D0D0FEFEFE
310
FCFCFCFEFEFEF7F7F7EFEFEFDADADAD9D9D9C4C4C4CDCDCDD6D6D67C7C7C0000
310
000E0E0E080808080808050505030303C6C6C6EEEEEEFFFFFFFDFDFDFFFFFFFB
310
FBFBFFFFFFF0F0F0FFFFFFFFFFF7FFFFE5FFFFD6FFFDD1FFF6C8FFDFADE3BD87
310
CCA36CC79860D29B62DBA1669C5D23A4682CAB74379562248B5C1FD7A569DCA3
310
6CC3864EDA9B5EE0A05FDB9A55DC9C55DA9C56D29954DDA766C89556D2A163B8
310
8547D7A361E0A966CE924CE3A45AE8A255E6A053E19F58D29551D59858CF9658
310
D59C5ED29A59D69C5AD59B59D39C59CF9A5BC9995FC59964C09868BF9A68C39B
310
61C59C5DC59C5EC59C5DC59C5EC59C5DC59C5EC59C5DC59C5EC59C5DC59C5EC5
310
9C5DC59C5EC59C5DC59C5EC59C5DC6995CC79B5CCA9B5EC89C5DC99A5DC69A5B
310
C99A5DC89C5DD0A164CDA162CE9F62CB9F60CD9E61CCA061CFA063CEA164C79A
310
5DC79A5DC79A5DC79A5DC69A5FC3985FBE9661B89464B7976CA78D69FFEDD2FF
310
FFF1FCF6EBFFFFF90000FFFFFFFFFFFFFFFFFFFFFFFFFFFFFFFFFFFFFFFFFFFF
310
FFFFF6F6F6FFFFFFFFFFFFF3F3F3F5F5F5FFFFFFFFFFFFFBFBFBFFFFFFFDFDFD
310
FDFDFDFFFFFFFFFFFFD7D7D78787874040403A3A3A8D8D8DF2F2F2F7F7F7F8F8
310
F8FDFDFDFDFDFDC0C0C0B2B2B2AFAFAFB0B0B0B8B8B8B6B6B6F6F6F6FFFFFFFF
310
FFFFFFFFFFFFFFFFF1F1F1E9E9E9D2D2D2CCCCCCD4D4D4A0A0A0060606000000
310
0808080909090000000A0A0A8C8C8CD2D2D2CFCFCFCFCFCFE1E1E1E6E6E6FFFF
310
FFFEFEFEF7F7F7FFFFFEFFFFFBFFFFF9FFFFF7FFFEF1FFFEEFFFFFECFFFFEDFF
310
FFEEFFFAE4FFEDD53415002203001E0400210B00201000DFCBB2FFF1D8FFE1C7
310
FFE8C8FFEBC8FFDDB7FFEAC4FFF3CFFFE6C4A28C70634F366B58435F4C37705B
310
45695238654A2FEED2AFFFE8BDFFF0C3FFE7BFF7E1BEF4E2C3FFFCE0FFFFEAFF
310
FFEAFFFFE9FFFFE9FFFFE9FFFFEAFFFFEEFFFFF1FFFFF5FFFFF4FFFFEEFFFFEB
310
FFFFEDFFFFEBFFFFEDFFFFEBFFFFEDFFFFEBFFFFEDFFFFEBFFFFEDFFFFEBFFFF
310
EDFFFFEBFFFFEDFFFFEBFFFFEDFFFFEBFFFFEDFFFFEBFFFFEDFFFFEBFFFFEDFF
310
FFEBFFFFECFFFFEAFFFFEBFFFFE8FFFFEAFFFFE9FFFFECFFFFEAFFFFE9FFFFE7
310
FFFFE6FFFFE6FFFFE6FFFFE6FFFFE4FFFFE5FFFEE7FBEFDDFFFFF5FFFFF9F8FA
310
FAFAFFFF0000FFFFFFFFFFFFFFFFFFFFFFFFFFFFFFFFFFFFFFFFFFFFFFFFFFFF
310
FFF9F9F9FCFCFCFFFFFFFFFFFFF1F1F1F1F1F1FFFFFFFFFFFFFFFFFFFAFAFAC3
310
C3C37373733C3C3C3C3C3C555555C5C5C5F5F5F5FFFFFFFFFFFFFDFDFDFFFFFF
310
D8D8D8ACACACB2B2B2B2B2B2B9B9B9B6B6B6ABABABE5E5E5FFFFFFF9F9F9F9F9
310
F9FFFFFFFDFDFDFBFBFBEBEBEBDADADADADADAC2C2C20B0B0B00000009090900
310
0000010101080808434343DEDEDED2D2D2C5C5C5D5D5D5C5C5C5CACACADFDFDF
310
DADADADCDDE1F0EFF9F4F6FFF6FBFFF4FCFFF5FEFFF6FFFFFAFFFEF9FAF8E8E0
310
E0FFFEFC382B291B0F0D1008081F1D1C000100999691FEECE5E1C9BDE5CCBCD8
310
BEADE2C9B5DEC9B4D5C5B4E9DDD136302902000000000108090D000001040000
310
1B1411E7DBD1D9C5ACE9D4B8D4C6B0CFC7B6CBC9BFF6F8F2FDFFFEFBFFFEFCFF
310
FBFBFFFAFAFEF8F8FEF9F5FDFCF1FDFFEFFDFFF2FEFFF8FEFDF9FEFCFBFEFCF9
310
FEFCFBFEFCF9FEFCFBFEFCF9FEFCFBFEFCF9FEFCFBFEFCF9FEFCFBFEFCF9FEFC
310
FBFEFCFBFEFCFFFFFEFEFFFDFCFDFBFDFEFCFFFFFEFFFFFEFFFFFEFCFDFBFFFF
310
FEFFFFFEFFFFFEFFFFFEFFFFFEFFFFFEFFFFFEFFFFFEFFFFFCFFFFFBFFFFF9FF
310
FFF8FFFFF6FFFFF3FFFFF2FFFFF2FFFFF7FFFFF9F7F6F2FDFFFFEFF5FAF6FEFF
310
0000FFFFFFFFFFFFFFFFFFFFFFFFFFFFFFFFFFFFFFFFFFFFFFFFFFFFFFFFFFFF
310
FEFEFEF6F6F6FDFDFDFFFFFFFFFFFFFFFFFFFCFCFCA7A7A76565655454544141
310
413D3D3D8F8F8FFCFCFCF4F4F4FFFFFFFDFDFDF9F9F9F9F9F9EFEFEFB7B7B7B0
310
B0B0B2B2B2AEAEAEB9B9B9ACACACADADADCFCFCFFFFFFFF3F3F3F6F6F6FFFFFF
310
FFFFFFFFFFFFFEFEFEEFEFEFEAEAEAE1E1E11F1F1F1010100C0C0C0000001313
310
13000000010101D9D9D9E6E6E6CACACAE0E0E0D8D8D8B8B8B8CACACACFCFCFD3
310
D4D8C4C6D1CED4E1DBE3F0E3EDF7E8F5FDF0FFFFF6FFFFFAFFFFD8D7D9FBF6F8
310
716A6D040001000003070C0F0000043D4241FFFFF9C5AFA3E0C9BAD3BCACE4CE
310
BCD7C5B4BFB3A7CAC4BD00000000020700000800000800020D00000854545AD7
310
CCC8E4C5B0F7D2B8DFC1AED7C1B6D5C6C4FFF6F9FFFAFFF9F4FDFFFAFFFFFAFF
310
FFFBFFFFFAFFFEFAFFFDFAFFF9F9FFF9FBFFF6FCFFF4FDFFF6FCFFF4FDFFF6FC
310
FFF4FDFFF6FCFFF4FDFFF8FEFFF6FFFFF8FEFFF6FFFFF8FEFFF6FFFFF8FEFFF8
310
FEFFF8FEFFF6FCFFF4FAFFF5FBFFF8FEFFF8FEFFF7FDFFF4FAFFF8FEFFF8FEFF
310
F8FEFFF8FEFFF8FEFFF8FEFFF8FEFFF6FEFFF3FCFFF0FCFFF1FBFFF1FBFFF5FB
310
FFF9FDFEFDFFFFFFFFFEF2F3F1FBFEFCEAECEDFAFFFFF1F7FCF4FAFF0000FFFF
310
FFFFFFFFFFFFFFFFFFFFFFFFFFFFFFFFFFFFFFFFFFFFF4F4F4FFFFFFFFFFFFF8
310
F8F8FDFDFDFFFFFFE4E4E4ACACAC5151515B5B5B4848483737376D6D6DD4D4D4
310
FFFFFFFFFFFFFFFFFFFEFEFEF6F6F6F3F3F3FFFFFFC2C2C29F9F9FB4B4B4B4B4
310
B4ADADADB6B6B6ACACACB6B6B6C0C0C0FAFAFAFAFAFAFFFFFFFFFFFFFEFEFEFF
310
FFFFFFFFFFFDFDFDFAFAFAF6F6F67E7E7E0000000000000F0F0F040404000000
310
0303036D6D6DEAEAEAC8C8C8CFCFCFE4E4E4D0D0D0D3D3D3CACACAC5C4C6D4D4
310
DACFD1D9C6CCD1BDC6C9BAC6C8C8D2D2E3E9E8F9FCFAE9E5E4EAE5E4D7CFCF07
310
0102090909000001091215000100F5E6DDF5DECEDCC4B2E5CDB9E0C8B4D9C5B3
310
F3E6D6615B5002000002050911141C0000070E10180000049C9799DECDC4F0C9
310
ADFCCFAEEAC4ACE1C4B5E8D4CFFFF7F9FCF4FBEAE2ECF1E9F3F1E9F0F1EAEFF2
310
E9ECF2E9ECF1EAEFF0E9F0EFEBF1EAEBEFE7ECEFE8EBEFE7ECEFE8EBEFE7ECEF
310
E8EBEFE7ECEFE7EAEEE6EBEEE7EAEEE6EBEEE7EAEEE6EBEEE7EAEEE6EBEEE6EB
310
EEE5EAEDE4E9ECE4E9ECE6EBEEE6EBEEE5EAEDE4E9ECE2E7EAE3E8EBE3E8EBE4
310
E9ECE4E9ECE3E8EBE3E8EBDEE6EDD9E8F8D5E7F8D6E6F6D9E7F3DEE7F0E1EAEE
310
E7ECEFE9EDEEE6E8E8F4F5F3F7F8F6FDFFFFFDFFFFF6FBFA0000FFFFFFFFFFFF
310
FFFFFFFFFFFFFFFFFFFFFFFFFFFFFFFFFFFFFFFFFFF5F5F5FAFAFAFFFFFFE3E3
310
E39191915454544545454F4F4F3232324A4A4AA7A7A7F9F9F9FFFFFFFAFAFAF0
310
F0F0F1F1F1FEFEFEFFFFFFF2F2F2D7D7D7AFAFAFBABABAC0C0C0B4B4B4B5B5B5
310
AEAEAEB7B7B7B6B6B6B4B4B4E5E5E5FFFFFFFFFFFFFAFAFAFEFEFEFFFFFFFBFB
310
FBFFFFFFFFFFFFFBFBFBE2E2E20B0B0B00000013131300000003030314141407
310
0707C8C8C8DFDFDFC6C6C6C9C9C9CECECEDEDEDED7D7D7DAD8D7D8D2CDDAD2CB
310
D9D7CDD9D9CDD5D5C9DADACCF3F0E1FFFFF4ECE1D3D0C3B5FFEFE22D1F130D04
310
000703001B1C12070400755F4DFFFFEAEACDB2E8CCAEDCC0A2E6CEB2DAC6AD13
310
0400160D000A0300161009070100110800190B00D4C1B2F2D7BDF2C99CF5C895
310
EBC79FE3C9ABF9E7D6FFF8EFF3F0ECD4D2D2CDCBCBCCCBC7CFCBC6D0CBC2D0CB
310
C2D1CCC3D1CCC3D2CDC4D1CBC4D1CBC4D3CBC4D1CBC4D3CBC4D1CBC4D3CBC4D1
310
CBC4D0C8C1CEC8C1D0C8C1CEC8C1D0C8C1CEC8C1D0C8C1CEC8C1CDCAC2CECBC3
310
CFCCC4CECBC3CDCAC2CCC9C1CDCAC2CFCCC4D0CDC5D1CEC6D2CFC7D3D0C8D3D0
310
C8D2CFC7D1CEC6CBCCCABDC6CFBBC7D3BFC9D3C3CBD2C7CCCFC8CACACAC8C7CB
310
C8C3CCC9C1D2CDC4F2EDE4FFFBF2FFFFF6FFFEF40000FFFFFFFFFFFFFFFFFFFF
310
FFFFFFFFFFFFFFFFFFFFFFFFFFFFFCFCFCFFFFFFDBDBDB838383454545404040
310
4D4D4D4D4D4D3A3A3A878787E1E1E1FFFFFFFFFFFFF7F7F7FBFBFBFFFFFFFFFF
310
FFF8F8F8F8F8F8F9F9F9B0B0B0AEAEAEB3B3B3A9A9A9B0B0B0BABABAA3A3A3BE
310
BEBEACACACA6A6A6CCCCCCFFFFFFFFFFFFF2F2F2FFFFFFFFFFFFF8F8F8FFFFFF
310
FFFFFFF6F6F6FFFFFF5B5B5B0A0A0A0000000A0A0A0000000000000505055353
310
53E4E4E4E4E4E4CACACACACACAD9D9D9D0D0D0DDD9D8E0D8D1DED5CBDDD7CCDB
310
D8CAD0D0C0CDCDBBE9E5D3FFFFF1F8ECDAD9CBB9FFFFF278685B170E01100A00
310
0606000F0C00140400F7DFCBFFEFD9D9C2A8DBC4AAFEE9CE57452E180A00170C
310
00140B000C0300190D0113030076604EFFE5CDDDBD9AFDD5A1F4CC97F1D1A6E6
310
D1B1FFF7E3F9F7ECE6EAE5BEC4C3CBD1D0CBD1CCCED1C8D0D1C7D2D2C6D3D2C4
310
D4D3C5D5D3C8D8D1C8DAD1C8DAD1C8DAD1C8DAD1C8DAD1C8DAD1C8DAD1C8DED5
310
CCDED5CCDED5CCDED5CCDED5CCDED5CCDED5CCDCD5CCD6D1C8D8D3CADBD6CDD9
310
D4CBD6D1C8D5D0C7D7D2C9DAD5CCD0CBC2D1CCC3D3CEC5D3CEC5D3CEC5D3CEC5
310
D1CCC3CDCAC5CBCFD0CBD1D6D1D6D9D7D9D9D8D9D7D7D4CFD2CFC7D0CBC2E1DB
310
D0D8D0C3FFFDF0FFFFF2FFFFF5FFFFF40000F5F5F5FFFFFFFAFAFAFFFFFFFFFF
310
FFF9F9F9FFFFFFFFFFFFCECECE8181814343433B3B3B4747474D4D4D50505052
310
5252CDCDCDF4F4F4FFFFFFFDFDFDFFFFFFFFFFFFF7F7F7FEFEFEF4F4F4FFFFFF
310
F6F6F6C2C2C2AFAFAFB1B1B1B2B2B2B9B9B9B0B0B0ADADADB5B5B5B1B1B1B8B8
310
B8AEAEAEB4B4B4FFFFFFFFFFFFF8F8F8FEFEFEFFFFFFFDFDFDFCFCFCFFFFFFFF
310
FFFFFFFFFFE3E3E30404040909090404040000000B0B0B000000010101949494
310
D9D9D9DADADAD4D4D4E5E5E5D4D4D4C6C4C4D8D4D3DCD9D5D8D7D3D3D5CFDFE4
310
DBCCD2C7EBECE2FEFDF3FDF6EDC4BBB2F2E6E0FDF3EC110D0802020000060100
310
060114100F2E2724FEF6EFDED5CCDED5C8958C7F090300140F060B08000A0601
310
110B04130A00130200DCC4B0DCC1A7E5C4A3F0CDA1EACB9EE2CCA9DFD3BBFFFF
310
F7FBFFFEC0CBCFC8D6DCCAD8DECBD7DBCED8D8D1D8D5D3D9D4D4DBD4D5DCD5D8
310
DCD7D6D4D3D8D6D6D6D4D4D2D0D0D3D1D1D8D6D6DBD9D9D9D7D7D9D7D7D9D7D7
310
D9D7D7D9D7D7D9D7D7D9D7D7D9D7D7D9D7D7D1D1D1D2D4D4D6D8D8D6D8D8D3D5
310
D5CFD1D1CBCDCDC9CBCBD1D3D3D3D5D5D3D5D5D2D4D4D3D5D5D5D7D7D6D8D8D7
310
D8D6D5D4D0D6D5D1DAD7D2D9D6D1D9D6CEDAD5CCDED8CDDFD9CED6CEC1D6CEC1
310
FFFAEDFFFFF4FFFFF8FFFEF50000FFFFFFFAFAFAF7F7F7FFFFFFF8F8F8F9F9F9
310
CBCBCB4C4C4C3F3F3F4343434B4B4B5757574F4F4F4545458A8A8AFBFBFBEAEA
310
EAFFFFFFFFFFFFF9F9F9FFFFFFFFFFFFFBFBFBFFFFFFFFFFFFFBFBFBDCDCDCB7
310
B7B7ADADADB1B1B1B2B2B2B2B2B2B3B3B3AFAFAFB2B2B2AEAEAEB8B8B8B1B1B1
310
B0B0B0EBEBEBFFFFFFFBFBFBFFFFFFFFFFFFFDFDFDFDFDFDFFFFFFFFFFFFFEFE
310
FEFBFBFB7474740000000D0D0D000000191919080808000000181818B0B0B0D9
310
D9D9CFCFCFBDBDBDDADADACFCFCFD4D3D5DEDDDFD7DBDCC9CFCEC9D2CFB8BFBA
310
E2E8E3FFFFFBDBD7D2D3CDC8CDC4C1F0E9E6656362030604000201030D0D0000
310
06000007787B80FEFDFFA5A3A20F0E0A1617130001000002000001000E0B070B
310
02006B5B4BFFEED8DDBFA4FAD9B8EBCAA3EBCDAAE1CCB1F7EADAFFFFFCE1E6E9
310
C0C9D2C5D1DDCAD4DEC9D2DBCBD1D6CCD1D2CDD2D1CFD4D3D1D6D5D3D7D8CFD2
310
D6D2D5D9D3D3D9CDD0D4CFCFD5D1D4D8D5D5DBD1D4D8D0D0D6CED1D5D0D0D6CE
310
D1D5D0D0D6CED1D5D0D0D6CED1D5CBCFD4CCD3D6D1D5DAD1D8DBD2D6DBD0D7DA
310
D3D7DCD1D8DBD0D4D9CFD6D9D1D5DACED5D8D0D4D9CFD6D9D0D4D9D1D5D6D1D0
310
CCD6D3CBD9D6CED9D6CEDAD7CFDAD7CFDDDAD2DFDCD4D0CDC5D0CDC5FBF8F3FE
310
FDF9FFFFFEFCFDFB0000F2F2F2FFFFFFFFFFFFF5F5F5A7A7A74F4F4F44444457
310
57575454545151514C4C4C3E3E3E636363D2D2D2FFFFFFFDFDFDFFFFFFFFFFFF
310
FEFEFEF9F9F9FFFFFFFFFFFFFDFDFDFFFFFFFFFFFFE1E1E1BEBEBEB0B0B0AEAE
310
AEB3B3B3B5B5B5ADADADB3B3B3B2B2B2B1B1B1ACACACB7B7B7B3B3B3ACACACCD
310
CDCDFFFFFFFFFFFFFFFFFFFFFFFFFDFDFDFFFFFFFFFFFFFFFFFFFDFDFDFCFCFC
310
FFFFFF1B1B1B0C0C0C0D0D0D000000080808040404000000030303ADADADEBEB
310
EBCFCFCFBABABADFDEE0C7C6CACCCCD2CACED3C9D0D3DDE5E4CFD8D5EEF3F1FF
310
FFFCF6F1EEC9C2BFCDC4C1EFE8E5F3EFEE131614090F0E000205010A1700010F
310
0000087A8087FAFFFF2E32330000010C111200000101030313100C30271ED9C7
310
B6D2B8A0F2D0B2E2BD9BEDC7A7ECC9AFE5C9B8FFFEF6FFFDFFD5CED5CBC9D5C8
310
C8D6D7D5E1D7D4DDD7D3D8D7D2D4D8D1D4D8D3D5DAD4D9D8D7DBCFD2D7D1D5DA
310
D1D3DBCDD1D6CED0D8D0D4D9D0D2DACCD0D5CED0D8CDD1D6CED0D8CDD1D6CED0
310
D8CDD1D6CED0D8CDD1D6D1D7DED0D9DDD2D8DFCED7DBCED4DBCBD4D8CFD5DCCE
310
D7DBD1D7DECED7DBCFD5DCCDD6DACED4DBCBD4D8CCD2D9CED3D6D0D1CFD4D3CF
310
D4D5D3D5D6D4D5D6D4D3D5D5D5D7D7D5D9DAC7CCCFC6CBCEF0F6FBF2FAFFF4FD
310
FFF0FAFF0000FFFFFFE6E6E69393934D4D4D4242424848484747474545455252
310
524343434D4D4DA4A4A4FFFFFFFFFFFFECECECFFFFFFFFFFFFFFFFFFFCFCFCFE
310
FEFEFFFFFFFFFFFFFDFDFDFEFEFEFAFAFAC7C7C7AFAFAFB5B5B5B2B2B2B3B3B3
310
B6B6B6AFAFAFAFAFAFB5B5B5B2B2B2AFAFAFB6B6B6B4B4B4ACACACB8B8B8F7F7
310
F7FFFFFFFFFFFFFCFCFCFEFEFEFFFFFFFEFEFEFEFEFEFFFFFFFFFFFFF0F0F0E2
310
E2E20606060000001010100000000707070000000303030A0A0A959595EDEDED
310
D6D6D6DCDBDDD2CED3DDDCE0D9DADEC7CBCCC6CDCAB7BDB8E5E7E1FFFFFBEAE2
310
DBCDC1BBCABEB8BEB2ACFFFFF9D4D0CB00020000020100000701091600000700
310
00047F8384FBFFFF686D6C0001000C10110404040D0904B4AAA0E2CEBCE0C5AA
310
FEDBB9ECC7A5EDCBAEE2C6AEF1D8C8FFFFF7FFF9F9D7D1D6D2CFD8CCC9D2DAD6
310
DBDCD7D9DDD8D7DCD7D4DCD7D6DBD6D7D9D6D8D6D5D9D0D1D5D4D5D9D4D5D9D1
310
D2D6D0D1D5D2D3D7D1D2D6CDCED2D5D6DAD5D6DAD5D6DAD5D6DAD5D6DAD5D6DA
310
D5D6DAD3D6DAD3D6DAD3D8DBD3D8DBD0D5D8CDD2D5CBD0D3CCD1D4CDD2D5D2D7
310
DAD0D5D8CFD4D7D1D6D9D0D5D8CED3D6CED3D6D0D4D5D2D4D4D3D5D5D4D6D6D1
310
D5D6D0D4D5CED3D6CDD3D8CCD4DBC1CAD3C0C9D2EAF4FEECF8FFEFFCFFECF9FF
310
00009696964545453131314545454B4B4B5D5D5D6363634C4C4C3F3F3F797979
310
DCDCDCFFFFFFFCFCFCFFFFFFFFFFFFF2F2F2FEFEFEFBFBFBFDFDFDFFFFFFFFFF
310
FFFFFFFFFFFFFFFBFBFBD9D9D9B4B4B4AEAEAEBDBDBDB5B5B5AFAFAFB4B4B4B3
310
B3B3ABABABB6B6B6B5B5B5B3B3B3B4B4B4B1B1B1B1B1B1B1B1B1E7E7E7FEFEFE
310
FFFFFFFAFAFAFFFFFFFFFFFFFDFDFDFFFFFFFFFFFFFAFAFAFFFFFFFFFFFFACAC
310
AC0000000404041111110404040303030C0C0C0505050000005B5B5BEFEFEFC9
310
C7C7D7D1D2E2DDDCDFDCD8D4D4CEE1E2D9D7D6CCFCF6EBFFFFF5F6E6D9E6D3C4
310
E2CDBEE3D0C1E3D3C3F8EBDD7F786917150B0402010000000806051D1A150705
310
0027251DFFFFF9E2E2DC23221E0401008D867DDED1C3E9D2BCD9BB9EE9C3A0EC
310
CAA6DFCBACD9CEB3FFFCE8FFFFF3DFE2D9CFD5D0CAD1CECED5D0CDD5CBD1D7CC
310
D6DBCCD8DDCED6DDD0D0D9CFCBD5CFCBD2CDD3D4D0DAD7D2DAD7D2D7D4CFD7D4
310
CFD9D6D1D7D4CFD4D1CCDBD8D3DBD8D3DBD8D3DBD8D3DBD8D3DBD8D3DBD8D3DB
310
D8D3D0CDC8D3D0CBD7D4CFD9D6D1D9D6D1D8D5D0D9D6D1DAD7D2D9D6D1D5D2CD
310
D6D3CEDAD7D2DBD8D3D7D4CFD7D4CFDAD9D5D2D4D4D2D6D7D3D7D8D1D6D9CFD4
310
D7CBD1D6CCD2D7CCD4DBC2CBD4C1CAD3EAF4FEEEF8FFF1FDFFEDF9FF00006464
310
644C4C4C5959595D5D5D4E4E4E474747414141434343BEBEBEF8F8F8FFFFFFFD
310
FDFDFFFFFFFFFFFFF9F9F9FFFFFFFFFFFFFBFBFBFEFEFEFDFDFDFBFBFBFFFFFF
310
FFFFFFEEEEEEB9B9B9AEAEAEB2B2B2BBBBBBB4B4B4ACACACAFAFAFB3B3B3ACAC
310
ACB6B6B6B3B3B3B7B7B7B3B3B3AEAEAEB7B7B7B1B1B1D0D0D0F7F7F7FFFFFFF9
310
F9F9FFFFFFFFFFFFFBFBFBFFFFFFF2F2F2FFFFFFFFFFFFF5F5F5FFFFFFB2B2B2
310
0000000000000000000E0E0E0000000303030000000E0E0E111111A2A0A0DBD5
310
D6E7DFDFDEDAD9CDCDC7D9D7CFCFCDC3F5EFE4FFFEF0F0E0D0D7C3B2DBC4B4CE
310
B7A7E9D5C4F3E3D2FFFFF2776F62100D050B08030502000702000B0700110F04
310
04020095958FFFFFFCE4E3DFE1DDD8D7CDC3D1BDABF2D7BDE8C5A4EBCEAFD4C7
310
ADDED9C4FFFFF2F5F7EBC5CAC1C4CCC5C2CAC3D0D8CECDD4C7D2D8C7D8DBCBD9
310
DFCED5DED1D0DBD1C9D7D1C9D4D1D4D6D0DBD9D1DCD8D3D7D5CDD8D4CFDAD8D0
310
DBD7D2D7D5CDD7D3CED6D4CCD7D3CED6D4CCD7D3CED6D4CCD7D3CED6D4CCD4D0
310
CBD6D4CCDBD7D2DBD9D1DBD7D2D9D7CFDAD6D1D9D7CFDAD6D1D3D1C9D5D1CCDA
310
D8D0DCD8D3D6D4CCD8D4CFDDDAD5D1D2D0D1D3D3D3D5D5D1D5D6D0D4D5D0D4D5
310
D1D6D9D3D8DBC8CDD0C7CCCFF1F6F9F4F9FCFAFFFFF6FBFE00006565654C4C4C
310
4C4C4C515151515151484848808080FFFFFFFBFBFBF8F8F8FFFFFFFFFFFFF5F5
310
F5FCFCFCFFFFFFF9F9F9FFFFFFFCFCFCFFFFFFFDFDFDF9F9F9FFFFFFF4F4F4CB
310
CBCBACACACB5B5B5B4B4B4B1B1B1B3B3B3B1B1B1AFAFAFB3B3B3B2B2B2B5B5B5
310
ACACACB6B6B6B2B2B2ABABABBABABAB0B0B0B9B9B9EFEFEFFFFFFFF9F9F9FFFF
310
FFFFFFFFFAFAFAFFFFFFFCFCFCFFFFFFFCFCFCFFFFFFFFFFFFF7F7F7ACACAC06
310
06060A0A0A0000000808080606060B0B0B0000001414140000012A262C76747A
310
C1C1C7DDE1E2EBEDEDD4D5D1F6F3EEFFFFF9FFFFF7DAC8BDF2DED3E9D5CACFBD
310
B27E7064423A2DFFFFF7928F870401001411090D0B010403000F1007070B060B
310
11100B1215858B90E6E9EDF9F7F6FFFFF9DFCEC1EFD6C2D4BCA8E5D8CAF4EDE4
310
FFFFFBF7F4F0DBD9D9D7D7D7DBD9D8D9D6D1D7D2C9DBD5CADAD6CBDAD8CED8D8
310
D2D3D8D7D0D7DACFD5DAD1D5D6D5D8D6D6D6D6D1D4D2D3D3D3D5D8D6D9D9D9D5
310
D8D6D2D2D2D0D3D1D2D2D2D0D3D1D2D2D2D0D3D1D2D2D2D0D3D1D7D7D7D6D9D7
310
D9D9D9D5D8D6D4D4D4D0D3D1D3D3D3D2D5D3D7D7D7CED1CFD0D0D0D5D8D6D7D7
310
D7CFD2D0D1D1D1D8D9D7D4D3CFD7D4CFD9D6D1D7D6D2D6D5D1D6D5D1DAD7D2DB
310
D8D3D2CFCAD1CEC6FBF8F0FFFBF2FFFFF8FFFDF400006B6B6B4D4D4D50505042
310
4242646464CDCDCDFFFFFFFFFFFFFFFFFFFEFEFEF9F9F9FFFFFFFFFFFFFFFFFF
310
F9F9F9FFFFFFFBFBFBFAFAFAFFFFFFFFFFFFFDFDFDFFFFFFE5E5E5A7A7A7AEAE
310
AEBFBFBFB6B6B6A8A8A8B4B4B4B9B9B9B2B2B2B3B3B3B9B9B9B4B4B4A6A6A6B5
310
B5B5B2B2B2AAAAAABCBCBCAEAEAEABABABEAEAEAFFFFFFF9F9F9FFFFFFFFFFFF
310
F9F9F9FFFFFFFEFEFEFDFDFDFEFEFEF4F4F4FFFFFFFFFFFFF1F1F1BFBFBF0202
310
020808080404040303030000000D0D0D0000000403050000040200060000050B
310
0E12414546555A597D7E7C84817D766F6C5F54505347411C100A1208010E0600
310
0D0A02232119FEFBF6CBC8C3050200040200171711000200080D0C0000030004
310
0B000710090F162A2D327B7677D0C7C4EFDFD8FFFCF5FFF9F5FFFFFCFAF5F4FF
310
FDFEFFFEFFFBF8FAFFFAFBE1DCD9D6CDC9D6CEC7D5CDC6D3CDC8D2CECDD0CFD1
310
CED2D7D0D3DBD2D5D9D4D8D9D4D6D7CED2D3D1D3D4D4D8D9D9DBDCD5D9DAD5D7
310
D8D3D7D8D5D7D8D3D7D8D5D7D8D3D7D8D5D7D8D3D7D8D0D2D3CFD3D4D0D2D3CE
310
D2D3CFD1D2D0D4D5D7D9DAD8DCDDD7D9DACDD1D2CFD1D2D4D8D9D5D7D8CBCFD0
310
CCCECFD3D5D5D8D7D3DBD8D3DBD8D3DAD7D2D7D4CFD6D3CED7D4CCD8D5CDD5CF
310
C8D3CEC5FFF9EEFFFCF1FFFFF5FFFEF100006868683A3A3A474747A7A7A7F7F7
310
F7FFFFFFF9F9F9FFFFFFFFFFFFFFFFFFFFFFFFFFFFFFFFFFFFFFFFFFFFFFFFFF
310
FFFFFFFFFFFFFFFFF6F6F6FFFFFFFFFFFFEDEDEDB8B8B8B1B1B1B7B7B7B6B6B6
310
B4B4B4B2B2B2B1B1B1B0B0B0B0B0B0B0B0B0B2B2B2B2B2B2B2B2B2B2B2B2B2B2
310
B2B2B2B2B2B2B2B2B2B2B3B3B3BABABAFFFFFFF9F9F9FFFFFFFFFFFFF4F4F4FF
310
FFFFFFFFFFFFFFFFFFFFFFFFFFFFFFFFFFFFFFFFFFFFFFFFFFFFD5D5D5313131
310
0000000808080606060000000A0A0A040404110D0C0B07060402010101010305
310
0504090803070801050600000100010201030403050606080804090800040200
310
0100000100DDDEDCF3F4F24D4E4C09090904060600000102070A00020A01040C
310
00020C00000700000506040A07060A060305020000100E0D100E0E0A08080C0C
310
0C060606F8F6F6E0DEDDDAD6D5DAD6D5DBD7D6D9D7D6D8D6D6D5D5D5D1D3D4D0
310
D2D3CED0D1D0D2D2D3D3D3CFD1D1CFCFCFCED0D0D4D4D4D6D8D8D4D4D4D4D6D6
310
D8D8D8D7D9D9D8D8D8D4D6D6D3D3D3CFD1D1D9D9D9D5D7D7D4D4D4D0D2D2D2D2
310
D2D2D4D4D7D7D7D7D9D9D2D2D2D2D4D4D7D7D7D7D9D9D9D9D9D5D7D7D4D4D4D2
310
D2D2D3D4D2D5D3D2D5D3D2D6D4D3D7D5D4D8D6D5D8D6D5D8D6D5D1CFCECFCECA
310
FCF9F5FFFDF9FFFFFCFFFCF80000575757878787CBCBCBFCFCFCFFFFFFFEFEFE
310
F8F8F8FAFAFAFFFFFFFFFFFFFFFFFFFFFFFFFFFFFFFFFFFFFFFFFFFFFFFFFFFF
310
FFF5F5F5FFFFFFF7F7F7FFFFFFC5C5C5B8B8B8B0B0B0B3B3B3B3B3B3B2B2B2B2
310
B2B2B2B2B2B2B2B2B3B3B3B3B3B3B2B2B2B2B2B2B2B2B2B2B2B2B2B2B2B2B2B2
310
B2B2B2B2B2B2B1B1B1B8B8B8F5F5F5FEFEFEFFFFFFFFFFFFF7F7F7FFFFFFFFFF
310
FFFFFFFFFFFFFFFFFFFFFFFFFFFFFFFFFFFFFFFFFFFFF4F4F4FFFFFF8B8B8B00
310
00000202021313130000000806050401000401000C09050D0C08060606000100
310
000001000003070E11060D1004090C000304000001000403060B0A0D100E1411
310
0D0501007A7671FEFBF7B8B5B12F2D2C0705050D0C0E00000300000400000601
310
030B03050D02040C00020C00020A0406070D0D0D0505050101010C0C0C040404
310
F7F7F7D3D3D3D5D5D5D6D6D6D8D8D8D9D9D9DADADAD8D8D8D7D7D7D5D5D5D5D5
310
D5D7D7D7D9D9D9D9D9D9D8D8D8D7D7D7D8D8D8D9D9D9D5D5D5D5D5D5D6D6D6D7
310
D7D7D8D8D8D8D8D8D9D9D9D9D9D9D7D7D7D6D6D6D5D5D5D3D3D3D3D3D3D5D5D5
310
D6D6D6D7D7D7D1D1D1D3D3D3D5D5D5D7D7D7D7D7D7D5D5D5D3D3D3D1D1D1D4D4
310
D4D4D4D4D4D4D4D4D4D4D4D4D4D4D4D4D3D3D3D3D3D3CACACAC8C8C8F3F3F3F7
310
F7F7FFFFFFFCFCFC0000BEBEBEEBEBEBFFFFFFFFFFFFF6F6F6F7F7F7FFFFFFFF
310
FFFFFFFFFFFFFFFFFFFFFFFFFFFFFFFFFFFFFFFFFFFFFFFFFFFFFEFEFEFDFDFD
310
FFFFFFFFFFFFDADADAB8B8B8AEAEAEB9B9B9B0B0B0B0B0B0B0B0B0B1B1B1B2B2
310
B2B3B3B3B5B5B5B6B6B6B2B2B2B2B2B2B2B2B2B2B2B2B2B2B2B2B2B2B2B2B2B2
310
B2B2B0B0B0B4B4B4DBDBDBFFFFFFFEFEFEFEFEFEFEFEFEFCFCFCFFFFFFFFFFFF
310
FFFFFFFFFFFFFFFFFFFFFFFFFFFFFFFFFFFFFFFFFFDADADAF9F9F9E0E0E04848
310
48000000101010060705090804090804090804070602030303020404050A090A
310
0E0F0000010000000808080A08070403000401000502000A050012060026190B
310
7F7264D0C4B8F6EAE0FFFFF8CAC0B9362D29120B080C07060B06070B080A0403
310
07000003000003090A0E050406050505000000000000080808030303FFFFFFDF
310
DFDFCCCCCCCFCFCFD2D2D2D4D4D4D5D5D5D4D4D4D2D2D2D1D1D1D2D2D2D2D2D2
310
D3D3D3D5D5D5D6D6D6D5D5D5D2D2D2CFCFCFD2D2D2D1D1D1D0D0D0D0D0D0D0D0
310
D0D2D2D2D4D4D4D5D5D5D4D4D4D3D3D3D3D3D3D3D3D3D3D3D3D3D3D3D3D3D3D4
310
D4D4CFCFCFD0D0D0D2D2D2D4D4D4D4D4D4D2D2D2D0D0D0CFCFCFD9D9D9D9D9D9
310
D8D8D8D8D8D8D7D7D7D6D6D6D5D5D5D5D5D5D5D5D5D1D1D1F8F8F8FAFAFAFFFF
310
FFFCFCFC0000FFFFFFFFFFFFFFFFFFFFFFFFFFFFFFFEFEFEFBFBFBF9F9F9FFFF
310
FFFFFFFFFFFFFFFFFFFFFFFFFFFFFFFFFFFFFFFFFFFFFFFFFFFFFFFFFDFDFDFA
310
FAFAB7B7B7B2B2B2AFAFAFBBBBBBB0B0B0B0B0B0B0B0B0B0B0B0B1B1B1B3B3B3
310
B4B4B4B5B5B5B2B2B2B2B2B2B2B2B2B2B2B2B2B2B2B2B2B2B2B2B2B2B2B2B0B0
310
B0B4B4B4C2C2C2FFFFFFFDFDFDFDFDFDFFFFFFF8F8F8FFFFFFFFFFFFFFFFFFFF
310
FFFFFFFFFFFFFFFFFFFFFFFFFFFFFEFEFEFFFFFFFFFFFFFFFFFFFFFFFFCECECE
310
6060600202020809070001000201000001000506040608080000000001000F0D
310
0C0C09050903000901000B0200120900281D0F3E2E1DBCA58FD7BFA7E1C9B3E3
310
CBB7E5CFBDE0CCBBF6E6D6FFFFF5F2E6DC9C928B3E35310F0805050000050001
310
030101040202030303060606070707020202090909000000EDEDEDD0D0D0CECE
310
CED1D1D1D4D4D4D7D7D7D7D7D7D6D6D6D3D3D3D1D1D1D4D4D4D2D2D2D1D1D1D2
310
D2D2D5D5D5D4D4D4D1D1D1CDCDCDD6D6D6D5D5D5D4D4D4D3D3D3D2D2D2D2D2D2
310
D2D2D2D2D2D2D4D4D4D5D5D5D6D6D6D7D7D7D7D7D7D6D6D6D5D5D5D4D4D4D2D2
310
D2D3D3D3D5D5D5D6D6D6D6D6D6D5D5D5D3D3D3D2D2D2CCCCCCCCCCCCCCCCCCCB
310
CBCBCBCBCBCACACACACACACACACAD7D7D7D2D2D2F9F9F9FCFCFCFFFFFFFDFDFD
310
0000FEFEFEF6F6F6F8F8F8FFFFFFFFFFFFFCFCFCFBFBFBFFFFFFFFFFFFFFFFFF
310
FFFFFFFFFFFFFFFFFFFFFFFFFFFFFFFFFFFFFFFFFFF6F6F6FBFBFBC7C7C7B1B1
310
B1A2A2A2BEBEBEAFAFAFB2B2B2B1B1B1B1B1B1B0B0B0B1B1B1B1B1B1B2B2B2B3
310
B3B3B2B2B2B2B2B2B2B2B2B2B2B2B2B2B2B2B2B2B2B2B2B2B2B2B1B1B1B5B5B5
310
B3B3B3F7F7F7FDFDFDFEFEFEFFFFFFF8F8F8FFFFFFFFFFFFFFFFFFFFFFFFFFFF
310
FFFFFFFFFFFFFFFFFFFFFFFFFFF6F6F6EFEFEFFAFAFAFFFFFFFFFFFFFBFBFBFF
310
FFFFA6A7A5797C7A40413F1314120001000001000705040C07040701000B0200
310
1E120847372A786655A99381D4BCA8F4D9BFEECCAEF1CCAAF3D0AFF2D0B2E7C9
310
AEE1C3AADABFAAD0BBA6EEDBCCF9E9DCFFFEF4FFFEF5D9D0CC968F8C6964615C
310
58573937372D2D2D2828282121212E2E2E2F2F2FECECECD7D7D7CBCBCBCCCCCC
310
CFCFCFD0D0D0D0D0D0CDCDCDCACACAC8C8C8CFCFCFCBCBCBC8C8C8C7C7C7CACA
310
CACBCBCBCACACAC7C7C7CCCCCCCDCDCDCFCFCFCFCFCFCFCFCFCDCDCDCACACAC9
310
C9C9C8C8C8C9C9C9CBCBCBCCCCCCCCCCCCCBCBCBC9C9C9C8C8C8C9C9C9C9C9C9
310
CBCBCBCBCBCBCBCBCBCBCBCBC9C9C9C9C9C9D0D0D0D0D0D0D0D0D0D1D1D1D1D1
310
D1D2D2D2D2D2D2D2D2D2CBCBCBC7C7C7F0F0F0F6F6F6FFFFFFFFFFFF0000F9F9
310
F9FFFFFFFFFFFFFAFAFAF5F5F5FBFBFBFFFFFFFFFFFFFFFFFFFFFFFFFFFFFFFF
310
FFFFFFFFFFFFFFFFFFFFFFFFFFFFFFFFFFF4F4F4DDDDDDB6B6B6A9A9A9B1B1B1
310
BCBCBCAFAFAFB3B3B3B3B3B3B1B1B1B0B0B0B0B0B0B0B0B0B0B0B0B0B0B0B2B2
310
B2B2B2B2B2B2B2B2B2B2B2B2B2B2B2B2B2B2B2B2B2B2B2B2B2B6B6B6AEAEAEE0
310
E0E0FDFDFDFFFFFFFFFFFFFBFBFBFFFFFFFFFFFFFFFFFFFFFFFFFFFFFFFFFFFF
310
FFFFFFFFFFFFF8F8F8FBFBFBFFFFFFFFFFFFFCFCFCFDFDFDFFFFFFF5F5F5FDFF
310
FFFDFFFEFAFDFBF0F3F1E6E7E5DEDCDBDCD7D4DED5D1D4C9C1D1C1B5D5C2B3E9
310
D1BFF5DAC5F4D6BDEFCEB4EECBAAFBCFAAF9CCA6F8CCA7EFC5A2E7C0A0F3CFB1
310
F5D7BCE2C8B0E5CDBBD6C3B4D7CABCECE2D8FFFAF3FFFFFBFFFCF9FBF7F6F5F3
310
F3F3F3F3FFFFFFFFFFFFFFFFFFE0E0E0FFFFFFD1D1D1DADADADADADADBDBDBDB
310
DBDBDADADAD8D8D8D7D7D7D5D5D5DCDCDCD9D9D9D6D6D6D5D5D5D6D6D6D8D8D8
310
D9D9D9D9D9D9D4D4D4D6D6D6D9D9D9DCDCDCDDDDDDDBDBDBD9D9D9D8D8D8D6D6
310
D6D7D7D7D8D8D8D9D9D9D9D9D9D8D8D8D7D7D7D6D6D6D7D7D7D7D7D7D8D8D8D8
310
D8D8D8D8D8D8D8D8D7D7D7D7D7D7D2D2D2D2D2D2D3D3D3D3D3D3D4D4D4D5D5D5
310
D6D6D6D6D6D6DCDCDCD4D4D4F7F7F7F8F8F8FFFFFFFFFFFF0000FAFAFAFFFFFF
310
FFFFFFFFFFFFFFFFFFFFFFFFFFFFFFF0F0F0FFFFFFFFFFFFFFFFFFFFFFFFFFFF
310
FFFFFFFFFFFFFFFFFFFFFFFFFFEEEEEEB7B7B7B9B9B9A9A9A9C2C2C2AEAEAEB5
310
B5B5B3B3B3B2B2B2B1B1B1B0B0B0B0B0B0B0B0B0B0B0B0B0B0B0B2B2B2B2B2B2
310
B2B2B2B2B2B2B2B2B2B2B2B2B2B2B2B2B2B2B0B0B0B7B7B7AFAFAFC5C5C5FBFB
310
FBFFFFFFFDFDFDFFFFFFFFFFFFFFFFFFFFFFFFFFFFFFFFFFFFFFFFFFFFFFFFFF
310
FFFFFFFFFFF5F5F5F9F9F9FDFDFDEDEDEDF5F5F5FFFFFFFDFFFFEBF0EFF3F8F7
310
FBFFFFFDFFFFFFFFFEFFFFFBFFFFFBFFFFF8F5E7DBE4D1C2D9C0ACDEBFA8E5C4
310
AAE9C3A5ECC3A2F4C8A3F4C39BFFD0A6FAC9A1F4C7A1FBD1AEECC5A5DFBDA0EE
310
D0B7D3BBA7DCCAB9ECDED2FBF2E8FFFCF5FFFFFAFFFFFCFFFFFEFFFFFFFFFFFF
310
FBFBFBF7F7F7FDFDFDFFFFFFFFFFFFFFFFFFFDFDFDFDFDFDFDFDFDFCFCFCFCFC
310
FCFCFCFCFCFCFCFDFDFDFBFBFBFCFCFCFDFDFDFDFDFDFCFCFCFCFCFCFDFDFDFF
310
FFFFF9F9F9FAFAFAFCFCFCFEFEFEFEFEFEFEFEFEFEFEFEFDFDFDFEFEFEFEFEFE
310
FFFFFFFFFFFFFFFFFFFFFFFFFEFEFEFEFEFEFDFDFDFEFEFEFEFEFEFEFEFEFEFE
310
FEFEFEFEFEFEFEFDFDFDFFFFFFFFFFFFFFFFFFFFFFFFFFFFFFFFFFFFFFFFFFFF
310
FFFFFDFDFDEEEEEEFFFFFFFEFEFEFFFFFFFCFCFC0000FFFFFFFFFFFFFAFAFAFA
310
FAFAFDFDFDFFFFFFFFFFFFFFFFFFFFFFFFFFFFFFFFFFFFFFFFFFFFFFFFFFFFFF
310
FFFFFFFFFFFFFBFBFBD3D3D3B0B0B0A1A1A1C3C3C3B0B0B0ABABABB1B1B1B1B1
310
B1B1B1B1B0B0B0B0B0B0B0B0B0B0B0B0B1B1B1B2B2B2B2B2B2B2B2B2B2B2B2B2
310
B2B2B2B2B2B2B2B2B2B2B2B2B2B2AFAFAFB6B6B6B2B2B2B3B3B3F9F9F9FEFEFE
310
F8F8F8FFFFFFFFFFFFFFFFFFFFFFFFFFFFFFFFFFFFFFFFFFFFFFFFFFFFFFF9F9
310
F9FDFDFDFFFFFFFFFFFFFFFFFFFEFEFEFDFDFDFDFFFFFBFFFFFAFFFFF7FCFBFA
310
FCFCFFFFFEFFFFFCFFFDF9FFFBF1EFDED1E2CCBADEC1ACE6C5ABF0CAACF0C7A6
310
F3C6A1F9CAA4F8C59DFFCDA5FFCEA8F5C8A3F0C5A4F0CAACEAC9AFE0C4ACE4CE
310
BCF4E4D4FFF9EFFFFEF7FFFCF7FCFAF9FBFBFBFAFCFCF6F6F6FCFCFCFFFFFFFF
310
FFFFF8F8F8FFFFFFEDEDEDFEFEFEFFFFFFFFFFFFFEFEFEFEFEFEFFFFFFFFFFFF
310
FFFFFFFFFFFFF9F9F9FDFDFDFFFFFFFFFFFFFFFFFFFEFEFEFFFFFFFFFFFFFFFF
310
FFFFFFFFFFFFFFFFFFFFFEFEFEFEFEFEFFFFFFFFFFFFFFFFFFFFFFFFFFFFFFFF
310
FFFFFFFFFFFFFFFFFFFFFFFFFFFFFEFEFEFEFEFEFEFEFEFEFEFEFEFEFEFEFEFE
310
FEFEFEFEFEFEFFFFFFFEFEFEFEFEFEFDFDFDFCFCFCFCFCFCFBFBFBFBFBFBFFFF
310
FFF5F5F5FFFFFFFBFBFBFFFFFFFBFBFB0000FFFFFFFFFFFFFFFFFFFFFFFFFFFF
310
FFFFFFFFFFFFFFFFFFFFFFFFFFFFFFFFFFFFFFFFFFFFFFFFFFFFFFFFFFFFFFFF
310
FFFFDDDDDDC6C6C6B7B7B7BCBCBCC4C4C4C2C2C2BDBDBDBDBDBDC0C0C0C0C0C0
310
C0C0C0C0C0C0C0C0C0C0C0C0C0C0C0C0C0C0C0C0C0C0C0C0C0C0C0C0C0C0C0C0
310
C0C0C0C0C0C0C0C0C0C0C1C1C1BFBFBFBBBBBBC0C0C0DADADAF8F8F8FFFFFFFB
310
FBFBFFFFFFFFFFFFFFFFFFFFFFFFFFFFFFFFFFFFFFFFFFFFFFFFFFFFFFFFFFFF
310
FFFFFFFFFFFFFFFFFFFFFFFFFFFFFFFDFFFFFAFFFFFAFFFFFBFFFFFDFFFFFFFF
310
FEFFFFFCFFFFF9FFFFF7F2E1D4DDC7B5E4C8B0E6C6A9EDC6A6FBD1AEFBCCA6FC
310
CDA7F3C6A1F7CAA8FACFAEF5CEAEEFCAAEE8C9B0E5CAB5E4CEBCFFFAEDFFFBF1
310
FFFDF6FFFFFBFFFFFFFBFFFFF9FEFFF8FDFEFDFFFFFFFFFFFFFFFFFFFFFFFFFF
310
FFFFFFFFFFFFFFFFFFFFFFFFFFFFFFFFFFFFFFFFFFFFFFFFFFFFFFFFFFFFFFFF
310
FFFFFFFFFFFFFFFFFFFFFFFFFFFFFFFFFFFFFFFFFFFFFFFFFFFFFFFFFFFFFFFF
310
FFFFFFFFFFFFFFFFFFFFFFFFFFFFFFFFFFFFFFFFFFFFFFFFFFFFFFFFFFFFFFFF
310
FFFFFFFFFFFFFFFFFFFFFFFFFFFFFFFFFFFFFFFFFFFFFFFFFFFFFFFFFFFFFFFF
310
FFFFFFFFFFFFFFFFFFFFFFFFFFFFFFFFFFFFFFFFFFFFFFFFFFFFFFFFFFFFFFFF
310
FFFFFFFFFFFFFFFFFFFFFFFF0000FFFFFFFFFFFFFFFFFFFFFFFFFFFFFFFFFFFF
310
FFFFFFFFFFFFFFFFFFFFFFFFFFFFFFFFFFFFFFFFFFFFFFFFFFFFFFFFFFFFFFFF
310
FFF9F9F9F4F4F4FBFBFBFFFFFFFBFBFBFAFAFAFEFEFEFBFBFBFBFBFBFBFBFBFB
310
FBFBFBFBFBFBFBFBFBFBFBFBFBFBFBFBFBFBFBFBFBFBFBFBFBFBFBFBFBFBFBFB
310
FBFBFBFBFBFBFDFDFDFEFEFEF8F8F8F2F2F2F8F8F8FFFFFFFFFFFFFEFEFEFFFF
310
FFFFFFFFFFFFFFFFFFFFFFFFFFFFFFFFFFFFFFFFFFFFFFFFFFFFFFFFFFFFFFFF
310
FFFFFFFFFFFFFFFFFFFFFFFDFFFFFAFFFFFAFFFFFBFFFFFDFFFFFFFFFEFFFFFC
310
FFFFF9FFFFF7FCECDFE3CDBBE6CCB4E7C9AEEAC4A4F0C8A5EDC19CF1C5A0F7D0
310
B0EFCAAEE5C2A8DDBBA3DCBFAAEAD1BDFEEAD9FFFCEFFFFAF0FFFBF4FFFDF9FE
310
FEFEFBFEFFFAFEFFF5FEFFF6FCFFFDFFFFFFFFFFFFFFFFFFFFFFFFFFFFFFFFFF
310
FFFFFFFFFFFFFFFFFFFFFFFFFFFFFFFFFFFFFFFFFFFFFFFFFFFFFFFFFFFFFFFF
310
FFFFFFFFFFFFFFFFFFFFFFFFFFFFFFFFFFFFFFFFFFFFFFFFFFFFFFFFFFFFFFFF
310
FFFFFFFFFFFFFFFFFFFFFFFFFFFFFFFFFFFFFFFFFFFFFFFFFFFFFFFFFFFFFFFF
310
FFFFFFFFFFFFFFFFFFFFFFFFFFFFFFFFFFFFFFFFFFFFFFFFFFFFFFFFFFFFFFFF
310
FFFFFFFFFFFFFFFFFFFFFFFFFFFFFFFFFFFFFFFFFFFFFFFFFFFFFFFFFFFFFFFF
310
FFFFFFFFFFFFFFFF0000FFFFFFFFFFFFFFFFFFFFFFFFFFFFFFFFFFFFFFFFFFFF
310
FFFFFFFFFFFFFFFFFFFFFFFFFFFFFFFFFFFFFFFFFFFFFFFFFFFFFFFFFFFCFCFC
310
FFFFFFFFFFFFFFFFFFFFFFFFFFFFFFFFFFFFFFFFFFFFFFFFFFFFFFFFFFFFFFFF
310
FFFFFFFFFFFFFFFFFFFFFFFFFFFFFFFFFFFFFFFFFFFFFFFFFFFFFFFFFFFFFFFF
310
FFFFFFFFFFFFFFFFFFFFFFFEFEFEF9F9F9FBFBFBFBFBFBF7F7F7FFFFFFFFFFFF
310
FFFFFFFFFFFFFFFFFFFFFFFFFFFFFFFFFFFFFFFFFFFFFFFFFFFFFFFFFFFFFFFF
310
FFFFFFFFFFFFFFFDFFFFFBFFFFFBFFFFFBFFFFFDFFFFFFFFFEFFFFFCFFFFFBFF
310
FFF8F1E3D7D5C3B2DCC4B0E6CAB2E8CAADF2CFAEF2CDABFAD7B6E0C2A9DFC4B0
310
E1C7B6E4CDBDECD7C8F8E7DAFFF9F0FFFFF8FFF9F5FFFBFAFDFDFDFAFDFFFAFE
310
FFF6FEFFF5FDFFF6FCFFFDFFFFFFFFFFFFFFFFFFFFFFFFFFFFFFFFFFFFFFFFFF
310
FFFFFFFFFFFFFFFFFFFFFFFFFFFFFFFFFFFFFFFFFFFFFFFFFFFFFFFFFFFFFFFF
310
FFFFFFFFFFFFFFFFFFFFFFFFFFFFFFFFFFFFFFFFFFFFFFFFFFFFFFFFFFFFFFFF
310
FFFFFFFFFFFFFFFFFFFFFFFFFFFFFFFFFFFFFFFFFFFFFFFFFFFFFFFFFFFFFFFF
310
FFFFFFFFFFFFFFFFFFFFFFFFFFFFFFFFFFFFFFFFFFFFFFFFFFFFFFFFFFFFFFFF
310
FFFFFFFFFFFFFFFFFFFFFFFFFFFFFFFFFFFFFFFFFFFFFFFFFFFFFFFFFFFFFFFF
310
FFFFFFFF0000FFFFFFFFFFFFFFFFFFFFFFFFFFFFFFFFFFFFFFFFFFFFFFFFFFFF
310
FFFFFFFFFFFFFFFFFFFFFFFFFFFFFFFFFFFFFFFFFFFFF8F8F8F8F8F8FCFCFCFF
310
FFFFFCFCFCF6F6F6F6F6F6FCFCFCFCFCFCFCFCFCFCFCFCFCFCFCFCFCFCFCFCFC
310
FCFCFCFCFCFCFCFCFCFCFCFCFCFCFCFCFCFCFCFCFCFCFCFCFCFCFCFCFCFCF5F5
310
F5FDFDFDFFFFFFFDFDFDFBFBFBFFFFFFFFFFFFFFFFFFFFFFFFFFFFFFFFFFFFFF
310
FFFFFFFFFFFFFFFFFFFFFFFFFFFFFFFFFFFFFFFFFFFFFFFFFFFFFFFFFFFFFFFF
310
FFFFFFFFFFFFFDFFFFFBFFFFFBFFFFFDFFFFFFFFFEFFFFFEFFFFFCFFFFF9F3EA
310
E0D3C6B8D8C6B5DFCAB5DDC5ADDEC3A8DDC0A1E6CBB0D8C4B2E1D1C4F5E5D9FF
310
F4EBFFFCF4FFFDF6FFFBF4FEF8F3FFFBFAFCFCFCFBFDFEF9FEFFF8FEFFF8FEFF
310
F5FDFFF6FCFFFDFFFFFFFFFFFFFFFFFFFFFFFFFFFFFFFFFFFFFFFFFFFFFFFFFF
310
FFFFFFFFFFFFFFFFFFFFFFFFFFFFFFFFFFFFFFFFFFFFFFFFFFFFFFFFFFFFFFFF
310
FFFFFFFFFFFFFFFFFFFFFFFFFFFFFFFFFFFFFFFFFFFFFFFFFFFFFFFFFFFFFFFF
310
FFFFFFFFFFFFFFFFFFFFFFFFFFFFFFFFFFFFFFFFFFFFFFFFFFFFFFFFFFFFFFFF
310
FFFFFFFFFFFFFFFFFFFFFFFFFFFFFFFFFFFFFFFFFFFFFFFFFFFFFFFFFFFFFFFF
310
FFFFFFFFFFFFFFFFFFFFFFFFFFFFFFFFFFFFFFFFFFFFFFFFFFFFFFFFFFFFFFFF
310
0000FFFFFFFFFFFFFFFFFFFFFFFFFFFFFFFFFFFFFFFFFFFFFFFFFFFFFFFFFFFF
310
FFFFFFFFFFFFFFFFFFFFFFFFFFFFFFFFFFFFFFFFFFFFFFFFFFFFFFFFFFFFFFFF
310
FFFEFEFEFDFDFDFFFFFFFFFFFFFFFFFFFFFFFFFFFFFFFFFFFFFFFFFFFFFFFFFF
310
FFFFFFFFFFFFFFFFFFFFFFFFFFFFFFFFFFFFFFFFFFFFFFFFFFFFFEFEFEFFFFFF
310
FFFFFFFEFEFEFFFFFFFFFFFFFFFFFFFFFFFFFFFFFFFFFFFFFFFFFFFFFFFFFFFF
310
FFFFFFFFFFFFFFFFFFFFFFFFFFFFFFFFFFFFFFFFFFFFFFFFFFFFFFFFFFFFFFFF
310
FFFFFDFFFFFDFFFFFDFFFFFDFFFFFFFFFFFFFFFEFFFFFCFFFFFBE8E2DBCCC3B9
310
D3C7BBDBCCBCDBCAB7DECCB5DECAB1E5D4BFF6EDE0F8F2EBFFFBF4FFFFFBFFFF
310
FBFFFFFCFFFFFCFFFEFDFCFDFBFBFDFDF9FEFDFAFEFFF9FEFFF9FEFFF9FEFFFA
310
FEFFFDFFFFFFFFFFFFFFFFFFFFFFFFFFFFFFFFFFFFFFFFFFFFFFFFFFFFFFFFFF
310
FFFFFFFFFFFFFFFFFFFFFFFFFFFFFFFFFFFFFFFFFFFFFFFFFFFFFFFFFFFFFFFF
310
FFFFFFFFFFFFFFFFFFFFFFFFFFFFFFFFFFFFFFFFFFFFFFFFFFFFFFFFFFFFFFFF
310
FFFFFFFFFFFFFFFFFFFFFFFFFFFFFFFFFFFFFFFFFFFFFFFFFFFFFFFFFFFFFFFF
310
FFFFFFFFFFFFFFFFFFFFFFFFFFFFFFFFFFFFFFFFFFFFFFFFFFFFFFFFFFFFFFFF
310
FFFFFFFFFFFFFFFFFFFFFFFFFFFFFFFFFFFFFFFFFFFFFFFFFFFFFFFF0000FFFF
310
FFFFFFFFFFFFFFFFFFFFFFFFFFFFFFFFFFFFFFFFFFFFFFFFFFFFFFFFFFFFFFFF
310
FFFFFFFFFFFFFFFFFFFFFFFFFFFFFFFFFFFDFDFDFAFAFAFAFAFAFDFDFDFFFFFF
310
FEFEFEFDFDFDFDFDFDFDFDFDFDFDFDFDFDFDFDFDFDFDFDFDFDFDFDFDFDFDFDFD
310
FDFDFDFDFDFDFDFDFDFDFDFDFDFDFDFDFDFDFDFDFDFDFFFFFFFDFDFDFAFAFAF9
310
F9F9FCFCFCFEFEFEFDFDFDFAFAFAFFFFFFFFFFFFFFFFFFFFFFFFFFFFFFFFFFFF
310
FFFFFFFFFFFFFFFFFFFFFFFFFFFFFFFFFFFFFFFFFFFFFFFFFFFFFFFFFFFFFFFF
310
FEFDFFFEFDFFFFFDFFFFFFFFFFFFFFFFFFFFFEFFFFFCEAE7E2D6D3CBE5DED5EE
310
E6D9F4EAD9FFF6E4FFF7E4FFFFEFFFFFF9FFFFFEFFFFFEFEFFFDFEFFFDFEFFFD
310
FFFFFEFDFFFEFCFEFEFCFEFEFCFEFEFCFEFEFCFEFEFCFEFEFCFEFEFCFEFEFFFF
310
FFFFFFFFFFFFFFFFFFFFFFFFFFFFFFFFFFFFFFFFFFFFFFFFFFFFFFFFFFFFFFFF
310
FFFFFFFFFFFFFFFFFFFFFFFFFFFFFFFFFFFFFFFFFFFFFFFFFFFFFFFFFFFFFFFF
310
FFFFFFFFFFFFFFFFFFFFFFFFFFFFFFFFFFFFFFFFFFFFFFFFFFFFFFFFFFFFFFFF
310
FFFFFFFFFFFFFFFFFFFFFFFFFFFFFFFFFFFFFFFFFFFFFFFFFFFFFFFFFFFFFFFF
310
FFFFFFFFFFFFFFFFFFFFFFFFFFFFFFFFFFFFFFFFFFFFFFFFFFFFFFFFFFFFFFFF
310
FFFFFFFFFFFFFFFFFFFFFFFFFFFFFFFFFFFFFFFFFFFFFFFF0000FFFFFFFFFFFF
310
FFFFFFFFFFFFFFFFFFFFFFFFFFFFFFFFFFFFFFFFFFFFFFFFFFFFFFFFFFFFFFFF
310
FFFFFFFFFFFFFFFFFFFFFFFFFFFEFEFEFDFDFDFDFDFDFEFEFEFFFFFFFFFFFFFF
310
FFFFFFFFFFFFFFFFFFFFFFFFFFFFFFFFFFFFFFFFFFFFFFFFFFFFFFFFFFFFFFFF
310
FFFFFFFFFFFFFFFFFFFFFFFFFFFFFFFFFFFFFFFFFFFFFFFFFEFEFEFFFFFFFFFF
310
FFFFFFFFFFFFFFFFFFFFFFFFFFFFFFFFFFFFFFFFFFFFFFFFFFFFFFFFFFFFFFFF
310
FFFFFFFFFFFFFFFFFFFFFFFFFFFFFFFFFFFFFFFFFFFFFFFFFFFFFFFFFEFFFFFC
310
FFFFFEFFFFFEFDFFFFFDFFFFFDFFFFFFFFFEFFFFFEFAF9F5FFFFFBFFFFF5FFFC
310
F1FFFFF4FFFFF2FFFFF5F9FDF8F7FDFCF7FDFCF8FEFDFAFFFEF9FEFDF7FCFAF7
310
FAF8FDFFFEFFFFFEFEFFFDFEFFFBFFFFFBFFFFFBFFFFFBFFFFFCFFFFFFFFFFFF
310
FFFFFFFFFFFFFFFFFFFFFFFFFFFFFFFFFFFFFFFFFFFFFFFFFFFFFFFFFFFFFFFF
310
FFFFFFFFFFFFFFFFFFFFFFFFFFFFFFFFFFFFFFFFFFFFFFFFFFFFFFFFFFFFFFFF
310
FFFFFFFFFFFFFFFFFFFFFFFFFFFFFFFFFFFFFFFFFFFFFFFFFFFFFFFFFFFFFFFF
310
FFFFFFFFFFFFFFFFFFFFFFFFFFFFFFFFFFFFFFFFFFFFFFFFFFFFFFFFFFFFFFFF
310
FFFFFFFFFFFFFFFFFFFFFFFFFFFFFFFFFFFFFFFFFFFFFFFFFFFFFFFFFFFFFFFF
310
FFFFFFFFFFFFFFFFFFFFFFFFFFFFFFFFFFFFFFFF0000FFFFFFFFFFFFFFFFFFFF
310
FFFFFFFFFFFFFFFFFFFFFFFFFFFFFFFFFFFFFFFFFFFFFFFFFFFFFFFFFFFFFFFF
310
FFFFFFFFFFFFFCFCFCFFFFFFFFFFFFFFFFFFFDFDFDFDFDFDFDFDFDFCFCFCFFFF
310
FFFFFFFFFFFFFFFFFFFFFFFFFFFFFFFFFFFFFFFFFFFFFFFFFFFFFFFFFFFFFFFF
310
FFFFFFFFFFFFFFFFFFFFFFFFFFFFFAFAFAFBFBFBFEFEFEFFFFFFFFFFFFFCFCFC
310
FCFCFCFDFDFDFFFFFFFFFFFFFFFFFFFFFFFFFFFFFFFFFFFFFFFFFFFFFFFFFFFF
310
FFFFFFFFFFFFFFFFFFFFFFFFFFFFFFFFFFFFFFFFFFFEFFFFFEFFFFFCFFFFFEFF
310
FFFEFDFFFFFDFFFFFDFFFFFDFFFFFAFDFBF2F6F1FFFFFCFAFBF2FAF8EEFFFFF5
310
FFFFF5FEFEF2FAFFFEF5FFFFF6FEFEF6FEFEFAFFFFFAFFFFFBFFFEFBFFFEFFFF
310
FEFFFFFEFFFFFBFFFFFBFFFFFAFFFFFAFFFFFBFFFFFCFFFFFEFFFFFFFFFFFFFF
310
FFFFFFFFFFFFFFFFFFFFFFFFFFFFFFFFFFFFFFFFFFFFFFFFFFFFFFFFFFFFFFFF
310
FFFFFFFFFFFFFFFFFFFFFFFFFFFFFFFFFFFFFFFFFFFFFFFFFFFFFFFFFFFFFFFF
310
FFFFFFFFFFFFFFFFFFFFFFFFFFFFFFFFFFFFFFFFFFFFFFFFFFFFFFFFFFFFFFFF
310
FFFFFFFFFFFFFFFFFFFFFFFFFFFFFFFFFFFFFFFFFFFFFFFFFFFFFFFFFFFFFFFF
310
FFFFFFFFFFFFFFFFFFFFFFFFFFFFFFFFFFFFFFFFFFFFFFFFFFFFFFFFFFFFFFFF
310
FFFFFFFFFFFFFFFFFFFFFFFFFFFFFFFF00000000000000000000000000000000
310
0000000000000000000000000000000000000000000000000000000000000000
310
0000000000000000000000000000000000000000000000000000000000000000
310
0000000000000000000000000000000000000000000000000000000000000000
310
0000000000000000000000000000000000000000000000000000000000000000
310
0000000000000000000000000000000000000000000000000000000000000000
310
0000000000000000000000000000000000000000000000000000000000000000
310
0000000000000000000000000000000000000000000000000000000000000000
310
0000000000000000000000000000000000000000000000000000000000000000
310
0000000000000000000000000000000000000000000000000000000000000000
  1
OLE
  0
ENDSEC
  0
SECTION
  2
OBJECTS
  0
DICTIONARY
  5
C
330
0
100
AcDbDictionary
281
     1
  3
ACAD_GROUP
350
D
  3
ACAD_IMAGE_VARS
350
3DF
  3
ACAD_LAYOUT
350
3A2
  3
ACAD_MATERIAL
350
3C7
  3
ACAD_MLEADERSTYLE
350
3E6
  3
ACAD_MLINESTYLE
350
17
  3
ACAD_SCALELIST
350
3A5
  3
ACAD_TABLESTYLE
350
3DC
  3
ACAD_VISUALSTYLE
350
3CB
  3
ACDB_RECOMPOSE_DATA
350
3E4
  3
AcDbVariableDictionary
350
3E0
  3
APPDATA
350
3DE
  0
DICTIONARY
  5
D
102
{ACAD_REACTORS
330
C
102
}
330
C
100
AcDbDictionary
281
     1
  0
RASTERVARIABLES
  5
3DF
102
{ACAD_REACTORS
330
C
102
}
330
C
100
AcDbRasterVariables
 90
        0
 70
     1
 71
     1
 72
     0
  0
DICTIONARY
  5
3A2
102
{ACAD_REACTORS
330
C
102
}
330
C
100
AcDbDictionary
281
     1
  3
Foglio 1
350
3A4
  3
Model
350
3A3
  0
DICTIONARY
  5
3C7
102
{ACAD_REACTORS
330
C
102
}
330
C
100
AcDbDictionary
281
     1
  3
ByBlock
350
3C9
  3
ByLayer
350
3C8
  3
Global
350
3CA
  0
DICTIONARY
  5
3E6
102
{ACAD_REACTORS
330
C
102
}
330
C
100
AcDbDictionary
281
     1
  0
DICTIONARY
  5
17
102
{ACAD_REACTORS
330
C
102
}
330
C
100
AcDbDictionary
281
     1
  3
STANDARD
350
18
  0
DICTIONARY
  5
3A5
102
{ACAD_REACTORS
330
C
102
}
330
C
100
AcDbDictionary
281
     1
  3
A0
350
3A6
  3
A1
350
3A7
  3
A2
350
3A8
  3
A3
350
3A9
  3
A4
350
3AA
  3
A5
350
3AB
  3
A6
350
3AC
  3
A7
350
3AD
  3
A8
350
3AE
  3
A9
350
3AF
  3
B0
350
3B0
  3
B1
350
3B1
  3
B2
350
3B2
  3
B3
350
3B3
  3
B4
350
3B4
  3
B5
350
3B5
  3
B6
350
3B6
  3
B7
350
3B7
  3
B8
350
3B8
  3
B9
350
3B9
  3
C0
350
3BA
  3
C1
350
3BB
  3
C2
350
3BC
  3
C3
350
3BD
  3
C4
350
3BE
  3
C5
350
3BF
  3
C6
350
3C0
  3
C7
350
3C1
  3
C8
350
3C2
  3
C9
350
3C3
  3
D0
350
3C4
  3
D1
350
3C5
  3
D2
350
3C6
  0
DICTIONARY
  5
3DC
102
{ACAD_REACTORS
330
C
102
}
330
C
100
AcDbDictionary
281
     1
  3
Standard
350
3DD
  0
DICTIONARY
  5
3CB
102
{ACAD_REACTORS
330
C
102
}
330
C
100
AcDbDictionary
281
     1
  3
2dWireframe
350
3D0
  3
3D Hidden
350
3D2
  3
3dWireframe
350
3D1
  3
Basic
350
3D3
  3
Brighten
350
3D7
  3
ColorChange
350
3DB
  3
Conceptual
350
3D5
  3
Dim
350
3D6
  3
Facepattern
350
3DA
  3
Flat
350
3CC
  3
FlatWithEdges
350
3CD
  3
Gouraud
350
3CE
  3
GouraudWithEdges
350
3CF
  3
Linepattern
350
3D9
  3
Realistic
350
3D4
  3
Thicken
350
3D8
  0
XRECORD
  5
3E4
102
{ACAD_REACTORS
330
C
102
}
330
C
100
AcDbXrecord
280
     1
 90
        1
330
3DD
  0
DICTIONARY
  5
3E0
102
{ACAD_REACTORS
330
C
102
}
330
C
100
AcDbDictionary
281
     1
  3
CANNOSCALE
350
3E1
  3
CTABLESTYLE
350
3E5
  0
DICTIONARY
  5
3DE
102
{ACAD_REACTORS
330
C
102
}
330
C
100
AcDbDictionary
281
     1
  0
LAYOUT
  5
3A4
102
{ACAD_REACTORS
330
3A2
102
}
330
3A2
100
AcDbPlotSettings
  1

  2
none_device
  4

  6

 40
0.0
 41
0.0
 42
0.0
 43
0.0
 44
0.0
 45
0.0
 46
0.0
 47
0.0
 48
0.0
 49
0.0
140
0.0
141
0.0
142
1.0
143
1.0
 70
   688
 72
     0
 73
     0
 74
     5
  7

 75
    16
 76
     0
 77
     2
 78
   300
147
1.0
148
0.0
149
0.0
100
AcDbLayout
  1
Foglio 1
 70
     1
 71
     1
 10
0.0
 20
0.0
 11
0.0
 21
0.0
 12
0.0
 22
0.0
 32
0.0
 14
1.000000000000000E+20
 24
1.000000000000000E+20
 34
1.000000000000000E+20
 15
-1.000000000000000E+20
 25
-1.000000000000000E+20
 35
-1.000000000000000E+20
146
0.0
 13
0.0
 23
0.0
 33
0.0
 16
1.0
 26
0.0
 36
0.0
 17
0.0
 27
1.0
 37
0.0
 76
     0
330
1B
  0
LAYOUT
  5
3A3
102
{ACAD_REACTORS
330
3A2
102
}
330
3A2
100
AcDbPlotSettings
  1

  2
none_device
  4

  6

 40
0.0
 41
0.0
 42
0.0
 43
0.0
 44
0.0
 45
0.0
 46
0.0
 47
0.0
 48
0.0
 49
0.0
140
0.0
141
0.0
142
1.0
143
1.0
 70
  1712
 72
     0
 73
     0
 74
     0
  7

 75
     0
 76
     0
 77
     2
 78
   300
147
1.0
148
0.0
149
0.0
100
AcDbLayout
  1
Model
 70
     1
 71
     0
 10
0.0
 20
0.0
 11
840.0
 21
594.0
 12
0.0
 22
0.0
 32
0.0
 14
0.0
 24
0.0
 34
0.0
 15
840.0
 25
594.0
 35
0.0
146
0.0
 13
0.0
 23
0.0
 33
0.0
 16
1.0
 26
0.0
 36
0.0
 17
0.0
 27
1.0
 37
0.0
 76
     0
330
1F
331
29
  0
MATERIAL
  5
3C9
102
{ACAD_REACTORS
330
3C7
102
}
330
3C7
100
AcDbMaterial
  1
ByBlock
 72
     1
 94
      127
  0
MATERIAL
  5
3C8
102
{ACAD_REACTORS
330
3C7
102
}
330
3C7
100
AcDbMaterial
  1
ByLayer
 72
     1
 94
      127
  0
MATERIAL
  5
3CA
102
{ACAD_REACTORS
330
3C7
102
}
330
3C7
100
AcDbMaterial
  1
Global
 72
     1
 94
      127
  0
MLINESTYLE
  5
18
102
{ACAD_REACTORS
330
17
102
}
330
17
100
AcDbMlineStyle
  2
Standard
 70
     0
  3

 62
   256
 51
90.0
 52
90.0
 71
     2
 49
0.5
 62
   256
  6
BYLAYER
 49
-0.5
 62
   256
  6
BYLAYER
  0
SCALE
  5
3A6
102
{ACAD_REACTORS
330
3A5
102
}
330
3A5
100
AcDbScale
 70
     0
300
1:1
140
1.0
141
1.0
290
     1
  0
SCALE
  5
3A7
102
{ACAD_REACTORS
330
3A5
102
}
330
3A5
100
AcDbScale
 70
     0
300
1:2
140
1.0
141
2.0
290
     0
  0
SCALE
  5
3A8
102
{ACAD_REACTORS
330
3A5
102
}
330
3A5
100
AcDbScale
 70
     0
300
1:4
140
1.0
141
4.0
290
     0
  0
SCALE
  5
3A9
102
{ACAD_REACTORS
330
3A5
102
}
330
3A5
100
AcDbScale
 70
     0
300
1:5
140
1.0
141
5.0
290
     0
  0
SCALE
  5
3AA
102
{ACAD_REACTORS
330
3A5
102
}
330
3A5
100
AcDbScale
 70
     0
300
1:8
140
1.0
141
8.0
290
     0
  0
SCALE
  5
3AB
102
{ACAD_REACTORS
330
3A5
102
}
330
3A5
100
AcDbScale
 70
     0
300
1:10
140
1.0
141
10.0
290
     0
  0
SCALE
  5
3AC
102
{ACAD_REACTORS
330
3A5
102
}
330
3A5
100
AcDbScale
 70
     0
300
1:16
140
1.0
141
16.0
290
     0
  0
SCALE
  5
3AD
102
{ACAD_REACTORS
330
3A5
102
}
330
3A5
100
AcDbScale
 70
     0
300
1:20
140
1.0
141
20.0
290
     0
  0
SCALE
  5
3AE
102
{ACAD_REACTORS
330
3A5
102
}
330
3A5
100
AcDbScale
 70
     0
300
1:30
140
1.0
141
30.0
290
     0
  0
SCALE
  5
3AF
102
{ACAD_REACTORS
330
3A5
102
}
330
3A5
100
AcDbScale
 70
     0
300
1:40
140
1.0
141
40.0
290
     0
  0
SCALE
  5
3B0
102
{ACAD_REACTORS
330
3A5
102
}
330
3A5
100
AcDbScale
 70
     0
300
1:50
140
1.0
141
50.0
290
     0
  0
SCALE
  5
3B1
102
{ACAD_REACTORS
330
3A5
102
}
330
3A5
100
AcDbScale
 70
     0
300
1:100
140
1.0
141
100.0
290
     0
  0
SCALE
  5
3B2
102
{ACAD_REACTORS
330
3A5
102
}
330
3A5
100
AcDbScale
 70
     0
300
2:1
140
2.0
141
1.0
290
     0
  0
SCALE
  5
3B3
102
{ACAD_REACTORS
330
3A5
102
}
330
3A5
100
AcDbScale
 70
     0
300
4:1
140
4.0
141
1.0
290
     0
  0
SCALE
  5
3B4
102
{ACAD_REACTORS
330
3A5
102
}
330
3A5
100
AcDbScale
 70
     0
300
8:1
140
8.0
141
1.0
290
     0
  0
SCALE
  5
3B5
102
{ACAD_REACTORS
330
3A5
102
}
330
3A5
100
AcDbScale
 70
     0
300
10:1
140
10.0
141
1.0
290
     0
  0
SCALE
  5
3B6
102
{ACAD_REACTORS
330
3A5
102
}
330
3A5
100
AcDbScale
 70
     0
300
100:1
140
100.0
141
1.0
290
     0
  0
SCALE
  5
3B7
102
{ACAD_REACTORS
330
3A5
102
}
330
3A5
100
AcDbScale
 70
     0
300
1/128" = 1'-0"
140
0.0078125
141
12.0
290
     0
  0
SCALE
  5
3B8
102
{ACAD_REACTORS
330
3A5
102
}
330
3A5
100
AcDbScale
 70
     0
300
1/64" = 1'-0"
140
0.015625
141
12.0
290
     0
  0
SCALE
  5
3B9
102
{ACAD_REACTORS
330
3A5
102
}
330
3A5
100
AcDbScale
 70
     0
300
1/32" = 1'-0"
140
0.03125
141
12.0
290
     0
  0
SCALE
  5
3BA
102
{ACAD_REACTORS
330
3A5
102
}
330
3A5
100
AcDbScale
 70
     0
300
1/16" = 1'-0"
140
0.0625
141
12.0
290
     0
  0
SCALE
  5
3BB
102
{ACAD_REACTORS
330
3A5
102
}
330
3A5
100
AcDbScale
 70
     0
300
3/32" = 1'-0"
140
0.09375
141
12.0
290
     0
  0
SCALE
  5
3BC
102
{ACAD_REACTORS
330
3A5
102
}
330
3A5
100
AcDbScale
 70
     0
300
1/8" = 1'-0"
140
0.125
141
12.0
290
     0
  0
SCALE
  5
3BD
102
{ACAD_REACTORS
330
3A5
102
}
330
3A5
100
AcDbScale
 70
     0
300
3/16" = 1'-0"
140
0.1875
141
12.0
290
     0
  0
SCALE
  5
3BE
102
{ACAD_REACTORS
330
3A5
102
}
330
3A5
100
AcDbScale
 70
     0
300
1/4" = 1'-0"
140
0.25
141
12.0
290
     0
  0
SCALE
  5
3BF
102
{ACAD_REACTORS
330
3A5
102
}
330
3A5
100
AcDbScale
 70
     0
300
3/8" = 1'-0"
140
0.375
141
12.0
290
     0
  0
SCALE
  5
3C0
102
{ACAD_REACTORS
330
3A5
102
}
330
3A5
100
AcDbScale
 70
     0
300
1/2" = 1'-0"
140
0.5
141
12.0
290
     0
  0
SCALE
  5
3C1
102
{ACAD_REACTORS
330
3A5
102
}
330
3A5
100
AcDbScale
 70
     0
300
3/4" = 1'-0"
140
0.75
141
12.0
290
     0
  0
SCALE
  5
3C2
102
{ACAD_REACTORS
330
3A5
102
}
330
3A5
100
AcDbScale
 70
     0
300
1" = 1'-0"
140
1.0
141
12.0
290
     0
  0
SCALE
  5
3C3
102
{ACAD_REACTORS
330
3A5
102
}
330
3A5
100
AcDbScale
 70
     0
300
1-1/2" = 1'-0"
140
1.5
141
12.0
290
     0
  0
SCALE
  5
3C4
102
{ACAD_REACTORS
330
3A5
102
}
330
3A5
100
AcDbScale
 70
     0
300
3" = 1'-0"
140
3.0
141
12.0
290
     0
  0
SCALE
  5
3C5
102
{ACAD_REACTORS
330
3A5
102
}
330
3A5
100
AcDbScale
 70
     0
300
6" = 1'-0"
140
6.0
141
12.0
290
     0
  0
SCALE
  5
3C6
102
{ACAD_REACTORS
330
3A5
102
}
330
3A5
100
AcDbScale
 70
     0
300
1'-0" = 1'-0"
140
12.0
141
12.0
290
     0
  0
TABLESTYLE
  5
3DD
102
{ACAD_REACTORS
330
3DC
102
}
102
{ACAD_XDICTIONARY
360
3E2
102
}
330
3DC
100
AcDbTableStyle
  3
Standard
 70
     0
 71
     0
 40
0.06
 41
0.06
280
     0
281
     0
  7
STANDARD
140
4.5
170
     2
 62
     0
 63
   257
283
     0
 90
        4
 91
        0
  1

274
    -2
284
     1
 64
     0
275
    -2
285
     1
 65
     0
276
    -2
286
     1
 66
     0
277
    -2
287
     1
 67
     0
278
    -2
288
     1
 68
     0
279
    -2
289
     1
 69
     0
  7
STANDARD
140
6.0
170
     5
 62
     0
 63
   257
283
     0
 90
        4
 91
        0
  1

274
    -2
284
     1
 64
     0
275
    -2
285
     1
 65
     0
276
    -2
286
     1
 66
     0
277
    -2
287
     1
 67
     0
278
    -2
288
     1
 68
     0
279
    -2
289
     1
 69
     0
  7
STANDARD
140
4.5
170
     5
 62
     0
 63
   257
283
     0
 90
        4
 91
        0
  1

274
    -2
284
     1
 64
     0
275
    -2
285
     1
 65
     0
276
    -2
286
     1
 66
     0
277
    -2
287
     1
 67
     0
278
    -2
288
     1
 68
     0
279
    -2
289
     1
 69
     0
  0
VISUALSTYLE
  5
3D0
102
{ACAD_REACTORS
330
3CB
102
}
330
3CB
100
AcDbVisualStyle
  2
2dWireframe
 70
     4
177
     2
291
     0
 71
     0
176
     1
 72
     2
176
     1
 73
     0
176
     1
 90
        0
176
     1
 40
-0.6
176
     1
 41
-30.0
176
     1
 62
     5
 63
     7
421
 16777215
176
     1
 74
     1
176
     1
 91
        4
176
     1
 64
     7
176
     1
 65
   257
176
     1
 75
     1
176
     1
175
     1
176
     1
 42
1.0
176
     1
 92
        0
176
     1
 66
   257
176
     1
 43
1.0
176
     1
 76
     1
176
     1
 77
     6
176
     1
 78
     2
176
     1
 67
     7
176
     1
 79
     5
176
     1
170
     0
176
     1
171
     0
176
     1
290
     0
176
     1
 93
        1
176
     1
 44
0.0
176
     1
173
     0
176
     1
  0
VISUALSTYLE
  5
3D2
102
{ACAD_REACTORS
330
3CB
102
}
330
3CB
100
AcDbVisualStyle
  2
3D Hidden
 70
     6
177
     2
291
     0
 71
     1
176
     1
 72
     2
176
     1
 73
     2
176
     1
 90
        0
176
     1
 40
-0.6
176
     1
 41
-30.0
176
     1
 62
     5
 63
     7
421
 16777215
176
     1
 74
     2
176
     1
 91
        2
176
     1
 64
     7
176
     1
 65
   257
176
     1
 75
     2
176
     1
175
     1
176
     1
 42
40.0
176
     1
 92
        0
176
     1
 66
   257
176
     1
 43
1.0
176
     1
 76
     1
176
     1
 77
     6
176
     1
 78
     2
176
     1
 67
     7
176
     1
 79
     3
176
     1
170
     0
176
     1
171
     0
176
     1
290
     0
176
     1
 93
        1
176
     1
 44
0.0
176
     1
173
     0
176
     1
  0
VISUALSTYLE
  5
3D1
102
{ACAD_REACTORS
330
3CB
102
}
330
3CB
100
AcDbVisualStyle
  2
3dWireframe
 70
     5
177
     2
291
     0
 71
     0
176
     1
 72
     2
176
     1
 73
     0
176
     1
 90
        0
176
     1
 40
-0.6
176
     1
 41
-30.0
176
     1
 62
     5
 63
     7
421
 16777215
176
     1
 74
     1
176
     1
 91
        4
176
     1
 64
     7
176
     1
 65
   257
176
     1
 75
     1
176
     1
175
     1
176
     1
 42
1.0
176
     1
 92
        0
176
     1
 66
   257
176
     1
 43
1.0
176
     1
 76
     1
176
     1
 77
     6
176
     1
 78
     2
176
     1
 67
     7
176
     1
 79
     5
176
     1
170
     0
176
     1
171
     0
176
     1
290
     0
176
     1
 93
        1
176
     1
 44
0.0
176
     1
173
     0
176
     1
  0
VISUALSTYLE
  5
3D3
102
{ACAD_REACTORS
330
3CB
102
}
330
3CB
100
AcDbVisualStyle
  2
Basic
 70
     7
177
     2
291
     1
 71
     1
176
     1
 72
     0
176
     1
 73
     1
176
     1
 90
        0
176
     1
 40
-0.6
176
     1
 41
-30.0
176
     1
 62
     5
 63
     7
421
 16777215
176
     1
 74
     0
176
     1
 91
        4
176
     1
 64
     7
176
     1
 65
   257
176
     1
 75
     1
176
     1
175
     1
176
     1
 42
1.0
176
     1
 92
        8
176
     1
 66
     7
176
     1
 43
1.0
176
     1
 76
     1
176
     1
 77
     6
176
     1
 78
     2
176
     1
 67
     7
176
     1
 79
     5
176
     1
170
     0
176
     1
171
     0
176
     1
290
     0
176
     1
 93
        1
176
     1
 44
0.0
176
     1
173
     0
176
     1
  0
VISUALSTYLE
  5
3D7
102
{ACAD_REACTORS
330
3CB
102
}
330
3CB
100
AcDbVisualStyle
  2
Brighten
 70
    12
177
     2
291
     1
 71
     2
176
     1
 72
     2
176
     1
 73
     0
176
     1
 90
        0
176
     1
 40
-0.6
176
     1
 41
-30.0
176
     1
 62
     5
 63
     7
421
 16777215
176
     1
 74
     1
176
     1
 91
        4
176
     1
 64
     7
176
     1
 65
   257
176
     1
 75
     1
176
     1
175
     1
176
     1
 42
1.0
176
     1
 92
        8
176
     1
 66
     7
176
     1
 43
1.0
176
     1
 76
     1
176
     1
 77
     6
176
     1
 78
     2
176
     1
 67
     7
176
     1
 79
     5
176
     1
170
     0
176
     1
171
     0
176
     1
290
     0
176
     1
 93
        1
176
     1
 44
50.0
176
     1
173
     0
176
     1
  0
VISUALSTYLE
  5
3DB
102
{ACAD_REACTORS
330
3CB
102
}
330
3CB
100
AcDbVisualStyle
  2
ColorChange
 70
    16
177
     2
291
     1
 71
     2
176
     1
 72
     2
176
     1
 73
     3
176
     1
 90
        0
176
     1
 40
-0.6
176
     1
 41
-30.0
176
     1
 62
     5
 63
     8
421
  8421504
176
     1
 74
     1
176
     1
 91
        4
176
     1
 64
     7
176
     1
 65
   257
176
     1
 75
     1
176
     1
175
     1
176
     1
 42
1.0
176
     1
 92
        8
176
     1
 66
     8
424
  8421504
176
     1
 43
1.0
176
     1
 76
     1
176
     1
 77
     6
176
     1
 78
     2
176
     1
 67
     7
176
     1
 79
     5
176
     1
170
     0
176
     1
171
     0
176
     1
290
     0
176
     1
 93
        1
176
     1
 44
0.0
176
     1
173
     0
176
     1
  0
VISUALSTYLE
  5
3D5
102
{ACAD_REACTORS
330
3CB
102
}
330
3CB
100
AcDbVisualStyle
  2
Conceptual
 70
     9
177
     2
291
     0
 71
     3
176
     1
 72
     2
176
     1
 73
     0
176
     1
 90
        0
176
     1
 40
-0.6
176
     1
 41
-30.0
176
     1
 62
     5
 63
     7
421
 16777215
176
     1
 74
     2
176
     1
 91
        2
176
     1
 64
     7
176
     1
 65
   257
176
     1
 75
     1
176
     1
175
     1
176
     1
 42
40.0
176
     1
 92
        8
176
     1
 66
     7
176
     1
 43
1.0
176
     1
 76
     1
176
     1
 77
     6
176
     1
 78
     2
176
     1
 67
     7
176
     1
 79
     3
176
     1
170
     0
176
     1
171
     0
176
     1
290
     0
176
     1
 93
        1
176
     1
 44
0.0
176
     1
173
     0
176
     1
  0
VISUALSTYLE
  5
3D6
102
{ACAD_REACTORS
330
3CB
102
}
330
3CB
100
AcDbVisualStyle
  2
Dim
 70
    11
177
     2
291
     1
 71
     2
176
     1
 72
     2
176
     1
 73
     0
176
     1
 90
        0
176
     1
 40
-0.6
176
     1
 41
-30.0
176
     1
 62
     5
 63
     7
421
 16777215
176
     1
 74
     1
176
     1
 91
        4
176
     1
 64
     7
176
     1
 65
   257
176
     1
 75
     1
176
     1
175
     1
176
     1
 42
1.0
176
     1
 92
        8
176
     1
 66
     7
176
     1
 43
1.0
176
     1
 76
     1
176
     1
 77
     6
176
     1
 78
     2
176
     1
 67
     7
176
     1
 79
     5
176
     1
170
     0
176
     1
171
     0
176
     1
290
     0
176
     1
 93
        1
176
     1
 44
-50.0
176
     1
173
     0
176
     1
  0
VISUALSTYLE
  5
3DA
102
{ACAD_REACTORS
330
3CB
102
}
330
3CB
100
AcDbVisualStyle
  2
Facepattern
 70
    15
177
     2
291
     1
 71
     2
176
     1
 72
     2
176
     1
 73
     0
176
     1
 90
        0
176
     1
 40
-0.6
176
     1
 41
-30.0
176
     1
 62
     5
 63
     7
421
 16777215
176
     1
 74
     1
176
     1
 91
        4
176
     1
 64
     7
176
     1
 65
   257
176
     1
 75
     1
176
     1
175
     1
176
     1
 42
1.0
176
     1
 92
        8
176
     1
 66
     7
176
     1
 43
1.0
176
     1
 76
     1
176
     1
 77
     6
176
     1
 78
     2
176
     1
 67
     7
176
     1
 79
     5
176
     1
170
     0
176
     1
171
     0
176
     1
290
     0
176
     1
 93
        1
176
     1
 44
0.0
176
     1
173
     0
176
     1
  0
VISUALSTYLE
  5
3CC
102
{ACAD_REACTORS
330
3CB
102
}
330
3CB
100
AcDbVisualStyle
  2
Flat
 70
     0
177
     2
291
     1
 71
     2
176
     1
 72
     1
176
     1
 73
     1
176
     1
 90
        2
176
     1
 40
-0.6
176
     1
 41
30.0
176
     1
 62
     5
 63
     7
421
 16777215
176
     1
 74
     0
176
     1
 91
        4
176
     1
 64
     7
176
     1
 65
   257
176
     1
 75
     1
176
     1
175
     1
176
     1
 42
1.0
176
     1
 92
        8
176
     1
 66
     7
176
     1
 43
1.0
176
     1
 76
     1
176
     1
 77
     6
176
     1
 78
     2
176
     1
 67
     7
176
     1
 79
     5
176
     1
170
     0
176
     1
171
     0
176
     1
290
     0
176
     1
 93
       13
176
     1
 44
0.0
176
     1
173
     0
176
     1
  0
VISUALSTYLE
  5
3CD
102
{ACAD_REACTORS
330
3CB
102
}
330
3CB
100
AcDbVisualStyle
  2
FlatWithEdges
 70
     1
177
     2
291
     1
 71
     2
176
     1
 72
     1
176
     1
 73
     1
176
     1
 90
        2
176
     1
 40
-0.6
176
     1
 41
30.0
176
     1
 62
     5
 63
     7
421
 16777215
176
     1
 74
     1
176
     1
 91
        4
176
     1
 64
     7
176
     1
 65
   257
176
     1
 75
     1
176
     1
175
     1
176
     1
 42
1.0
176
     1
 92
        0
176
     1
 66
   257
176
     1
 43
1.0
176
     1
 76
     1
176
     1
 77
     6
176
     1
 78
     2
176
     1
 67
     7
176
     1
 79
     5
176
     1
170
     0
176
     1
171
     0
176
     1
290
     0
176
     1
 93
       13
176
     1
 44
0.0
176
     1
173
     0
176
     1
  0
VISUALSTYLE
  5
3CE
102
{ACAD_REACTORS
330
3CB
102
}
330
3CB
100
AcDbVisualStyle
  2
Gouraud
 70
     2
177
     2
291
     1
 71
     2
176
     1
 72
     2
176
     1
 73
     1
176
     1
 90
        2
176
     1
 40
-0.6
176
     1
 41
30.0
176
     1
 62
     5
 63
     7
421
 16777215
176
     1
 74
     0
176
     1
 91
        4
176
     1
 64
     7
176
     1
 65
   257
176
     1
 75
     1
176
     1
175
     1
176
     1
 42
1.0
176
     1
 92
        0
176
     1
 66
     7
176
     1
 43
1.0
176
     1
 76
     1
176
     1
 77
     6
176
     1
 78
     2
176
     1
 67
     7
176
     1
 79
     5
176
     1
170
     0
176
     1
171
     0
176
     1
290
     0
176
     1
 93
       13
176
     1
 44
0.0
176
     1
173
     0
176
     1
  0
VISUALSTYLE
  5
3CF
102
{ACAD_REACTORS
330
3CB
102
}
330
3CB
100
AcDbVisualStyle
  2
GouraudWithEdges
 70
     3
177
     2
291
     1
 71
     2
176
     1
 72
     2
176
     1
 73
     1
176
     1
 90
        2
176
     1
 40
-0.6
176
     1
 41
30.0
176
     1
 62
     5
 63
     7
421
 16777215
176
     1
 74
     1
176
     1
 91
        4
176
     1
 64
     7
176
     1
 65
   257
176
     1
 75
     1
176
     1
175
     1
176
     1
 42
1.0
176
     1
 92
        0
176
     1
 66
   257
176
     1
 43
1.0
176
     1
 76
     1
176
     1
 77
     6
176
     1
 78
     2
176
     1
 67
     7
176
     1
 79
     5
176
     1
170
     0
176
     1
171
     0
176
     1
290
     0
176
     1
 93
       13
176
     1
 44
0.0
176
     1
173
     0
176
     1
  0
VISUALSTYLE
  5
3D9
102
{ACAD_REACTORS
330
3CB
102
}
330
3CB
100
AcDbVisualStyle
  2
Linepattern
 70
    14
177
     2
291
     1
 71
     2
176
     1
 72
     2
176
     1
 73
     0
176
     1
 90
        0
176
     1
 40
-0.6
176
     1
 41
-30.0
176
     1
 62
     5
 63
     7
421
 16777215
176
     1
 74
     1
176
     1
 91
        4
176
     1
 64
     7
176
     1
 65
   257
176
     1
 75
     7
176
     1
175
     7
176
     1
 42
1.0
176
     1
 92
        8
176
     1
 66
     7
176
     1
 43
1.0
176
     1
 76
     1
176
     1
 77
     6
176
     1
 78
     2
176
     1
 67
     7
176
     1
 79
     5
176
     1
170
     0
176
     1
171
     0
176
     1
290
     0
176
     1
 93
        1
176
     1
 44
0.0
176
     1
173
     0
176
     1
  0
VISUALSTYLE
  5
3D4
102
{ACAD_REACTORS
330
3CB
102
}
330
3CB
100
AcDbVisualStyle
  2
Realistic
 70
     8
177
     2
291
     0
 71
     2
176
     1
 72
     2
176
     1
 73
     0
176
     1
 90
        0
176
     1
 40
-0.6
176
     1
 41
-30.0
176
     1
 62
     5
 63
     7
421
 16777215
176
     1
 74
     1
176
     1
 91
        0
176
     1
 64
     7
176
     1
 65
   257
176
     1
 75
     1
176
     1
175
     1
176
     1
 42
1.0
176
     1
 92
        8
176
     1
 66
     8
424
  7895160
176
     1
 43
1.0
176
     1
 76
     1
176
     1
 77
     6
176
     1
 78
     2
176
     1
 67
     7
176
     1
 79
     5
176
     1
170
     0
176
     1
171
     0
176
     1
290
     0
176
     1
 93
       13
176
     1
 44
0.0
176
     1
173
     0
176
     1
  0
VISUALSTYLE
  5
3D8
102
{ACAD_REACTORS
330
3CB
102
}
330
3CB
100
AcDbVisualStyle
  2
Thicken
 70
    13
177
     2
291
     1
 71
     2
176
     1
 72
     2
176
     1
 73
     0
176
     1
 90
        0
176
     1
 40
-0.6
176
     1
 41
-30.0
176
     1
 62
     5
 63
     7
421
 16777215
176
     1
 74
     1
176
     1
 91
        4
176
     1
 64
     7
176
     1
 65
   257
176
     1
 75
     1
176
     1
175
     1
176
     1
 42
1.0
176
     1
 92
       12
176
     1
 66
     7
176
     1
 43
1.0
176
     1
 76
     1
176
     1
 77
     6
176
     1
 78
     2
176
     1
 67
     7
176
     1
 79
     5
176
     1
170
     0
176
     1
171
     0
176
     1
290
     0
176
     1
 93
        1
176
     1
 44
0.0
176
     1
173
     0
176
     1
  0
DICTIONARYVAR
  5
3E1
102
{ACAD_REACTORS
330
3E0
102
}
330
3E0
100
DictionaryVariables
280
     0
  1
1:1
  0
DICTIONARYVAR
  5
3E5
102
{ACAD_REACTORS
330
3E0
102
}
330
3E0
100
DictionaryVariables
280
     0
  1
Standard
  0
DICTIONARY
  5
3E2
330
3DD
100
AcDbDictionary
280
     1
281
     1
  3
ACAD_ROUNDTRIP_2008_TABLESTYLE_CELLSTYLEMAP
360
3E3
  0
CELLSTYLEMAP
  5
3E3
102
{ACAD_REACTORS
330
3E2
102
}
330
3E2
100
AcDbCellStyleMap
 90
        3
300
CELLSTYLE
  1
TABLEFORMAT_BEGIN
 90
        5
170
     1
 91
        0
 92
        0
 62
   257
 93
        1
300
CONTENTFORMAT
  1
CONTENTFORMAT_BEGIN
 90
        0
 91
        0
 92
        4
 93
        0
300

 40
0.0
140
1.0
 94
        5
 62
     0
340
11
144
6.0
309
CONTENTFORMAT_END
171
     1
301
MARGIN
  1
CELLMARGIN_BEGIN
 40
1.5
 40
1.5
 40
1.5
 40
1.5
 40
1.5
 40
1.5
309
CELLMARGIN_END
 94
        6
 95
        1
302
GRIDFORMAT
  1
GRIDFORMAT_BEGIN
 90
        0
 91
        1
 62
     0
 92
       -2
340
14
 93
        0
 40
0.045
309
GRIDFORMAT_END
 95
        2
302
GRIDFORMAT
  1
GRIDFORMAT_BEGIN
 90
        0
 91
        1
 62
     0
 92
       -2
340
14
 93
        0
 40
0.045
309
GRIDFORMAT_END
 95
        4
302
GRIDFORMAT
  1
GRIDFORMAT_BEGIN
 90
        0
 91
        1
 62
     0
 92
       -2
340
14
 93
        0
 40
0.045
309
GRIDFORMAT_END
 95
        8
302
GRIDFORMAT
  1
GRIDFORMAT_BEGIN
 90
        0
 91
        1
 62
     0
 92
       -2
340
14
 93
        0
 40
0.045
309
GRIDFORMAT_END
 95
       16
302
GRIDFORMAT
  1
GRIDFORMAT_BEGIN
 90
        0
 91
        1
 62
     0
 92
       -2
340
14
 93
        0
 40
0.045
309
GRIDFORMAT_END
 95
       32
302
GRIDFORMAT
  1
GRIDFORMAT_BEGIN
 90
        0
 91
        1
 62
     0
 92
       -2
340
14
 93
        0
 40
0.045
309
GRIDFORMAT_END
309
TABLEFORMAT_END
  1
CELLSTYLE_BEGIN
 90
        1
 91
        1
300
_TITLE
309
CELLSTYLE_END
300
CELLSTYLE
  1
TABLEFORMAT_BEGIN
 90
        5
170
     1
 91
        0
 92
        0
 62
   257
 93
        1
300
CONTENTFORMAT
  1
CONTENTFORMAT_BEGIN
 90
        0
 91
        0
 92
        4
 93
        0
300

 40
0.0
140
1.0
 94
        5
 62
     0
340
11
144
4.5
309
CONTENTFORMAT_END
171
     1
301
MARGIN
  1
CELLMARGIN_BEGIN
 40
1.5
 40
1.5
 40
1.5
 40
1.5
 40
1.5
 40
1.5
309
CELLMARGIN_END
 94
        6
 95
        1
302
GRIDFORMAT
  1
GRIDFORMAT_BEGIN
 90
        0
 91
        1
 62
     0
 92
       -2
340
14
 93
        0
 40
0.045
309
GRIDFORMAT_END
 95
        2
302
GRIDFORMAT
  1
GRIDFORMAT_BEGIN
 90
        0
 91
        1
 62
     0
 92
       -2
340
14
 93
        0
 40
0.045
309
GRIDFORMAT_END
 95
        4
302
GRIDFORMAT
  1
GRIDFORMAT_BEGIN
 90
        0
 91
        1
 62
     0
 92
       -2
340
14
 93
        0
 40
0.045
309
GRIDFORMAT_END
 95
        8
302
GRIDFORMAT
  1
GRIDFORMAT_BEGIN
 90
        0
 91
        1
 62
     0
 92
       -2
340
14
 93
        0
 40
0.045
309
GRIDFORMAT_END
 95
       16
302
GRIDFORMAT
  1
GRIDFORMAT_BEGIN
 90
        0
 91
        1
 62
     0
 92
       -2
340
14
 93
        0
 40
0.045
309
GRIDFORMAT_END
 95
       32
302
GRIDFORMAT
  1
GRIDFORMAT_BEGIN
 90
        0
 91
        1
 62
     0
 92
       -2
340
14
 93
        0
 40
0.045
309
GRIDFORMAT_END
309
TABLEFORMAT_END
  1
CELLSTYLE_BEGIN
 90
        2
 91
        1
300
_HEADER
309
CELLSTYLE_END
300
CELLSTYLE
  1
TABLEFORMAT_BEGIN
 90
        5
170
     1
 91
        0
 92
        0
 62
   257
 93
        1
300
CONTENTFORMAT
  1
CONTENTFORMAT_BEGIN
 90
        0
 91
        0
 92
        4
 93
        0
300

 40
0.0
140
1.0
 94
        2
 62
     0
340
11
144
4.5
309
CONTENTFORMAT_END
171
     1
301
MARGIN
  1
CELLMARGIN_BEGIN
 40
1.5
 40
1.5
 40
1.5
 40
1.5
 40
1.5
 40
1.5
309
CELLMARGIN_END
 94
        6
 95
        1
302
GRIDFORMAT
  1
GRIDFORMAT_BEGIN
 90
        0
 91
        1
 62
     0
 92
       -2
340
14
 93
        0
 40
0.045
309
GRIDFORMAT_END
 95
        2
302
GRIDFORMAT
  1
GRIDFORMAT_BEGIN
 90
        0
 91
        1
 62
     0
 92
       -2
340
14
 93
        0
 40
0.045
309
GRIDFORMAT_END
 95
        4
302
GRIDFORMAT
  1
GRIDFORMAT_BEGIN
 90
        0
 91
        1
 62
     0
 92
       -2
340
14
 93
        0
 40
0.045
309
GRIDFORMAT_END
 95
        8
302
GRIDFORMAT
  1
GRIDFORMAT_BEGIN
 90
        0
 91
        1
 62
     0
 92
       -2
340
14
 93
        0
 40
0.045
309
GRIDFORMAT_END
 95
       16
302
GRIDFORMAT
  1
GRIDFORMAT_BEGIN
 90
        0
 91
        1
 62
     0
 92
       -2
340
14
 93
        0
 40
0.045
309
GRIDFORMAT_END
 95
       32
302
GRIDFORMAT
  1
GRIDFORMAT_BEGIN
 90
        0
 91
        1
 62
     0
 92
       -2
340
14
 93
        0
 40
0.045
309
GRIDFORMAT_END
309
TABLEFORMAT_END
  1
CELLSTYLE_BEGIN
 90
        3
 91
        2
300
_DATA
309
CELLSTYLE_END
  0
ENDSEC
  0
EOF
