  0
SECTION
  2
HEADER
  9
$ACADVER
  1
AC1024
  9
$ACADMAINTVER
 70
     6
  9
$DWGCODEPAGE
  3
ANSI_1252
  9
$LASTSAVEDBY
  1
michela
  9
$INSBASE
 10
0.0
 20
0.0
 30
0.0
  9
$EXTMIN
 10
0.0
 20
0.0
 30
0.0
  9
$EXTMAX
 10
210.0
 20
297.0
 30
0.0
  9
$LIMMIN
 10
0.0
 20
0.0
  9
$LIMMAX
 10
210.0
 20
297.0
  9
$ORTHOMODE
 70
     0
  9
$REGENMODE
 70
     1
  9
$FILLMODE
 70
     1
  9
$QTEXTMODE
 70
     0
  9
$MIRRTEXT
 70
     1
  9
$LTSCALE
 40
1.0
  9
$ATTMODE
 70
     1
  9
$TEXTSIZE
 40
3.5
  9
$TRACEWID
 40
1.0
  9
$TEXTSTYLE
  7
STANDARD
  9
$CLAYER
  8
0
  9
$CELTYPE
  6
BYLAYER
  9
$CECOLOR
 62
   256
  9
$CELTSCALE
 40
1.0
  9
$DISPSILH
 70
     0
  9
$DIMSCALE
 40
1.0
  9
$DIMASZ
 40
2.5
  9
$DIMEXO
 40
1.0
  9
$DIMDLI
 40
3.75
  9
$DIMRND
 40
0.0
  9
$DIMDLE
 40
0.0
  9
$DIMEXE
 40
1.0
  9
$DIMTP
 40
0.0
  9
$DIMTM
 40
0.0
  9
$DIMTXT
 40
3.5
  9
$DIMCEN
 40
2.5
  9
$DIMTSZ
 40
0.0
  9
$DIMTOL
 70
     0
  9
$DIMLIM
 70
     0
  9
$DIMTIH
 70
     1
  9
$DIMTOH
 70
     1
  9
$DIMSE1
 70
     0
  9
$DIMSE2
 70
     0
  9
$DIMTAD
 70
     1
  9
$DIMZIN
 70
     0
  9
$DIMBLK
  1

  9
$DIMASO
 70
     1
  9
$DIMSHO
 70
     1
  9
$DIMPOST
  1

  9
$DIMAPOST
  1

  9
$DIMALT
 70
     0
  9
$DIMALTD
 70
     3
  9
$DIMALTF
 40
0.0393700787
  9
$DIMLFAC
 40
1.0
  9
$DIMTOFL
 70
     1
  9
$DIMTVP
 40
0.0
  9
$DIMTIX
 70
     0
  9
$DIMSOXD
 70
     0
  9
$DIMSAH
 70
     0
  9
$DIMBLK1
  1

  9
$DIMBLK2
  1

  9
$DIMSTYLE
  2
ISO-25
  9
$DIMCLRD
 70
     0
  9
$DIMCLRE
 70
     0
  9
$DIMCLRT
 70
     0
  9
$DIMTFAC
 40
1.0
  9
$DIMGAP
 40
1.524
  9
$DIMJUST
 70
     0
  9
$DIMSD1
 70
     0
  9
$DIMSD2
 70
     0
  9
$DIMTOLJ
 70
     0
  9
$DIMTZIN
 70
     0
  9
$DIMALTZ
 70
     0
  9
$DIMALTTZ
 70
     0
  9
$DIMUPT
 70
     0
  9
$DIMDEC
 70
     2
  9
$DIMTDEC
 70
     2
  9
$DIMALTU
 70
     2
  9
$DIMALTTD
 70
     3
  9
$DIMTXSTY
  7
STANDARD
  9
$DIMAUNIT
 70
     0
  9
$DIMADEC
 70
     0
  9
$DIMALTRND
 40
0.0
  9
$DIMAZIN
 70
     0
  9
$DIMDSEP
 70
    46
  9
$DIMATFIT
 70
     3
  9
$DIMFRAC
 70
     0
  9
$DIMLDRBLK
  1

  9
$DIMLUNIT
 70
     2
  9
$DIMLWD
 70
    -2
  9
$DIMLWE
 70
    -2
  9
$DIMTMOVE
 70
     2
  9
$DIMFXL
 40
1.0
  9
$DIMFXLON
 70
     0
  9
$DIMJOGANG
 40
0.7853981633974483
  9
$DIMTFILL
 70
     0
  9
$DIMTFILLCLR
 70
     0
  9
$DIMARCSYM
 70
     0
  9
$DIMLTYPE
  6

  9
$DIMLTEX1
  6

  9
$DIMLTEX2
  6

  9
$DIMTXTDIRECTION
 70
     0
  9
$LUNITS
 70
     2
  9
$LUPREC
 70
     2
  9
$SKETCHINC
 40
1.0
  9
$FILLETRAD
 40
10.0
  9
$AUNITS
 70
     0
  9
$AUPREC
 70
     2
  9
$MENU
  1
.
  9
$ELEVATION
 40
0.0
  9
$PELEVATION
 40
0.0
  9
$THICKNESS
 40
0.0
  9
$LIMCHECK
 70
     0
  9
$CHAMFERA
 40
10.0
  9
$CHAMFERB
 40
10.0
  9
$CHAMFERC
 40
20.0
  9
$CHAMFERD
 40
0.0
  9
$SKPOLY
 70
     0
  9
$TDCREATE
 40
2456398.406888738
  9
$TDUCREATE
 40
2456398.323555405
  9
$TDUPDATE
 40
2456399.363985926
  9
$TDUUPDATE
 40
2456399.280652592
  9
$TDINDWG
 40
0.0000000116
  9
$TDUSRTIMER
 40
2456399.280443403
  9
$USRTIMER
 70
     1
  9
$ANGBASE
 50
0.0
  9
$ANGDIR
 70
     0
  9
$PDMODE
 70
     0
  9
$PDSIZE
 40
-1.0
  9
$PLINEWID
 40
0.0
  9
$SPLFRAME
 70
     0
  9
$SPLINETYPE
 70
     6
  9
$SPLINESEGS
 70
     8
  9
$HANDSEED
  5
386
  9
$SURFTAB1
 70
     6
  9
$SURFTAB2
 70
     6
  9
$SURFTYPE
 70
     6
  9
$SURFU
 70
     6
  9
$SURFV
 70
     6
  9
$UCSBASE
  2

  9
$UCSNAME
  2

  9
$UCSORG
 10
0.0
 20
0.0
 30
0.0
  9
$UCSXDIR
 10
1.0
 20
0.0
 30
0.0
  9
$UCSYDIR
 10
0.0
 20
1.0
 30
0.0
  9
$UCSORTHOREF
  2

  9
$UCSORTHOVIEW
 70
     0
  9
$UCSORGTOP
 10
0.0
 20
0.0
 30
0.0
  9
$UCSORGBOTTOM
 10
0.0
 20
0.0
 30
0.0
  9
$UCSORGLEFT
 10
0.0
 20
0.0
 30
0.0
  9
$UCSORGRIGHT
 10
0.0
 20
0.0
 30
0.0
  9
$UCSORGFRONT
 10
0.0
 20
0.0
 30
0.0
  9
$UCSORGBACK
 10
0.0
 20
0.0
 30
0.0
  9
$PUCSBASE
  2

  9
$PUCSNAME
  2

  9
$PUCSORG
 10
0.0
 20
0.0
 30
0.0
  9
$PUCSXDIR
 10
1.0
 20
0.0
 30
0.0
  9
$PUCSYDIR
 10
0.0
 20
1.0
 30
0.0
  9
$PUCSORTHOREF
  2

  9
$PUCSORTHOVIEW
 70
     0
  9
$PUCSORGTOP
 10
0.0
 20
0.0
 30
0.0
  9
$PUCSORGBOTTOM
 10
0.0
 20
0.0
 30
0.0
  9
$PUCSORGLEFT
 10
0.0
 20
0.0
 30
0.0
  9
$PUCSORGRIGHT
 10
0.0
 20
0.0
 30
0.0
  9
$PUCSORGFRONT
 10
0.0
 20
0.0
 30
0.0
  9
$PUCSORGBACK
 10
0.0
 20
0.0
 30
0.0
  9
$USERI1
 70
     0
  9
$USERI2
 70
     0
  9
$USERI3
 70
     0
  9
$USERI4
 70
     0
  9
$USERI5
 70
     0
  9
$USERR1
 40
0.0
  9
$USERR2
 40
0.0
  9
$USERR3
 40
0.0
  9
$USERR4
 40
0.0
  9
$USERR5
 40
0.0
  9
$WORLDVIEW
 70
     1
  9
$SHADEDGE
 70
     3
  9
$SHADEDIF
 70
    70
  9
$TILEMODE
 70
     1
  9
$MAXACTVP
 70
    64
  9
$PINSBASE
 10
0.0
 20
0.0
 30
0.0
  9
$PLIMCHECK
 70
     0
  9
$PEXTMIN
 10
1.000000000000000E+20
 20
1.000000000000000E+20
 30
1.000000000000000E+20
  9
$PEXTMAX
 10
-1.000000000000000E+20
 20
-1.000000000000000E+20
 30
-1.000000000000000E+20
  9
$PLIMMIN
 10
0.0
 20
0.0
  9
$PLIMMAX
 10
0.0
 20
0.0
  9
$UNITMODE
 70
     0
  9
$VISRETAIN
 70
     1
  9
$PLINEGEN
 70
     0
  9
$PSLTSCALE
 70
     1
  9
$TREEDEPTH
 70
  3020
  9
$CMLSTYLE
  2
STANDARD
  9
$CMLJUST
 70
     0
  9
$CMLSCALE
 40
20.0
  9
$PROXYGRAPHICS
 70
     1
  9
$MEASUREMENT
 70
     1
  9
$CELWEIGHT
370
    -1
  9
$ENDCAPS
280
     0
  9
$JOINSTYLE
280
     0
  9
$LWDISPLAY
290
     0
  9
$INSUNITS
 70
     0
  9
$HYPERLINKBASE
  1

  9
$STYLESHEET
  1

  9
$XEDIT
290
     1
  9
$CEPSNTYPE
380
     0
  9
$PSTYLEMODE
290
     1
  9
$FINGERPRINTGUID
  2
{C335B5B7-7E11-45FA-B49C-1015BAD62143}
  9
$VERSIONGUID
  2
{FAEB1C32-E019-11D5-929B-00C0DF256EC4}
  9
$EXTNAMES
290
     1
  9
$PSVPSCALE
 40
0.0
  9
$OLESTARTUP
290
     0
  9
$SORTENTS
280
   127
  9
$INDEXCTL
280
     0
  9
$HIDETEXT
280
     1
  9
$XCLIPFRAME
280
     2
  9
$HALOGAP
280
     0
  9
$OBSCOLOR
 70
   257
  9
$OBSLTYPE
280
     0
  9
$INTERSECTIONDISPLAY
280
     0
  9
$INTERSECTIONCOLOR
 70
   257
  9
$DIMASSOC
280
     2
  9
$PROJECTNAME
  1

  9
$CAMERADISPLAY
290
     0
  9
$LENSLENGTH
 40
50.0
  9
$CAMERAHEIGHT
 40
0.0
  9
$STEPSPERSEC
 40
2.0
  9
$STEPSIZE
 40
6.0
  9
$3DDWFPREC
 40
2.0
  9
$PSOLWIDTH
 40
0.25
  9
$PSOLHEIGHT
 40
4.0
  9
$LOFTANG1
 40
1.570796326794897
  9
$LOFTANG2
 40
1.570796326794897
  9
$LOFTMAG1
 40
0.0
  9
$LOFTMAG2
 40
0.0
  9
$LOFTPARAM
 70
     7
  9
$LOFTNORMALS
280
     1
  9
$LATITUDE
 40
37.795
  9
$LONGITUDE
 40
-122.394
  9
$NORTHDIRECTION
 40
0.0
  9
$TIMEZONE
 70
 -8000
  9
$LIGHTGLYPHDISPLAY
280
     1
  9
$TILEMODELIGHTSYNCH
280
     1
  9
$SOLIDHIST
280
     1
  9
$SHOWHIST
280
     1
  9
$DWFFRAME
280
     2
  9
$DGNFRAME
280
     2
  9
$REALWORLDSCALE
290
     1
  9
$INTERFERECOLOR
 62
   256
  9
$CSHADOW
280
     0
  9
$SHADOWPLANELOCATION
 40
0.0
  0
ENDSEC
  0
SECTION
  2
CLASSES
  0
CLASS
  1
ACDBDICTIONARYWDFLT
  2
AcDbDictionaryWithDefault
  3
ObjectDBX Classes
 90
        0
 91
        4
280
     0
281
     0
  0
CLASS
  1
VISUALSTYLE
  2
AcDbVisualStyle
  3
ObjectDBX Classes
 90
     4095
 91
        4
280
     0
281
     0
  0
CLASS
  1
MATERIAL
  2
AcDbMaterial
  3
ObjectDBX Classes
 90
     1153
 91
        4
280
     0
281
     0
  0
CLASS
  1
XRECORD
  2
AcDbXrecord
  3
AutoCAD 2000
 90
        0
 91
        1
280
     0
281
     0
  0
CLASS
  1
LWPOLYLINE
  2
AcDbPolyline
  3
AutoCAD 2000
 90
        0
 91
        1
280
     0
281
     1
  0
CLASS
  1
HATCH
  2
AcDbHatch
  3
AutoCAD 2000
 90
        0
 91
        1
280
     0
281
     1
  0
CLASS
  1
SCALE
  2
AcDbScale
  3
ObjectDBX Classes
 90
     1153
 91
        4
280
     0
281
     0
  0
CLASS
  1
TABLESTYLE
  2
AcDbTableStyle
  3
ObjectDBX Classes
 90
     4095
 91
        4
280
     0
281
     0
  0
CLASS
  1
RASTERVARIABLES
  2
AcDbRasterVariables
  3
ISM
 90
        0
 91
        4
280
     0
281
     0
  0
CLASS
  1
DICTIONARYVAR
  2
AcDbDictionaryVar
  3
ObjectDBX Classes
 90
        0
 91
        4
280
     0
281
     0
  0
CLASS
  1
CELLSTYLEMAP
  2
AcDbCellStyleMap
  3
ObjectDBX Classes
 90
     1152
 91
        4
280
     0
281
     0
  0
ENDSEC
  0
SECTION
  2
TABLES
  0
TABLE
  2
VPORT
  5
8
330
0
100
AcDbSymbolTable
 70
     1
  0
VPORT
  5
29
330
8
100
AcDbSymbolTableRecord
100
AcDbViewportTableRecord
  2
*ACTIVE
 70
     0
 10
0.0
 20
0.0
 11
1.0
 21
1.0
 12
50.485744220047
 22
22.67642159407052
 13
0.0
 23
0.0
 14
10.0
 24
10.0
 15
10.0
 25
10.0
 16
0.0
 26
0.0
 36
1.0
 17
0.0
 27
0.0
 37
0.0
 40
31.8901321728
 41
1.987745098039216
 42
50.0
 43
0.0
 44
0.0
 50
0.0
 51
0.0
 71
    16
 72
  2000
 73
     1
 74
     3
 75
     0
 76
     0
 77
     0
 78
     0
281
     0
 65
     1
110
0.0
120
0.0
130
0.0
111
1.0
121
0.0
131
0.0
112
0.0
122
1.0
132
0.0
 79
     0
146
0.0
 60
     3
 61
     5
292
     1
282
     1
141
0.0
142
0.0
 63
   256
  0
ENDTAB
  0
TABLE
  2
LTYPE
  5
5
330
0
100
AcDbSymbolTable
 70
     6
  0
LTYPE
  5
14
330
5
100
AcDbSymbolTableRecord
100
AcDbLinetypeTableRecord
  2
BYBLOCK
 70
     0
  3

 72
    65
 73
     0
 40
0.0
  0
LTYPE
  5
15
330
5
100
AcDbSymbolTableRecord
100
AcDbLinetypeTableRecord
  2
BYLAYER
 70
     0
  3

 72
    65
 73
     0
 40
0.0
  0
LTYPE
  5
16
330
5
100
AcDbSymbolTableRecord
100
AcDbLinetypeTableRecord
  2
CONTINUOUS
 70
     0
  3
Solid line
 72
    65
 73
     0
 40
0.0
  0
LTYPE
  5
3F
330
5
100
AcDbSymbolTableRecord
100
AcDbLinetypeTableRecord
  2
HIDDEN
 70
     0
  3
Hidden __ __ __ __ __ __ __ __ __ __ __ __ __ __
 72
    65
 73
     2
 40
1.905
 49
1.27
 74
     0
 49
-0.635
 74
     0
  0
LTYPE
  5
40
330
5
100
AcDbSymbolTableRecord
100
AcDbLinetypeTableRecord
  2
PHANTOM
 70
     0
  3
Phantom ______  __  __  ______  __  __  ______
 72
    65
 73
     6
 40
12.7
 49
6.35
 74
     0
 49
-1.27
 74
     0
 49
1.27
 74
     0
 49
-1.27
 74
     0
 49
1.27
 74
     0
 49
-1.27
 74
     0
  0
LTYPE
  5
41
330
5
100
AcDbSymbolTableRecord
100
AcDbLinetypeTableRecord
  2
CENTER
 70
     0
  3
Center ____ _ ____ _ ____ _ ____ _ ____ _ ____
 72
    65
 73
     4
 40
10.16
 49
6.35
 74
     0
 49
-1.27
 74
     0
 49
1.27
 74
     0
 49
-1.27
 74
     0
  0
LTYPE
  5
42
330
5
100
AcDbSymbolTableRecord
100
AcDbLinetypeTableRecord
  2
CENTERX2
 70
     0
  3
Center (2x) ________  __  ________  __  _____
 72
    65
 73
     4
 40
20.32
 49
12.7
 74
     0
 49
-2.54
 74
     0
 49
2.54
 74
     0
 49
-2.54
 74
     0
  0
LTYPE
  5
43
330
5
100
AcDbSymbolTableRecord
100
AcDbLinetypeTableRecord
  2
DOT2
 70
     0
  3
Dot (.5x) ........................................
 72
    65
 73
     2
 40
0.635
 49
0.0
 74
     0
 49
-0.635
 74
     0
  0
ENDTAB
  0
TABLE
  2
LAYER
  5
2
330
0
100
AcDbSymbolTable
 70
     8
  0
LAYER
  5
10
330
2
100
AcDbSymbolTableRecord
100
AcDbLayerTableRecord
  2
0
 70
     0
 62
     7
  6
CONTINUOUS
370
    -3
390
0
347
369
  0
LAYER
  5
44
330
2
100
AcDbSymbolTableRecord
100
AcDbLayerTableRecord
  2
SLD-0
 70
     0
 62
     7
  6
CONTINUOUS
370
    -3
390
0
347
369
  0
LAYER
  5
45
330
2
100
AcDbSymbolTableRecord
100
AcDbLayerTableRecord
  2
CONTORNO
 70
     0
 62
     7
  6
CONTINUOUS
370
    -3
390
0
347
369
  0
LAYER
  5
46
330
2
100
AcDbSymbolTableRecord
100
AcDbLayerTableRecord
  2
RIQUADRO
 70
     0
 62
     5
  6
CONTINUOUS
370
    -3
390
0
347
369
  0
LAYER
  5
47
330
2
100
AcDbSymbolTableRecord
100
AcDbLayerTableRecord
  2
LOGO
 70
     0
 62
   176
  6
CONTINUOUS
370
    -3
390
0
347
369
  0
LAYER
  5
48
330
2
100
AcDbSymbolTableRecord
100
AcDbLayerTableRecord
  2
PROIEZ
 70
     0
 62
    16
  6
CONTINUOUS
370
    -3
390
0
347
369
  0
LAYER
  5
49
330
2
100
AcDbSymbolTableRecord
100
AcDbLayerTableRecord
  2
CARTIGLIO
 70
     0
 62
     5
  6
CONTINUOUS
370
    -3
390
0
347
369
  0
LAYER
  5
4A
330
2
100
AcDbSymbolTableRecord
100
AcDbLayerTableRecord
  2
TABELLA_REV
 70
     0
 62
   136
  6
CONTINUOUS
370
    -3
390
0
347
369
  0
ENDTAB
  0
TABLE
  2
STYLE
  5
3
330
0
100
AcDbSymbolTable
 70
     6
  0
STYLE
  5
11
330
3
100
AcDbSymbolTableRecord
100
AcDbTextStyleTableRecord
  2
STANDARD
 70
     0
 40
0.0
 41
1.0
 50
0.0
 71
     0
 42
3.5
  3
txt
  4

  0
STYLE
  5
A5
330
3
100
AcDbSymbolTableRecord
100
AcDbTextStyleTableRecord
  2
SLDTEXTSTYLE0
 70
     0
 40
0.0
 41
0.6375
 50
0.0
 71
     0
 42
0.2
  3
TXT
  4

  0
STYLE
  5
AA
330
3
100
AcDbSymbolTableRecord
100
AcDbTextStyleTableRecord
  2
SLDTEXTSTYLE1
 70
     0
 40
0.0
 41
0.75
 50
0.0
 71
     0
 42
0.2
  3
TXT
  4

  0
STYLE
  5
AF
330
3
100
AcDbSymbolTableRecord
100
AcDbTextStyleTableRecord
  2
SLDTEXTSTYLE2
 70
     0
 40
0.0
 41
0.6530726257
 50
0.0
 71
     0
 42
0.2
  3
TXT
  4

  0
STYLE
  5
C4
330
3
100
AcDbSymbolTableRecord
100
AcDbTextStyleTableRecord
  2
SLDTEXTSTYLE3
 70
     0
 40
0.0
 41
0.7
 50
0.0
 71
     0
 42
0.2
  3
TXT
  4

  0
STYLE
  5
129
330
3
100
AcDbSymbolTableRecord
100
AcDbTextStyleTableRecord
  2
SLDTEXTSTYLE4
 70
     0
 40
0.0
 41
0.6953125
 50
0.0
 71
     0
 42
0.2
  3
TXT
  4

  0
ENDTAB
  0
TABLE
  2
VIEW
  5
6
330
0
100
AcDbSymbolTable
 70
     0
  0
ENDTAB
  0
TABLE
  2
UCS
  5
7
330
0
100
AcDbSymbolTable
 70
     0
  0
ENDTAB
  0
TABLE
  2
APPID
  5
9
330
0
100
AcDbSymbolTable
 70
     1
  0
APPID
  5
12
330
9
100
AcDbSymbolTableRecord
100
AcDbRegAppTableRecord
  2
ACAD
 70
     0
  0
ENDTAB
  0
TABLE
  2
DIMSTYLE
  5
A
330
0
100
AcDbSymbolTable
 70
     6
100
AcDbDimStyleTable
  0
DIMSTYLE
105
27
330
A
100
AcDbSymbolTableRecord
100
AcDbDimStyleTableRecord
  2
ISO-25
 70
     0
 41
2.5
 42
0.625
 43
3.75
 44
1.25
 73
     0
 74
     0
 77
     1
 78
     8
140
2.5
141
2.5
143
0.0393700787
147
0.625
171
     3
172
     1
178
     0
271
     2
272
     2
274
     3
283
     0
284
     8
340
11
  0
DIMSTYLE
105
1A2
102
{ACAD_REACTORS
330
1A1
102
}
330
A
100
AcDbSymbolTableRecord
100
AcDbDimStyleTableRecord
  2
SLDDIMSTYLE0
 70
     0
 41
2.5
 44
0.0
 45
0.000000001
 73
     0
 74
     0
 77
     1
 78
    12
140
3.5
141
0.0
147
0.875
172
     1
173
     1
178
     0
271
     2
272
     2
284
    12
340
AA
341
1A3
343
1A3
344
1A3
  0
DIMSTYLE
105
1B3
102
{ACAD_REACTORS
330
1B2
330
1BD
330
1C7
330
1E2
330
20E
330
217
330
220
330
22A
330
29F
102
}
330
A
100
AcDbSymbolTableRecord
100
AcDbDimStyleTableRecord
  2
SLDDIMSTYLE1
 70
     0
 41
2.5
 44
0.0
 45
0.000000001
 73
     0
 74
     0
 77
     1
 78
    12
140
3.5
147
0.875
173
     1
178
     0
271
     2
272
     2
284
    12
340
AA
341
1A3
343
1A3
344
1A3
  0
DIMSTYLE
105
1D3
102
{ACAD_REACTORS
330
1D2
102
}
330
A
100
AcDbSymbolTableRecord
100
AcDbDimStyleTableRecord
  2
SLDDIMSTYLE2
 70
     0
 41
2.5
 44
0.0
 45
0.000000001
 47
0.018
 71
     1
 73
     0
 74
     0
 77
     1
 78
    12
140
3.5
147
0.875
173
     1
178
     0
271
     2
272
     2
284
     8
340
AA
341
1A3
343
1A3
344
1A3
  0
DIMSTYLE
105
235
102
{ACAD_REACTORS
330
234
102
}
330
A
100
AcDbSymbolTableRecord
100
AcDbDimStyleTableRecord
  2
SLDDIMSTYLE3
 70
     0
 41
2.5
 44
0.0
 45
0.000000001
 73
     0
 74
     0
 77
     1
 78
    12
140
3.5
147
0.875
172
     1
173
     1
178
     0
271
     2
272
     2
284
    12
340
AA
341
1A3
343
1A3
344
1A3
  0
DIMSTYLE
105
246
330
A
100
AcDbSymbolTableRecord
100
AcDbDimStyleTableRecord
  2
SLDDIMSTYLE4
 70
     0
 41
2.5
 44
0.0
 45
0.000000001
140
0.0
146
2.5
147
0.0
173
     1
178
     0
271
     0
272
     0
340
11
  0
ENDTAB
  0
TABLE
  2
BLOCK_RECORD
  5
1
330
0
100
AcDbSymbolTable
 70
    34
  0
BLOCK_RECORD
  5
1F
330
1
100
AcDbSymbolTableRecord
100
AcDbBlockTableRecord
  2
*MODEL_SPACE
340
342
 70
     0
280
     1
281
     0
  0
BLOCK_RECORD
  5
1B
330
1
100
AcDbSymbolTableRecord
100
AcDbBlockTableRecord
  2
*PAPER_SPACE
340
343
 70
     0
280
     1
281
     0
  0
BLOCK_RECORD
  5
23
330
1
100
AcDbSymbolTableRecord
100
AcDbBlockTableRecord
  2
*PAPER_SPACE0
340
0
 70
     0
280
     1
281
     0
  0
BLOCK_RECORD
  5
B8
330
1
100
AcDbSymbolTableRecord
100
AcDbBlockTableRecord
  2
SW_NOTE_0
340
0
102
{BLKREFS
331
BD
102
}
 70
     0
280
     1
281
     0
  0
BLOCK_RECORD
  5
BE
330
1
100
AcDbSymbolTableRecord
100
AcDbBlockTableRecord
  2
SW_NOTE_1
340
0
102
{BLKREFS
331
C3
102
}
 70
     0
280
     1
281
     0
  0
BLOCK_RECORD
  5
C9
330
1
100
AcDbSymbolTableRecord
100
AcDbBlockTableRecord
  2
SW_NOTE_2
340
0
102
{BLKREFS
331
CE
102
}
 70
     0
280
     1
281
     0
  0
BLOCK_RECORD
  5
CF
330
1
100
AcDbSymbolTableRecord
100
AcDbBlockTableRecord
  2
SW_NOTE_3
340
0
102
{BLKREFS
331
D4
102
}
 70
     0
280
     1
281
     0
  0
BLOCK_RECORD
  5
D5
330
1
100
AcDbSymbolTableRecord
100
AcDbBlockTableRecord
  2
SW_NOTE_4
340
0
102
{BLKREFS
331
DA
102
}
 70
     0
280
     1
281
     0
  0
BLOCK_RECORD
  5
DB
330
1
100
AcDbSymbolTableRecord
100
AcDbBlockTableRecord
  2
SW_NOTE_5
340
0
102
{BLKREFS
331
E0
102
}
 70
     0
280
     1
281
     0
  0
BLOCK_RECORD
  5
E1
330
1
100
AcDbSymbolTableRecord
100
AcDbBlockTableRecord
  2
SW_NOTE_6
340
0
102
{BLKREFS
331
E6
102
}
 70
     0
280
     1
281
     0
  0
BLOCK_RECORD
  5
E7
330
1
100
AcDbSymbolTableRecord
100
AcDbBlockTableRecord
  2
SW_NOTE_7
340
0
102
{BLKREFS
331
EC
102
}
 70
     0
280
     1
281
     0
  0
BLOCK_RECORD
  5
ED
330
1
100
AcDbSymbolTableRecord
100
AcDbBlockTableRecord
  2
SW_NOTE_8
340
0
102
{BLKREFS
331
F2
102
}
 70
     0
280
     1
281
     0
  0
BLOCK_RECORD
  5
F3
330
1
100
AcDbSymbolTableRecord
100
AcDbBlockTableRecord
  2
SW_NOTE_9
340
0
102
{BLKREFS
331
F8
102
}
 70
     0
280
     1
281
     0
  0
BLOCK_RECORD
  5
1A3
330
1
100
AcDbSymbolTableRecord
100
AcDbBlockTableRecord
  2
_CLOSED
340
0
102
{BLKREFS
331
1AD
331
1AE
331
1B7
331
1B8
331
1C1
331
1C2
331
1CB
331
1CC
331
1D7
331
1D8
331
1E6
331
1E7
331
212
331
213
331
21B
331
21C
331
224
331
225
331
22E
331
22F
331
239
331
23A
331
2A3
331
2A4
102
}
 70
     0
280
     1
281
     0
  0
BLOCK_RECORD
  5
1AA
330
1
100
AcDbSymbolTableRecord
100
AcDbBlockTableRecord
  2
_D
340
0
 70
     0
280
     1
281
     0
  0
BLOCK_RECORD
  5
1B4
330
1
100
AcDbSymbolTableRecord
100
AcDbBlockTableRecord
  2
_D_1
340
0
 70
     0
280
     1
281
     0
  0
BLOCK_RECORD
  5
1BE
330
1
100
AcDbSymbolTableRecord
100
AcDbBlockTableRecord
  2
_D_2
340
0
 70
     0
280
     1
281
     0
  0
BLOCK_RECORD
  5
1C8
330
1
100
AcDbSymbolTableRecord
100
AcDbBlockTableRecord
  2
_D_3
340
0
 70
     0
280
     1
281
     0
  0
BLOCK_RECORD
  5
1D4
330
1
100
AcDbSymbolTableRecord
100
AcDbBlockTableRecord
  2
_D_4
340
0
 70
     0
280
     1
281
     0
  0
BLOCK_RECORD
  5
1E3
330
1
100
AcDbSymbolTableRecord
100
AcDbBlockTableRecord
  2
_D_5
340
0
 70
     0
280
     1
281
     0
  0
BLOCK_RECORD
  5
20F
330
1
100
AcDbSymbolTableRecord
100
AcDbBlockTableRecord
  2
_D_6
340
0
 70
     0
280
     1
281
     0
  0
BLOCK_RECORD
  5
218
330
1
100
AcDbSymbolTableRecord
100
AcDbBlockTableRecord
  2
_D_7
340
0
 70
     0
280
     1
281
     0
  0
BLOCK_RECORD
  5
221
330
1
100
AcDbSymbolTableRecord
100
AcDbBlockTableRecord
  2
_D_8
340
0
 70
     0
280
     1
281
     0
  0
BLOCK_RECORD
  5
22B
330
1
100
AcDbSymbolTableRecord
100
AcDbBlockTableRecord
  2
_D_9
340
0
 70
     0
280
     1
281
     0
  0
BLOCK_RECORD
  5
236
330
1
100
AcDbSymbolTableRecord
100
AcDbBlockTableRecord
  2
_D_10
340
0
 70
     0
280
     1
281
     0
  0
BLOCK_RECORD
  5
241
330
1
100
AcDbSymbolTableRecord
100
AcDbBlockTableRecord
  2
SW_NOTE_10
340
0
102
{BLKREFS
331
245
102
}
 70
     0
280
     1
281
     0
  0
BLOCK_RECORD
  5
249
330
1
100
AcDbSymbolTableRecord
100
AcDbBlockTableRecord
  2
SW_NOTE_11
340
0
102
{BLKREFS
331
24F
102
}
 70
     0
280
     1
281
     0
  0
BLOCK_RECORD
  5
252
330
1
100
AcDbSymbolTableRecord
100
AcDbBlockTableRecord
  2
SW_CENTERMARKSYMBOL_0
340
0
102
{BLKREFS
331
259
102
}
 70
     0
280
     1
281
     0
  0
BLOCK_RECORD
  5
25A
330
1
100
AcDbSymbolTableRecord
100
AcDbBlockTableRecord
  2
SW_CENTERMARKSYMBOL_1
340
0
102
{BLKREFS
331
261
102
}
 70
     0
280
     1
281
     0
  0
BLOCK_RECORD
  5
262
330
1
100
AcDbSymbolTableRecord
100
AcDbBlockTableRecord
  2
SW_CENTERMARKSYMBOL_2
340
0
102
{BLKREFS
331
269
102
}
 70
     0
280
     1
281
     0
  0
BLOCK_RECORD
  5
26A
330
1
100
AcDbSymbolTableRecord
100
AcDbBlockTableRecord
  2
SW_CENTERMARKSYMBOL_3
340
0
102
{BLKREFS
331
271
102
}
 70
     0
280
     1
281
     0
  0
BLOCK_RECORD
  5
2A0
330
1
100
AcDbSymbolTableRecord
100
AcDbBlockTableRecord
  2
_D_11
340
0
 70
     0
280
     1
281
     0
  0
BLOCK_RECORD
  5
2A9
330
1
100
AcDbSymbolTableRecord
100
AcDbBlockTableRecord
  2
SW_CENTERMARKSYMBOL_4
340
0
102
{BLKREFS
331
2B0
102
}
 70
     0
280
     1
281
     0
  0
BLOCK_RECORD
  5
2B1
330
1
100
AcDbSymbolTableRecord
100
AcDbBlockTableRecord
  2
SW_CENTERMARKSYMBOL_5
340
0
102
{BLKREFS
331
2B8
102
}
 70
     0
280
     1
281
     0
  0
BLOCK_RECORD
  5
2B9
330
1
100
AcDbSymbolTableRecord
100
AcDbBlockTableRecord
  2
SW_CENTERMARKSYMBOL_6
340
0
102
{BLKREFS
331
2C0
102
}
 70
     0
280
     1
281
     0
  0
BLOCK_RECORD
  5
2C1
330
1
100
AcDbSymbolTableRecord
100
AcDbBlockTableRecord
  2
SW_CENTERMARKSYMBOL_7
340
0
102
{BLKREFS
331
2C8
102
}
 70
     0
280
     1
281
     0
  0
ENDTAB
  0
ENDSEC
  0
SECTION
  2
BLOCKS
  0
BLOCK
  5
20
330
1F
100
AcDbEntity
  8
0
100
AcDbBlockBegin
  2
*MODEL_SPACE
 70
     0
 10
0.0
 20
0.0
 30
0.0
  3
*MODEL_SPACE
  1

  0
ENDBLK
  5
21
330
1F
100
AcDbEntity
  8
0
100
AcDbBlockEnd
  0
BLOCK
  5
1C
330
1B
100
AcDbEntity
 67
     1
  8
0
100
AcDbBlockBegin
  2
*PAPER_SPACE
 70
     0
 10
0.0
 20
0.0
 30
0.0
  3
*PAPER_SPACE
  1

  0
ENDBLK
  5
1D
330
1B
100
AcDbEntity
 67
     1
  8
0
100
AcDbBlockEnd
  0
BLOCK
  5
24
330
23
100
AcDbEntity
  8
0
100
AcDbBlockBegin
  2
*PAPER_SPACE0
 70
     0
 10
0.0
 20
0.0
 30
0.0
  3
*PAPER_SPACE0
  1

  0
ENDBLK
  5
25
330
23
100
AcDbEntity
  8
0
100
AcDbBlockEnd
  0
BLOCK
  5
B9
330
B8
100
AcDbEntity
  8
0
100
AcDbBlockBegin
  2
SW_NOTE_0
 70
     0
 10
0.0
 20
0.0
 30
0.0
  3
SW_NOTE_0
  1

  0
MTEXT
  5
BB
330
B8
100
AcDbEntity
  8
CARTIGLIO
 62
     0
100
AcDbMText
 10
0.0
 20
2.5781354795
 30
0.0
 40
2.0
 41
0.0
 46
0.0
 71
     1
 72
     1
  1
Undimensioned
  7
SLDTEXTSTYLE1
 73
     1
 44
1.0
  0
MTEXT
  5
BC
330
B8
100
AcDbEntity
  8
CARTIGLIO
 62
     0
100
AcDbMText
 10
0.0
 20
-0.4218645465
 30
0.0
 40
2.0
 41
0.0
 46
0.0
 71
     1
 72
     1
  1
radii
  7
SLDTEXTSTYLE1
 73
     1
 44
1.0
  0
ENDBLK
  5
BA
330
B8
100
AcDbEntity
  8
0
100
AcDbBlockEnd
  0
BLOCK
  5
BF
330
BE
100
AcDbEntity
  8
0
100
AcDbBlockBegin
  2
SW_NOTE_1
 70
     0
 10
0.0
 20
0.0
 30
0.0
  3
SW_NOTE_1
  1

  0
MTEXT
  5
C1
330
BE
100
AcDbEntity
  8
CARTIGLIO
 62
     0
100
AcDbMText
 10
0.0
 20
2.5781354795
 30
0.0
 40
2.0
 41
0.0
 46
0.0
 71
     1
 72
     1
  1
Undimensioned
  7
SLDTEXTSTYLE1
 73
     1
 44
1.0
  0
MTEXT
  5
C2
330
BE
100
AcDbEntity
  8
CARTIGLIO
 62
     0
100
AcDbMText
 10
0.0
 20
-0.4218645465
 30
0.0
 40
2.0
 41
0.0
 46
0.0
 71
     1
 72
     1
  1
bevels
  7
SLDTEXTSTYLE1
 73
     1
 44
1.0
  0
ENDBLK
  5
C0
330
BE
100
AcDbEntity
  8
0
100
AcDbBlockEnd
  0
BLOCK
  5
CA
330
C9
100
AcDbEntity
  8
0
100
AcDbBlockBegin
  2
SW_NOTE_2
 70
     0
 10
0.0
 20
0.0
 30
0.0
  3
SW_NOTE_2
  1

  0
MTEXT
  5
CC
330
C9
100
AcDbEntity
  8
CARTIGLIO
 62
     0
100
AcDbMText
 10
3.5625
 20
2.5781354795
 30
0.0
 40
2.0
 41
0.0
 46
0.0
 71
     3
 72
     1
  1
0.5
  7
SLDTEXTSTYLE1
 73
     1
 44
1.0
  0
MTEXT
  5
CD
330
C9
100
AcDbEntity
  8
CARTIGLIO
 62
     0
100
AcDbMText
 10
3.5065974854
 20
-0.4218645465
 30
0.0
 40
2.0
 41
0.0
 46
0.0
 71
     3
 72
     1
  1
÷3
  7
SLDTEXTSTYLE1
 73
     1
 44
1.0
  0
ENDBLK
  5
CB
330
C9
100
AcDbEntity
  8
0
100
AcDbBlockEnd
  0
BLOCK
  5
D0
330
CF
100
AcDbEntity
  8
0
100
AcDbBlockBegin
  2
SW_NOTE_3
 70
     0
 10
0.0
 20
0.0
 30
0.0
  3
SW_NOTE_3
  1

  0
MTEXT
  5
D2
330
CF
100
AcDbEntity
  8
CARTIGLIO
 62
     0
100
AcDbMText
 10
4.375
 20
2.5781354795
 30
0.0
 40
2.0
 41
0.0
 46
0.0
 71
     3
 72
     1
  1
>3÷
  7
SLDTEXTSTYLE1
 73
     1
 44
1.0
  0
MTEXT
  5
D3
330
CF
100
AcDbEntity
  8
CARTIGLIO
 62
     0
100
AcDbMText
 10
4.4781248989
 20
-0.4218645465
 30
0.0
 40
2.0
 41
0.0
 46
0.0
 71
     3
 72
     1
  1
6
  7
SLDTEXTSTYLE1
 73
     1
 44
1.0
  0
ENDBLK
  5
D1
330
CF
100
AcDbEntity
  8
0
100
AcDbBlockEnd
  0
BLOCK
  5
D6
330
D5
100
AcDbEntity
  8
0
100
AcDbBlockBegin
  2
SW_NOTE_4
 70
     0
 10
0.0
 20
0.0
 30
0.0
  3
SW_NOTE_4
  1

  0
MTEXT
  5
D8
330
D5
100
AcDbEntity
  8
CARTIGLIO
 62
     0
100
AcDbMText
 10
4.375
 20
2.5781354795
 30
0.0
 40
2.0
 41
0.0
 46
0.0
 71
     3
 72
     1
  1
>6÷
  7
SLDTEXTSTYLE1
 73
     1
 44
1.0
  0
MTEXT
  5
D9
330
D5
100
AcDbEntity
  8
CARTIGLIO
 62
     0
100
AcDbMText
 10
4.4340279363
 20
-0.4218645465
 30
0.0
 40
2.0
 41
0.0
 46
0.0
 71
     3
 72
     1
  1
30
  7
SLDTEXTSTYLE1
 73
     1
 44
1.0
  0
ENDBLK
  5
D7
330
D5
100
AcDbEntity
  8
0
100
AcDbBlockEnd
  0
BLOCK
  5
DC
330
DB
100
AcDbEntity
  8
0
100
AcDbBlockBegin
  2
SW_NOTE_5
 70
     0
 10
0.0
 20
0.0
 30
0.0
  3
SW_NOTE_5
  1

  0
MTEXT
  5
DE
330
DB
100
AcDbEntity
  8
CARTIGLIO
 62
     0
100
AcDbMText
 10
5.8125
 20
2.5781354795
 30
0.0
 40
2.0
 41
0.0
 46
0.0
 71
     3
 72
     1
  1
>30÷
  7
SLDTEXTSTYLE1
 73
     1
 44
1.0
  0
MTEXT
  5
DF
330
DB
100
AcDbEntity
  8
CARTIGLIO
 62
     0
100
AcDbMText
 10
5.9836805947
 20
-0.4218645465
 30
0.0
 40
2.0
 41
0.0
 46
0.0
 71
     3
 72
     1
  1
120
  7
SLDTEXTSTYLE1
 73
     1
 44
1.0
  0
ENDBLK
  5
DD
330
DB
100
AcDbEntity
  8
0
100
AcDbBlockEnd
  0
BLOCK
  5
E2
330
E1
100
AcDbEntity
  8
0
100
AcDbBlockBegin
  2
SW_NOTE_6
 70
     0
 10
0.0
 20
0.0
 30
0.0
  3
SW_NOTE_6
  1

  0
MTEXT
  5
E4
330
E1
100
AcDbEntity
  8
CARTIGLIO
 62
     0
100
AcDbMText
 10
5.875
 20
2.5781354795
 30
0.0
 40
2.0
 41
0.0
 46
0.0
 71
     3
 72
     1
  1
>120
  7
SLDTEXTSTYLE1
 73
     1
 44
1.0
  0
MTEXT
  5
E5
330
E1
100
AcDbEntity
  8
CARTIGLIO
 62
     0
100
AcDbMText
 10
5.717708379
 20
-0.4218645465
 30
0.0
 40
2.0
 41
0.0
 46
0.0
 71
     3
 72
     1
  1
÷400
  7
SLDTEXTSTYLE1
 73
     1
 44
1.0
  0
ENDBLK
  5
E3
330
E1
100
AcDbEntity
  8
0
100
AcDbBlockEnd
  0
BLOCK
  5
E8
330
E7
100
AcDbEntity
  8
0
100
AcDbBlockBegin
  2
SW_NOTE_7
 70
     0
 10
0.0
 20
0.0
 30
0.0
  3
SW_NOTE_7
  1

  0
MTEXT
  5
EA
330
E7
100
AcDbEntity
  8
CARTIGLIO
 62
     0
100
AcDbMText
 10
7.25
 20
2.5781354795
 30
0.0
 40
2.0
 41
0.0
 46
0.0
 71
     3
 72
     1
  1
>400÷
  7
SLDTEXTSTYLE1
 73
     1
 44
1.0
  0
MTEXT
  5
EB
330
E7
100
AcDbEntity
  8
CARTIGLIO
 62
     0
100
AcDbMText
 10
7.4274307005
 20
-0.4218645465
 30
0.0
 40
2.0
 41
0.0
 46
0.0
 71
     3
 72
     1
  1
1000
  7
SLDTEXTSTYLE1
 73
     1
 44
1.0
  0
ENDBLK
  5
E9
330
E7
100
AcDbEntity
  8
0
100
AcDbBlockEnd
  0
BLOCK
  5
EE
330
ED
100
AcDbEntity
  8
0
100
AcDbBlockBegin
  2
SW_NOTE_8
 70
     0
 10
0.0
 20
0.0
 30
0.0
  3
SW_NOTE_8
  1

  0
MTEXT
  5
F0
330
ED
100
AcDbEntity
  8
CARTIGLIO
 62
     0
100
AcDbMText
 10
7.3125
 20
2.5781354795
 30
0.0
 40
2.0
 41
0.0
 46
0.0
 71
     3
 72
     1
  1
>1000
  7
SLDTEXTSTYLE1
 73
     1
 44
1.0
  0
MTEXT
  5
F1
330
ED
100
AcDbEntity
  8
CARTIGLIO
 62
     0
100
AcDbMText
 10
7.1611115672
 20
-0.4218645465
 30
0.0
 40
2.0
 41
0.0
 46
0.0
 71
     3
 72
     1
  1
÷2000
  7
SLDTEXTSTYLE1
 73
     1
 44
1.0
  0
ENDBLK
  5
EF
330
ED
100
AcDbEntity
  8
0
100
AcDbBlockEnd
  0
BLOCK
  5
F4
330
F3
100
AcDbEntity
  8
0
100
AcDbBlockBegin
  2
SW_NOTE_9
 70
     0
 10
0.0
 20
0.0
 30
0.0
  3
SW_NOTE_9
  1

  0
MTEXT
  5
F6
330
F3
100
AcDbEntity
  8
CARTIGLIO
 62
     0
100
AcDbMText
 10
7.3125
 20
2.5781354795
 30
0.0
 40
2.0
 41
0.0
 46
0.0
 71
     3
 72
     1
  1
>2000
  7
SLDTEXTSTYLE1
 73
     1
 44
1.0
  0
MTEXT
  5
F7
330
F3
100
AcDbEntity
  8
CARTIGLIO
 62
     0
100
AcDbMText
 10
7.2572915778
 20
-0.4218645465
 30
0.0
 40
2.0
 41
0.0
 46
0.0
 71
     3
 72
     1
  1
÷4000
  7
SLDTEXTSTYLE1
 73
     1
 44
1.0
  0
ENDBLK
  5
F5
330
F3
100
AcDbEntity
  8
0
100
AcDbBlockEnd
  0
BLOCK
  5
1A4
330
1A3
100
AcDbEntity
  8
0
100
AcDbBlockBegin
  2
_CLOSED
 70
     0
 10
0.0
 20
0.0
 30
0.0
  3
_CLOSED
  1

  0
LINE
  5
1A6
330
1A3
100
AcDbEntity
  8
0
  6
ByBlock
 62
     0
100
AcDbLine
 10
-1.0
 20
0.166667
 30
0.0
 11
0.0
 21
0.0
 31
0.0
  0
LINE
  5
1A7
330
1A3
100
AcDbEntity
  8
0
  6
ByBlock
 62
     0
100
AcDbLine
 10
0.0
 20
0.0
 30
0.0
 11
-1.0
 21
-0.166667
 31
0.0
  0
LINE
  5
1A8
330
1A3
100
AcDbEntity
  8
0
  6
ByBlock
 62
     0
100
AcDbLine
 10
-1.0
 20
0.166667
 30
0.0
 11
-1.0
 21
-0.166667
 31
0.0
  0
LINE
  5
1A9
330
1A3
100
AcDbEntity
  8
0
  6
ByBlock
 62
     0
100
AcDbLine
 10
0.0
 20
0.0
 30
0.0
 11
-1.0
 21
0.0
 31
0.0
  0
ENDBLK
  5
1A5
330
1A3
100
AcDbEntity
  8
0
100
AcDbBlockEnd
  0
BLOCK
  5
1AB
330
1AA
100
AcDbEntity
  8
0
100
AcDbBlockBegin
  2
_D
 70
     0
 10
0.0
 20
0.0
 30
0.0
  3
_D
  1

  0
INSERT
  5
1AD
330
1AA
100
AcDbEntity
  8
RIQUADRO
100
AcDbBlockReference
  2
_CLOSED
 10
51.6738801988
 20
169.7426090748
 30
0.1
 41
2.5
 42
2.5
 50
199.0781023755
  0
INSERT
  5
1AE
330
1AA
100
AcDbEntity
  8
RIQUADRO
100
AcDbBlockReference
  2
_CLOSED
 10
78.1359494304
 20
178.8945974918
 30
0.1
 41
2.5
 42
2.5
 50
19.0781023755
  0
LINE
  5
1AF
330
1AA
100
AcDbEntity
  8
RIQUADRO
100
AcDbLine
 10
78.1359494304
 20
178.8945974918
 30
0.0
 11
51.6738801988
 21
169.7426090748
 31
0.0
  0
MTEXT
  5
1B0
330
1AA
100
AcDbEntity
  8
RIQUADRO
100
AcDbMText
 10
64.1259384804
 20
178.8231435393
 30
0.0
 40
3.5
 41
0.0
 46
0.0
 71
     1
 72
     1
  1
%%c
  7
SLDTEXTSTYLE1
 11
0.9450739011264211
 21
0.326856729179143
 31
0.0
 73
     1
 44
1.0
  0
MTEXT
  5
1B1
330
1AA
100
AcDbEntity
  8
RIQUADRO
100
AcDbMText
 10
69.1108509031
 20
180.5471907203
 30
0.0
 40
3.5
 41
0.0
 46
0.0
 71
     1
 72
     1
  1
28
  7
SLDTEXTSTYLE1
 11
0.9450739011264211
 21
0.326856729179143
 31
0.0
 73
     1
 44
1.0
  0
ENDBLK
  5
1AC
330
1AA
100
AcDbEntity
  8
0
100
AcDbBlockEnd
  0
BLOCK
  5
1B5
330
1B4
100
AcDbEntity
  8
0
100
AcDbBlockBegin
  2
_D_1
 70
     0
 10
0.0
 20
0.0
 30
0.0
  3
_D_1
  1

  0
INSERT
  5
1B7
330
1B4
100
AcDbEntity
  8
RIQUADRO
100
AcDbBlockReference
  2
_CLOSED
 10
31.2880130963
 20
174.3186032833
 30
0.1
 41
2.5
 42
2.5
 50
90.0
  0
INSERT
  5
1B8
330
1B4
100
AcDbEntity
  8
RIQUADRO
100
AcDbBlockReference
  2
_CLOSED
 10
31.2880130963
 20
134.3186032833
 30
0.1
 41
2.5
 42
2.5
 50
270.0
  0
LINE
  5
1B9
330
1B4
100
AcDbEntity
  8
RIQUADRO
100
AcDbLine
 10
32.9185281303
 20
174.3186032833
 30
0.0
 11
30.2880130963
 21
174.3186032833
 31
0.0
  0
LINE
  5
1BA
330
1B4
100
AcDbEntity
  8
RIQUADRO
100
AcDbLine
 10
37.4049148146
 20
134.3186032833
 30
0.0
 11
30.2880130963
 21
134.3186032833
 31
0.0
  0
LINE
  5
1BB
330
1B4
100
AcDbEntity
  8
RIQUADRO
100
AcDbLine
 10
31.2880130963
 20
174.3186032833
 30
0.0
 11
31.2880130963
 21
134.3186032833
 31
0.0
  0
MTEXT
  5
1BC
330
1B4
100
AcDbEntity
  8
RIQUADRO
100
AcDbMText
 10
26.7762761818
 20
151.9605261907
 30
0.1
 40
3.5
 41
0.0
 46
0.0
 71
     1
 72
     1
  1
40
  7
SLDTEXTSTYLE1
 11
-7.044195017643634E-15
 21
1.0
 31
0.0
 73
     1
 44
1.0
  0
ENDBLK
  5
1B6
330
1B4
100
AcDbEntity
  8
0
100
AcDbBlockEnd
  0
BLOCK
  5
1BF
330
1BE
100
AcDbEntity
  8
0
100
AcDbBlockBegin
  2
_D_2
 70
     0
 10
0.0
 20
0.0
 30
0.0
  3
_D_2
  1

  0
INSERT
  5
1C1
330
1BE
100
AcDbEntity
  8
RIQUADRO
100
AcDbBlockReference
  2
_CLOSED
 10
19.8728594396
 20
200.8186032833
 30
88.4
 41
2.5
 42
2.5
 50
90.0
  0
INSERT
  5
1C2
330
1BE
100
AcDbEntity
  8
RIQUADRO
100
AcDbBlockReference
  2
_CLOSED
 10
19.8728594396
 20
134.3186032833
 30
88.4
 41
2.5
 42
2.5
 50
270.0
  0
LINE
  5
1C3
330
1BE
100
AcDbEntity
  8
RIQUADRO
100
AcDbLine
 10
63.9049148146
 20
200.8186032833
 30
0.0
 11
18.8728594396
 21
200.8186032833
 31
0.0
  0
LINE
  5
1C4
330
1BE
100
AcDbEntity
  8
RIQUADRO
100
AcDbLine
 10
37.9049148146
 20
134.3186032833
 30
0.0
 11
18.8728594396
 21
134.3186032833
 31
0.0
  0
LINE
  5
1C5
330
1BE
100
AcDbEntity
  8
RIQUADRO
100
AcDbLine
 10
19.8728594396
 20
200.8186032833
 30
0.0
 11
19.8728594396
 21
134.3186032833
 31
0.0
  0
MTEXT
  5
1C6
330
1BE
100
AcDbEntity
  8
RIQUADRO
100
AcDbMText
 10
15.3611225251
 20
158.1085807173
 30
0.0
 40
3.5
 41
0.0
 46
0.0
 71
     1
 72
     1
  1
66,50
  7
SLDTEXTSTYLE1
 11
-7.044195017643634E-15
 21
1.0
 31
0.0
 73
     1
 44
1.0
  0
ENDBLK
  5
1C0
330
1BE
100
AcDbEntity
  8
0
100
AcDbBlockEnd
  0
BLOCK
  5
1C9
330
1C8
100
AcDbEntity
  8
0
100
AcDbBlockBegin
  2
_D_3
 70
     0
 10
0.0
 20
0.0
 30
0.0
  3
_D_3
  1

  0
INSERT
  5
1CB
330
1C8
100
AcDbEntity
  8
RIQUADRO
100
AcDbBlockReference
  2
_CLOSED
 10
110.7225973079
 20
139.8186032833
 30
88.4
 41
2.5
 42
2.5
 50
90.0
  0
INSERT
  5
1CC
330
1C8
100
AcDbEntity
  8
RIQUADRO
100
AcDbBlockReference
  2
_CLOSED
 10
110.7225973079
 20
134.3186032833
 30
88.4
 41
2.5
 42
2.5
 50
270.0
  0
LINE
  5
1CD
330
1C8
100
AcDbEntity
  8
RIQUADRO
100
AcDbLine
 10
55.9049148146
 20
139.8186032833
 30
0.0
 11
111.7225973079
 21
139.8186032833
 31
0.0
  0
LINE
  5
1CE
330
1C8
100
AcDbEntity
  8
RIQUADRO
100
AcDbLine
 10
92.4049148146
 20
134.3186032833
 30
0.0
 11
111.7225973079
 21
134.3186032833
 31
0.0
  0
LINE
  5
1CF
330
1C8
100
AcDbEntity
  8
RIQUADRO
100
AcDbLine
 10
110.7225973079
 20
139.8186032833
 30
0.0
 11
110.7225973079
 21
134.3186032833
 31
0.0
  0
LINE
  5
1D0
330
1C8
100
AcDbEntity
  8
RIQUADRO
100
AcDbLine
 10
110.7225973079
 20
134.3186032833
 30
0.0
 11
110.7225973079
 21
115.8308407404
 31
0.0
  0
MTEXT
  5
1D1
330
1C8
100
AcDbEntity
  8
RIQUADRO
100
AcDbMText
 10
106.2108603933
 20
117.4183407404
 30
0.0
 40
3.5
 41
0.0
 46
0.0
 71
     1
 72
     1
  1
5,50
  7
SLDTEXTSTYLE1
 11
-7.044195017643634E-15
 21
1.0
 31
0.0
 73
     1
 44
1.0
  0
ENDBLK
  5
1CA
330
1C8
100
AcDbEntity
  8
0
100
AcDbBlockEnd
  0
BLOCK
  5
1D5
330
1D4
100
AcDbEntity
  8
0
100
AcDbBlockBegin
  2
_D_4
 70
     0
 10
0.0
 20
0.0
 30
0.0
  3
_D_4
  1

  0
INSERT
  5
1D7
330
1D4
100
AcDbEntity
  8
RIQUADRO
100
AcDbBlockReference
  2
_CLOSED
 10
54.9049148146
 20
119.9176669293
 30
88.4
 41
2.5
 42
2.5
  0
INSERT
  5
1D8
330
1D4
100
AcDbEntity
  8
RIQUADRO
100
AcDbBlockReference
  2
_CLOSED
 10
50.9049148146
 20
119.9176669293
 30
88.4
 41
2.5
 42
2.5
 50
180.0
  0
LINE
  5
1D9
330
1D4
100
AcDbEntity
  8
RIQUADRO
100
AcDbLine
 10
54.9049148146
 20
133.3186032833
 30
0.0
 11
54.9049148146
 21
118.9176669293
 31
0.0
  0
LINE
  5
1DA
330
1D4
100
AcDbEntity
  8
RIQUADRO
100
AcDbLine
 10
50.9049148146
 20
133.3186032833
 30
0.0
 11
50.9049148146
 21
118.9176669293
 31
0.0
  0
LINE
  5
1DB
330
1D4
100
AcDbEntity
  8
RIQUADRO
100
AcDbLine
 10
54.9049148146
 20
119.9176669293
 30
0.0
 11
81.4620698479
 21
119.9176669293
 31
0.0
  0
LINE
  5
1DC
330
1D4
100
AcDbEntity
  8
RIQUADRO
100
AcDbLine
 10
54.9049148146
 20
119.9176669293
 30
0.0
 11
50.9049148146
 21
119.9176669293
 31
0.0
  0
MTEXT
  5
1DD
330
1D4
100
AcDbEntity
  8
RIQUADRO
100
AcDbMText
 10
61.4765443496
 20
124.4294040185
 30
0.0
 40
3.5
 41
0.0
 46
0.0
 71
     1
 72
     1
  1
%%c
  7
SLDTEXTSTYLE1
 73
     1
 44
1.0
  0
MTEXT
  5
1DE
330
1D4
100
AcDbEntity
  8
RIQUADRO
100
AcDbMText
 10
66.7511714024
 20
124.4294038439
 30
0.0
 40
3.5
 41
0.0
 46
0.0
 71
     1
 72
     1
  1
4
  7
SLDTEXTSTYLE1
 73
     1
 44
1.0
  0
MTEXT
  5
1DF
330
1D4
100
AcDbEntity
  8
RIQUADRO
100
AcDbMText
 10
72.6338018728
 20
123.7205121754
 30
0.0
 40
2.8
 41
0.0
 46
0.0
 71
     1
 72
     1
  1
0
  7
SLDTEXTSTYLE1
 73
     1
 44
1.0
  0
MTEXT
  5
1E0
330
1D4
100
AcDbEntity
  8
RIQUADRO
100
AcDbMText
 10
70.3715553899
 20
128.1620955843
 30
0.0
 40
2.8
 41
0.0
 46
0.0
 71
     1
 72
     1
  1
+
  7
SLDTEXTSTYLE1
 73
     1
 44
1.0
  0
MTEXT
  5
1E1
330
1D4
100
AcDbEntity
  8
RIQUADRO
100
AcDbMText
 10
72.6338018728
 20
128.1620955843
 30
0.0
 40
2.8
 41
0.0
 46
0.0
 71
     1
 72
     1
  1
0,02
  7
SLDTEXTSTYLE1
 73
     1
 44
1.0
  0
ENDBLK
  5
1D6
330
1D4
100
AcDbEntity
  8
0
100
AcDbBlockEnd
  0
BLOCK
  5
1E4
330
1E3
100
AcDbEntity
  8
0
100
AcDbBlockBegin
  2
_D_5
 70
     0
 10
0.0
 20
0.0
 30
0.0
  3
_D_5
  1

  0
INSERT
  5
1E6
330
1E3
100
AcDbEntity
  8
RIQUADRO
100
AcDbBlockReference
  2
_CLOSED
 10
46.5549148146
 20
121.5676669293
 30
88.4
 41
2.5
 42
2.5
  0
INSERT
  5
1E7
330
1E3
100
AcDbEntity
  8
RIQUADRO
100
AcDbBlockReference
  2
_CLOSED
 10
43.2549148146
 20
121.5676669293
 30
88.4
 41
2.5
 42
2.5
 50
180.0
  0
LINE
  5
1E8
330
1E3
100
AcDbEntity
  8
RIQUADRO
100
AcDbLine
 10
46.5549148146
 20
133.3186032833
 30
0.0
 11
46.5549148146
 21
120.5676669293
 31
0.0
  0
LINE
  5
1E9
330
1E3
100
AcDbEntity
  8
RIQUADRO
100
AcDbLine
 10
43.2549148146
 20
133.3186032833
 30
0.0
 11
43.2549148146
 21
120.5676669293
 31
0.0
  0
LINE
  5
1EA
330
1E3
100
AcDbEntity
  8
RIQUADRO
100
AcDbLine
 10
46.5549148146
 20
121.5676669293
 30
0.0
 11
43.2549148146
 21
121.5676669293
 31
0.0
  0
LINE
  5
1EB
330
1E3
100
AcDbEntity
  8
RIQUADRO
100
AcDbLine
 10
43.2549148146
 20
121.5676669293
 30
0.0
 11
28.7585382764
 21
121.5676669293
 31
0.0
  0
MTEXT
  5
1EC
330
1E3
100
AcDbEntity
  8
RIQUADRO
100
AcDbMText
 10
30.3460382764
 20
126.0794038439
 30
0.0
 40
3.5
 41
0.0
 46
0.0
 71
     1
 72
     1
  1
M4
  7
SLDTEXTSTYLE1
 73
     1
 44
1.0
  0
ENDBLK
  5
1E5
330
1E3
100
AcDbEntity
  8
0
100
AcDbBlockEnd
  0
BLOCK
  5
210
330
20F
100
AcDbEntity
  8
0
100
AcDbBlockBegin
  2
_D_6
 70
     0
 10
0.0
 20
0.0
 30
0.0
  3
_D_6
  1

  0
INSERT
  5
212
330
20F
100
AcDbEntity
  8
RIQUADRO
100
AcDbBlockReference
  2
_CLOSED
 10
84.9049148146
 20
211.5639171096
 30
0.1
 41
2.5
 42
2.5
  0
INSERT
  5
213
330
20F
100
AcDbEntity
  8
RIQUADRO
100
AcDbBlockReference
  2
_CLOSED
 10
64.9049148146
 20
211.5639171096
 30
0.1
 41
2.5
 42
2.5
 50
180.0
  0
LINE
  5
214
330
20F
100
AcDbEntity
  8
RIQUADRO
100
AcDbLine
 10
84.9049148146
 20
226.4737539519
 30
0.0
 11
84.9049148146
 21
210.5639171096
 31
0.0
  0
LINE
  5
215
330
20F
100
AcDbEntity
  8
RIQUADRO
100
AcDbLine
 10
84.9049148146
 20
211.5639171096
 30
0.0
 11
64.9049148146
 21
211.5639171096
 31
0.0
  0
MTEXT
  5
216
330
20F
100
AcDbEntity
  8
RIQUADRO
100
AcDbMText
 10
71.1032589385
 20
216.0756540242
 30
0.0
 40
3.5
 41
0.0
 46
0.0
 71
     1
 72
     1
  1
20
  7
SLDTEXTSTYLE1
 73
     1
 44
1.0
  0
ENDBLK
  5
211
330
20F
100
AcDbEntity
  8
0
100
AcDbBlockEnd
  0
BLOCK
  5
219
330
218
100
AcDbEntity
  8
0
100
AcDbBlockBegin
  2
_D_7
 70
     0
 10
0.0
 20
0.0
 30
0.0
  3
_D_7
  1

  0
INSERT
  5
21B
330
218
100
AcDbEntity
  8
RIQUADRO
100
AcDbBlockReference
  2
_CLOSED
 10
52.9049148146
 20
242.9747295072
 30
0.1
 41
2.5
 42
2.5
 50
180.0
  0
INSERT
  5
21C
330
218
100
AcDbEntity
  8
RIQUADRO
100
AcDbBlockReference
  2
_CLOSED
 10
64.9049148146
 20
242.9747295072
 30
0.1
 41
2.5
 42
2.5
  0
LINE
  5
21D
330
218
100
AcDbEntity
  8
RIQUADRO
100
AcDbLine
 10
52.9049148146
 20
229.9737539519
 30
0.0
 11
52.9049148146
 21
243.9747295072
 31
0.0
  0
LINE
  5
21E
330
218
100
AcDbEntity
  8
RIQUADRO
100
AcDbLine
 10
52.9049148146
 20
242.9747295072
 30
0.0
 11
64.9049148146
 21
242.9747295072
 31
0.0
  0
MTEXT
  5
21F
330
218
100
AcDbEntity
  8
RIQUADRO
100
AcDbMText
 10
56.3525932556
 20
247.4864664218
 30
0.0
 40
3.5
 41
0.0
 46
0.0
 71
     1
 72
     1
  1
12
  7
SLDTEXTSTYLE1
 73
     1
 44
1.0
  0
ENDBLK
  5
21A
330
218
100
AcDbEntity
  8
0
100
AcDbBlockEnd
  0
BLOCK
  5
222
330
221
100
AcDbEntity
  8
0
100
AcDbBlockBegin
  2
_D_8
 70
     0
 10
0.0
 20
0.0
 30
0.0
  3
_D_8
  1

  0
INSERT
  5
224
330
221
100
AcDbEntity
  8
RIQUADRO
100
AcDbBlockReference
  2
_CLOSED
 10
38.4049148146
 20
255.6949712687
 30
-6.65
 41
2.5
 42
2.5
 50
180.0
  0
INSERT
  5
225
330
221
100
AcDbEntity
  8
RIQUADRO
100
AcDbBlockReference
  2
_CLOSED
 10
91.4049148146
 20
255.6949712687
 30
-6.65
 41
2.5
 42
2.5
  0
LINE
  5
226
330
221
100
AcDbEntity
  8
RIQUADRO
100
AcDbLine
 10
38.4049148146
 20
237.9737539519
 30
0.0
 11
38.4049148146
 21
256.6949712687
 31
0.0
  0
LINE
  5
227
330
221
100
AcDbEntity
  8
RIQUADRO
100
AcDbLine
 10
91.4049148146
 20
237.9737539519
 30
0.0
 11
91.4049148146
 21
256.6949712687
 31
0.0
  0
LINE
  5
228
330
221
100
AcDbEntity
  8
RIQUADRO
100
AcDbLine
 10
38.4049148146
 20
255.6949712687
 30
0.0
 11
91.4049148146
 21
255.6949712687
 31
0.0
  0
MTEXT
  5
229
330
221
100
AcDbEntity
  8
RIQUADRO
100
AcDbMText
 10
62.5258716652
 20
260.2067081833
 30
0.0
 40
3.5
 41
0.0
 46
0.0
 71
     1
 72
     1
  1
53
  7
SLDTEXTSTYLE1
 73
     1
 44
1.0
  0
ENDBLK
  5
223
330
221
100
AcDbEntity
  8
0
100
AcDbBlockEnd
  0
BLOCK
  5
22C
330
22B
100
AcDbEntity
  8
0
100
AcDbBlockBegin
  2
_D_9
 70
     0
 10
0.0
 20
0.0
 30
0.0
  3
_D_9
  1

  0
INSERT
  5
22E
330
22B
100
AcDbEntity
  8
RIQUADRO
100
AcDbBlockReference
  2
_CLOSED
 10
44.9049148146
 20
205.5284156838
 30
-6.65
 41
2.5
 42
2.5
 50
180.0
  0
INSERT
  5
22F
330
22B
100
AcDbEntity
  8
RIQUADRO
100
AcDbBlockReference
  2
_CLOSED
 10
84.9049148146
 20
205.5284156838
 30
-6.65
 41
2.5
 42
2.5
  0
LINE
  5
230
330
22B
100
AcDbEntity
  8
RIQUADRO
100
AcDbLine
 10
44.9049148146
 20
226.4737539519
 30
0.0
 11
44.9049148146
 21
204.5284156838
 31
0.0
  0
LINE
  5
231
330
22B
100
AcDbEntity
  8
RIQUADRO
100
AcDbLine
 10
84.9049148146
 20
226.4737539519
 30
0.0
 11
84.9049148146
 21
204.5284156838
 31
0.0
  0
LINE
  5
232
330
22B
100
AcDbEntity
  8
RIQUADRO
100
AcDbLine
 10
44.9049148146
 20
205.5284156838
 30
0.0
 11
84.9049148146
 21
205.5284156838
 31
0.0
  0
MTEXT
  5
233
330
22B
100
AcDbEntity
  8
RIQUADRO
100
AcDbMText
 10
61.6323938242
 20
210.0401525984
 30
0.0
 40
3.5
 41
0.0
 46
0.0
 71
     1
 72
     1
  1
40
  7
SLDTEXTSTYLE1
 73
     1
 44
1.0
  0
ENDBLK
  5
22D
330
22B
100
AcDbEntity
  8
0
100
AcDbBlockEnd
  0
BLOCK
  5
237
330
236
100
AcDbEntity
  8
0
100
AcDbBlockBegin
  2
_D_10
 70
     0
 10
0.0
 20
0.0
 30
0.0
  3
_D_10
  1

  0
INSERT
  5
239
330
236
100
AcDbEntity
  8
RIQUADRO
100
AcDbBlockReference
  2
_CLOSED
 10
52.9049148146
 20
250.5281574797
 30
-6.65
 41
2.5
 42
2.5
  0
INSERT
  5
23A
330
236
100
AcDbEntity
  8
RIQUADRO
100
AcDbBlockReference
  2
_CLOSED
 10
76.9049148146
 20
250.5281574797
 30
-6.65
 41
2.5
 42
2.5
 50
180.0
  0
LINE
  5
23B
330
236
100
AcDbEntity
  8
RIQUADRO
100
AcDbLine
 10
52.9049148146
 20
229.9737539519
 30
0.0
 11
52.9049148146
 21
251.5281574797
 31
0.0
  0
LINE
  5
23C
330
236
100
AcDbEntity
  8
RIQUADRO
100
AcDbLine
 10
76.9049148146
 20
229.9737539519
 30
0.0
 11
76.9049148146
 21
251.5281574797
 31
0.0
  0
LINE
  5
23D
330
236
100
AcDbEntity
  8
RIQUADRO
100
AcDbLine
 10
52.9049148146
 20
250.5281574797
 30
0.0
 11
50.4049148146
 21
250.5281574797
 31
0.0
  0
LINE
  5
23E
330
236
100
AcDbEntity
  8
RIQUADRO
100
AcDbLine
 10
52.9049148146
 20
250.5281574797
 30
0.0
 11
76.9049148146
 21
250.5281574797
 31
0.0
  0
LINE
  5
23F
330
236
100
AcDbEntity
  8
RIQUADRO
100
AcDbLine
 10
76.9049148146
 20
250.5281574797
 30
0.0
 11
79.4049148146
 21
250.5281574797
 31
0.0
  0
MTEXT
  5
240
330
236
100
AcDbEntity
  8
RIQUADRO
100
AcDbMText
 10
62.8269600891
 20
255.0398943943
 30
0.0
 40
3.5
 41
0.0
 46
0.0
 71
     1
 72
     1
  1
24
  7
SLDTEXTSTYLE1
 73
     1
 44
1.0
  0
ENDBLK
  5
238
330
236
100
AcDbEntity
  8
0
100
AcDbBlockEnd
  0
BLOCK
  5
242
330
241
100
AcDbEntity
  8
0
100
AcDbBlockBegin
  2
SW_NOTE_10
 70
     0
 10
0.0
 20
0.0
 30
0.0
  3
SW_NOTE_10
  1

  0
MTEXT
  5
244
330
241
100
AcDbEntity
  8
RIQUADRO
 62
     0
100
AcDbMText
 10
0.5271965802
 20
1.775665845
 30
0.0
 40
3.5
 41
0.0
 46
0.0
 71
     1
 72
     1
  1
2x M4 threaded holes
  7
SLDTEXTSTYLE1
 73
     1
 44
1.0
  0
ENDBLK
  5
243
330
241
100
AcDbEntity
  8
0
100
AcDbBlockEnd
  0
BLOCK
  5
24A
330
249
100
AcDbEntity
  8
0
100
AcDbBlockBegin
  2
SW_NOTE_11
 70
     0
 10
0.0
 20
0.0
 30
0.0
  3
SW_NOTE_11
  1

  0
MTEXT
  5
24C
330
249
100
AcDbEntity
  8
RIQUADRO
 62
     0
100
AcDbMText
 10
0.5549026853
 20
1.7826608923
 30
0.0
 40
3.5
 41
0.0
 46
0.0
 71
     1
 72
     1
  1
2x
  7
SLDTEXTSTYLE1
 73
     1
 44
1.0
  0
MTEXT
  5
24D
330
249
100
AcDbEntity
  8
RIQUADRO
 62
     0
100
AcDbMText
 10
6.6750419526
 20
1.7826608923
 30
0.0
 40
3.5
 41
0.0
 46
0.0
 71
     1
 72
     1
  1
%%c
  7
SLDTEXTSTYLE1
 73
     1
 44
1.0
  0
MTEXT
  5
24E
330
249
100
AcDbEntity
  8
RIQUADRO
 62
     0
100
AcDbMText
 10
11.9534788853
 20
1.7826608923
 30
0.0
 40
3.5
 41
0.0
 46
0.0
 71
     1
 72
     1
  1
4 F6 dowelling holes
  7
SLDTEXTSTYLE1
 73
     1
 44
1.0
  0
ENDBLK
  5
24B
330
249
100
AcDbEntity
  8
0
100
AcDbBlockEnd
  0
BLOCK
  5
253
330
252
100
AcDbEntity
  8
0
100
AcDbBlockBegin
  2
SW_CENTERMARKSYMBOL_0
 70
     0
 10
0.0
 20
0.0
 30
0.0
  3
SW_CENTERMARKSYMBOL_0
  1

  0
LINE
  5
255
330
252
100
AcDbEntity
  8
RIQUADRO
 62
     0
100
AcDbLine
 10
0.0
 20
0.0
 30
0.0
 11
0.0
 21
1.5
 31
0.0
  0
LINE
  5
256
330
252
100
AcDbEntity
  8
RIQUADRO
 62
     0
100
AcDbLine
 10
0.0
 20
0.0
 30
0.0
 11
-1.5
 21
0.0
 31
0.0
  0
LINE
  5
257
330
252
100
AcDbEntity
  8
RIQUADRO
 62
     0
100
AcDbLine
 10
0.0
 20
0.0
 30
0.0
 11
0.0
 21
-1.5
 31
0.0
  0
LINE
  5
258
330
252
100
AcDbEntity
  8
RIQUADRO
 62
     0
100
AcDbLine
 10
0.0
 20
0.0
 30
0.0
 11
1.5
 21
0.0
 31
0.0
  0
ENDBLK
  5
254
330
252
100
AcDbEntity
  8
0
100
AcDbBlockEnd
  0
BLOCK
  5
25B
330
25A
100
AcDbEntity
  8
0
100
AcDbBlockBegin
  2
SW_CENTERMARKSYMBOL_1
 70
     0
 10
0.0
 20
0.0
 30
0.0
  3
SW_CENTERMARKSYMBOL_1
  1

  0
LINE
  5
25D
330
25A
100
AcDbEntity
  8
RIQUADRO
 62
     0
100
AcDbLine
 10
0.0
 20
0.0
 30
0.0
 11
0.0
 21
1.5
 31
0.0
  0
LINE
  5
25E
330
25A
100
AcDbEntity
  8
RIQUADRO
 62
     0
100
AcDbLine
 10
0.0
 20
0.0
 30
0.0
 11
-1.5
 21
0.0
 31
0.0
  0
LINE
  5
25F
330
25A
100
AcDbEntity
  8
RIQUADRO
 62
     0
100
AcDbLine
 10
0.0
 20
0.0
 30
0.0
 11
0.0
 21
-1.5
 31
0.0
  0
LINE
  5
260
330
25A
100
AcDbEntity
  8
RIQUADRO
 62
     0
100
AcDbLine
 10
0.0
 20
0.0
 30
0.0
 11
1.5
 21
0.0
 31
0.0
  0
ENDBLK
  5
25C
330
25A
100
AcDbEntity
  8
0
100
AcDbBlockEnd
  0
BLOCK
  5
263
330
262
100
AcDbEntity
  8
0
100
AcDbBlockBegin
  2
SW_CENTERMARKSYMBOL_2
 70
     0
 10
0.0
 20
0.0
 30
0.0
  3
SW_CENTERMARKSYMBOL_2
  1

  0
LINE
  5
265
330
262
100
AcDbEntity
  8
RIQUADRO
 62
     0
100
AcDbLine
 10
0.0
 20
0.0
 30
0.0
 11
0.0
 21
1.5
 31
0.0
  0
LINE
  5
266
330
262
100
AcDbEntity
  8
RIQUADRO
 62
     0
100
AcDbLine
 10
0.0
 20
0.0
 30
0.0
 11
-1.5
 21
0.0
 31
0.0
  0
LINE
  5
267
330
262
100
AcDbEntity
  8
RIQUADRO
 62
     0
100
AcDbLine
 10
0.0
 20
0.0
 30
0.0
 11
0.0
 21
-1.5
 31
0.0
  0
LINE
  5
268
330
262
100
AcDbEntity
  8
RIQUADRO
 62
     0
100
AcDbLine
 10
0.0
 20
0.0
 30
0.0
 11
1.5
 21
0.0
 31
0.0
  0
ENDBLK
  5
264
330
262
100
AcDbEntity
  8
0
100
AcDbBlockEnd
  0
BLOCK
  5
26B
330
26A
100
AcDbEntity
  8
0
100
AcDbBlockBegin
  2
SW_CENTERMARKSYMBOL_3
 70
     0
 10
0.0
 20
0.0
 30
0.0
  3
SW_CENTERMARKSYMBOL_3
  1

  0
LINE
  5
26D
330
26A
100
AcDbEntity
  8
RIQUADRO
 62
     0
100
AcDbLine
 10
0.0
 20
0.0
 30
0.0
 11
0.0
 21
1.5
 31
0.0
  0
LINE
  5
26E
330
26A
100
AcDbEntity
  8
RIQUADRO
 62
     0
100
AcDbLine
 10
0.0
 20
0.0
 30
0.0
 11
-1.5
 21
0.0
 31
0.0
  0
LINE
  5
26F
330
26A
100
AcDbEntity
  8
RIQUADRO
 62
     0
100
AcDbLine
 10
0.0
 20
0.0
 30
0.0
 11
0.0
 21
-1.5
 31
0.0
  0
LINE
  5
270
330
26A
100
AcDbEntity
  8
RIQUADRO
 62
     0
100
AcDbLine
 10
0.0
 20
0.0
 30
0.0
 11
1.5
 21
0.0
 31
0.0
  0
ENDBLK
  5
26C
330
26A
100
AcDbEntity
  8
0
100
AcDbBlockEnd
  0
BLOCK
  5
2A1
330
2A0
100
AcDbEntity
  8
0
100
AcDbBlockBegin
  2
_D_11
 70
     0
 10
0.0
 20
0.0
 30
0.0
  3
_D_11
  1

  0
INSERT
  5
2A3
330
2A0
100
AcDbEntity
  8
RIQUADRO
100
AcDbBlockReference
  2
_CLOSED
 10
115.0932195063
 20
109.8861093717
 30
6.85
 41
2.5
 42
2.5
 50
90.0
  0
INSERT
  5
2A4
330
2A0
100
AcDbEntity
  8
RIQUADRO
100
AcDbBlockReference
  2
_CLOSED
 10
115.0932195063
 20
89.8861093717
 30
6.85
 41
2.5
 42
2.5
 50
270.0
  0
LINE
  5
2A5
330
2A0
100
AcDbEntity
  8
RIQUADRO
100
AcDbLine
 10
91.8856769281
 20
109.8861093717
 30
0.0
 11
116.0932195063
 21
109.8861093717
 31
0.0
  0
LINE
  5
2A6
330
2A0
100
AcDbEntity
  8
RIQUADRO
100
AcDbLine
 10
91.8856769281
 20
89.8861093717
 30
0.0
 11
116.0932195063
 21
89.8861093717
 31
0.0
  0
LINE
  5
2A7
330
2A0
100
AcDbEntity
  8
RIQUADRO
100
AcDbLine
 10
115.0932195063
 20
109.8861093717
 30
0.0
 11
115.0932195063
 21
89.8861093717
 31
0.0
  0
MTEXT
  5
2A8
330
2A0
100
AcDbEntity
  8
RIQUADRO
100
AcDbMText
 10
110.5814825917
 20
97.0843318105
 30
0.0
 40
3.5
 41
0.0
 46
0.0
 71
     1
 72
     1
  1
20
  7
SLDTEXTSTYLE1
 11
-7.044195017643634E-15
 21
1.0
 31
0.0
 73
     1
 44
1.0
  0
ENDBLK
  5
2A2
330
2A0
100
AcDbEntity
  8
0
100
AcDbBlockEnd
  0
BLOCK
  5
2AA
330
2A9
100
AcDbEntity
  8
0
100
AcDbBlockBegin
  2
SW_CENTERMARKSYMBOL_4
 70
     0
 10
0.0
 20
0.0
 30
0.0
  3
SW_CENTERMARKSYMBOL_4
  1

  0
LINE
  5
2AC
330
2A9
100
AcDbEntity
  8
RIQUADRO
 62
     0
100
AcDbLine
 10
0.0
 20
0.0
 30
0.0
 11
0.0
 21
1.5
 31
0.0
  0
LINE
  5
2AD
330
2A9
100
AcDbEntity
  8
RIQUADRO
 62
     0
100
AcDbLine
 10
0.0
 20
0.0
 30
0.0
 11
-1.5
 21
0.0
 31
0.0
  0
LINE
  5
2AE
330
2A9
100
AcDbEntity
  8
RIQUADRO
 62
     0
100
AcDbLine
 10
0.0
 20
0.0
 30
0.0
 11
0.0
 21
-1.5
 31
0.0
  0
LINE
  5
2AF
330
2A9
100
AcDbEntity
  8
RIQUADRO
 62
     0
100
AcDbLine
 10
0.0
 20
0.0
 30
0.0
 11
1.5
 21
0.0
 31
0.0
  0
ENDBLK
  5
2AB
330
2A9
100
AcDbEntity
  8
0
100
AcDbBlockEnd
  0
BLOCK
  5
2B2
330
2B1
100
AcDbEntity
  8
0
100
AcDbBlockBegin
  2
SW_CENTERMARKSYMBOL_5
 70
     0
 10
0.0
 20
0.0
 30
0.0
  3
SW_CENTERMARKSYMBOL_5
  1

  0
LINE
  5
2B4
330
2B1
100
AcDbEntity
  8
RIQUADRO
 62
     0
100
AcDbLine
 10
0.0
 20
0.0
 30
0.0
 11
0.0
 21
1.5
 31
0.0
  0
LINE
  5
2B5
330
2B1
100
AcDbEntity
  8
RIQUADRO
 62
     0
100
AcDbLine
 10
0.0
 20
0.0
 30
0.0
 11
-1.5
 21
0.0
 31
0.0
  0
LINE
  5
2B6
330
2B1
100
AcDbEntity
  8
RIQUADRO
 62
     0
100
AcDbLine
 10
0.0
 20
0.0
 30
0.0
 11
0.0
 21
-1.5
 31
0.0
  0
LINE
  5
2B7
330
2B1
100
AcDbEntity
  8
RIQUADRO
 62
     0
100
AcDbLine
 10
0.0
 20
0.0
 30
0.0
 11
1.5
 21
0.0
 31
0.0
  0
ENDBLK
  5
2B3
330
2B1
100
AcDbEntity
  8
0
100
AcDbBlockEnd
  0
BLOCK
  5
2BA
330
2B9
100
AcDbEntity
  8
0
100
AcDbBlockBegin
  2
SW_CENTERMARKSYMBOL_6
 70
     0
 10
0.0
 20
0.0
 30
0.0
  3
SW_CENTERMARKSYMBOL_6
  1

  0
LINE
  5
2BC
330
2B9
100
AcDbEntity
  8
RIQUADRO
 62
     0
100
AcDbLine
 10
0.0
 20
0.0
 30
0.0
 11
0.0
 21
1.5
 31
0.0
  0
LINE
  5
2BD
330
2B9
100
AcDbEntity
  8
RIQUADRO
 62
     0
100
AcDbLine
 10
0.0
 20
0.0
 30
0.0
 11
-1.5
 21
0.0
 31
0.0
  0
LINE
  5
2BE
330
2B9
100
AcDbEntity
  8
RIQUADRO
 62
     0
100
AcDbLine
 10
0.0
 20
0.0
 30
0.0
 11
0.0
 21
-1.5
 31
0.0
  0
LINE
  5
2BF
330
2B9
100
AcDbEntity
  8
RIQUADRO
 62
     0
100
AcDbLine
 10
0.0
 20
0.0
 30
0.0
 11
1.5
 21
0.0
 31
0.0
  0
ENDBLK
  5
2BB
330
2B9
100
AcDbEntity
  8
0
100
AcDbBlockEnd
  0
BLOCK
  5
2C2
330
2C1
100
AcDbEntity
  8
0
100
AcDbBlockBegin
  2
SW_CENTERMARKSYMBOL_7
 70
     0
 10
0.0
 20
0.0
 30
0.0
  3
SW_CENTERMARKSYMBOL_7
  1

  0
LINE
  5
2C4
330
2C1
100
AcDbEntity
  8
RIQUADRO
 62
     0
100
AcDbLine
 10
0.0
 20
0.0
 30
0.0
 11
0.0
 21
1.5
 31
0.0
  0
LINE
  5
2C5
330
2C1
100
AcDbEntity
  8
RIQUADRO
 62
     0
100
AcDbLine
 10
0.0
 20
0.0
 30
0.0
 11
-1.5
 21
0.0
 31
0.0
  0
LINE
  5
2C6
330
2C1
100
AcDbEntity
  8
RIQUADRO
 62
     0
100
AcDbLine
 10
0.0
 20
0.0
 30
0.0
 11
0.0
 21
-1.5
 31
0.0
  0
LINE
  5
2C7
330
2C1
100
AcDbEntity
  8
RIQUADRO
 62
     0
100
AcDbLine
 10
0.0
 20
0.0
 30
0.0
 11
1.5
 21
0.0
 31
0.0
  0
ENDBLK
  5
2C3
330
2C1
100
AcDbEntity
  8
0
100
AcDbBlockEnd
  0
ENDSEC
  0
SECTION
  2
ENTITIES
  0
LINE
  5
4B
330
1F
100
AcDbEntity
  8
RIQUADRO
100
AcDbLine
 10
200.0917715947
 20
149.1494282774
 30
0.0
 11
205.0917715947
 21
149.1494282774
 31
0.0
  0
LINE
  5
4C
330
1F
100
AcDbEntity
  8
RIQUADRO
100
AcDbLine
 10
56.6072614286
 20
282.6494282774
 30
0.0
 11
56.6072614286
 21
288.6494282774
 31
0.0
  0
LINE
  5
4D
330
1F
100
AcDbEntity
  8
RIQUADRO
100
AcDbLine
 10
105.0434171846
 20
282.6494282774
 30
0.0
 11
105.0434171846
 21
288.6494282774
 31
0.0
  0
LINE
  5
4E
330
1F
100
AcDbEntity
  8
RIQUADRO
100
AcDbLine
 10
153.2664538338
 20
282.6494282774
 30
0.0
 11
153.2664538338
 21
288.6494282774
 31
0.0
  0
LINE
  5
4F
330
1F
100
AcDbEntity
  8
RIQUADRO
100
AcDbLine
 10
199.8803741219
 20
282.6494282774
 30
0.0
 11
199.8803741219
 21
288.6494282774
 31
0.0
  0
LINE
  5
50
330
1F
100
AcDbEntity
  8
RIQUADRO
100
AcDbLine
 10
9.0917715947
 20
282.6494282774
 30
0.0
 11
205.0917715947
 21
282.6494282774
 31
0.0
  0
LINE
  5
51
330
1F
100
AcDbEntity
  8
RIQUADRO
100
AcDbLine
 10
199.8803741219
 20
15.6494351702
 30
0.0
 11
199.8803741219
 21
10.6494282774
 31
0.0
  0
LINE
  5
52
330
1F
100
AcDbEntity
  8
RIQUADRO
100
AcDbLine
 10
71.5685815124
 20
41.6494282774
 30
0.0
 11
71.5685815124
 21
20.6494282774
 31
0.0
  0
LINE
  5
53
330
1F
100
AcDbEntity
  8
RIQUADRO
100
AcDbLine
 10
9.0917715947
 20
15.6494351702
 30
0.0
 11
199.8803741219
 21
15.6494351702
 31
0.0
  0
LINE
  5
54
330
1F
100
AcDbEntity
  8
RIQUADRO
100
AcDbLine
 10
105.1381156977
 20
37.1494282774
 30
0.0
 11
105.1381156977
 21
20.6494282774
 31
0.0
  0
LINE
  5
55
330
1F
100
AcDbEntity
  8
RIQUADRO
  6
Continuous
 62
     7
100
AcDbLine
 10
209.0917715947
 20
5.6494282774
 30
0.0
 11
199.0917715947
 21
5.6494282774
 31
0.0
  0
LINE
  5
56
330
1F
100
AcDbEntity
  8
RIQUADRO
  6
Continuous
 62
     7
100
AcDbLine
 10
209.0917715947
 20
5.6494282774
 30
0.0
 11
209.0917715947
 21
15.6494282774
 31
0.0
  0
LINE
  5
57
330
1F
100
AcDbEntity
  8
CONTORNO
  6
Continuous
 62
     7
100
AcDbLine
 10
209.0917715947
 20
292.6494282774
 30
0.0
 11
209.0917715947
 21
282.6494282774
 31
0.0
  0
LINE
  5
58
330
1F
100
AcDbEntity
  8
CONTORNO
  6
Continuous
 62
     7
100
AcDbLine
 10
209.0917715947
 20
292.6494282774
 30
0.0
 11
199.0917715947
 21
292.6494282774
 31
0.0
  0
LINE
  5
59
330
1F
100
AcDbEntity
  8
RIQUADRO
100
AcDbLine
 10
9.0917715947
 20
282.6494282774
 30
0.0
 11
9.0917715947
 21
288.6494282774
 31
0.0
  0
LINE
  5
5A
330
1F
100
AcDbEntity
  8
RIQUADRO
100
AcDbLine
 10
4.0917715947
 20
10.6494282774
 30
0.0
 11
205.0917715947
 21
10.6494282774
 31
0.0
  0
LINE
  5
5B
330
1F
100
AcDbEntity
  8
RIQUADRO
100
AcDbLine
 10
205.0917715947
 20
288.6494282774
 30
0.0
 11
205.0917715947
 21
10.6494282774
 31
0.0
  0
LINE
  5
5C
330
1F
100
AcDbEntity
  8
RIQUADRO
100
AcDbLine
 10
4.0917715947
 20
288.6494282774
 30
0.0
 11
205.0917715947
 21
288.6494282774
 31
0.0
  0
LINE
  5
5D
330
1F
100
AcDbEntity
  8
CONTORNO
100
AcDbLine
 10
9.0917715947
 20
282.6494282774
 30
0.0
 11
9.0917715947
 21
15.6494351702
 31
0.0
  0
LINE
  5
5E
330
1F
100
AcDbEntity
  8
CARTIGLIO
100
AcDbLine
 10
20.0917715947
 20
15.6494282774
 30
0.0
 11
205.0917715947
 21
15.6494282774
 31
0.0
  0
LINE
  5
5F
330
1F
100
AcDbEntity
  8
RIQUADRO
100
AcDbLine
 10
200.0917715947
 20
215.8994282774
 30
0.0
 11
199.8803741219
 21
215.8994282774
 31
0.0
  0
LINE
  5
60
330
1F
100
AcDbEntity
  8
RIQUADRO
100
AcDbLine
 10
9.0917715947
 20
282.6494282774
 30
0.0
 11
4.0917715947
 21
282.6494282774
 31
0.0
  0
LINE
  5
61
330
1F
100
AcDbEntity
  8
CARTIGLIO
100
AcDbLine
 10
199.8803741219
 20
75.6494282774
 30
0.0
 11
20.0917715947
 21
75.6494282774
 31
0.0
  0
LINE
  5
62
330
1F
100
AcDbEntity
  8
CARTIGLIO
100
AcDbLine
 10
20.0917715947
 20
75.6494282774
 30
0.0
 11
20.0917715947
 21
15.6494282774
 31
0.0
  0
LINE
  5
63
330
1F
100
AcDbEntity
  8
CARTIGLIO
100
AcDbLine
 10
200.0917715947
 20
58.6494282774
 30
0.0
 11
20.0917715947
 21
58.6494282774
 31
0.0
  0
LINE
  5
64
330
1F
100
AcDbEntity
  8
CARTIGLIO
100
AcDbLine
 10
200.0917715947
 20
20.6494282774
 30
0.0
 11
20.0917715947
 21
20.6494282774
 31
0.0
  0
LINE
  5
65
330
1F
100
AcDbEntity
  8
CARTIGLIO
100
AcDbLine
 10
200.0917715947
 20
26.1494282774
 30
0.0
 11
130.0659876174
 21
26.1494282774
 31
0.0
  0
LINE
  5
66
330
1F
100
AcDbEntity
  8
CARTIGLIO
100
AcDbLine
 10
130.0659876174
 20
75.6494282774
 30
0.0
 11
130.0659876174
 21
20.6494282774
 31
0.0
  0
LINE
  5
67
330
1F
100
AcDbEntity
  8
CARTIGLIO
100
AcDbLine
 10
200.0917715947
 20
41.6494282774
 30
0.0
 11
20.0917715947
 21
41.6494282774
 31
0.0
  0
LINE
  5
68
330
1F
100
AcDbEntity
  8
CARTIGLIO
100
AcDbLine
 10
190.3914376631
 20
41.6494282774
 30
0.0
 11
190.3914376631
 21
26.1494282774
 31
0.0
  0
LINE
  5
69
330
1F
100
AcDbEntity
  8
RIQUADRO
100
AcDbLine
 10
106.3014163872
 20
75.6494282774
 30
0.0
 11
106.3014163872
 21
58.6494282774
 31
0.0
  0
LINE
  5
6A
330
1F
100
AcDbEntity
  8
CARTIGLIO
100
AcDbLine
 10
199.8803741219
 20
75.6494282774
 30
0.0
 11
199.8803741219
 21
15.6494351702
 31
0.0
  0
LINE
  5
6B
330
1F
100
AcDbEntity
  8
RIQUADRO
100
AcDbLine
 10
9.0917715947
 20
15.6494351702
 30
0.0
 11
9.0917715947
 21
10.6494282774
 31
0.0
  0
LINE
  5
6C
330
1F
100
AcDbEntity
  8
PROIEZ
  6
CENTERX2
100
AcDbLine
 10
118.2014738576
 20
66.9422976321
 30
0.0
 11
129.5857357586
 21
66.9422976321
 31
0.0
  0
LINE
  5
6D
330
1F
100
AcDbEntity
  8
PROIEZ
  6
CENTERX2
100
AcDbLine
 10
123.8936048081
 20
72.6344285826
 30
0.0
 11
123.8936048081
 21
61.2501666817
 31
0.0
  0
LINE
  5
6E
330
1F
100
AcDbEntity
  8
CONTORNO
  6
Continuous
 62
     7
100
AcDbLine
 10
1.0759991219
 20
5.6494282774
 30
0.0
 11
1.0759991219
 21
15.6494282774
 31
0.0
  0
LINE
  5
6F
330
1F
100
AcDbEntity
  8
CONTORNO
  6
Continuous
 62
     7
100
AcDbLine
 10
1.0759991219
 20
5.6494282774
 30
0.0
 11
11.0759991219
 21
5.6494282774
 31
0.0
  0
LINE
  5
70
330
1F
100
AcDbEntity
  8
PROIEZ
  6
Continuous
 62
    16
100
AcDbLine
 10
114.8566080693
 20
62.7455701356
 30
0.0
 11
114.8566080693
 21
71.1390251287
 31
0.0
  0
LINE
  5
71
330
1F
100
AcDbEntity
  8
PROIEZ
  6
CENTERX2
100
AcDbLine
 10
116.1844481322
 20
66.9422976321
 30
0.0
 11
107.8566080693
 21
66.9422976321
 31
0.0
  0
LINE
  5
72
330
1F
100
AcDbEntity
  8
PROIEZ
  6
Continuous
 62
    16
100
AcDbLine
 10
107.8566080693
 20
64.7455701356
 30
0.0
 11
107.8566080693
 21
69.1390251287
 31
0.0
  0
LINE
  5
73
330
1F
100
AcDbEntity
  8
PROIEZ
100
AcDbLine
 10
107.8566080693
 20
64.7455701356
 30
0.0
 11
114.8566080693
 21
62.7455701356
 31
0.0
  0
LINE
  5
74
330
1F
100
AcDbEntity
  8
PROIEZ
  6
Continuous
 62
    16
100
AcDbLine
 10
107.8566080693
 20
69.1390251287
 30
0.0
 11
114.8566080693
 21
71.1390251287
 31
0.0
  0
LINE
  5
75
330
1F
100
AcDbEntity
  8
RIQUADRO
100
AcDbLine
 10
9.0917715947
 20
15.6494351702
 30
0.0
 11
4.0917715947
 21
15.6494351702
 31
0.0
  0
LINE
  5
76
330
1F
100
AcDbEntity
  8
RIQUADRO
100
AcDbLine
 10
200.0917715947
 20
149.1494282774
 30
0.0
 11
199.8803741219
 21
149.1494282774
 31
0.0
  0
LINE
  5
77
330
1F
100
AcDbEntity
  8
RIQUADRO
100
AcDbLine
 10
200.0917715947
 20
82.3994282774
 30
0.0
 11
199.8803741219
 21
82.3994282774
 31
0.0
  0
LINE
  5
78
330
1F
100
AcDbEntity
  8
RIQUADRO
100
AcDbLine
 10
56.6072614286
 20
15.6494351702
 30
0.0
 11
56.6072614286
 21
10.6494282774
 31
0.0
  0
LINE
  5
79
330
1F
100
AcDbEntity
  8
RIQUADRO
100
AcDbLine
 10
104.5917715947
 20
15.6494351702
 30
0.0
 11
104.5917715947
 21
10.6494282774
 31
0.0
  0
LINE
  5
7A
330
1F
100
AcDbEntity
  8
RIQUADRO
100
AcDbLine
 10
153.2664538338
 20
15.6494351702
 30
0.0
 11
153.2664538338
 21
10.6494282774
 31
0.0
  0
LINE
  5
7B
330
1F
100
AcDbEntity
  8
RIQUADRO
100
AcDbLine
 10
9.0917715947
 20
215.8994282774
 30
0.0
 11
4.0917715947
 21
215.8994282774
 31
0.0
  0
LINE
  5
7C
330
1F
100
AcDbEntity
  8
RIQUADRO
100
AcDbLine
 10
9.0917715947
 20
149.1494282774
 30
0.0
 11
4.0917715947
 21
149.1494282774
 31
0.0
  0
LINE
  5
7D
330
1F
100
AcDbEntity
  8
RIQUADRO
100
AcDbLine
 10
9.0917715947
 20
82.3994282774
 30
0.0
 11
4.0917715947
 21
82.3994282774
 31
0.0
  0
LINE
  5
7E
330
1F
100
AcDbEntity
  8
CARTIGLIO
100
AcDbLine
 10
130.0659876174
 20
68.1004373158
 30
0.0
 11
200.0917715947
 21
68.1004373158
 31
0.0
  0
LINE
  5
7F
330
1F
100
AcDbEntity
  8
CARTIGLIO
100
AcDbLine
 10
106.3014163872
 20
67.1494282774
 30
0.0
 11
20.0917715947
 21
67.1494282774
 31
0.0
  0
LINE
  5
80
330
1F
100
AcDbEntity
  8
CARTIGLIO
100
AcDbLine
 10
96.0917715947
 20
58.6494282774
 30
0.0
 11
96.0917715947
 21
41.6494282774
 31
0.0
  0
LINE
  5
81
330
1F
100
AcDbEntity
  8
CARTIGLIO
100
AcDbLine
 10
96.0917715947
 20
50.1494282774
 30
0.0
 11
130.0659876174
 21
50.1494282774
 31
0.0
  0
LINE
  5
82
330
1F
100
AcDbEntity
  8
CARTIGLIO
100
AcDbLine
 10
117.1984737673
 20
58.6494282774
 30
0.0
 11
117.1984737673
 21
41.6494282774
 31
0.0
  0
LINE
  5
83
330
1F
100
AcDbEntity
  8
CARTIGLIO
100
AcDbLine
 10
96.0917715947
 20
51.6494282774
 30
0.0
 11
20.0917715947
 21
51.6494282774
 31
0.0
  0
LINE
  5
84
330
1F
100
AcDbEntity
  8
CARTIGLIO
100
AcDbLine
 10
96.0917715947
 20
45.6494282774
 30
0.0
 11
20.0917715947
 21
45.6494282774
 31
0.0
  0
LINE
  5
85
330
1F
100
AcDbEntity
  8
CARTIGLIO
100
AcDbLine
 10
29.5917715947
 20
51.6494282774
 30
0.0
 11
29.5917715947
 21
41.6494282774
 31
0.0
  0
LINE
  5
86
330
1F
100
AcDbEntity
  8
CARTIGLIO
100
AcDbLine
 10
39.0917715947
 20
51.6494282774
 30
0.0
 11
39.0917715947
 21
41.6494282774
 31
0.0
  0
LINE
  5
87
330
1F
100
AcDbEntity
  8
CARTIGLIO
100
AcDbLine
 10
48.5917715947
 20
51.6494282774
 30
0.0
 11
48.5917715947
 21
41.6494282774
 31
0.0
  0
LINE
  5
88
330
1F
100
AcDbEntity
  8
CARTIGLIO
100
AcDbLine
 10
58.0917715947
 20
51.6494282774
 30
0.0
 11
58.0917715947
 21
41.6494282774
 31
0.0
  0
LINE
  5
89
330
1F
100
AcDbEntity
  8
CARTIGLIO
100
AcDbLine
 10
67.5917715947
 20
51.6494282774
 30
0.0
 11
67.5917715947
 21
41.6494282774
 31
0.0
  0
LINE
  5
8A
330
1F
100
AcDbEntity
  8
CARTIGLIO
100
AcDbLine
 10
77.0917715947
 20
51.6494282774
 30
0.0
 11
77.0917715947
 21
41.6494282774
 31
0.0
  0
LINE
  5
8B
330
1F
100
AcDbEntity
  8
CARTIGLIO
100
AcDbLine
 10
86.5917715947
 20
51.6494282774
 30
0.0
 11
86.5917715947
 21
20.6494282774
 31
0.0
  0
LINE
  5
8C
330
1F
100
AcDbEntity
  8
CARTIGLIO
100
AcDbLine
 10
20.0917715947
 20
55.1494282774
 30
0.0
 11
96.0917715947
 21
55.1494282774
 31
0.0
  0
LINE
  5
8D
330
1F
100
AcDbEntity
  8
CARTIGLIO
100
AcDbLine
 10
80.0783417743
 20
58.6494282774
 30
0.0
 11
80.0783417743
 21
51.6494282774
 31
0.0
  0
LINE
  5
8E
330
1F
100
AcDbEntity
  8
CARTIGLIO
100
AcDbLine
 10
88.8664874481
 20
58.6494282774
 30
0.0
 11
88.8664874481
 21
51.6494282774
 31
0.0
  0
LINE
  5
8F
330
1F
100
AcDbEntity
  8
CARTIGLIO
100
AcDbLine
 10
130.0659876174
 20
26.1494282774
 30
0.0
 11
71.5685815124
 21
26.1494282774
 31
0.0
  0
LINE
  5
90
330
1F
100
AcDbEntity
  8
CARTIGLIO
100
AcDbLine
 10
130.0659876174
 20
31.6494282774
 30
0.0
 11
71.5685815124
 21
31.6494282774
 31
0.0
  0
LINE
  5
91
330
1F
100
AcDbEntity
  8
CARTIGLIO
100
AcDbLine
 10
130.0659876174
 20
37.1494282774
 30
0.0
 11
71.5685815124
 21
37.1494282774
 31
0.0
  0
LINE
  5
92
330
1F
100
AcDbEntity
  8
CARTIGLIO
100
AcDbLine
 10
171.526925038
 20
68.1004373158
 30
0.0
 11
171.526925038
 21
75.6494282774
 31
0.0
  0
LINE
  5
93
330
1F
100
AcDbEntity
  8
CONTORNO
  6
Continuous
 62
     7
100
AcDbLine
 10
1.0759991219
 20
292.6494282774
 30
0.0
 11
11.0759991219
 21
292.6494282774
 31
0.0
  0
LINE
  5
94
330
1F
100
AcDbEntity
  8
TABELLA_REV
100
AcDbLine
 10
200.0917715947
 20
261.6494282774
 30
0.0
 11
20.0917715947
 21
261.6494282774
 31
0.0
  0
LINE
  5
95
330
1F
100
AcDbEntity
  8
CONTORNO
  6
Continuous
 62
     7
100
AcDbLine
 10
1.0759991219
 20
292.6494282774
 30
0.0
 11
1.0759991219
 21
282.6494282774
 31
0.0
  0
LINE
  5
96
330
1F
100
AcDbEntity
  8
CONTORNO
100
AcDbLine
 10
9.0917715947
 20
282.6494282774
 30
0.0
 11
199.8803741219
 21
282.6494282774
 31
0.0
  0
LINE
  5
97
330
1F
100
AcDbEntity
  8
RIQUADRO
100
AcDbLine
 10
200.0917715947
 20
82.3994282774
 30
0.0
 11
205.0917715947
 21
82.3994282774
 31
0.0
  0
LINE
  5
98
330
1F
100
AcDbEntity
  8
RIQUADRO
100
AcDbLine
 10
200.0917715947
 20
215.8994282774
 30
0.0
 11
205.0917715947
 21
215.8994282774
 31
0.0
  0
LINE
  5
99
330
1F
100
AcDbEntity
  8
CONTORNO
100
AcDbLine
 10
199.8803741219
 20
282.6494282774
 30
0.0
 11
199.8803741219
 21
15.6494351702
 31
0.0
  0
LINE
  5
9A
330
1F
100
AcDbEntity
  8
CONTORNO
100
AcDbLine
 10
199.8803741219
 20
15.6494351702
 30
0.0
 11
9.0917715947
 21
15.6494351702
 31
0.0
  0
LINE
  5
9B
330
1F
100
AcDbEntity
  8
RIQUADRO
100
AcDbLine
 10
4.0917715947
 20
288.6494282774
 30
0.0
 11
4.0917715947
 21
10.6494282774
 31
0.0
  0
LINE
  5
9C
330
1F
100
AcDbEntity
  8
TABELLA_REV
100
AcDbLine
 10
20.0917715947
 20
261.6494282774
 30
0.0
 11
20.0917715947
 21
282.6494282774
 31
0.0
  0
LINE
  5
9D
330
1F
100
AcDbEntity
  8
TABELLA_REV
100
AcDbLine
 10
200.0917715947
 20
267.1494282774
 30
0.0
 11
20.0917715947
 21
267.1494282774
 31
0.0
  0
LINE
  5
9E
330
1F
100
AcDbEntity
  8
TABELLA_REV
100
AcDbLine
 10
200.0917715947
 20
272.6494282774
 30
0.0
 11
20.0917715947
 21
272.6494282774
 31
0.0
  0
LINE
  5
9F
330
1F
100
AcDbEntity
  8
TABELLA_REV
100
AcDbLine
 10
200.0917715947
 20
278.1494282774
 30
0.0
 11
20.0917715947
 21
278.1494282774
 31
0.0
  0
LINE
  5
A0
330
1F
100
AcDbEntity
  8
TABELLA_REV
100
AcDbLine
 10
36.0917715947
 20
282.6494282774
 30
0.0
 11
36.0917715947
 21
261.6494282774
 31
0.0
  0
LINE
  5
A1
330
1F
100
AcDbEntity
  8
TABELLA_REV
100
AcDbLine
 10
147.0917715947
 20
282.6494282774
 30
0.0
 11
147.0917715947
 21
261.6494282774
 31
0.0
  0
LINE
  5
A2
330
1F
100
AcDbEntity
  8
TABELLA_REV
100
AcDbLine
 10
170.0917715947
 20
282.6494282774
 30
0.0
 11
170.0917715947
 21
261.6494282774
 31
0.0
  0
CIRCLE
  5
A3
330
1F
100
AcDbEntity
  8
PROIEZ
100
AcDbCircle
 10
123.8936048081
 20
66.9422976321
 30
0.0
 40
4.0
  0
CIRCLE
  5
A4
330
1F
100
AcDbEntity
  8
PROIEZ
100
AcDbCircle
 10
123.8936048081
 20
66.9422976321
 30
0.0
 40
1.999999999999991
  0
MTEXT
  5
A6
330
1F
100
AcDbEntity
  8
CARTIGLIO
100
AcDbMText
 10
130.6394191004
 20
74.5254647666
 30
0.0
 40
2.0
 41
0.0
 46
0.0
 71
     1
 72
     1
  1
Mass
  7
SLDTEXTSTYLE0
 73
     1
 44
1.0
  0
MTEXT
  5
A7
330
1F
100
AcDbEntity
  8
CARTIGLIO
100
AcDbMText
 10
131.9238267175
 20
40.7795742388
 30
0.0
 40
2.0
 41
0.0
 46
0.0
 71
     1
 72
     1
  1
Drawing No.
  7
SLDTEXTSTYLE0
 73
     1
 44
1.0
  0
MTEXT
  5
A8
330
1F
100
AcDbEntity
  8
CARTIGLIO
100
AcDbMText
 10
175.3198896767
 20
74.6508508118
 30
0.0
 40
2.0
 41
0.0
 46
0.0
 71
     1
 72
     1
  1
Scale
  7
SLDTEXTSTYLE0
 73
     1
 44
1.0
  0
MTEXT
  5
A9
330
1F
100
AcDbEntity
  8
CARTIGLIO
100
AcDbMText
 10
192.0228404747
 20
40.458464005
 30
0.0
 40
2.0
 41
0.0
 46
0.0
 71
     1
 72
     1
  1
Sheet
  7
SLDTEXTSTYLE0
 73
     1
 44
1.0
  0
MTEXT
  5
AB
330
1F
100
AcDbEntity
  8
CARTIGLIO
100
AcDbMText
 10
184.7137585365
 20
73.8234400606
 30
0.0
 40
3.5
 41
0.0
 46
0.0
 71
     1
 72
     1
  1
1:2
  7
SLDTEXTSTYLE1
 73
     1
 44
1.0
  0
MTEXT
  5
AC
330
1F
100
AcDbEntity
  8
CARTIGLIO
100
AcDbMText
 10
143.4766497986
 20
35.1255576374
 30
0.0
 40
4.5
 41
0.0
 46
0.0
 71
     1
 72
     1
  1
18865-0-A
  7
SLDTEXTSTYLE1
 73
     1
 44
1.0
  0
MTEXT
  5
AD
330
1F
100
AcDbEntity
  8
CARTIGLIO
100
AcDbMText
 10
142.5687327747
 20
74.0478509875
 30
0.0
 40
3.5
 41
0.0
 46
0.0
 71
     1
 72
     1
  1
113.76 g
  7
SLDTEXTSTYLE1
 73
     1
 44
1.0
  0
MTEXT
  5
AE
330
1F
100
AcDbEntity
  8
CARTIGLIO
100
AcDbMText
 10
192.1022012103
 20
33.0109045789
 30
0.0
 40
3.5
 41
0.0
 46
0.0
 71
     1
 72
     1
  1
1/1
  7
SLDTEXTSTYLE1
 73
     1
 44
1.0
  0
MTEXT
  5
B0
330
1F
100
AcDbEntity
  8
CARTIGLIO
100
AcDbMText
 10
23.8091575814
 20
19.4834325512
 30
0.0
 40
1.3
 41
0.0
 46
0.0
 71
     1
 72
     1
  1
{OPTO  ENGINEERING S.r.l.    -   46100 Mantova Italy   -   Via Cremona, 29/2 -   Tel.    +39 0376 229585    - e-mai: info@opto-engineering.com   -   http://www.opto-engineering.com}
  7
SLDTEXTSTYLE2
 73
     1
 44
1.0
  0
MTEXT
  5
B1
330
1F
100
AcDbEntity
  8
CARTIGLIO
100
AcDbMText
 10
131.7843950233
 20
24.1840198317
 30
0.0
 40
1.9
 41
0.0
 46
0.0
 71
     1
 72
     1
  1
Reproduction forbidden without specific authorization
  7
SLDTEXTSTYLE1
 73
     1
 44
1.0
  0
MTEXT
  5
B2
330
1F
100
AcDbEntity
  8
CARTIGLIO
100
AcDbMText
 10
131.1648567563
 20
56.6568828428
 30
0.0
 40
2.0
 41
0.0
 46
0.0
 71
     1
 72
     1
  1
Description
  7
SLDTEXTSTYLE1
 73
     1
 44
1.0
  0
MTEXT
  5
B3
330
1F
100
AcDbEntity
  8
CARTIGLIO
100
AcDbMText
 10
149.0585958367
 20
50.6159295252
 30
0.0
 40
3.5
 41
0.0
 46
0.0
 71
     1
 72
     1
  1
CMHO23
  7
SLDTEXTSTYLE1
 73
     1
 44
1.0
  0
MTEXT
  5
B4
330
1F
100
AcDbEntity
  8
CARTIGLIO
100
AcDbMText
 10
130.6021382658
 20
67.2685895059
 30
0.0
 40
2.0
 41
0.0
 46
0.0
 71
     1
 72
     1
  1
Project-Prod.item/Instrument
  7
SLDTEXTSTYLE1
 73
     1
 44
1.0
  0
MTEXT
  5
B5
330
1F
100
AcDbEntity
  8
CARTIGLIO
100
AcDbMText
 10
151.4593836004
 20
64.0323032084
 30
0.0
 40
3.5
 41
0.0
 46
0.0
 71
     1
 72
     1
  1
CMHO23
  7
SLDTEXTSTYLE1
 73
     1
 44
1.0
  0
MTEXT
  5
B6
330
1F
100
AcDbEntity
  8
CARTIGLIO
100
AcDbMText
 10
20.6833429915
 20
74.8467236945
 30
0.0
 40
2.0
 41
0.0
 46
0.0
 71
     1
 72
     1
  1
Material
  7
SLDTEXTSTYLE1
 73
     1
 44
1.0
  0
MTEXT
  5
B7
330
1F
100
AcDbEntity
  8
CARTIGLIO
100
AcDbMText
 10
21.1983559672
 20
66.1743593613
 30
0.0
 40
2.0
 41
0.0
 46
0.0
 71
     1
 72
     1
  1
Surface treatment
  7
SLDTEXTSTYLE1
 73
     1
 44
1.0
  0
INSERT
  5
BD
330
1F
100
AcDbEntity
  8
CARTIGLIO
100
AcDbBlockReference
  2
SW_NOTE_0
 10
96.744477682
 20
45.9941839755
 30
0.0
  0
INSERT
  5
C3
330
1F
100
AcDbEntity
  8
CARTIGLIO
100
AcDbBlockReference
  2
SW_NOTE_1
 10
96.6393693109
 20
53.7100550769
 30
0.0
  0
MTEXT
  5
C5
330
1F
100
AcDbEntity
  8
CARTIGLIO
100
AcDbMText
 10
118.5873323899
 20
47.7732862018
 30
0.0
 40
3.0
 41
0.0
 46
0.0
 71
     1
 72
     1
  1
R 0.5
  7
SLDTEXTSTYLE3
 73
     1
 44
1.0
  0
MTEXT
  5
C6
330
1F
100
AcDbEntity
  8
CARTIGLIO
100
AcDbMText
 10
118.1089976447
 20
55.4022891197
 30
0.0
 40
3.0
 41
0.0
 46
0.0
 71
     1
 72
     1
  1
0.5x45°
  7
SLDTEXTSTYLE1
 73
     1
 44
1.0
  0
MTEXT
  5
C7
330
1F
100
AcDbEntity
  8
CARTIGLIO
100
AcDbMText
 10
21.651701234
 20
57.3619798826
 30
0.0
 40
1.5
 41
0.0
 46
0.0
 71
     1
 72
     1
  1
Geometrical tolerance (ISO 2768-2)
  7
SLDTEXTSTYLE1
 73
     1
 44
1.0
  0
MTEXT
  5
C8
330
1F
100
AcDbEntity
  8
CARTIGLIO
100
AcDbMText
 10
21.8273424041
 20
54.2772410371
 30
0.0
 40
1.5
 41
0.0
 46
0.0
 71
     1
 72
     1
  1
Linear tolerance (ISO 2768-2)
  7
SLDTEXTSTYLE1
 73
     1
 44
1.0
  0
INSERT
  5
CE
330
1F
100
AcDbEntity
  8
CARTIGLIO
100
AcDbBlockReference
  2
SW_NOTE_2
 10
22.6701998524
 20
48.7259084616
 30
0.0
  0
INSERT
  5
D4
330
1F
100
AcDbEntity
  8
CARTIGLIO
100
AcDbBlockReference
  2
SW_NOTE_3
 10
31.6684610402
 20
48.3867685771
 30
0.0
  0
INSERT
  5
DA
330
1F
100
AcDbEntity
  8
CARTIGLIO
100
AcDbBlockReference
  2
SW_NOTE_4
 10
41.4864037185
 20
48.7949258522
 30
0.0
  0
INSERT
  5
E0
330
1F
100
AcDbEntity
  8
CARTIGLIO
100
AcDbBlockReference
  2
SW_NOTE_5
 10
50.3183552873
 20
48.5765035486
 30
0.0
  0
INSERT
  5
E6
330
1F
100
AcDbEntity
  8
CARTIGLIO
100
AcDbBlockReference
  2
SW_NOTE_6
 10
59.6941301757
 20
48.4707714807
 30
0.0
  0
INSERT
  5
EC
330
1F
100
AcDbEntity
  8
CARTIGLIO
100
AcDbBlockReference
  2
SW_NOTE_7
 10
68.4290297565
 20
48.4211349626
 30
0.0
  0
INSERT
  5
F2
330
1F
100
AcDbEntity
  8
CARTIGLIO
100
AcDbBlockReference
  2
SW_NOTE_8
 10
78.3275272129
 20
48.6064573664
 30
0.0
  0
INSERT
  5
F8
330
1F
100
AcDbEntity
  8
CARTIGLIO
100
AcDbBlockReference
  2
SW_NOTE_9
 10
87.5268202113
 20
48.5346455831
 30
0.0
  0
MTEXT
  5
F9
330
1F
100
AcDbEntity
  8
CARTIGLIO
100
AcDbMText
 10
21.7136391915
 20
44.5848363517
 30
0.0
 40
2.0
 41
0.0
 46
0.0
 71
     1
 72
     1
  1
±0.1
  7
SLDTEXTSTYLE1
 73
     1
 44
1.0
  0
MTEXT
  5
FA
330
1F
100
AcDbEntity
  8
CARTIGLIO
100
AcDbMText
 10
31.6079587382
 20
44.4591371684
 30
0.0
 40
2.0
 41
0.0
 46
0.0
 71
     1
 72
     1
  1
±0.1
  7
SLDTEXTSTYLE1
 73
     1
 44
1.0
  0
MTEXT
  5
FB
330
1F
100
AcDbEntity
  8
CARTIGLIO
100
AcDbMText
 10
41.8068869963
 20
44.6192710193
 30
0.0
 40
2.0
 41
0.0
 46
0.0
 71
     1
 72
     1
  1
±0.2
  7
SLDTEXTSTYLE1
 73
     1
 44
1.0
  0
MTEXT
  5
FC
330
1F
100
AcDbEntity
  8
CARTIGLIO
100
AcDbMText
 10
50.8467609012
 20
44.5076964617
 30
0.0
 40
2.0
 41
0.0
 46
0.0
 71
     1
 72
     1
  1
±0.3
  7
SLDTEXTSTYLE1
 73
     1
 44
1.0
  0
MTEXT
  5
FD
330
1F
100
AcDbEntity
  8
CARTIGLIO
100
AcDbMText
 10
60.3612263582
 20
44.6197191143
 30
0.0
 40
2.0
 41
0.0
 46
0.0
 71
     1
 72
     1
  1
±0.5
  7
SLDTEXTSTYLE1
 73
     1
 44
1.0
  0
MTEXT
  5
FE
330
1F
100
AcDbEntity
  8
CARTIGLIO
100
AcDbMText
 10
69.7126820867
 20
44.7764064604
 30
0.0
 40
2.0
 41
0.0
 46
0.0
 71
     1
 72
     1
  1
±0.8
  7
SLDTEXTSTYLE1
 73
     1
 44
1.0
  0
MTEXT
  5
FF
330
1F
100
AcDbEntity
  8
CARTIGLIO
100
AcDbMText
 10
79.5297217215
 20
44.686857116
 30
0.0
 40
2.0
 41
0.0
 46
0.0
 71
     1
 72
     1
  1
±1.2
  7
SLDTEXTSTYLE1
 73
     1
 44
1.0
  0
MTEXT
  5
100
330
1F
100
AcDbEntity
  8
CARTIGLIO
100
AcDbMText
 10
89.8897599461
 20
44.6498475368
 30
0.0
 40
2.0
 41
0.0
 46
0.0
 71
     1
 72
     1
  1
±2
  7
SLDTEXTSTYLE1
 73
     1
 44
1.0
  0
MTEXT
  5
101
330
1F
100
AcDbEntity
  8
CARTIGLIO
100
AcDbMText
 10
80.9192725506
 20
57.5459290135
 30
0.0
 40
1.5
 41
0.0
 46
0.0
 71
     1
 72
     1
  1
Class
  7
SLDTEXTSTYLE1
 73
     1
 44
1.0
  0
MTEXT
  5
102
330
1F
100
AcDbEntity
  8
CARTIGLIO
100
AcDbMText
 10
80.7262815812
 20
53.8930516721
 30
0.0
 40
1.5
 41
0.0
 46
0.0
 71
     1
 72
     1
  1
Class
  7
SLDTEXTSTYLE1
 73
     1
 44
1.0
  0
MTEXT
  5
103
330
1F
100
AcDbEntity
  8
CARTIGLIO
100
AcDbMText
 10
90.7165129289
 20
54.1526123472
 30
0.0
 40
2.0
 41
0.0
 46
0.0
 71
     1
 72
     1
  1
m
  7
SLDTEXTSTYLE1
 73
     1
 44
1.0
  0
MTEXT
  5
104
330
1F
100
AcDbEntity
  8
CARTIGLIO
100
AcDbMText
 10
90.9932353885
 20
57.9728501047
 30
0.0
 40
2.0
 41
0.0
 46
0.0
 71
     1
 72
     1
  1
K
  7
SLDTEXTSTYLE1
 73
     1
 44
1.0
  0
MTEXT
  5
105
330
1F
100
AcDbEntity
  8
CARTIGLIO
100
AcDbMText
 10
73.1973398133
 20
35.8538911122
 30
0.0
 40
2.0
 41
0.0
 46
0.0
 71
     1
 72
     1
  1
Designed
  7
SLDTEXTSTYLE1
 73
     1
 44
1.0
  0
MTEXT
  5
106
330
1F
100
AcDbEntity
  8
CARTIGLIO
100
AcDbMText
 10
73.1902529844
 20
30.4182176787
 30
0.0
 40
2.0
 41
0.0
 46
0.0
 71
     1
 72
     1
  1
Draw
  7
SLDTEXTSTYLE1
 73
     1
 44
1.0
  0
MTEXT
  5
107
330
1F
100
AcDbEntity
  8
CARTIGLIO
100
AcDbMText
 10
72.996989314
 20
24.7778016827
 30
0.0
 40
2.0
 41
0.0
 46
0.0
 71
     1
 72
     1
  1
Checked
  7
SLDTEXTSTYLE1
 73
     1
 44
1.0
  0
MTEXT
  5
108
330
1F
100
AcDbEntity
  8
CARTIGLIO
100
AcDbMText
 10
108.3603568078
 20
36.2146884111
 30
0.0
 40
3.0
 41
0.0
 46
0.0
 71
     1
 72
     1
  1
N. Santini
  7
SLDTEXTSTYLE1
 73
     1
 44
1.0
  0
MTEXT
  5
109
330
1F
100
AcDbEntity
  8
CARTIGLIO
100
AcDbMText
 10
87.2418030865
 20
36.1671785778
 30
0.0
 40
3.0
 41
0.0
 46
0.0
 71
     1
 72
     1
  1
14/09/09
  7
SLDTEXTSTYLE1
 73
     1
 44
1.0
  0
MTEXT
  5
10A
330
1F
100
AcDbEntity
  8
CARTIGLIO
100
AcDbMText
 10
94.567866123
 20
25.651093815
 30
0.0
 40
3.0
 41
0.0
 46
0.0
 71
     1
 72
     1
  1
x
  7
SLDTEXTSTYLE1
 73
     1
 44
1.0
  0
MTEXT
  5
10B
330
1F
100
AcDbEntity
  8
CARTIGLIO
100
AcDbMText
 10
113.677094359
 20
40.9169042552
 30
0.0
 40
2.0
 41
0.0
 46
0.0
 71
     1
 72
     1
  1
Name
  7
SLDTEXTSTYLE1
 73
     1
 44
1.0
  0
MTEXT
  5
10C
330
1F
100
AcDbEntity
  8
CARTIGLIO
100
AcDbMText
 10
89.4193353782
 20
40.6742617667
 30
0.0
 40
2.0
 41
0.0
 46
0.0
 71
     1
 72
     1
  1
Date
  7
SLDTEXTSTYLE1
 73
     1
 44
1.0
  0
MTEXT
  5
10D
330
1F
100
AcDbEntity
  8
RIQUADRO
100
AcDbMText
 10
200.8912127049
 20
253.6561299891
 30
0.0
 40
3.5
 41
0.0
 46
0.0
 71
     1
 72
     1
  1
D
  7
SLDTEXTSTYLE1
 73
     1
 44
1.0
  0
MTEXT
  5
10E
330
1F
100
AcDbEntity
  8
RIQUADRO
100
AcDbMText
 10
200.8627138527
 20
185.5617677694
 30
0.0
 40
3.5
 41
0.0
 46
0.0
 71
     1
 72
     1
  1
C
  7
SLDTEXTSTYLE1
 73
     1
 44
1.0
  0
MTEXT
  5
10F
330
1F
100
AcDbEntity
  8
RIQUADRO
100
AcDbMText
 10
201.2834620231
 20
119.40837709
 30
0.0
 40
3.5
 41
0.0
 46
0.0
 71
     1
 72
     1
  1
B
  7
SLDTEXTSTYLE1
 73
     1
 44
1.0
  0
MTEXT
  5
110
330
1F
100
AcDbEntity
  8
RIQUADRO
100
AcDbMText
 10
201.3305745717
 20
52.6910955012
 30
0.0
 40
3.5
 41
0.0
 46
0.0
 71
     1
 72
     1
  1
A
  7
SLDTEXTSTYLE1
 73
     1
 44
1.0
  0
MTEXT
  5
111
330
1F
100
AcDbEntity
  8
TABELLA_REV
100
AcDbMText
 10
83.0451321092
 20
281.1935560825
 30
0.0
 40
2.0
 41
0.0
 46
0.0
 71
     1
 72
     1
  1
Description
  7
SLDTEXTSTYLE1
 73
     1
 44
1.0
  0
MTEXT
  5
112
330
1F
100
AcDbEntity
  8
TABELLA_REV
100
AcDbMText
 10
154.8999472314
 20
281.491656455
 30
0.0
 40
2.0
 41
0.0
 46
0.0
 71
     1
 72
     1
  1
Date
  7
SLDTEXTSTYLE1
 73
     1
 44
1.0
  0
MTEXT
  5
113
330
1F
100
AcDbEntity
  8
TABELLA_REV
100
AcDbMText
 10
180.417268587
 20
281.5051455648
 30
0.0
 40
2.0
 41
0.0
 46
0.0
 71
     1
 72
     1
  1
Name
  7
SLDTEXTSTYLE1
 73
     1
 44
1.0
  0
MTEXT
  5
114
330
1F
100
AcDbEntity
  8
TABELLA_REV
100
AcDbMText
 10
22.2615742615
 20
281.4639104008
 30
0.0
 40
2.0
 41
0.0
 46
0.0
 71
     1
 72
     1
  1
Rev No.
  7
SLDTEXTSTYLE1
 73
     1
 44
1.0
  0
MTEXT
  5
115
330
1F
100
AcDbEntity
  8
RIQUADRO
100
AcDbMText
 10
31.6714647964
 20
287.3985889038
 30
0.0
 40
3.5
 41
0.0
 46
0.0
 71
     1
 72
     1
  1
1
  7
SLDTEXTSTYLE1
 73
     1
 44
1.0
  0
MTEXT
  5
116
330
1F
100
AcDbEntity
  8
RIQUADRO
100
AcDbMText
 10
78.6610550936
 20
287.5537385924
 30
0.0
 40
3.5
 41
0.0
 46
0.0
 71
     1
 72
     1
  1
2
  7
SLDTEXTSTYLE1
 73
     1
 44
1.0
  0
MTEXT
  5
117
330
1F
100
AcDbEntity
  8
RIQUADRO
100
AcDbMText
 10
126.0395836765
 20
287.346792476
 30
0.0
 40
3.5
 41
0.0
 46
0.0
 71
     1
 72
     1
  1
3
  7
SLDTEXTSTYLE1
 73
     1
 44
1.0
  0
MTEXT
  5
118
330
1F
100
AcDbEntity
  8
RIQUADRO
100
AcDbMText
 10
173.8111001917
 20
287.6260340383
 30
0.0
 40
3.5
 41
0.0
 46
0.0
 71
     1
 72
     1
  1
4
  7
SLDTEXTSTYLE1
 73
     1
 44
1.0
  0
MTEXT
  5
119
330
1F
100
AcDbEntity
  8
CARTIGLIO
100
AcDbMText
 10
105.7759003608
 20
25.4689937074
 30
0.0
 40
3.0
 41
0.0
 46
0.0
 71
     1
 72
     1
  1
C. Sedazzari
  7
SLDTEXTSTYLE1
 73
     1
 44
1.0
  0
MTEXT
  5
11A
330
1F
100
AcDbEntity
  8
RIQUADRO
100
AcDbMText
 10
174.4499772594
 20
15.3915817225
 30
0.0
 40
3.5
 41
0.0
 46
0.0
 71
     1
 72
     1
  1
4
  7
SLDTEXTSTYLE1
 73
     1
 44
1.0
  0
MTEXT
  5
11B
330
1F
100
AcDbEntity
  8
RIQUADRO
100
AcDbMText
 10
126.6784607441
 20
15.1123401602
 30
0.0
 40
3.5
 41
0.0
 46
0.0
 71
     1
 72
     1
  1
3
  7
SLDTEXTSTYLE1
 73
     1
 44
1.0
  0
MTEXT
  5
11C
330
1F
100
AcDbEntity
  8
RIQUADRO
100
AcDbMText
 10
79.2999321612
 20
15.3192862766
 30
0.0
 40
3.5
 41
0.0
 46
0.0
 71
     1
 72
     1
  1
2
  7
SLDTEXTSTYLE1
 73
     1
 44
1.0
  0
MTEXT
  5
11D
330
1F
100
AcDbEntity
  8
RIQUADRO
100
AcDbMText
 10
32.3103418641
 20
15.164136588
 30
0.0
 40
3.5
 41
0.0
 46
0.0
 71
     1
 72
     1
  1
1
  7
SLDTEXTSTYLE1
 73
     1
 44
1.0
  0
MTEXT
  5
11E
330
1F
100
AcDbEntity
  8
RIQUADRO
100
AcDbMText
 10
5.2764607527
 20
54.9545518392
 30
0.0
 40
3.5
 41
0.0
 46
0.0
 71
     1
 72
     1
  1
A
  7
SLDTEXTSTYLE1
 73
     1
 44
1.0
  0
MTEXT
  5
11F
330
1F
100
AcDbEntity
  8
RIQUADRO
100
AcDbMText
 10
5.2293482042
 20
121.3077228511
 30
0.0
 40
3.5
 41
0.0
 46
0.0
 71
     1
 72
     1
  1
B
  7
SLDTEXTSTYLE1
 73
     1
 44
1.0
  0
MTEXT
  5
120
330
1F
100
AcDbEntity
  8
RIQUADRO
100
AcDbMText
 10
4.8086000337
 20
187.4611135305
 30
0.0
 40
3.5
 41
0.0
 46
0.0
 71
     1
 72
     1
  1
C
  7
SLDTEXTSTYLE1
 73
     1
 44
1.0
  0
MTEXT
  5
121
330
1F
100
AcDbEntity
  8
RIQUADRO
100
AcDbMText
 10
4.8370988859
 20
255.5554757502
 30
0.0
 40
3.5
 41
0.0
 46
0.0
 71
     1
 72
     1
  1
D
  7
SLDTEXTSTYLE1
 73
     1
 44
1.0
  0
MTEXT
  5
122
330
1F
100
AcDbEntity
  8
RIQUADRO
100
AcDbMText
 10
171.9742994819
 20
277.3242597605
 30
0.0
 40
3.0
 41
0.0
 46
0.0
 71
     1
 72
     1
  1
N. Santini
  7
SLDTEXTSTYLE1
 73
     1
 44
1.0
  0
MTEXT
  5
123
330
1F
100
AcDbEntity
  8
RIQUADRO
100
AcDbMText
 10
150.6388610732
 20
277.3150319732
 30
0.0
 40
3.0
 41
0.0
 46
0.0
 71
     1
 72
     1
  1
14/09/09
  7
SLDTEXTSTYLE1
 73
     1
 44
1.0
  0
MTEXT
  5
124
330
1F
100
AcDbEntity
  8
RIQUADRO
100
AcDbMText
 10
37.2343973545
 20
277.2861679355
 30
0.0
 40
3.0
 41
0.0
 46
0.0
 71
     1
 72
     1
  1
New Part
  7
SLDTEXTSTYLE1
 73
     1
 44
1.0
  0
MTEXT
  5
125
330
1F
100
AcDbEntity
  8
RIQUADRO
100
AcDbMText
 10
26.0430271807
 20
277.2739138851
 30
0.0
 40
3.0
 41
0.0
 46
0.0
 71
     1
 72
     1
  1
A
  7
SLDTEXTSTYLE1
 73
     1
 44
1.0
  0
MTEXT
  5
126
330
1F
100
AcDbEntity
  8
CARTIGLIO
100
AcDbMText
 10
108.0912537256
 20
30.8672544894
 30
0.0
 40
3.0
 41
0.0
 46
0.0
 71
     1
 72
     1
  1
N. Santini
  7
SLDTEXTSTYLE1
 73
     1
 44
1.0
  0
MTEXT
  5
127
330
1F
100
AcDbEntity
  8
CARTIGLIO
100
AcDbMText
 10
87.7938501211
 20
30.8392181632
 30
0.0
 40
3.0
 41
0.0
 46
0.0
 71
     1
 72
     1
  1
14/09/09
  7
SLDTEXTSTYLE1
 73
     1
 44
1.0
  0
MTEXT
  5
128
330
1F
100
AcDbEntity
  8
CARTIGLIO
100
AcDbMText
 10
66.5110084094
 20
64.8965868945
 30
0.0
 40
3.5
 41
0.0
 46
0.0
 71
     2
 72
     1
  1
Grey Anodizing
  7
SLDTEXTSTYLE1
 73
     1
 44
1.0
  0
MTEXT
  5
12A
330
1F
100
AcDbEntity
  8
RIQUADRO
100
AcDbMText
 10
64.5964883267
 20
72.5042162521
 30
0.0
 40
3.5
 41
0.0
 46
0.0
 71
     2
 72
     1
  1
Aluminum - UNI EN 573 EN AW 6063
  7
SLDTEXTSTYLE4
 73
     1
 44
1.0
  0
ARC
  5
12B
330
1F
100
AcDbEntity
  8
0
  6
Continuous
 62
     7
100
AcDbCircle
 10
64.9049148146
 20
174.3186032833
 30
0.0
 40
19.5262975904405
100
AcDbArc
 50
35.3824705067
 51
58.2993343585
  0
ARC
  5
12C
330
1F
100
AcDbEntity
  8
0
  6
Continuous
 62
     7
100
AcDbCircle
 10
73.32643828
 20
187.9538574789
 30
0.0
 40
3.500000000000031
100
AcDbArc
 50
58.2993343585
 51
128.0101846788
  0
ARC
  5
12D
330
1F
100
AcDbEntity
  8
0
  6
Continuous
 62
     7
100
AcDbCircle
 10
74.5580413588
 20
186.3780548719
 30
0.0
 40
5.500000000000016
100
AcDbArc
 50
128.0101846788
 51
150.0
  0
LINE
  5
12E
330
1F
100
AcDbEntity
  8
0
  6
Continuous
 62
     7
100
AcDbLine
 10
69.6162396293
 20
188.8186028661
 30
0.0
 11
69.794901758
 21
189.1280552806
 31
0.0
  0
LINE
  5
12F
330
1F
100
AcDbEntity
  8
0
  6
Continuous
 62
     7
100
AcDbLine
 10
60.1935899999
 20
188.8186028661
 30
0.0
 11
69.6162396293
 21
188.8186028661
 31
0.0
  0
LINE
  5
130
330
1F
100
AcDbEntity
  8
0
  6
Continuous
 62
     7
100
AcDbLine
 10
60.0149278711
 20
189.1280552806
 30
0.0
 11
60.1935899999
 21
188.8186028661
 31
0.0
  0
ARC
  5
131
330
1F
100
AcDbEntity
  8
0
  6
Continuous
 62
     7
100
AcDbCircle
 10
55.2517882704
 20
186.3780548719
 30
0.0
 40
5.499999999999994
100
AcDbArc
 50
30.0
 51
51.98981532120001
  0
ARC
  5
132
330
1F
100
AcDbEntity
  8
0
  6
Continuous
 62
     7
100
AcDbCircle
 10
56.4833913492
 20
187.9538574789
 30
0.0
 40
3.500000000000004
100
AcDbArc
 50
51.98981532120001
 51
121.7006656415
  0
ARC
  5
133
330
1F
100
AcDbEntity
  8
0
  6
Continuous
 62
     7
100
AcDbCircle
 10
64.9049148146
 20
174.3186032833
 30
0.0
 40
19.52629759044044
100
AcDbArc
 50
121.7006656415
 51
177.0644278844
  0
LINE
  5
134
330
1F
100
AcDbEntity
  8
0
  6
Continuous
 62
     7
100
AcDbLine
 10
38.9241535399
 20
175.3186033308
 30
0.0
 11
45.4042401347
 21
175.3186033308
 31
0.0
  0
ARC
  5
135
330
1F
100
AcDbEntity
  8
0
  6
Continuous
 62
     7
100
AcDbCircle
 10
64.9049148146
 20
174.3186032833
 30
0.0
 40
25.99999999999996
100
AcDbArc
 50
36.7465241915
 51
177.795772496
  0
SPLINE
  5
136
330
1F
100
AcDbEntity
  8
0
  6
Continuous
 62
     7
100
AcDbSpline
210
0.0
220
0.0
230
1.0
 70
     8
 71
     3
 72
    11
 73
     7
 74
     0
 42
0.00000001
 43
0.00000001
 12
1.0
 22
0.0
 32
0.0
 13
1.0
 23
0.0
 33
0.0
 40
0.0
 40
0.0
 40
0.0
 40
0.0
 40
0.242785009350352
 40
0.4934020106459323
 40
0.744110692974895
 40
1.0
 40
1.0
 40
1.0
 40
1.0
 10
85.73845738505678
 20
189.8737792359202
 30
0.0
 10
85.29971868263516
 20
189.5808010544729
 30
0.0
 10
84.40808802346773
 20
188.9853935200938
 30
0.0
 10
83.1565405142643
 20
187.9597670713536
 30
0.0
 10
81.94630240283591
 20
186.8442672942856
 30
0.0
 10
81.20117623413137
 20
186.0341503834635
 30
0.0
 10
80.82480320667581
 20
185.6249496774285
 30
0.0
  0
LINE
  5
137
330
1F
100
AcDbEntity
  8
0
  6
Continuous
 62
     7
100
AcDbLine
 10
59.9049149263
 20
188.3186037154
 30
0.0
 11
60.1935899999
 21
188.8186028661
 31
0.0
  0
LINE
  5
138
330
1F
100
AcDbEntity
  8
0
  6
Continuous
 62
     7
100
AcDbLine
 10
59.9049149263
 20
188.3186037154
 30
0.0
 11
59.5819154937
 21
188.8780547739
 31
0.0
  0
ARC
  5
139
330
1F
100
AcDbEntity
  8
0
  6
Continuous
 62
     7
100
AcDbCircle
 10
74.5580413588
 20
186.3780548719
 30
0.0
 40
5.00000000000001
100
AcDbArc
 50
128.0101846788
 51
150.0
  0
LINE
  5
13A
330
1F
100
AcDbEntity
  8
0
  6
Continuous
 62
     7
100
AcDbLine
 10
38.9241535399
 20
175.3186033308
 30
0.0
 11
38.4237893108
 21
175.3186033308
 31
0.0
  0
ARC
  5
13B
330
1F
100
AcDbEntity
  8
0
  6
Continuous
 62
     7
100
AcDbCircle
 10
64.9049148146
 20
174.3186032833
 30
0.0
 40
26.5
100
AcDbArc
 50
36.649150836
 51
177.8373816461
  0
LINE
  5
13C
330
1F
100
AcDbEntity
  8
0
  6
Continuous
 62
     7
100
AcDbLine
 10
86.1660164032
 20
190.1368061514
 30
0.0
 11
85.7384573851
 21
189.8737792359
 31
0.0
  0
LINE
  5
13D
330
1F
100
AcDbEntity
  8
0
  6
Continuous
 62
     7
100
AcDbLine
 10
70.2279141355
 20
188.8780547739
 30
0.0
 11
69.9049147028
 21
188.3186037154
 31
0.0
  0
LINE
  5
13E
330
1F
100
AcDbEntity
  8
0
  6
Continuous
 62
     7
100
AcDbLine
 10
69.9049147028
 20
188.3186037154
 30
0.0
 11
69.6162396293
 21
188.8186028661
 31
0.0
  0
ARC
  5
13F
330
1F
100
AcDbEntity
  8
0
  6
Continuous
 62
     7
100
AcDbCircle
 10
64.9049148146
 20
174.3186032833
 30
0.0
 40
19.02629759044045
100
AcDbArc
 50
35.0187752795
 51
58.2993343585
  0
LINE
  5
140
330
1F
100
AcDbEntity
  8
0
  6
Continuous
 62
     7
100
AcDbLine
 10
80.8248032067
 20
185.6249496774
 30
0.0
 11
80.4867685023
 21
185.2367455573
 31
0.0
  0
LINE
  5
141
330
1F
100
AcDbEntity
  8
0
  6
Continuous
 62
     7
100
AcDbLine
 10
69.9049147028
 20
188.3186037154
 30
0.0
 11
59.9049149263
 21
188.3186037154
 31
0.0
  0
ARC
  5
142
330
1F
100
AcDbEntity
  8
0
  6
Continuous
 62
     7
100
AcDbCircle
 10
55.2517882704
 20
186.3780548719
 30
0.0
 40
5.000000000000014
100
AcDbArc
 50
30.0
 51
51.98981532120001
  0
ARC
  5
143
330
1F
100
AcDbEntity
  8
0
  6
Continuous
 62
     7
100
AcDbCircle
 10
73.32643828
 20
187.9538574789
 30
0.0
 40
3.000000000000025
100
AcDbArc
 50
58.2993343585
 51
128.0101846788
  0
ARC
  5
144
330
1F
100
AcDbEntity
  8
0
  6
Continuous
 62
     7
100
AcDbCircle
 10
64.9049148146
 20
174.3186032833
 30
0.0
 40
19.02629759044045
100
AcDbArc
 50
121.7006656415
 51
176.9872124958
  0
LINE
  5
145
330
1F
100
AcDbEntity
  8
0
  6
Continuous
 62
     7
100
AcDbLine
 10
45.9049154255
 20
175.3186033308
 30
0.0
 11
45.4042401347
 21
175.3186033308
 31
0.0
  0
ARC
  5
146
330
1F
100
AcDbEntity
  8
0
  6
Continuous
 62
     7
100
AcDbCircle
 10
56.4833913492
 20
187.9538574789
 30
0.0
 40
3.000000000000034
100
AcDbArc
 50
51.98981532120001
 51
121.7006656415
  0
LINE
  5
147
330
1F
100
AcDbEntity
  8
0
  6
Continuous
 62
     7
100
AcDbLine
 10
89.9049151871
 20
175.3186033308
 30
0.0
 11
89.9049151871
 21
180.3186033355
 31
0.0
  0
LINE
  5
148
330
1F
100
AcDbEntity
  8
0
  6
Continuous
 62
     7
100
AcDbLine
 10
90.7167341742
 20
180.3186033355
 30
0.0
 11
89.9049151871
 21
180.3186033355
 31
0.0
  0
LINE
  5
149
330
1F
100
AcDbEntity
  8
0
  6
Continuous
 62
     7
100
AcDbLine
 10
89.9049151871
 20
175.3186033308
 30
0.0
 11
91.3860403184
 21
175.3186033308
 31
0.0
  0
ARC
  5
14A
330
1F
100
AcDbEntity
  8
0
  6
Continuous
 62
     7
100
AcDbCircle
 10
64.9049148146
 20
174.3186032833
 30
0.0
 40
26.5
100
AcDbArc
 50
2.162618353900001
 51
13.086104758
  0
LINE
  5
14B
330
1F
100
AcDbEntity
  8
0
  6
Continuous
 62
     7
100
AcDbLine
 10
83.6454775367
 20
188.3523427384
 30
0.0
 11
83.6454775367
 21
180.3186033355
 31
0.0
  0
LINE
  5
14C
330
1F
100
AcDbEntity
  8
0
  6
Continuous
 62
     7
100
AcDbLine
 10
85.4049153808
 20
180.3186033355
 30
0.0
 11
85.4049153808
 21
175.3186033308
 31
0.0
  0
LINE
  5
14D
330
1F
100
AcDbEntity
  8
0
  6
Continuous
 62
     7
100
AcDbLine
 10
85.4049153808
 20
180.3186033355
 30
0.0
 11
83.6454775367
 21
180.3186033355
 31
0.0
  0
LINE
  5
14E
330
1F
100
AcDbEntity
  8
0
  6
Continuous
 62
     7
100
AcDbLine
 10
83.9049142036
 20
175.3186033308
 30
0.0
 11
85.4049153808
 21
175.3186033308
 31
0.0
  0
ARC
  5
14F
330
1F
100
AcDbEntity
  8
0
  6
Continuous
 62
     7
100
AcDbCircle
 10
64.9049148146
 20
174.3186032833
 30
0.0
 40
19.02629759044045
100
AcDbArc
 50
3.0127875042
 51
35.0187752795
  0
LINE
  5
150
330
1F
100
AcDbEntity
  8
0
  6
Continuous
 62
     7
100
AcDbLine
 10
89.9049151871
 20
180.3186033355
 30
0.0
 11
85.4049153808
 21
180.3186033355
 31
0.0
  0
LINE
  5
151
330
1F
100
AcDbEntity
  8
0
  6
Continuous
 62
     7
100
AcDbLine
 10
85.4049153808
 20
175.3186033308
 30
0.0
 11
89.9049151871
 21
175.3186033308
 31
0.0
  0
SPLINE
  5
152
330
1F
100
AcDbEntity
  8
0
  6
Continuous
 62
     7
100
AcDbSpline
210
0.0
220
0.0
230
1.0
 70
     8
 71
     3
 72
     9
 73
     5
 74
     0
 42
0.00000001
 43
0.00000001
 12
1.0
 22
0.0
 32
0.0
 13
1.0
 23
0.0
 33
0.0
 40
0.0
 40
0.0
 40
0.0
 40
0.0
 40
0.457479706459994
 40
1.0
 40
1.0
 40
1.0
 40
1.0
 10
86.16162801122026
 20
190.1341071785896
 30
0.0
 10
86.39920159101996
 20
189.8105252416302
 30
0.0
 10
86.91851113949822
 20
189.1032109446457
 30
0.0
 10
87.38979638343913
 20
188.3389788430925
 30
0.0
 10
87.64547819232301
 20
187.9243674190252
 30
0.0
  0
ARC
  5
153
330
1F
100
AcDbEntity
  8
0
  6
Continuous
 62
     7
100
AcDbCircle
 10
64.9049148146
 20
174.3186032833
 30
0.0
 40
26.49999999999999
100
AcDbArc
 50
13.086104758
 51
30.8922411144
  0
LINE
  5
154
330
1F
100
AcDbEntity
  8
0
  6
Continuous
 62
     7
100
AcDbLine
 10
91.4049145017
 20
152.4678701968
 30
0.0
 11
91.4049145017
 21
134.3186041774
 31
0.0
  0
LINE
  5
155
330
1F
100
AcDbEntity
  8
0
  6
Continuous
 62
     7
100
AcDbLine
 10
91.4049145017
 20
134.3186041774
 30
0.0
 11
90.904915351
 21
134.3186041774
 31
0.0
  0
LINE
  5
156
330
1F
100
AcDbEntity
  8
0
  6
Continuous
 62
     7
100
AcDbLine
 10
90.904915351
 20
134.3186041774
 30
0.0
 11
90.904915351
 21
152.4296896966
 31
0.0
  0
LINE
  5
157
330
1F
100
AcDbEntity
  8
0
  6
Continuous
 62
     7
100
AcDbLine
 10
90.904915351
 20
152.4296896966
 30
0.0
 11
91.4049145017
 21
152.4678701968
 31
0.0
  0
LINE
  5
158
330
1F
100
AcDbEntity
  8
0
  6
Continuous
 62
     7
100
AcDbLine
 10
75.6602581773
 20
163.9474053369
 30
0.0
 11
75.1066204343
 21
162.9884764986
 31
0.0
  0
LINE
  5
159
330
1F
100
AcDbEntity
  8
0
  6
Continuous
 62
     7
100
AcDbLine
 10
74.5292702872
 20
162.9884764986
 30
0.0
 11
75.1066204343
 21
162.9884764986
 31
0.0
  0
LINE
  5
15A
330
1F
100
AcDbEntity
  8
0
  6
Continuous
 62
     7
100
AcDbLine
 10
74.5292702872
 20
162.9884764986
 30
0.0
 11
75.4465997401
 21
164.5773379566
 31
0.0
  0
LINE
  5
15B
330
1F
100
AcDbEntity
  8
0
  6
Continuous
 62
     7
100
AcDbLine
 10
75.4465997401
 20
164.5773379566
 30
0.0
 11
75.6602581773
 21
163.9474053369
 31
0.0
  0
LINE
  5
15C
330
1F
100
AcDbEntity
  8
0
  6
Continuous
 62
     7
100
AcDbLine
 10
38.4049151275
 20
142.7215775908
 30
0.0
 11
38.4049151275
 21
173.3186032358
 31
0.0
  0
LINE
  5
15D
330
1F
100
AcDbEntity
  8
0
  6
Continuous
 62
     7
100
AcDbLine
 10
38.4049151275
 20
173.3186032358
 30
0.0
 11
38.9049142781
 21
173.3186032358
 31
0.0
  0
LINE
  5
15E
330
1F
100
AcDbEntity
  8
0
  6
Continuous
 62
     7
100
AcDbLine
 10
38.9049142781
 20
173.3186032358
 30
0.0
 11
38.9049142781
 21
143.3944711895
 31
0.0
  0
LINE
  5
15F
330
1F
100
AcDbEntity
  8
0
  6
Continuous
 62
     7
100
AcDbLine
 10
38.9049142781
 20
143.3944711895
 30
0.0
 11
38.4049151275
 21
142.7215775908
 31
0.0
  0
LINE
  5
160
330
1F
100
AcDbEntity
  8
0
  6
Continuous
 62
     7
100
AcDbLine
 10
57.7881453741
 20
134.3186041774
 30
0.0
 11
90.904915351
 21
134.3186041774
 31
0.0
  0
LINE
  5
161
330
1F
100
AcDbEntity
  8
0
  6
Continuous
 62
     7
100
AcDbLine
 10
45.257316548
 20
173.3186032358
 30
0.0
 11
38.9049142781
 21
173.3186032358
 31
0.0
  0
ARC
  5
162
330
1F
100
AcDbEntity
  8
0
  6
Continuous
 62
     7
100
AcDbCircle
 10
49.6345601111
 20
176.6487303022
 30
0.0
 40
5.500000000000004
100
AcDbArc
 50
217.2632203111
 51
270.0
  0
LINE
  5
163
330
1F
100
AcDbEntity
  8
0
  6
Continuous
 62
     7
100
AcDbLine
 10
49.9918839145
 20
171.1487302525
 30
0.0
 11
49.634559657
 21
171.1487302525
 31
0.0
  0
LINE
  5
164
330
1F
100
AcDbEntity
  8
0
  6
Continuous
 62
     7
100
AcDbLine
 10
54.7032091949
 20
162.9884764986
 30
0.0
 11
49.9918839145
 21
171.1487302525
 31
0.0
  0
LINE
  5
165
330
1F
100
AcDbEntity
  8
0
  6
Continuous
 62
     7
100
AcDbLine
 10
54.5245470661
 20
162.6790250154
 30
0.0
 11
54.7032091949
 21
162.9884764986
 31
0.0
  0
ARC
  5
166
330
1F
100
AcDbEntity
  8
0
  6
Continuous
 62
     7
100
AcDbCircle
 10
59.2876866553
 20
159.9290246758
 30
0.0
 40
5.499999999999996
100
AcDbArc
 50
150.0
 51
171.9898153212
  0
ARC
  5
167
330
1F
100
AcDbEntity
  8
0
  6
Continuous
 62
     7
100
AcDbCircle
 10
57.3072000268
 20
160.2077229259
 30
0.0
 40
3.5
100
AcDbArc
 50
171.9898153212
 51
241.7006656415
  0
ARC
  5
168
330
1F
100
AcDbEntity
  8
0
  6
Continuous
 62
     7
100
AcDbCircle
 10
64.9049148146
 20
174.3186032833
 30
0.0
 40
19.52629759044041
100
AcDbArc
 50
241.7006656415
 51
298.2993343585
  0
ARC
  5
169
330
1F
100
AcDbEntity
  8
0
  6
Continuous
 62
     7
100
AcDbCircle
 10
72.5026296023
 20
160.2077229259
 30
0.0
 40
3.5
100
AcDbArc
 50
298.2993343585
 51
8.0101846788
  0
ARC
  5
16A
330
1F
100
AcDbEntity
  8
0
  6
Continuous
 62
     7
100
AcDbCircle
 10
70.5221429739
 20
159.9290246758
 30
0.0
 40
5.499999999999996
100
AcDbArc
 50
8.0101846788
 51
30.0
  0
LINE
  5
16B
330
1F
100
AcDbEntity
  8
0
  6
Continuous
 62
     7
100
AcDbLine
 10
75.1066204343
 20
162.9884764986
 30
0.0
 11
75.285282563
 21
162.6790250154
 31
0.0
  0
SPLINE
  5
16C
330
1F
100
AcDbEntity
  8
0
  6
Continuous
 62
     7
100
AcDbSpline
210
0.0
220
0.0
230
1.0
 70
     8
 71
     3
 72
    28
 73
    24
 74
     0
 42
0.00000001
 43
0.00000001
 12
1.0
 22
0.0
 32
0.0
 13
1.0
 23
0.0
 33
0.0
 40
0.0
 40
0.0
 40
0.0
 40
0.0
 40
0.0678855411098443
 40
0.1336484645410133
 40
0.1811336499532489
 40
0.2264901918427262
 40
0.269488934196553
 40
0.3101100453228814
 40
0.348654872137096
 40
0.3858770883302149
 40
0.4230733413585583
 40
0.4617132757908581
 40
0.5025542922632333
 40
0.5457109928656698
 40
0.5908825831554745
 40
0.6375178041627001
 40
0.6944254339793727
 40
0.7511659286935831
 40
0.8070842849815522
 40
0.8622812348354795
 40
0.9168521747174826
 40
0.9585805513690291
 40
1.0
 40
1.0
 40
1.0
 40
1.0
 10
57.78814537411289
 20
134.3186041773765
 30
0.0
 10
58.13048198131014
 20
135.0444242622291
 30
0.0
 10
58.80445115294952
 20
136.4733697826988
 30
0.0
 10
59.41011491179429
 20
138.5336840205392
 30
0.0
 10
59.74158930376269
 20
140.3792536621864
 30
0.0
 10
59.8472260481193
 20
141.9836395157923
 30
0.0
 10
59.7560507873633
 20
143.5083476468316
 30
0.0
 10
59.45694418124469
 20
144.9259064227601
 30
0.0
 10
58.93718335129915
 20
146.2071179730463
 30
0.0
 10
58.1826553346889
 20
147.3212008081012
 30
0.0
 10
57.17904609653596
 20
148.2217793012955
 30
0.0
 10
55.95957780763273
 20
148.8842489505378
 30
0.0
 10
54.57608686569222
 20
149.3329582131807
 30
0.0
 10
53.06647674592043
 20
149.5813904714799
 30
0.0
 10
51.47045836228001
 20
149.6415532442727
 30
0.0
 10
49.71602263756591
 20
149.5149368117518
 30
0.0
 10
47.85054774230434
 20
149.1701467891887
 30
0.0
 10
45.93378986501062
 20
148.5752730519847
 30
0.0
 10
44.12193092718578
 20
147.7604163724597
 30
0.0
 10
42.44104348180569
 20
146.7501694289315
 30
0.0
 10
41.02673003242421
 20
145.6490406841025
 30
0.0
 10
39.84567434568756
 20
144.5264621579967
 30
0.0
 10
39.21772326936175
 20
143.7708657295665
 30
0.0
 10
38.90491427814322
 20
143.3944711895196
 30
0.0
  0
SPLINE
  5
16D
330
1F
100
AcDbEntity
  8
0
  6
Continuous
 62
     7
100
AcDbSpline
210
0.0
220
0.0
230
1.0
 70
     8
 71
     3
 72
    17
 73
    13
 74
     0
 42
0.00000001
 43
0.00000001
 12
1.0
 22
0.0
 32
0.0
 13
1.0
 23
0.0
 33
0.0
 40
0.0
 40
0.0
 40
0.0
 40
0.0
 40
0.1191472554853511
 40
0.2311008621109281
 40
0.3414462957755851
 40
0.4499580310910509
 40
0.5565568119190759
 40
0.6614135643471131
 40
0.7650602285793258
 40
0.8429708443856774
 40
0.9212550511566269
 40
1.0
 40
1.0
 40
1.0
 40
1.0
 10
75.66025817727403
 20
163.9474053369372
 30
0.0
 10
75.96120295252987
 20
163.1909648839311
 30
0.0
 10
76.54492262551851
 20
161.723754916625
 30
0.0
 10
77.7261025270657
 20
159.7059205067819
 30
0.0
 10
79.07417572058073
 20
157.889860900732
 30
0.0
 10
80.61214864997152
 20
156.2790111515081
 30
0.0
 10
82.31428491481653
 20
154.9011468352713
 30
0.0
 10
84.16251970419397
 20
153.7881282046688
 30
0.0
 10
85.9762841075773
 20
153.0365232949626
 30
0.0
 10
87.6984238113582
 20
152.59922490329
 30
0.0
 10
89.29447772445181
 20
152.3915249298685
 30
0.0
 10
90.36705378725681
 20
152.4169432475557
 30
0.0
 10
90.90491535102682
 20
152.4296896965711
 30
0.0
  0
LINE
  5
16E
330
1F
100
AcDbEntity
  8
0
  6
Continuous
 62
     7
100
AcDbLine
 10
55.280559342
 20
162.9884764986
 30
0.0
 11
54.9575599093
 21
162.4290245087
 31
0.0
  0
LINE
  5
16F
330
1F
100
AcDbEntity
  8
0
  6
Continuous
 62
     7
100
AcDbLine
 10
55.280559342
 20
162.9884764986
 30
0.0
 11
54.7032091949
 21
162.9884764986
 31
0.0
  0
LINE
  5
170
330
1F
100
AcDbEntity
  8
0
  6
Continuous
 62
     7
100
AcDbLine
 10
50.2805594537
 20
171.6487303344
 30
0.0
 11
55.280559342
 21
162.9884764986
 31
0.0
  0
LINE
  5
171
330
1F
100
AcDbEntity
  8
0
  6
Continuous
 62
     7
100
AcDbLine
 10
50.2805594537
 20
171.6487303344
 30
0.0
 11
49.9918839145
 21
171.1487302525
 31
0.0
  0
LINE
  5
172
330
1F
100
AcDbEntity
  8
0
  6
Continuous
 62
     7
100
AcDbLine
 10
74.8522697199
 20
162.4290245087
 30
0.0
 11
74.5292702872
 21
162.9884764986
 31
0.0
  0
ARC
  5
173
330
1F
100
AcDbEntity
  8
0
  6
Continuous
 62
     7
100
AcDbCircle
 10
59.2876866553
 20
159.9290246758
 30
0.0
 40
4.999999999999994
100
AcDbArc
 50
150.0
 51
171.9898153212
  0
ARC
  5
174
330
1F
100
AcDbEntity
  8
0
  6
Continuous
 62
     7
100
AcDbCircle
 10
57.3072000268
 20
160.2077229259
 30
0.0
 40
3.000000000000005
100
AcDbArc
 50
171.9898153212
 51
241.7006656415
  0
ARC
  5
175
330
1F
100
AcDbEntity
  8
0
  6
Continuous
 62
     7
100
AcDbCircle
 10
70.5221429739
 20
159.9290246758
 30
0.0
 40
4.999999999999994
100
AcDbArc
 50
8.0101846788
 51
30.0
  0
LINE
  5
176
330
1F
100
AcDbEntity
  8
0
  6
Continuous
 62
     7
100
AcDbLine
 10
49.634559657
 20
171.6487303344
 30
0.0
 11
50.2805594537
 21
171.6487303344
 31
0.0
  0
ARC
  5
177
330
1F
100
AcDbEntity
  8
0
  6
Continuous
 62
     7
100
AcDbCircle
 10
64.9049148146
 20
174.3186032833
 30
0.0
 40
19.02629759044043
100
AcDbArc
 50
241.7006656415
 51
298.2993343585
  0
ARC
  5
178
330
1F
100
AcDbEntity
  8
0
  6
Continuous
 62
     7
100
AcDbCircle
 10
72.5026296023
 20
160.2077229259
 30
0.0
 40
2.999999999999999
100
AcDbArc
 50
298.2993343585
 51
8.0101846788
  0
ARC
  5
179
330
1F
100
AcDbEntity
  8
0
  6
Continuous
 62
     7
100
AcDbCircle
 10
49.6345601111
 20
176.6487303022
 30
0.0
 40
5.000000000000003
100
AcDbArc
 50
221.7610397362
 51
270.0
  0
LINE
  5
17A
330
1F
100
AcDbEntity
  8
0
  6
Continuous
 62
     7
100
AcDbLine
 10
45.257316548
 20
173.3186032358
 30
0.0
 11
45.9049154255
 21
173.3186032358
 31
0.0
  0
LINE
  5
17B
330
1F
100
AcDbEntity
  8
0
  6
Continuous
 62
     7
100
AcDbLine
 10
89.3049143437
 20
161.818603097
 30
0.0
 11
89.3049143437
 21
173.3186032358
 31
0.0
  0
LINE
  5
17C
330
1F
100
AcDbEntity
  8
0
  6
Continuous
 62
     7
100
AcDbLine
 10
89.3049143437
 20
161.818603097
 30
0.0
 11
86.0049143616
 21
161.818603097
 31
0.0
  0
LINE
  5
17D
330
1F
100
AcDbEntity
  8
0
  6
Continuous
 62
     7
100
AcDbLine
 10
86.0049143616
 20
173.3186032358
 30
0.0
 11
86.0049143616
 21
161.818603097
 31
0.0
  0
LINE
  5
17E
330
1F
100
AcDbEntity
  8
0
  6
Continuous
 62
     7
100
AcDbLine
 10
89.3049143437
 20
173.3186032358
 30
0.0
 11
86.0049143616
 21
173.3186032358
 31
0.0
  0
LINE
  5
17F
330
1F
100
AcDbEntity
  8
0
  6
Continuous
 62
     7
100
AcDbLine
 10
80.1752699721
 20
171.6487303344
 30
0.0
 11
79.5292701755
 21
171.6487303344
 31
0.0
  0
LINE
  5
180
330
1F
100
AcDbEntity
  8
0
  6
Continuous
 62
     7
100
AcDbLine
 10
86.0049143616
 20
173.3186032358
 30
0.0
 11
83.9049142036
 21
173.3186032358
 31
0.0
  0
LINE
  5
181
330
1F
100
AcDbEntity
  8
0
  6
Continuous
 62
     7
100
AcDbLine
 10
86.0049143616
 20
161.818603097
 30
0.0
 11
87.6549143526
 21
160.827183208
 31
0.0
  0
LINE
  5
182
330
1F
100
AcDbEntity
  8
0
  6
Continuous
 62
     7
100
AcDbLine
 10
87.6549143526
 20
160.827183208
 30
0.0
 11
89.3049143437
 21
161.818603097
 31
0.0
  0
LINE
  5
183
330
1F
100
AcDbEntity
  8
0
  6
Continuous
 62
     7
100
AcDbLine
 10
91.4049145017
 20
173.3186032358
 30
0.0
 11
89.3049143437
 21
173.3186032358
 31
0.0
  0
ARC
  5
184
330
1F
100
AcDbEntity
  8
0
  6
Continuous
 62
     7
100
AcDbCircle
 10
80.1752695181
 20
176.6487303022
 30
0.0
 40
5.000000000000008
100
AcDbArc
 50
270.0
 51
318.2389602637999
  0
LINE
  5
185
330
1F
100
AcDbEntity
  8
0
  6
Continuous
 62
     7
100
AcDbLine
 10
91.4049145017
 20
152.4678701968
 30
0.0
 11
91.4049145017
 21
173.3186032358
 31
0.0
  0
LINE
  5
186
330
1F
100
AcDbEntity
  8
0
  6
Continuous
 62
     7
100
AcDbLine
 10
79.5292701755
 20
171.6487303344
 30
0.0
 11
75.4465997401
 21
164.5773379566
 31
0.0
  0
LINE
  5
187
330
1F
100
AcDbEntity
  8
0
  6
Continuous
 62
     7
100
AcDbLine
 10
50.9049143825
 20
139.8186041476
 30
0.0
 11
50.9049143825
 21
134.3186041774
 31
0.0
  0
LINE
  5
188
330
1F
100
AcDbEntity
  8
0
  6
Continuous
 62
     7
100
AcDbLine
 10
54.9049150381
 20
134.3186041774
 30
0.0
 11
54.9049150381
 21
139.8186041476
 31
0.0
  0
LINE
  5
189
330
1F
100
AcDbEntity
  8
0
  6
Continuous
 62
     7
100
AcDbLine
 10
50.9049143825
 20
134.3186041774
 30
0.0
 11
54.9049150381
 21
134.3186041774
 31
0.0
  0
LINE
  5
18A
330
1F
100
AcDbEntity
  8
0
  6
Continuous
 62
     7
100
AcDbLine
 10
44.9049152616
 20
146.8100240888
 30
0.0
 11
43.2549152706
 21
145.8186032684
 31
0.0
  0
LINE
  5
18B
330
1F
100
AcDbEntity
  8
0
  6
Continuous
 62
     7
100
AcDbLine
 10
46.5549152527
 20
145.8186032684
 30
0.0
 11
44.9049152616
 21
146.8100240888
 31
0.0
  0
LINE
  5
18C
330
1F
100
AcDbEntity
  8
0
  6
Continuous
 62
     7
100
AcDbLine
 10
43.2549152706
 20
145.8186032684
 30
0.0
 11
46.5549152527
 21
145.8186032684
 31
0.0
  0
LINE
  5
18D
330
1F
100
AcDbEntity
  8
0
  6
Continuous
 62
     7
100
AcDbLine
 10
43.2549152706
 20
145.8186032684
 30
0.0
 11
43.2549152706
 21
134.3186041774
 31
0.0
  0
LINE
  5
18E
330
1F
100
AcDbEntity
  8
0
  6
Continuous
 62
     7
100
AcDbLine
 10
46.5549152527
 20
134.3186041774
 30
0.0
 11
46.5549152527
 21
145.8186032684
 31
0.0
  0
LINE
  5
18F
330
1F
100
AcDbEntity
  8
0
  6
Continuous
 62
     7
100
AcDbLine
 10
43.2549152706
 20
134.3186041774
 30
0.0
 11
46.5549152527
 21
134.3186041774
 31
0.0
  0
LINE
  5
190
330
1F
100
AcDbEntity
  8
0
  6
Continuous
 62
     7
100
AcDbLine
 10
54.9049150381
 20
139.8186041476
 30
0.0
 11
50.9049143825
 21
139.8186041476
 31
0.0
  0
LINE
  5
191
330
1F
100
AcDbEntity
  8
0
  6
Continuous
 62
     7
100
AcDbLine
 10
38.4049151275
 20
142.7215775908
 30
0.0
 11
38.4049151275
 21
134.3186041774
 31
0.0
  0
LINE
  5
192
330
1F
100
AcDbEntity
  8
0
  6
Continuous
 62
     7
100
AcDbLine
 10
46.5549152527
 20
134.3186041774
 30
0.0
 11
50.9049143825
 21
134.3186041774
 31
0.0
  0
LINE
  5
193
330
1F
100
AcDbEntity
  8
0
  6
Continuous
 62
     7
100
AcDbLine
 10
54.9049150381
 20
134.3186041774
 30
0.0
 11
57.7881453741
 21
134.3186041774
 31
0.0
  0
LINE
  5
194
330
1F
100
AcDbEntity
  8
0
  6
Continuous
 62
     7
100
AcDbLine
 10
38.4049151275
 20
134.3186041774
 30
0.0
 11
43.2549152706
 21
134.3186041774
 31
0.0
  0
LINE
  5
195
330
1F
100
AcDbEntity
  8
RIQUADRO
100
AcDbLine
 10
64.9049148146
 20
174.3186032833
 30
0.0
 11
33.9185281303
 21
174.3186032833
 31
0.0
  0
LINE
  5
196
330
1F
100
AcDbEntity
  8
RIQUADRO
100
AcDbLine
 10
64.9049148146
 20
174.3186032833
 30
0.0
 11
65.8278191942
 21
174.3186032833
 31
0.0
  0
LINE
  5
197
330
1F
100
AcDbEntity
  8
RIQUADRO
100
AcDbLine
 10
64.9049148146
 20
174.3186032833
 30
0.0
 11
99.4526635411
 21
174.3186032833
 31
0.0
  0
LINE
  5
198
330
1F
100
AcDbEntity
  8
RIQUADRO
100
AcDbLine
 10
64.9049148146
 20
131.0969774437
 30
0.0
 11
64.9049148146
 21
203.0512226386
 31
0.0
  0
CIRCLE
  5
199
330
1F
100
AcDbEntity
  8
RIQUADRO
  6
CENTERX2
100
AcDbCircle
 10
64.9049148146
 20
174.3186032833
 30
0.0
 40
14.00000000000003
  0
HATCH
  5
19A
330
1F
100
AcDbEntity
  8
0
  6
Continuous
 62
     7
100
AcDbHatch
 10
0.0
 20
0.0
 30
0.0
210
0.0
220
0.0
230
1.0
  2
ANSI38
 70
     0
 71
     0
 91
        1
 92
        0
 93
        3
 72
     4
 94
        3
 73
     1
 74
     0
 95
       10
 96
        6
 40
0.0696233993687762
 40
0.0696233993687762
 40
0.0696233993687762
 40
0.0696233993687762
 40
0.2618279980369717
 40
0.4147770661740811
 40
0.5385789498561689
 40
0.5385789498561689
 40
0.5385789498561689
 40
0.5385789498561689
 10
57.78814533647222
 20
134.3186032833027
 42
1.0
 10
60.36263371376113
 20
139.3206969490087
 42
1.0
 10
60.92217817925977
 20
149.7782484386254
 42
1.0
 10
46.91247690664212
 20
150.1690615499166
 42
1.0
 10
40.83842619350879
 20
145.8545401665299
 42
1.0
 10
38.90491481452769
 20
143.3944711031737
 42
1.0
 97
        0
 72
     4
 94
        3
 73
     1
 74
     0
 95
        8
 96
        4
 40
0.0000000000000797
 40
0.0000000000000797
 40
0.0000000000000797
 40
0.0000000000000797
 40
0.0009761083361762
 40
0.0009761083361762
 40
0.0009761083361762
 40
0.0009761083361762
 10
38.90491481458503
 20
143.3944711032467
 42
1.0
 10
38.73387677873691
 20
143.1768538783283
 42
1.0
 10
38.56696655516605
 20
142.9525388932946
 42
1.0
 10
38.4049148145851
 20
142.7215762496828
 42
1.0
 97
        0
 72
     4
 94
        3
 73
     1
 74
     0
 95
       10
 96
        6
 40
0.450342368175229
 40
0.450342368175229
 40
0.450342368175229
 40
0.450342368175229
 40
0.585222933825919
 40
0.7381720019630283
 40
0.930376600631224
 40
0.930376600631224
 40
0.930376600631224
 40
0.930376600631224
 10
38.40491481440068
 20
142.72157624942
 42
1.0
 10
40.35563808023667
 20
145.501825328124
 42
1.0
 10
46.58150945202271
 20
150.1782941822304
 42
1.0
 10
60.92217817925977
 20
149.7782484386254
 42
1.0
 10
60.36263371376113
 20
139.3206969490087
 42
1.0
 10
57.78814533647221
 20
134.3186032833027
 42
1.0
 97
        0
 97
        0
 75
     0
 76
     1
 52
0.0
 41
1.0
 77
     0
 78
     2
 53
45.0
 43
0.0
 44
0.0
 45
-2.245064030267288
 46
2.245064030267288
 79
     0
 53
135.0
 43
0.0
 44
0.0
 45
-6.735192090801864
 46
2.245064030267289
 79
     2
 49
7.9375
 49
-4.7625
 98
        1
 10
0.0
 20
0.0
  0
HATCH
  5
19B
330
1F
100
AcDbEntity
  8
0
  6
Continuous
 62
     7
100
AcDbHatch
 10
0.0
 20
0.0
 30
0.0
210
0.0
220
0.0
230
1.0
  2
ANSI38
 70
     0
 71
     0
 91
        1
 92
        0
 93
       12
 72
     1
 10
54.90491481458503
 20
134.3186032833068
 11
57.78814533647222
 21
134.3186032833027
 72
     4
 94
        3
 73
     1
 74
     0
 95
       10
 96
        6
 40
0.069623399368776
 40
0.069623399368776
 40
0.069623399368776
 40
0.069623399368776
 40
0.2618279980369717
 40
0.4147770661740811
 40
0.549657631824771
 40
0.549657631824771
 40
0.549657631824771
 40
0.549657631824771
 10
57.78814533647221
 20
134.3186032833027
 42
1.0
 10
60.36263371376113
 20
139.3206969490087
 42
1.0
 10
60.92217817925977
 20
149.7782484386254
 42
1.0
 10
46.58150945202272
 20
150.1782941822304
 42
1.0
 10
40.35563808023667
 20
145.5018253281239
 42
1.0
 10
38.40491481440068
 20
142.72157624942
 42
1.0
 97
        0
 72
     1
 10
38.40491481440068
 20
142.72157624942
 11
38.40491481458502
 21
134.3186032833068
 72
     1
 10
38.40491481458502
 20
134.3186032833068
 11
43.25491481458501
 21
134.3186032833068
 72
     1
 10
43.25491481458501
 20
134.3186032833068
 11
43.25491481458501
 21
145.8186032833068
 72
     1
 10
43.25491481458501
 20
145.8186032833068
 11
44.90491481458501
 21
146.8100233047023
 72
     1
 10
44.90491481458501
 20
146.8100233047023
 11
46.55491481458501
 21
145.8186032833068
 72
     1
 10
46.55491481458501
 20
145.8186032833068
 11
46.55491481458501
 21
134.3186032833068
 72
     1
 10
46.55491481458501
 20
134.3186032833068
 11
50.904914814585
 21
134.3186032833068
 72
     1
 10
50.904914814585
 20
134.3186032833068
 11
50.904914814585
 21
139.8186032833068
 72
     1
 10
50.904914814585
 20
139.8186032833068
 11
54.90491481458503
 21
139.8186032833068
 72
     1
 10
54.90491481458503
 20
139.8186032833068
 11
54.90491481458503
 21
134.3186032833068
 97
        0
 75
     0
 76
     1
 52
0.0
 41
1.0
 77
     0
 78
     2
 53
45.0
 43
0.0
 44
0.0
 45
-2.245064030267288
 46
2.245064030267288
 79
     0
 53
135.0
 43
0.0
 44
0.0
 45
-6.735192090801864
 46
2.245064030267289
 79
     2
 49
7.9375
 49
-4.7625
 98
        1
 10
0.0
 20
0.0
  0
HATCH
  5
19C
330
1F
100
AcDbEntity
  8
0
  6
Continuous
 62
     7
100
AcDbHatch
 10
0.0
 20
0.0
 30
0.0
210
0.0
220
0.0
230
1.0
  2
ANSI38
 70
     0
 71
     0
 91
        1
 92
        0
 93
        4
 72
     4
 94
        3
 73
     1
 74
     0
 95
        9
 96
        5
 40
0.4480496451052102
 40
0.4480496451052102
 40
0.4480496451052102
 40
0.4480496451052102
 40
0.4847790255931528
 40
0.6528383371246884
 40
0.6528383371246884
 40
0.6528383371246884
 40
0.6528383371246884
 10
91.40491481586169
 20
152.4678702355528
 42
1.0
 10
90.14741957297252
 20
152.3486170788615
 42
1.0
 10
83.07667201244637
 20
152.6566520597304
 42
1.0
 10
77.36783005022394
 20
158.5868632218197
 42
1.0
 10
75.44660016778035
 20
164.5773379126512
 42
1.0
 97
        0
 72
     4
 94
        3
 73
     1
 74
     0
 95
        8
 96
        4
 40
0.0012958316436675
 40
0.0012958316436675
 40
0.0012958316436675
 40
0.0012958316436675
 40
0.0021277367527894
 40
0.0021277367527894
 40
0.0021277367527894
 40
0.0021277367527894
 10
75.44660016782271
 20
164.5773379125192
 42
1.0
 10
75.51467459846059
 20
164.3650790061042
 42
1.0
 10
75.58594600813822
 20
164.1550802567825
 42
1.0
 10
75.66025858123179
 20
163.9474051400831
 42
1.0
 97
        0
 72
     4
 94
        3
 73
     1
 74
     0
 95
        9
 96
        5
 40
0.3530928282604945
 40
0.3530928282604945
 40
0.3530928282604945
 40
0.3530928282604945
 40
0.5152209744068472
 40
0.5470865233257572
 40
0.5470865233257572
 40
0.5470865233257572
 40
0.5470865233257572
 10
75.66025858122786
 20
163.9474051400941
 42
1.0
 10
77.69965560148826
 20
158.2480732969278
 42
1.0
 10
83.14493300018927
 20
152.7847087235715
 42
1.0
 10
89.81232038072376
 20
152.3664204310188
 42
1.0
 10
90.90491481726411
 20
152.4296893191386
 42
1.0
 97
        0
 72
     4
 94
        3
 73
     1
 74
     0
 95
        8
 96
        4
 40
0.0000000000019
 40
0.0000000000019
 40
0.0000000000019
 40
0.0000000000019
 40
0.0007081368387401
 40
0.0007081368387401
 40
0.0007081368387401
 40
0.0007081368387401
 10
90.90491481458501
 20
152.4296893189835
 42
1.0
 10
91.07168452269171
 20
152.4393464558085
 42
1.0
 10
91.2383793737163
 20
152.4520770329388
 42
1.0
 10
91.404914814585
 20
152.4678702354317
 42
1.0
 97
        0
 97
        0
 75
     0
 76
     1
 52
0.0
 41
1.0
 77
     0
 78
     2
 53
45.0
 43
0.0
 44
0.0
 45
-2.245064030267288
 46
2.245064030267288
 79
     0
 53
135.0
 43
0.0
 44
0.0
 45
-6.735192090801864
 46
2.245064030267289
 79
     2
 49
7.9375
 49
-4.7625
 98
        1
 10
0.0
 20
0.0
  0
HATCH
  5
19D
330
1F
100
AcDbEntity
  8
0
  6
Continuous
 62
     7
100
AcDbHatch
 10
0.0
 20
0.0
 30
0.0
210
0.0
220
0.0
230
1.0
  2
ANSI38
 70
     0
 71
     0
 91
        1
 92
        0
 93
       11
 72
     1
 10
79.52927046756714
 20
171.6487303022291
 11
75.44660016778043
 21
164.577337912651
 72
     4
 94
        3
 73
     1
 74
     0
 95
        9
 96
        5
 40
0.3471616628753127
 40
0.3471616628753127
 40
0.3471616628753127
 40
0.3471616628753127
 40
0.5152209744068472
 40
0.5519503548947897
 40
0.5519503548947897
 40
0.5519503548947897
 40
0.5519503548947897
 10
75.44660016778039
 20
164.5773379126511
 42
1.0
 10
77.36783005022401
 20
158.5868632218196
 42
1.0
 10
83.0766720124464
 20
152.6566520597304
 42
1.0
 10
90.14741957297251
 20
152.3486170788615
 42
1.0
 10
91.40491481586166
 20
152.4678702355528
 42
1.0
 97
        0
 72
     1
 10
91.40491481586167
 20
152.4678702355528
 11
91.40491481458501
 21
173.3186032833068
 72
     1
 10
91.40491481458501
 20
173.3186032833068
 11
89.30491481458499
 21
173.3186032833068
 72
     1
 10
89.30491481458499
 20
173.3186032833068
 11
89.30491481458499
 21
161.8186032833069
 72
     1
 10
89.30491481458499
 20
161.8186032833069
 11
87.65491481458501
 21
160.8271832619114
 72
     1
 10
87.65491481458501
 20
160.8271832619114
 11
86.00491481458502
 21
161.8186032833069
 72
     1
 10
86.00491481458502
 20
161.8186032833069
 11
86.00491481458502
 21
173.3186032833068
 72
     1
 10
86.00491481458502
 20
173.3186032833068
 11
83.90491481458501
 21
173.3186032833068
 72
     2
 10
80.1752695180663
 20
176.6487303022291
 40
4.999999999999996
 50
41.76103973620994
 51
89.99999999999952
 73
     0
 72
     1
 10
80.17526951806634
 20
171.6487303022291
 11
79.52927046756714
 21
171.6487303022291
 97
        0
 75
     0
 76
     1
 52
0.0
 41
1.0
 77
     0
 78
     2
 53
45.0
 43
0.0
 44
0.0
 45
-2.245064030267288
 46
2.245064030267288
 79
     0
 53
135.0
 43
0.0
 44
0.0
 45
-6.735192090801864
 46
2.245064030267289
 79
     2
 49
7.9375
 49
-4.7625
 98
        1
 10
0.0
 20
0.0
  0
HATCH
  5
19E
330
1F
100
AcDbEntity
  8
0
  6
Continuous
 62
     7
100
AcDbHatch
 10
0.0
 20
0.0
 30
0.0
210
0.0
220
0.0
230
1.0
  2
ANSI38
 70
     0
 71
     0
 91
        1
 92
        0
 93
        4
 72
     2
 10
64.90491481458501
 20
174.3186032833068
 40
26.49999999999998
 50
2.162618353889672
 51
13.08610475798707
 73
     1
 72
     1
 10
90.7167338128656
 20
180.3186032833069
 11
89.904914814585
 21
180.3186032833069
 72
     1
 10
89.904914814585
 20
180.3186032833069
 11
89.90491481458501
 21
175.3186032833068
 72
     1
 10
89.90491481458501
 20
175.3186032833068
 11
91.38604016831573
 21
175.3186032833068
 97
        0
 75
     0
 76
     1
 52
0.0
 41
1.0
 77
     0
 78
     2
 53
45.0
 43
0.0
 44
0.0
 45
-2.245064030267288
 46
2.245064030267288
 79
     0
 53
135.0
 43
0.0
 44
0.0
 45
-6.735192090801864
 46
2.245064030267289
 79
     2
 49
7.9375
 49
-4.7625
 98
        1
 10
0.0
 20
0.0
  0
HATCH
  5
19F
330
1F
100
AcDbEntity
  8
0
  6
Continuous
 62
     7
100
AcDbHatch
 10
0.0
 20
0.0
 30
0.0
210
0.0
220
0.0
230
1.0
  2
ANSI38
 70
     0
 71
     0
 91
        1
 92
        0
 93
        6
 72
     2
 10
64.90491481458501
 20
174.3186032833068
 40
19.02629759044043
 50
324.9812247204663
 51
356.9872124958175
 73
     0
 72
     1
 10
83.90491481458501
 20
175.3186032833068
 11
85.40491481458501
 21
175.3186032833068
 72
     1
 10
85.40491481458501
 20
175.3186032833068
 11
85.40491481458501
 21
180.3186032833069
 72
     1
 10
85.40491481458501
 20
180.3186032833069
 11
83.64547749145036
 21
180.3186032833069
 72
     1
 10
83.64547749145036
 20
180.3186032833069
 11
83.64547749144869
 21
188.352342915004
 72
     4
 94
        3
 73
     1
 74
     0
 95
        8
 96
        4
 40
0.1194500938141089
 40
0.1194500938141089
 40
0.1194500938141089
 40
0.1194500938141089
 40
0.1578090061934042
 40
0.1578090061934042
 40
0.1578090061934042
 40
0.1578090061934042
 10
83.64547749144869
 20
188.352342915004
 42
1.0
 10
82.53690608949591
 20
187.4405426197302
 42
1.0
 10
81.47245118865797
 20
186.3907522111367
 42
1.0
 10
80.48676844669555
 20
185.2367458628579
 42
1.0
 97
        0
 97
        0
 75
     0
 76
     1
 52
0.0
 41
1.0
 77
     0
 78
     2
 53
45.0
 43
0.0
 44
0.0
 45
-2.245064030267288
 46
2.245064030267288
 79
     0
 53
135.0
 43
0.0
 44
0.0
 45
-6.735192090801864
 46
2.245064030267289
 79
     2
 49
7.9375
 49
-4.7625
 98
        1
 10
0.0
 20
0.0
  0
HATCH
  5
1A0
330
1F
100
AcDbEntity
  8
0
  6
Continuous
 62
     7
100
AcDbHatch
 10
0.0
 20
0.0
 30
0.0
210
0.0
220
0.0
230
1.0
  2
ANSI38
 70
     0
 71
     0
 91
        1
 92
        0
 93
        5
 72
     4
 94
        3
 73
     1
 74
     0
 95
        8
 96
        4
 40
0.8421909938065781
 40
0.8421909938065781
 40
0.8421909938065781
 40
0.8421909938065781
 40
0.8805499061858911
 40
0.8805499061858911
 40
0.8805499061858911
 40
0.8805499061858911
 10
80.4867684466942
 20
185.2367458628563
 42
1.0
 10
81.47245118865698
 20
186.3907522111358
 42
1.0
 10
82.5369060894954
 20
187.4405426197298
 42
1.0
 10
83.64547749144869
 20
188.352342915004
 42
1.0
 97
        0
 72
     4
 94
        3
 73
     1
 74
     0
 95
       17
 96
       13
 40
0.0
 40
0.0
 40
0.0
 40
0.0
 40
0.0008401909979648
 40
0.0008401909979648
 40
0.0008401909979648
 40
0.0020175059858182
 40
0.0020175059858182
 40
0.0020175059858182
 40
0.0034849313061331
 40
0.0034849313061331
 40
0.0034849313061331
 40
0.0051613048528749
 40
0.0051613048528749
 40
0.0051613048528749
 40
0.0051613048528749
 10
83.64547749145038
 20
188.3523429150054
 42
1.0
 10
83.64547749145038
 20
188.3523429150054
 42
1.0
 10
83.67560422464955
 20
188.3772347563309
 42
1.0
 10
83.73307522561569
 20
188.4240300110442
 42
1.0
 10
83.81314544662615
 20
188.489226480988
 42
1.0
 10
83.94829031169007
 20
188.5984837425938
 42
1.0
 10
84.12153969335715
 20
188.7332917978599
 42
1.0
 10
84.33708338196085
 20
188.9010097152687
 42
1.0
 10
84.61702506303266
 20
189.1121133398904
 42
1.0
 10
84.93390866583766
 20
189.3354171617186
 42
1.0
 10
85.29552597703893
 20
189.5902442556916
 42
1.0
 10
85.71584777991939
 20
189.8682495442855
 42
1.0
 10
86.16601618195082
 20
190.1368069944301
 42
1.0
 97
        0
 72
     4
 94
        3
 73
     1
 74
     0
 95
        8
 96
        4
 40
0.0
 40
0.0
 40
0.0
 40
0.0
 40
0.0007085125297458
 40
0.0007085125297458
 40
0.0007085125297458
 40
0.0007085125297458
 10
86.16601618195087
 20
190.1368069944301
 42
1.0
 10
86.02222869110679
 20
190.0510275354225
 42
1.0
 10
85.87971521763171
 20
189.9633120412742
 42
1.0
 10
85.73845762676571
 20
189.8737790744392
 42
1.0
 97
        0
 72
     4
 94
        3
 73
     1
 74
     0
 95
        8
 96
        4
 40
0.0957963166018868
 40
0.0957963166018868
 40
0.0957963166018868
 40
0.0957963166018868
 40
0.153462719052782
 40
0.153462719052782
 40
0.153462719052782
 40
0.153462719052782
 10
85.73845762676291
 20
189.8737790744374
 42
1.0
 10
84.00991694264367
 20
188.7781821950392
 42
1.0
 10
82.3327834812095
 20
187.3236555900977
 42
1.0
 10
80.82480262025219
 20
185.6249497243605
 42
1.0
 97
        0
 72
     4
 94
        3
 73
     1
 74
     0
 95
        8
 96
        4
 40
0.0000000000000001
 40
0.0000000000000001
 40
0.0000000000000001
 40
0.0000000000000001
 40
0.0007176136429745
 40
0.0007176136429745
 40
0.0007176136429745
 40
0.0007176136429745
 10
80.82480262025713
 20
185.624949724366
 42
1.0
 10
80.71105955049437
 20
185.4968207641151
 42
1.0
 10
80.59838073989664
 20
185.367418024819
 42
1.0
 10
80.48676844669693
 20
185.2367458628595
 42
1.0
 97
        0
 97
        0
 75
     0
 76
     1
 52
0.0
 41
1.0
 77
     0
 78
     2
 53
45.0
 43
0.0
 44
0.0
 45
-2.245064030267288
 46
2.245064030267288
 79
     0
 53
135.0
 43
0.0
 44
0.0
 45
-6.735192090801864
 46
2.245064030267289
 79
     2
 49
7.9375
 49
-4.7625
 98
        1
 10
0.0
 20
0.0
  0
DIMENSION
  5
1A1
330
1F
100
AcDbEntity
  8
RIQUADRO
100
AcDbDimension
280
     0
  2
_D
 10
78.1359494304
 20
178.8945974918
 30
0.0
 11
70.5370465901
 21
176.2665000038
 31
0.0
 70
   163
  1
<>
 71
     5
 42
-1.0
 73
     0
 74
     0
 75
     0
  3
SLDDIMSTYLE0
100
AcDbDiametricDimension
 15
51.6738801988
 25
169.7426090748
 35
0.0
 40
0.0
  0
DIMENSION
  5
1B2
330
1F
100
AcDbEntity
  8
RIQUADRO
100
AcDbDimension
280
     0
  2
_D_1
 10
31.2880130963
 20
134.3186032833
 30
0.0
 11
31.2880130963
 21
155.9685124718
 31
0.0
 70
   160
  1
<>
 71
     5
 42
-1.0
 73
     0
 74
     0
 75
     0
  3
SLDDIMSTYLE1
100
AcDbAlignedDimension
 13
33.9185281303
 23
174.3186032833
 33
0.0
 14
38.4049148146
 24
134.3186032833
 34
0.0
 50
90.0
100
AcDbRotatedDimension
  0
DIMENSION
  5
1BD
330
1F
100
AcDbEntity
  8
RIQUADRO
100
AcDbDimension
280
     0
  2
_D_2
 10
19.8728594396
 20
134.3186032833
 30
0.0
 11
19.8728594396
 21
163.9260679645
 31
0.0
 70
   160
  1
<>
 71
     5
 42
-1.0
 73
     0
 74
     0
 75
     0
  3
SLDDIMSTYLE1
100
AcDbAlignedDimension
 13
64.9049148146
 23
200.8186032833
 33
0.0
 14
38.9049148146
 24
134.3186032833
 34
0.0
 50
90.0
100
AcDbRotatedDimension
  0
DIMENSION
  5
1C7
330
1F
100
AcDbEntity
  8
RIQUADRO
100
AcDbDimension
280
     0
  2
_D_3
 10
110.7225973079
 20
134.3186032833
 30
0.0
 11
110.7225973079
 21
121.9428337063
 31
0.0
 70
   160
  1
<>
 71
     5
 42
-1.0
 73
     0
 74
     0
 75
     0
  3
SLDDIMSTYLE1
100
AcDbAlignedDimension
 13
54.9049148146
 23
139.8186032833
 33
0.0
 14
91.4049148146
 24
134.3186032833
 34
0.0
 50
90.0
100
AcDbRotatedDimension
  0
DIMENSION
  5
1D2
330
1F
100
AcDbEntity
  8
RIQUADRO
100
AcDbDimension
280
     0
  2
_D_4
 10
50.9049148146
 20
119.9176669293
 30
0.0
 11
70.6755570988
 21
119.9176669293
 31
0.0
 70
   160
  1
%%c<>
 71
     5
 42
-1.0
 73
     0
 74
     0
 75
     0
  3
SLDDIMSTYLE2
100
AcDbAlignedDimension
 13
54.9049148146
 23
134.3186032833
 33
0.0
 14
50.9049148146
 24
134.3186032833
 34
0.0
100
AcDbRotatedDimension
  0
DIMENSION
  5
1E2
330
1F
100
AcDbEntity
  8
RIQUADRO
100
AcDbDimension
280
     0
  2
_D_5
 10
43.2549148146
 20
121.5676669293
 30
0.0
 11
33.7828368164
 21
121.5676669293
 31
0.0
 70
   160
  1
M4
 71
     5
 42
-1.0
 73
     0
 74
     0
 75
     0
  3
SLDDIMSTYLE1
100
AcDbAlignedDimension
 13
46.5549148146
 23
134.3186032833
 33
0.0
 14
43.2549148146
 24
134.3186032833
 34
0.0
100
AcDbRotatedDimension
  0
LINE
  5
1ED
330
1F
100
AcDbEntity
  8
RIQUADRO
100
AcDbLine
 10
85.6549140248
 20
173.3186032358
 30
0.0
 11
85.6549140248
 21
165.3186036707
 31
0.0
  0
LINE
  5
1EE
330
1F
100
AcDbEntity
  8
RIQUADRO
100
AcDbLine
 10
89.6549146805
 20
165.3186036707
 30
0.0
 11
89.6549146805
 21
173.3186032358
 31
0.0
  0
LINE
  5
1EF
330
1F
100
AcDbEntity
  8
RIQUADRO
100
AcDbLine
 10
89.3049143437
 20
165.3186036707
 30
0.0
 11
89.6549146805
 21
165.3186036707
 31
0.0
  0
LINE
  5
1F0
330
1F
100
AcDbEntity
  8
RIQUADRO
100
AcDbLine
 10
85.6549140248
 20
165.3186036707
 30
0.0
 11
86.0049143616
 21
165.3186036707
 31
0.0
  0
LINE
  5
1F1
330
1F
100
AcDbEntity
  8
RIQUADRO
100
AcDbLine
 10
86.0049128532
 20
165.3186036707
 30
0.0
 11
89.3049143437
 21
165.3186036707
 31
0.0
  0
LINE
  5
1F2
330
1F
100
AcDbEntity
  8
RIQUADRO
100
AcDbLine
 10
85.6549140248
 20
173.3186032358
 30
0.0
 11
85.6549140248
 21
165.3186036707
 31
0.0
  0
LINE
  5
1F3
330
1F
100
AcDbEntity
  8
RIQUADRO
100
AcDbLine
 10
89.6549146805
 20
165.3186036707
 30
0.0
 11
89.6549146805
 21
173.3186032358
 31
0.0
  0
LINE
  5
1F4
330
1F
100
AcDbEntity
  8
RIQUADRO
100
AcDbLine
 10
89.3049143437
 20
165.3186036707
 30
0.0
 11
89.6549146805
 21
165.3186036707
 31
0.0
  0
LINE
  5
1F5
330
1F
100
AcDbEntity
  8
RIQUADRO
100
AcDbLine
 10
85.6549140248
 20
165.3186036707
 30
0.0
 11
86.0049143616
 21
165.3186036707
 31
0.0
  0
LINE
  5
1F6
330
1F
100
AcDbEntity
  8
RIQUADRO
100
AcDbLine
 10
46.9049155894
 20
134.3186041774
 30
0.0
 11
46.9049155894
 21
142.3186017634
 31
0.0
  0
LINE
  5
1F7
330
1F
100
AcDbEntity
  8
RIQUADRO
100
AcDbLine
 10
42.9049149338
 20
142.3186017634
 30
0.0
 11
42.9049149338
 21
134.3186041774
 31
0.0
  0
LINE
  5
1F8
330
1F
100
AcDbEntity
  8
RIQUADRO
100
AcDbLine
 10
43.2549152706
 20
142.3186017634
 30
0.0
 11
42.9049149338
 21
142.3186017634
 31
0.0
  0
LINE
  5
1F9
330
1F
100
AcDbEntity
  8
RIQUADRO
100
AcDbLine
 10
46.9049155894
 20
142.3186017634
 30
0.0
 11
46.5549152527
 21
142.3186017634
 31
0.0
  0
LINE
  5
1FA
330
1F
100
AcDbEntity
  8
RIQUADRO
100
AcDbLine
 10
46.5548932552
 20
142.3186017634
 30
0.0
 11
43.2549152706
 21
142.3186017634
 31
0.0
  0
LINE
  5
1FB
330
1F
100
AcDbEntity
  8
RIQUADRO
  6
CENTERX2
 62
     7
100
AcDbLine
 10
87.6454774915
 20
191.8265234622
 30
0.0
 11
87.6454774915
 21
179.0682472601
 31
0.0
  0
LINE
  5
1FC
330
1F
100
AcDbEntity
  8
RIQUADRO
  6
CENTERX2
 62
     7
100
AcDbLine
 10
87.6549148146
 20
161.8186032833
 30
0.0
 11
87.6549148146
 21
158.8271832619
 31
0.0
  0
LINE
  5
1FD
330
1F
100
AcDbEntity
  8
RIQUADRO
  6
CENTERX2
 62
     7
100
AcDbLine
 10
87.6549148146
 20
161.8186032833
 30
0.0
 11
87.6549148146
 21
182.3186032833
 31
0.0
  0
LINE
  5
1FE
330
1F
100
AcDbEntity
  8
RIQUADRO
  6
CENTERX2
 62
     7
100
AcDbLine
 10
52.9049148146
 20
139.8186032833
 30
0.0
 11
52.9049148146
 21
132.3186032833
 31
0.0
  0
LINE
  5
1FF
330
1F
100
AcDbEntity
  8
RIQUADRO
  6
CENTERX2
 62
     7
100
AcDbLine
 10
52.9049148146
 20
139.8186032833
 30
0.0
 11
52.9049148146
 21
148.8100233047
 31
0.0
  0
LINE
  5
200
330
1F
100
AcDbEntity
  8
RIQUADRO
  6
CENTERX2
 62
     7
100
AcDbLine
 10
44.9049148146
 20
147.8186032833
 30
0.0
 11
44.9049148146
 21
132.3186032833
 31
0.0
  0
LINE
  5
201
330
1F
100
AcDbEntity
  8
0
  6
Continuous
 62
     7
100
AcDbLine
 10
38.4049151275
 20
217.9737524498
 30
0.0
 11
38.9049142781
 21
217.4737514365
 31
0.0
  0
LINE
  5
202
330
1F
100
AcDbEntity
  8
0
  6
Continuous
 62
     7
100
AcDbLine
 10
38.4049151275
 20
217.9737524498
 30
0.0
 11
38.4049151275
 21
236.9737537015
 31
0.0
  0
LINE
  5
203
330
1F
100
AcDbEntity
  8
0
  6
Continuous
 62
     7
100
AcDbLine
 10
38.9049142781
 20
237.4737547148
 30
0.0
 11
38.4049151275
 21
236.9737537015
 31
0.0
  0
LINE
  5
204
330
1F
100
AcDbEntity
  8
0
  6
Continuous
 62
     7
100
AcDbLine
 10
38.9049142781
 20
237.4737547148
 30
0.0
 11
90.904915351
 21
237.4737547148
 31
0.0
  0
LINE
  5
205
330
1F
100
AcDbEntity
  8
0
  6
Continuous
 62
     7
100
AcDbLine
 10
91.4049145017
 20
236.9737537015
 30
0.0
 11
90.904915351
 21
237.4737547148
 31
0.0
  0
LINE
  5
206
330
1F
100
AcDbEntity
  8
0
  6
Continuous
 62
     7
100
AcDbLine
 10
90.904915351
 20
217.4737514365
 30
0.0
 11
91.4049145017
 21
217.9737524498
 31
0.0
  0
LINE
  5
207
330
1F
100
AcDbEntity
  8
0
  6
Continuous
 62
     7
100
AcDbLine
 10
38.9049142781
 20
217.4737514365
 30
0.0
 11
90.904915351
 21
217.4737514365
 31
0.0
  0
CIRCLE
  5
208
330
1F
100
AcDbEntity
  8
0
  6
Continuous
 62
     7
100
AcDbCircle
 10
76.9049148146
 20
227.4737539519
 30
0.0
 40
2.0
  0
CIRCLE
  5
209
330
1F
100
AcDbEntity
  8
0
  6
Continuous
 62
     7
100
AcDbCircle
 10
52.9049148146
 20
227.4737539519
 30
0.0
 40
2.0
  0
CIRCLE
  5
20A
330
1F
100
AcDbEntity
  8
0
  6
Continuous
 62
     7
100
AcDbCircle
 10
84.9049148146
 20
227.4737539519
 30
0.0
 40
1.649999999999977
  0
CIRCLE
  5
20B
330
1F
100
AcDbEntity
  8
0
  6
Continuous
 62
     7
100
AcDbCircle
 10
44.9049148146
 20
227.4737539519
 30
0.0
 40
1.649999999999977
  0
LINE
  5
20C
330
1F
100
AcDbEntity
  8
0
  6
Continuous
 62
     7
100
AcDbLine
 10
91.4049145017
 20
217.9737524498
 30
0.0
 11
91.4049145017
 21
236.9737537015
 31
0.0
  0
LINE
  5
20D
330
1F
100
AcDbEntity
  8
RIQUADRO
100
AcDbLine
 10
64.9049148146
 20
210.7631010547
 30
0.0
 11
64.9049148146
 21
245.6971482533
 31
0.0
  0
DIMENSION
  5
20E
330
1F
100
AcDbEntity
  8
RIQUADRO
100
AcDbDimension
280
     0
  2
_D_6
 10
64.9049148146
 20
211.5639171096
 30
0.0
 11
73.689247501
 21
211.5639171096
 31
0.0
 70
   160
  1
<>
 71
     5
 42
-1.0
 73
     0
 74
     0
 75
     0
  3
SLDDIMSTYLE1
100
AcDbAlignedDimension
 13
84.9049148146
 23
227.4737539519
 33
0.0
 14
64.9049148146
 24
210.7631010547
 34
0.0
100
AcDbRotatedDimension
  0
DIMENSION
  5
217
330
1F
100
AcDbEntity
  8
RIQUADRO
100
AcDbDimension
280
     0
  2
_D_7
 10
64.9049148146
 20
242.9747295072
 30
0.0
 11
58.9385818181
 21
242.9747295072
 31
0.0
 70
   160
  1
<>
 71
     5
 42
-1.0
 73
     0
 74
     0
 75
     0
  3
SLDDIMSTYLE1
100
AcDbAlignedDimension
 13
52.9049148146
 23
228.9737539519
 33
0.0
 14
64.9049148146
 24
245.6971482533
 34
0.0
100
AcDbRotatedDimension
  0
DIMENSION
  5
220
330
1F
100
AcDbEntity
  8
RIQUADRO
100
AcDbDimension
280
     0
  2
_D_8
 10
91.4049148146
 20
255.6949712687
 30
0.0
 11
65.1118602277
 21
255.6949712687
 31
0.0
 70
   160
  1
<>
 71
     5
 42
-1.0
 73
     0
 74
     0
 75
     0
  3
SLDDIMSTYLE1
100
AcDbAlignedDimension
 13
38.4049148146
 23
236.9737539519
 33
0.0
 14
91.4049148146
 24
236.9737539519
 34
0.0
100
AcDbRotatedDimension
  0
DIMENSION
  5
22A
330
1F
100
AcDbEntity
  8
RIQUADRO
100
AcDbDimension
280
     0
  2
_D_9
 10
84.9049148146
 20
205.5284156838
 30
0.0
 11
64.2183823867
 21
205.5284156838
 31
0.0
 70
   160
  1
<>
 71
     5
 42
-1.0
 73
     0
 74
     0
 75
     0
  3
SLDDIMSTYLE1
100
AcDbAlignedDimension
 13
44.9049148146
 23
227.4737539519
 33
0.0
 14
84.9049148146
 24
227.4737539519
 34
0.0
100
AcDbRotatedDimension
  0
DIMENSION
  5
234
330
1F
100
AcDbEntity
  8
RIQUADRO
100
AcDbDimension
280
     0
  2
_D_10
 10
76.9049148146
 20
250.5281574797
 30
0.0
 11
65.4129486516
 21
250.5281574797
 31
0.0
 70
   160
  1
<>
 71
     5
 42
-1.0
 73
     0
 74
     0
 75
     0
  3
SLDDIMSTYLE3
100
AcDbAlignedDimension
 13
52.9049148146
 23
228.9737539519
 33
0.0
 14
76.9049148146
 24
228.9737539519
 34
0.0
100
AcDbRotatedDimension
  0
INSERT
  5
245
330
1F
100
AcDbEntity
  8
RIQUADRO
100
AcDbBlockReference
  2
SW_NOTE_10
 10
112.1030624264
 20
252.7679623086
 30
0.0
  0
LEADER
  5
247
330
1F
100
AcDbEntity
  8
RIQUADRO
100
AcDbLeader
  3
SLDDIMSTYLE4
 76
     2
 10
44.8554894333
 20
229.4731431415
 30
0.0
 10
112.1030624264
 20
252.7679623086
 30
0.0
1001
ACAD
1000
DSTYLE
1002
{
1070
   341
1005
0
1070
     6
1000

1002
}
  0
LEADER
  5
248
330
1F
100
AcDbEntity
  8
RIQUADRO
100
AcDbLeader
  3
SLDDIMSTYLE4
 76
     2
 10
86.2453030428
 20
228.95812567
 30
0.0
 10
112.1030624264
 20
252.7679623086
 30
0.0
1001
ACAD
1000
DSTYLE
1002
{
1070
   341
1005
0
1070
     6
1000

1002
}
  0
INSERT
  5
24F
330
1F
100
AcDbEntity
  8
RIQUADRO
100
AcDbBlockReference
  2
SW_NOTE_11
 10
98.2043580683
 20
214.1342756184
 30
0.0
  0
LEADER
  5
250
330
1F
100
AcDbEntity
  8
RIQUADRO
100
AcDbLeader
  3
SLDDIMSTYLE4
 76
     2
 10
53.9491229005
 20
225.9752196837
 30
0.0
 10
98.2043580683
 20
214.1342756184
 30
0.0
1001
ACAD
1000
DSTYLE
1002
{
1070
   341
1005
0
1070
     6
1000

1002
}
  0
LEADER
  5
251
330
1F
100
AcDbEntity
  8
RIQUADRO
100
AcDbLeader
  3
SLDDIMSTYLE4
 76
     2
 10
78.3883547754
 20
226.1323345981
 30
0.0
 10
98.2043580683
 20
214.1342756184
 30
0.0
1001
ACAD
1000
DSTYLE
1002
{
1070
   341
1005
0
1070
     6
1000

1002
}
  0
INSERT
  5
259
330
1F
100
AcDbEntity
  8
RIQUADRO
100
AcDbBlockReference
  2
SW_CENTERMARKSYMBOL_0
 10
44.9049148146
 20
227.4737539519
 30
0.0
  0
INSERT
  5
261
330
1F
100
AcDbEntity
  8
RIQUADRO
100
AcDbBlockReference
  2
SW_CENTERMARKSYMBOL_1
 10
52.9049148146
 20
227.4737539519
 30
0.0
  0
INSERT
  5
269
330
1F
100
AcDbEntity
  8
RIQUADRO
100
AcDbBlockReference
  2
SW_CENTERMARKSYMBOL_2
 10
76.9049148146
 20
227.4737539519
 30
0.0
  0
INSERT
  5
271
330
1F
100
AcDbEntity
  8
RIQUADRO
100
AcDbBlockReference
  2
SW_CENTERMARKSYMBOL_3
 10
84.9049148146
 20
227.4737539519
 30
0.0
  0
ARC
  5
272
330
1F
100
AcDbEntity
  8
RIQUADRO
100
AcDbCircle
 10
84.9049148146
 20
227.4737539519
 30
0.0
 40
1.999999880792753
100
AcDbArc
 50
255.0
 51
195.0
  0
ARC
  5
273
330
1F
100
AcDbEntity
  8
RIQUADRO
100
AcDbCircle
 10
44.9049148146
 20
227.4737539519
 30
0.0
 40
2.000000774862413
100
AcDbArc
 50
255.0
 51
195.0
  0
LINE
  5
274
330
1F
100
AcDbEntity
  8
0
  6
Continuous
 62
     7
100
AcDbLine
 10
91.3860403184
 20
109.3861108738
 30
0.0
 11
38.4237893108
 21
109.3861108738
 31
0.0
  0
LINE
  5
275
330
1F
100
AcDbEntity
  8
0
  6
Continuous
 62
     7
100
AcDbLine
 10
38.4237893108
 20
109.3861108738
 30
0.0
 11
38.9241535399
 21
109.8861118871
 31
0.0
  0
LINE
  5
276
330
1F
100
AcDbEntity
  8
0
  6
Continuous
 62
     7
100
AcDbLine
 10
38.9241535399
 20
109.8861118871
 30
0.0
 11
90.8856760893
 21
109.8861118871
 31
0.0
  0
LINE
  5
277
330
1F
100
AcDbEntity
  8
0
  6
Continuous
 62
     7
100
AcDbLine
 10
90.8856760893
 20
109.8861118871
 30
0.0
 11
91.3860403184
 21
109.3861108738
 31
0.0
  0
LINE
  5
278
330
1F
100
AcDbEntity
  8
0
  6
Continuous
 62
     7
100
AcDbLine
 10
38.4237893108
 20
90.3861096221
 30
0.0
 11
91.3860403184
 21
90.3861096221
 31
0.0
  0
LINE
  5
279
330
1F
100
AcDbEntity
  8
0
  6
Continuous
 62
     7
100
AcDbLine
 10
38.4237893108
 20
109.3861108738
 30
0.0
 11
38.4237893108
 21
90.3861096221
 31
0.0
  0
LINE
  5
27A
330
1F
100
AcDbEntity
  8
0
  6
Continuous
 62
     7
100
AcDbLine
 10
91.3860403184
 20
109.3861108738
 30
0.0
 11
91.3860403184
 21
90.3861096221
 31
0.0
  0
LINE
  5
27B
330
1F
100
AcDbEntity
  8
0
  6
Continuous
 62
     7
100
AcDbLine
 10
83.6454775367
 20
94.886111291
 30
0.0
 11
83.6454775367
 21
104.8861092048
 31
0.0
  0
SPLINE
  5
27C
330
1F
100
AcDbEntity
  8
0
  6
Continuous
 62
     7
100
AcDbSpline
210
0.0
220
0.0
230
1.0
 70
     8
 71
     3
 72
    17
 73
    13
 74
     0
 42
0.00000001
 43
0.00000001
 12
1.0
 22
0.0
 32
0.0
 13
1.0
 23
0.0
 33
0.0
 40
0.0
 40
0.0
 40
0.0
 40
0.0
 40
0.1884801808433495
 40
0.3765326395138667
 40
0.4795688939450106
 40
0.5824778150285883
 40
0.665884610545069
 40
0.749173514321017
 40
0.8139305094827036
 40
0.8786292326031313
 40
0.9393263102684157
 40
1.0
 40
1.0
 40
1.0
 40
1.0
 10
87.64547819232301
 20
90.88611063535281
 30
0.0
 10
87.3642317834018
 20
90.90170784002328
 30
0.0
 10
86.80237720415077
 20
90.93286685428848
 30
0.0
 10
86.01337946973864
 20
91.20450523822072
 30
0.0
 10
85.36040415268579
 20
91.58358693527282
 30
0.0
 10
84.89081298679368
 20
91.9642719670672
 30
0.0
 10
84.48123809654714
 20
92.41640364744958
 30
0.0
 10
84.16751009635165
 20
92.88364336745875
 30
0.0
 10
83.92919537477893
 20
93.37798079162599
 30
0.0
 10
83.76737215147953
 20
93.86393903255347
 30
0.0
 10
83.66528209038744
 20
94.37235476183716
 30
0.0
 10
83.65207820645534
 20
94.71488111602393
 30
0.0
 10
83.64547753667192
 20
94.88611129100391
 30
0.0
  0
LINE
  5
27D
330
1F
100
AcDbEntity
  8
0
  6
Continuous
 62
     7
100
AcDbLine
 10
90.7167341742
 20
90.8861106354
 30
0.0
 11
87.6454781923
 21
90.8861106354
 31
0.0
  0
LINE
  5
27E
330
1F
100
AcDbEntity
  8
0
  6
Continuous
 62
     7
100
AcDbLine
 10
90.7167341742
 20
90.8861106354
 30
0.0
 11
90.7167341742
 21
108.8861098605
 31
0.0
  0
LINE
  5
27F
330
1F
100
AcDbEntity
  8
0
  6
Continuous
 62
     7
100
AcDbLine
 10
87.6454781923
 20
108.8861098605
 30
0.0
 11
90.7167341742
 21
108.8861098605
 31
0.0
  0
SPLINE
  5
280
330
1F
100
AcDbEntity
  8
0
  6
Continuous
 62
     7
100
AcDbSpline
210
0.0
220
0.0
230
1.0
 70
     8
 71
     3
 72
    17
 73
    13
 74
     0
 42
0.00000001
 43
0.00000001
 12
1.0
 22
0.0
 32
0.0
 13
1.0
 23
0.0
 33
0.0
 40
0.0
 40
0.0
 40
0.0
 40
0.0
 40
0.0620628136160952
 40
0.124150802320582
 40
0.1859054261699933
 40
0.2477078686036032
 40
0.3312744952590288
 40
0.4149623407979717
 40
0.5352699467599191
 40
0.6558015314908864
 40
0.8277613916953501
 40
1.0
 40
1.0
 40
1.0
 40
1.0
 10
83.64547753667192
 20
104.8861092048413
 30
0.0
 10
83.6523918591232
 20
105.0612706507669
 30
0.0
 10
83.66622330874354
 20
105.4116645949057
 30
0.0
 10
83.77050610799691
 20
105.9189247703103
 30
0.0
 10
83.92943608608842
 20
106.3924037098568
 30
0.0
 10
84.1600998585162
 20
106.8748623109495
 30
0.0
 10
84.46888529986708
 20
107.3401692487909
 30
0.0
 10
84.90459599313175
 20
107.8255287307304
 30
0.0
 10
85.4338820785058
 20
108.2447204659275
 30
0.0
 10
86.11920936370899
 20
108.6108759252608
 30
0.0
 10
86.87700035350879
 20
108.846788911096
 30
0.0
 10
87.38918065015785
 20
108.872995802836
 30
0.0
 10
87.64547819232301
 20
108.8861098604924
 30
0.0
  0
LINE
  5
281
330
1F
100
AcDbEntity
  8
0
  6
Continuous
 62
     7
100
AcDbLine
 10
46.1643520925
 20
104.8861092048
 30
0.0
 11
46.1643520925
 21
94.886111291
 31
0.0
  0
SPLINE
  5
282
330
1F
100
AcDbEntity
  8
0
  6
Continuous
 62
     7
100
AcDbSpline
210
0.0
220
0.0
230
1.0
 70
     8
 71
     3
 72
    17
 73
    13
 74
     0
 42
0.00000001
 43
0.00000001
 12
1.0
 22
0.0
 32
0.0
 13
1.0
 23
0.0
 33
0.0
 40
0.0
 40
0.0
 40
0.0
 40
0.0
 40
0.1884802018585797
 40
0.3765326814966369
 40
0.4795689474161537
 40
0.5824782935391266
 40
0.6658845732917524
 40
0.7491734863542763
 40
0.8139304887362613
 40
0.8786292190704903
 40
0.939326303503399
 40
1.0
 40
1.0
 40
1.0
 40
1.0
 10
42.16435143684702
 20
108.8861098604924
 30
0.0
 10
42.4455979013235
 20
108.8705128011152
 30
0.0
 10
43.00745259155899
 20
108.8393540771067
 30
0.0
 10
43.79644962015948
 20
108.5677138472711
 30
0.0
 10
44.44942719745207
 20
108.1886358709636
 30
0.0
 10
44.91901350344997
 20
107.8079385959316
 30
0.0
 10
45.32859326520959
 20
107.3558179917077
 30
0.0
 10
45.64231932620257
 20
106.8885766824651
 30
0.0
 10
45.8806343038161
 20
106.394239810889
 30
0.0
 10
46.04245746542212
 20
105.9082814368139
 30
0.0
 10
46.14454754176636
 20
105.3998657404476
 30
0.0
 10
46.15775142370915
 20
105.0573393819676
 30
0.0
 10
46.16435209249811
 20
104.8861092048413
 30
0.0
  0
LINE
  5
283
330
1F
100
AcDbEntity
  8
0
  6
Continuous
 62
     7
100
AcDbLine
 10
39.0930954549
 20
108.8861098605
 30
0.0
 11
42.1643514368
 21
108.8861098605
 31
0.0
  0
LINE
  5
284
330
1F
100
AcDbEntity
  8
0
  6
Continuous
 62
     7
100
AcDbLine
 10
39.0930954549
 20
108.8861098605
 30
0.0
 11
39.0930954549
 21
90.8861106354
 31
0.0
  0
LINE
  5
285
330
1F
100
AcDbEntity
  8
0
  6
Continuous
 62
     7
100
AcDbLine
 10
42.1643514368
 20
90.8861106354
 30
0.0
 11
39.0930954549
 21
90.8861106354
 31
0.0
  0
SPLINE
  5
286
330
1F
100
AcDbEntity
  8
0
  6
Continuous
 62
     7
100
AcDbSpline
210
0.0
220
0.0
230
1.0
 70
     8
 71
     3
 72
    17
 73
    13
 74
     0
 42
0.00000001
 43
0.00000001
 12
1.0
 22
0.0
 32
0.0
 13
1.0
 23
0.0
 33
0.0
 40
0.0
 40
0.0
 40
0.0
 40
0.0
 40
0.0620627902633755
 40
0.1241516038939938
 40
0.1859054097293278
 40
0.2477085551719406
 40
0.3312751503832873
 40
0.4149624359923593
 40
0.5352704036333705
 40
0.6558016610043563
 40
0.8277614565045281
 40
1.0
 40
1.0
 40
1.0
 40
1.0
 10
46.16435209249811
 20
94.8861112910039
 30
0.0
 10
46.15743749409459
 20
94.71094997982023
 30
0.0
 10
46.1436053979475
 20
94.36055391107529
 30
0.0
 10
46.03932613168978
 20
93.85329169015945
 30
0.0
 10
45.88039040726071
 20
93.37981436576712
 30
0.0
 10
45.64973199736496
 20
92.89735131332773
 30
0.0
 10
45.34094561053193
 20
92.43204308789689
 30
0.0
 10
44.90523048074557
 20
91.9466946570332
 30
0.0
 10
44.37595025330847
 20
91.52748802664532
 30
0.0
 10
43.69061862919315
 20
91.16134911433689
 30
0.0
 10
42.93282961226235
 20
90.9254302437225
 30
0.0
 10
42.42064909127311
 20
90.89922424575906
 30
0.0
 10
42.16435143684702
 20
90.88611063535281
 30
0.0
  0
LINE
  5
287
330
1F
100
AcDbEntity
  8
0
  6
Continuous
 62
     7
100
AcDbLine
 10
90.8856760893
 20
89.8861086088
 30
0.0
 11
38.9241535399
 21
89.8861086088
 31
0.0
  0
LINE
  5
288
330
1F
100
AcDbEntity
  8
0
  6
Continuous
 62
     7
100
AcDbLine
 10
38.9241535399
 20
89.8861086088
 30
0.0
 11
38.4237893108
 21
90.3861096221
 31
0.0
  0
LINE
  5
289
330
1F
100
AcDbEntity
  8
0
  6
Continuous
 62
     7
100
AcDbLine
 10
91.3860403184
 20
90.3861096221
 30
0.0
 11
90.8856760893
 21
89.8861086088
 31
0.0
  0
CIRCLE
  5
28A
330
1F
100
AcDbEntity
  8
0
  6
Continuous
 62
     7
100
AcDbCircle
 10
87.6549148146
 20
94.8861093717
 30
0.0
 40
2.249999999999986
  0
CIRCLE
  5
28B
330
1F
100
AcDbEntity
  8
0
  6
Continuous
 62
     7
100
AcDbCircle
 10
87.6549148146
 20
104.8861093717
 30
0.0
 40
2.25
  0
CIRCLE
  5
28C
330
1F
100
AcDbEntity
  8
0
  6
Continuous
 62
     7
100
AcDbCircle
 10
42.1549148146
 20
94.8861093717
 30
0.0
 40
2.249999999999986
  0
CIRCLE
  5
28D
330
1F
100
AcDbEntity
  8
0
  6
Continuous
 62
     7
100
AcDbCircle
 10
42.1549148146
 20
104.8861093717
 30
0.0
 40
2.25
  0
LINE
  5
28E
330
1F
100
AcDbEntity
  8
0
  6
Continuous
 62
     7
100
AcDbLine
 10
91.3860403184
 20
90.3861096221
 30
0.0
 11
91.4049145017
 21
90.3861096221
 31
0.0
  0
LINE
  5
28F
330
1F
100
AcDbEntity
  8
0
  6
Continuous
 62
     7
100
AcDbLine
 10
91.4049145017
 20
109.3861108738
 30
0.0
 11
91.3860403184
 21
109.3861108738
 31
0.0
  0
LINE
  5
290
330
1F
100
AcDbEntity
  8
0
  6
Continuous
 62
     7
100
AcDbLine
 10
91.4049145017
 20
109.3861108738
 30
0.0
 11
91.4049145017
 21
90.3861096221
 31
0.0
  0
CIRCLE
  5
291
330
1F
100
AcDbEntity
  8
0
  6
Continuous
 62
     7
100
AcDbCircle
 10
87.6549148146
 20
94.8861093717
 30
0.0
 40
1.649999999999991
  0
CIRCLE
  5
292
330
1F
100
AcDbEntity
  8
0
  6
Continuous
 62
     7
100
AcDbCircle
 10
87.6549148146
 20
104.8861093717
 30
0.0
 40
1.649999999999991
  0
LINE
  5
293
330
1F
100
AcDbEntity
  8
0
  6
Continuous
 62
     7
100
AcDbLine
 10
38.9241535399
 20
89.8861086088
 30
0.0
 11
38.9049142781
 21
89.8861086088
 31
0.0
  0
LINE
  5
294
330
1F
100
AcDbEntity
  8
0
  6
Continuous
 62
     7
100
AcDbLine
 10
38.4049151275
 20
90.3861096221
 30
0.0
 11
38.9049142781
 21
89.8861086088
 31
0.0
  0
LINE
  5
295
330
1F
100
AcDbEntity
  8
0
  6
Continuous
 62
     7
100
AcDbLine
 10
38.4049151275
 20
109.3861108738
 30
0.0
 11
38.4049151275
 21
90.3861096221
 31
0.0
  0
LINE
  5
296
330
1F
100
AcDbEntity
  8
0
  6
Continuous
 62
     7
100
AcDbLine
 10
38.9049142781
 20
109.8861118871
 30
0.0
 11
38.4049151275
 21
109.3861108738
 31
0.0
  0
LINE
  5
297
330
1F
100
AcDbEntity
  8
0
  6
Continuous
 62
     7
100
AcDbLine
 10
38.9241535399
 20
109.8861118871
 30
0.0
 11
38.9049142781
 21
109.8861118871
 31
0.0
  0
CIRCLE
  5
298
330
1F
100
AcDbEntity
  8
0
  6
Continuous
 62
     7
100
AcDbCircle
 10
42.1549148146
 20
104.8861093717
 30
0.0
 40
1.650000000000006
  0
CIRCLE
  5
299
330
1F
100
AcDbEntity
  8
0
  6
Continuous
 62
     7
100
AcDbCircle
 10
42.1549148146
 20
94.8861093717
 30
0.0
 40
1.650000000000006
  0
LINE
  5
29A
330
1F
100
AcDbEntity
  8
0
  6
Continuous
 62
     7
100
AcDbLine
 10
90.8856760893
 20
109.8861118871
 30
0.0
 11
90.904915351
 21
109.8861118871
 31
0.0
  0
LINE
  5
29B
330
1F
100
AcDbEntity
  8
0
  6
Continuous
 62
     7
100
AcDbLine
 10
91.4049145017
 20
109.3861108738
 30
0.0
 11
90.904915351
 21
109.8861118871
 31
0.0
  0
LINE
  5
29C
330
1F
100
AcDbEntity
  8
0
  6
Continuous
 62
     7
100
AcDbLine
 10
90.904915351
 20
89.8861086088
 30
0.0
 11
90.8856760893
 21
89.8861086088
 31
0.0
  0
LINE
  5
29D
330
1F
100
AcDbEntity
  8
0
  6
Continuous
 62
     7
100
AcDbLine
 10
90.904915351
 20
89.8861086088
 30
0.0
 11
91.4049145017
 21
90.3861096221
 31
0.0
  0
LINE
  5
29E
330
1F
100
AcDbEntity
  8
RIQUADRO
100
AcDbLine
 10
93.6743178107
 20
99.8861093717
 30
0.0
 11
78.9304988014
 21
99.8861093717
 31
0.0
  0
DIMENSION
  5
29F
330
1F
100
AcDbEntity
  8
RIQUADRO
100
AcDbDimension
280
     0
  2
_D_11
 10
115.0932195063
 20
89.8861093717
 30
0.0
 11
115.0932195063
 21
99.670320373
 31
0.0
 70
   160
  1
<>
 71
     5
 42
-1.0
 73
     0
 74
     0
 75
     0
  3
SLDDIMSTYLE1
100
AcDbAlignedDimension
 13
90.8856769281
 23
109.8861093717
 33
0.0
 14
90.8856769281
 24
89.8861093717
 34
0.0
 50
90.0
100
AcDbRotatedDimension
  0
INSERT
  5
2B0
330
1F
100
AcDbEntity
  8
RIQUADRO
100
AcDbBlockReference
  2
SW_CENTERMARKSYMBOL_4
 10
87.6549148146
 20
104.8861093717
 30
0.0
  0
INSERT
  5
2B8
330
1F
100
AcDbEntity
  8
RIQUADRO
100
AcDbBlockReference
  2
SW_CENTERMARKSYMBOL_5
 10
87.6549148146
 20
94.8861093717
 30
0.0
  0
INSERT
  5
2C0
330
1F
100
AcDbEntity
  8
RIQUADRO
100
AcDbBlockReference
  2
SW_CENTERMARKSYMBOL_6
 10
42.1549148146
 20
94.8861093717
 30
0.0
  0
INSERT
  5
2C8
330
1F
100
AcDbEntity
  8
RIQUADRO
100
AcDbBlockReference
  2
SW_CENTERMARKSYMBOL_7
 10
42.1549148146
 20
104.8861093717
 30
0.0
  0
ARC
  5
2C9
330
1F
100
AcDbEntity
  8
RIQUADRO
100
AcDbCircle
 10
87.6549148146
 20
94.8861093717
 30
0.0
 40
1.999999865890475
100
AcDbArc
 50
255.0
 51
195.0
  0
ARC
  5
2CA
330
1F
100
AcDbEntity
  8
RIQUADRO
100
AcDbCircle
 10
87.6549148146
 20
104.8861093717
 30
0.0
 40
1.999999865889586
100
AcDbArc
 50
255.0
 51
195.0
  0
ARC
  5
2CB
330
1F
100
AcDbEntity
  8
RIQUADRO
100
AcDbCircle
 10
42.1549148146
 20
104.8861093717
 30
0.0
 40
2.000000789761549
100
AcDbArc
 50
255.0
 51
195.0
  0
ARC
  5
2CC
330
1F
100
AcDbEntity
  8
RIQUADRO
100
AcDbCircle
 10
42.1549148146
 20
94.8861093717
 30
0.0
 40
2.000000789762451
100
AcDbArc
 50
255.0
 51
195.0
  0
LINE
  5
2CD
330
1F
100
AcDbEntity
  8
0
  6
Continuous
 62
     7
100
AcDbLine
 10
173.3575711039
 20
195.2467234447
 30
0.0
 11
159.9225413762
 21
203.002601018
 31
0.0
  0
LINE
  5
2CE
330
1F
100
AcDbEntity
  8
0
  6
Continuous
 62
     7
100
AcDbLine
 10
146.670572138
 20
201.6888784477
 30
0.0
 11
146.3170754934
 21
201.4847443493
 31
0.0
  0
LWPOLYLINE
  5
2CF
330
1F
100
AcDbEntity
  8
0
  6
Continuous
 62
     7
100
AcDbPolyline
 90
       45
 70
   128
 43
0.0
 10
141.3836639541
 20
162.3032657629
 10
141.478342898
 20
163.8614967693
 10
141.6634518567
 20
165.4606705022
 10
141.9380925754
 20
167.0930243358
 10
142.3009308429
 20
168.7506351323
 10
142.7502070284
 20
170.425456219
 10
143.2837400325
 20
172.109359973
 10
143.8989391409
 20
173.7941716612
 10
144.592818513
 20
175.4717127857
 10
145.3620116693
 20
177.1338421464
 10
146.202782028
 20
178.7724900617
 10
147.1110518818
 20
180.3797039935
 10
148.0824102994
 20
181.9476827668
 10
149.1121427608
 20
183.4688149707
 10
150.1952515716
 20
184.9357165992
 10
151.3264795711
 20
186.3412690722
 10
152.5003351566
 20
187.6786488913
 10
153.711120601
 20
188.941363759
 10
154.9529597116
 20
190.1232867969
 10
156.2198238429
 20
191.2186791671
 10
157.5055638354
 20
192.2222252407
 10
158.8039391567
 20
193.1290524619
 10
160.1086473713
 20
193.9347590074
 10
161.4133555859
 20
194.6354365022
 10
162.7117309072
 20
195.2276815183
 10
163.9974708996
 20
195.7086192419
 10
165.2643350309
 20
196.0759170634
 10
166.5061741416
 20
196.3277909435
 10
167.716959586
 20
196.4630191938
 10
168.8908151714
 20
196.4809441852
 10
170.0220431709
 20
196.3814797595
 10
171.1051519817
 20
196.1651089458
 10
172.1348844431
 20
195.8328805352
 10
173.1062428607
 20
195.386408319
 10
174.0145127145
 20
194.8278604389
 10
174.8552830733
 20
194.1599453171
 10
175.6244762295
 20
193.385907471
 10
176.3183556016
 20
192.509502417
 10
176.9335547101
 20
191.5349845003
 10
177.4670877141
 20
190.4670848408
 10
177.9163638996
 20
189.3109869966
 10
178.2792021672
 20
188.0723003467
 10
178.5538428859
 20
186.7570399374
 10
178.7389518445
 20
185.3715884589
 10
178.8336307884
 20
183.9226714344
  0
LINE
  5
2D0
330
1F
100
AcDbEntity
  8
0
  6
Continuous
 62
     7
100
AcDbLine
 10
178.8336307884
 20
183.9226714344
 30
0.0
 11
178.8333739561
 21
183.5143182851
 31
0.0
  0
LWPOLYLINE
  5
2D1
330
1F
100
AcDbEntity
  8
0
  6
Continuous
 62
     7
100
AcDbPolyline
 90
       44
 70
   128
 43
0.0
 10
178.8333739561
 20
183.5143182851
 10
178.7363822039
 20
184.9669403117
 10
178.5466041646
 20
186.354192434
 10
178.2650052647
 20
187.6690318196
 10
177.8930132284
 20
188.90478128
 10
177.4325193958
 20
190.05516834
 10
176.8858602826
 20
191.1143505242
 10
176.2558109955
 20
192.0769495785
 10
175.5455720607
 20
192.9380792286
 10
174.758748351
 20
193.693367235
 10
173.8993345971
 20
194.3389774482
 10
172.9716969494
 20
194.8716326237
 10
171.9805426839
 20
195.288628114
 10
170.9309043977
 20
195.5878470784
 10
169.8281136671
 20
195.767769612
 10
168.677767462
 20
195.8274822537
 10
167.4857083893
 20
195.7666833121
 10
166.2579878143
 20
195.5856783057
 10
165.0008398487
 20
195.2853892811
 10
163.7206471059
 20
194.8673411279
 10
162.4239102433
 20
194.3336531216
 10
161.1172130185
 20
193.6870385226
 10
159.8071899382
 20
192.9307782958
 10
158.5004927134
 20
192.0687123922
 10
157.2037558508
 20
191.1052198854
 10
155.923563108
 20
190.0451889595
 10
154.6664151424
 20
188.8940058385
 10
153.4386945675
 20
187.6575148413
 10
152.2466354947
 20
186.3419916733
 10
151.0962892896
 20
184.9541175739
 10
149.9934985591
 20
183.5009399648
 10
148.9438602729
 20
181.9898344309
 10
147.9527060073
 20
180.4284765841
 10
147.0250683596
 20
178.8247937779
 10
146.1656546058
 20
177.1869255654
 10
145.378830896
 20
175.5231902405
 10
144.6685919612
 20
173.842036171
 10
144.0385426741
 20
172.1519976938
 10
143.4918835609
 20
170.4616563322
 10
143.0313897283
 20
168.77959441
 10
142.6593976921
 20
167.1143520866
 10
142.3777987921
 20
165.4743855316
 10
142.1880207529
 20
163.8680203492
 10
142.0910290006
 20
162.3034140291
  0
LINE
  5
2D2
330
1F
100
AcDbEntity
  8
0
  6
Continuous
 62
     7
100
AcDbLine
 10
142.0910290006
 20
162.3034140291
 30
0.0
 11
141.3836639541
 21
162.3032657629
 31
0.0
  0
LWPOLYLINE
  5
2D3
330
1F
100
AcDbEntity
  8
0
  6
Continuous
 62
     7
100
AcDbPolyline
 90
       35
 70
   128
 43
0.0
 10
159.9225413762
 20
203.002601018
 10
159.6712131331
 20
203.1422858923
 10
158.6998547155
 20
203.5887581085
 10
157.6701222541
 20
203.920986519
 10
156.5870134433
 20
204.1373573328
 10
155.4557854438
 20
204.2368217585
 10
154.2819298583
 20
204.2188967671
 10
153.0711444139
 20
204.0836685167
 10
151.8293053033
 20
203.8317946367
 10
150.562441172
 20
203.4644968152
 10
149.2767011795
 20
202.9835590915
 10
147.9783258582
 20
202.3913140754
 10
146.6736176436
 20
201.6906365807
 10
145.3689094291
 20
200.8849300352
 10
144.0705341077
 20
199.9781028139
 10
142.7847941153
 20
198.9745567404
 10
141.517929984
 20
197.8791643702
 10
140.2760908733
 20
196.6972413323
 10
139.0653054289
 20
195.4345264646
 10
137.8914498435
 20
194.0971466455
 10
136.760221844
 20
192.6915941725
 10
135.6771130332
 20
191.224692544
 10
134.6473805718
 20
189.7035603401
 10
133.6760221542
 20
188.1355815668
 10
132.7677523004
 20
186.528367635
 10
131.9269819416
 20
184.8897197196
 10
131.1577887854
 20
183.2275903589
 10
130.4639094133
 20
181.5500492345
 10
129.8487103048
 20
179.8652375462
 10
129.3151773008
 20
178.1813337923
 10
128.8659011153
 20
176.5065127056
 10
128.5030628477
 20
174.848901909
 10
128.228422129
 20
173.2165480754
 10
128.0433131704
 20
171.6173743425
 10
127.9486342265
 20
170.0591433362
  0
LINE
  5
2D4
330
1F
100
AcDbEntity
  8
0
  6
Continuous
 62
     7
100
AcDbLine
 10
141.3836639541
 20
162.3032657629
 30
0.0
 11
127.9486342265
 21
170.0591433362
 31
0.0
  0
LINE
  5
2D5
330
1F
100
AcDbEntity
  8
0
  6
Continuous
 62
     7
100
AcDbLine
 10
136.6040203551
 20
185.8641997954
 30
0.0
 11
143.6750866918
 21
181.7821600879
 31
0.0
  0
SPLINE
  5
2D6
330
1F
100
AcDbEntity
  8
0
  6
Continuous
 62
     7
100
AcDbSpline
210
0.0
220
0.0
230
1.0
 70
     8
 71
     3
 72
    15
 73
    11
 74
     0
 42
0.00000001
 43
0.00000001
 12
1.0
 22
0.0
 32
0.0
 13
1.0
 23
0.0
 33
0.0
 40
0.0
 40
0.0
 40
0.0
 40
0.0
 40
0.1886496745907137
 40
0.3768712423727487
 40
0.480000153765488
 40
0.5830016173041589
 40
0.666483417684623
 40
0.7498472203085649
 40
0.8789893760177598
 40
1.0
 40
1.0
 40
1.0
 40
1.0
 10
130.9471651783315
 20
181.6750743688768
 30
0.0
 10
131.1570679336395
 20
182.1520892754472
 30
0.0
 10
131.5763971073687
 20
183.105036588288
 30
0.0
 10
132.3263467723009
 20
184.1954481280136
 30
0.0
 10
133.0561956453712
 20
184.9747800956045
 30
0.0
 10
133.6572117265641
 20
185.462228559262
 30
0.0
 10
134.2672071417896
 20
185.8193194767319
 30
0.0
 10
134.9699321292027
 20
186.0872247544661
 30
0.0
 10
135.8046354098804
 20
186.1949651731377
 30
0.0
 10
136.3433964086738
 20
185.9720394271203
 30
0.0
 10
136.6040203550545
 20
185.8641997954338
 30
0.0
  0
ARC
  5
2D7
330
1F
100
AcDbEntity
  8
0
  6
Continuous
 62
     7
100
AcDbCircle
 10
167.019086845
 20
167.1318553311
 30
0.0
 40
38.89329958623855
100
AcDbArc
 50
158.0420464532
 51
169.5129412049
  0
LINE
  5
2D8
330
1F
100
AcDbEntity
  8
0
  6
Continuous
 62
     7
100
AcDbLine
 10
128.7754592468
 20
174.2109584405
 30
0.0
 11
141.5033807602
 21
166.8632857504
 31
0.0
  0
ARC
  5
2D9
330
1F
100
AcDbEntity
  8
0
  6
Continuous
 62
     7
100
AcDbCircle
 10
179.7470083584
 20
159.784182641
 30
0.0
 40
38.89329958623701
100
AcDbArc
 50
158.0420464532
 51
169.5129412049
  0
SPLINE
  5
2DA
330
1F
100
AcDbEntity
  8
0
  6
Continuous
 62
     7
100
AcDbSpline
210
0.0
220
0.0
230
1.0
 70
     8
 71
     3
 72
    15
 73
    11
 74
     0
 42
0.00000001
 43
0.00000001
 12
1.0
 22
0.0
 32
0.0
 13
1.0
 23
0.0
 33
0.0
 40
0.0
 40
0.0
 40
0.0
 40
0.0
 40
0.1237585853421937
 40
0.2470492428922625
 40
0.3306890314573084
 40
0.4144501450320293
 40
0.5348630793355205
 40
0.6555001884996426
 40
0.8276105981788681
 40
1.0
 40
1.0
 40
1.0
 40
1.0
 10
143.6750866917803
 20
181.7821600879002
 30
0.0
 10
143.9034406028157
 20
181.6058490112704
 30
0.0
 10
144.3592850250577
 20
181.2538934853206
 30
0.0
 10
144.6864052385482
 20
180.482994580746
 30
0.0
 10
144.8284394034665
 20
179.743569521413
 30
0.0
 10
144.8631156891448
 20
178.9696837145641
 30
0.0
 10
144.7854280273351
 20
178.0723604455841
 30
0.0
 10
144.5596870721511
 20
176.9324925757929
 30
0.0
 10
144.1906827292498
 20
175.6679746195542
 30
0.0
 10
143.8470448023192
 20
174.7745005181433
 30
0.0
 10
143.6750866917803
 20
174.3274016787736
 30
0.0
  0
ARC
  5
2DB
330
1F
100
AcDbEntity
  8
0
  6
Continuous
 62
     7
100
AcDbCircle
 10
172.6891322268
 20
182.7626191379
 30
0.0
 40
9.411891823442282
100
AcDbArc
 50
145.9264067812
 51
158.7035325619
  0
LINE
  5
2DC
330
1F
100
AcDbEntity
  8
0
  6
Continuous
 62
     7
100
AcDbLine
 10
163.7936112032
 20
185.8553486361
 30
0.0
 11
163.919944406
 21
186.1809597675
 31
0.0
  0
LINE
  5
2DD
330
1F
100
AcDbEntity
  8
0
  6
Continuous
 62
     7
100
AcDbLine
 10
157.1307917535
 20
182.00898484
 30
0.0
 11
163.7936112032
 21
185.8553486361
 31
0.0
  0
LINE
  5
2DE
330
1F
100
AcDbEntity
  8
0
  6
Continuous
 62
     7
100
AcDbLine
 10
157.0044585507
 20
182.1887347602
 30
0.0
 11
157.1307917535
 21
182.00898484
 31
0.0
  0
ARC
  5
2DF
330
1F
100
AcDbEntity
  8
0
  6
Continuous
 62
     7
100
AcDbCircle
 10
155.4375718316
 20
181.1164962025
 30
0.0
 40
1.898638858508512
100
AcDbArc
 50
34.3842840553
 51
71.7767106962
  0
ARC
  5
2E0
330
1F
100
AcDbEntity
  8
0
  6
Continuous
 62
     7
100
AcDbCircle
 10
155.7435277164
 20
180.0052835905
 30
0.0
 40
2.928798839227707
100
AcDbArc
 50
84.3609263454
 51
150.0128628668
  0
ARC
  5
2E1
330
1F
100
AcDbEntity
  8
0
  6
Continuous
 62
     7
100
AcDbCircle
 10
177.115857203
 20
162.4611517074
 30
0.0
 40
30.544170562026
100
AcDbArc
 50
141.5149344863
 51
175.3287660611
  0
LINE
  5
2E2
330
1F
100
AcDbEntity
  8
0
  6
Continuous
 62
     7
100
AcDbLine
 10
146.6731421745
 20
164.9486116597
 30
0.0
 11
142.0910290006
 21
162.3034140291
 31
0.0
  0
LINE
  5
2E3
330
1F
100
AcDbEntity
  8
0
  6
Continuous
 62
     7
100
AcDbLine
 10
178.8333739561
 20
183.5143182851
 30
0.0
 11
174.2512607822
 21
180.8691206544
 31
0.0
  0
LWPOLYLINE
  5
2E4
330
1F
100
AcDbEntity
  8
0
  6
Continuous
 62
     7
100
AcDbPolyline
 90
       12
 70
   128
 43
0.0
 10
167.7176181305
 20
189.8460393085
 10
168.7202343632
 20
189.6374996898
 10
169.6591686834
 20
189.2936603064
 10
170.5271797358
 20
188.8171712905
 10
171.3175747324
 20
188.2117082071
 10
172.0242581854
 20
187.4819401098
 10
172.6417793218
 20
186.6334937947
 10
173.1653775234
 20
185.6729127313
 10
173.5910145952
 20
184.6076045873
 10
173.9154096686
 20
183.4457849511
 10
174.1360576402
 20
182.19641117
 10
174.2512607822
 20
180.8691206544
  0
ARC
  5
2E5
330
1F
100
AcDbEntity
  8
0
  6
Continuous
 62
     7
100
AcDbCircle
 10
167.9033205113
 20
186.4476845256
 30
0.0
 40
3.403424834568474
100
AcDbArc
 50
93.1278050062
 51
152.1866052267
  0
ARC
  5
2E6
330
1F
100
AcDbEntity
  8
0
  6
Continuous
 62
     7
100
AcDbCircle
 10
167.8645810652
 20
167.7770958412
 30
0.0
 40
40.00625656457252
100
AcDbArc
 50
122.5886163514
 51
176.1439774215
  0
LINE
  5
2E7
330
1F
100
AcDbEntity
  8
0
  6
Continuous
 62
     7
100
AcDbLine
 10
127.9486342265
 20
170.0591433362
 30
0.0
 11
127.9488910588
 21
170.4674964855
 31
0.0
  0
LINE
  5
2E8
330
1F
100
AcDbEntity
  8
0
  6
Continuous
 62
     7
100
AcDbLine
 10
136.6040203551
 20
175.4646575891
 30
0.0
 11
142.789602478
 21
171.8937970374
 31
0.0
  0
LINE
  5
2E9
330
1F
100
AcDbEntity
  8
0
  6
Continuous
 62
     7
100
AcDbLine
 10
128.7754592468
 20
174.2109584405
 30
0.0
 11
130.9471651783
 21
175.4646575891
 31
0.0
  0
ARC
  5
2EA
330
1F
100
AcDbEntity
  8
0
  6
Continuous
 62
     7
100
AcDbCircle
 10
133.7755927667
 20
170.0058153706
 30
0.0
 40
6.148085961403446
100
AcDbArc
 50
62.6096593055
 51
117.3903406945
  0
LWPOLYLINE
  5
2EB
330
1F
100
AcDbEntity
  8
0
  6
Continuous
 62
     7
100
AcDbPolyline
 90
       27
 70
   128
 43
0.0
 10
132.177929546
 20
174.7464486853
 10
131.8434100094
 20
174.4999588482
 10
131.620796941
 20
174.2144157033
 10
131.5230228379
 20
173.9064151768
 10
131.5557748905
 20
173.5938571765
 10
131.7171459538
 20
173.2949046876
 10
131.997757037
 20
173.0269352651
 10
132.3813038951
 20
172.8055183769
 10
132.8454908454
 20
172.6435250467
 10
133.363347856
 20
172.5503675148
 10
133.904767589
 20
172.5314631986
 10
134.4383032272
 20
172.5879039456
 10
134.9329267876
 20
172.7164187758
 10
135.3599112415
 20
172.9095297524
 10
135.6944241926
 20
173.1560218706
 10
135.9170438465
 20
173.4415627344
 10
136.0148113641
 20
173.749565542
 10
135.982065897
 20
174.0621212613
 10
135.8206948337
 20
174.3610737501
 10
135.5400837505
 20
174.6290431726
 10
135.1565368923
 20
174.8504600608
 10
134.6923499421
 20
175.012453391
 10
134.1744929315
 20
175.105610923
 10
133.633066613
 20
175.1245175201
 10
133.0995375602
 20
175.0680744922
 10
132.6049074145
 20
174.9395619429
 10
132.177929546
 20
174.7464486853
  0
LWPOLYLINE
  5
2EC
330
1F
100
AcDbEntity
  8
0
  6
Continuous
 62
     7
100
AcDbPolyline
 90
       13
 70
   128
 43
0.0
 10
139.2489958827
 20
170.6644089778
 10
138.9144763461
 20
170.4179191406
 10
138.6918632777
 20
170.1323759958
 10
138.5940891746
 20
169.8243754693
 10
138.6268412272
 20
169.5118174689
 10
138.7882122905
 20
169.2128649801
 10
139.0688233737
 20
168.9448955576
 10
139.4523702319
 20
168.7234786694
 10
139.9165571821
 20
168.5614853392
 10
140.4344141927
 20
168.4683278072
 10
140.9758391941
 20
168.4494204497
 10
141.509369564
 20
168.505864238
 10
141.8600431974
 20
168.5882067037
  0
ARC
  5
2ED
330
1F
100
AcDbEntity
  8
0
  6
Continuous
 62
     7
100
AcDbCircle
 10
140.8410014208
 20
167.6239201885
 30
0.0
 40
3.432062603022525
100
AcDbArc
 50
62.78997297739999
 51
117.6366373329
  0
ARC
  5
2EE
330
1F
100
AcDbEntity
  8
0
  6
Continuous
 62
     7
100
AcDbCircle
 10
155.0734277098
 20
181.1746262947
 30
0.0
 40
1.550980212372756
100
AcDbArc
 50
75.5655776339
 51
118.9231639535
  0
ARC
  5
2EF
330
1F
100
AcDbEntity
  8
0
  6
Continuous
 62
     7
100
AcDbCircle
 10
154.9202785193
 20
181.0371842831
 30
0.0
 40
1.726031859657974
100
AcDbArc
 50
34.3842649763
 51
71.7767708569
  0
LINE
  5
2F0
330
1F
100
AcDbEntity
  8
0
  6
Continuous
 62
     7
100
AcDbLine
 10
157.1307917535
 20
182.00898484
 30
0.0
 11
156.5731135444
 21
181.6869792333
 31
0.0
  0
LINE
  5
2F1
330
1F
100
AcDbEntity
  8
0
  6
Continuous
 62
     7
100
AcDbLine
 10
156.5731135444
 20
181.6869792333
 30
0.0
 11
156.3447184552
 21
182.0119441764
 31
0.0
  0
LINE
  5
2F2
330
1F
100
AcDbEntity
  8
0
  6
Continuous
 62
     7
100
AcDbLine
 10
163.7936112032
 20
185.8553486361
 30
0.0
 11
163.6441811982
 21
185.7690197012
 31
0.0
  0
LINE
  5
2F3
330
1F
100
AcDbEntity
  8
0
  6
Continuous
 62
     7
100
AcDbLine
 10
163.6441811982
 20
185.7690197012
 30
0.0
 11
156.5731135444
 21
181.6869792333
 31
0.0
  0
LINE
  5
2F4
330
1F
100
AcDbEntity
  8
0
  6
Continuous
 62
     7
100
AcDbLine
 10
156.5731135444
 20
181.6869792333
 30
0.0
 11
154.8151790297
 21
182.7018132273
 31
0.0
  0
ARC
  5
2F5
330
1F
100
AcDbEntity
  8
0
  6
Continuous
 62
     7
100
AcDbCircle
 10
167.0326143432
 20
187.8579514726
 30
0.0
 40
1.743675086278119
100
AcDbArc
 50
85.20802052299999
 51
117.2899813109
  0
LWPOLYLINE
  5
2F6
330
1F
100
AcDbEntity
  8
0
  6
Continuous
 62
     7
100
AcDbPolyline
 90
       12
 70
   128
 43
0.0
 10
173.5436757818
 20
180.8688454116
 10
173.4300689516
 20
182.1593067497
 10
173.2140202549
 20
183.3739225724
 10
172.8971892238
 20
184.5033507227
 10
172.4820151071
 20
185.5389078162
 10
171.9716878944
 20
186.4726288454
 10
171.3701325111
 20
187.2973342923
 10
170.6819772078
 20
188.0066818423
 10
169.9125114142
 20
188.5952161986
 10
169.0676534696
 20
189.0584124319
 10
168.1538999157
 20
189.3927075444
 10
167.178278081
 20
189.5955316527
  0
LINE
  5
2F7
330
1F
100
AcDbEntity
  8
0
  6
Continuous
 62
     7
100
AcDbLine
 10
174.2512607822
 20
180.8691206544
 30
0.0
 11
173.5436757818
 21
180.8688454116
 31
0.0
  0
LINE
  5
2F8
330
1F
100
AcDbEntity
  8
0
  6
Continuous
 62
     7
100
AcDbLine
 10
173.5436757818
 20
180.8688454116
 30
0.0
 11
163.9993638858
 21
186.3786593894
 31
0.0
  0
LINE
  5
2F9
330
1F
100
AcDbEntity
  8
0
  6
Continuous
 62
     7
100
AcDbLine
 10
141.3703178911
 20
128.8173886487
 30
0.0
 11
141.3703178911
 21
160.6624795434
 31
0.0
  0
LINE
  5
2FA
330
1F
100
AcDbEntity
  8
0
  6
Continuous
 62
     7
100
AcDbLine
 10
141.3703178911
 20
160.6624795434
 30
0.0
 11
142.0774247882
 21
160.2542084053
 31
0.0
  0
LINE
  5
2FB
330
1F
100
AcDbEntity
  8
0
  6
Continuous
 62
     7
100
AcDbLine
 10
142.0774247882
 20
160.2542084053
 30
0.0
 11
142.0774247882
 21
128.8173878884
 31
0.0
  0
LINE
  5
2FC
330
1F
100
AcDbEntity
  8
0
  6
Continuous
 62
     7
100
AcDbLine
 10
142.0774247882
 20
128.8173878884
 30
0.0
 11
141.3703178911
 21
128.8173886487
 31
0.0
  0
LINE
  5
2FD
330
1F
100
AcDbEntity
  8
0
  6
Continuous
 62
     7
100
AcDbLine
 10
141.3703178911
 20
160.6624795434
 30
0.0
 11
146.6736189607
 21
163.7240100844
 31
0.0
  0
LINE
  5
2FE
330
1F
100
AcDbEntity
  8
0
  6
Continuous
 62
     7
100
AcDbLine
 10
146.6736189607
 20
163.7240100844
 30
0.0
 11
146.8733620954
 21
163.0228440807
 31
0.0
  0
LINE
  5
2FF
330
1F
100
AcDbEntity
  8
0
  6
Continuous
 62
     7
100
AcDbLine
 10
146.8733620954
 20
163.0228440807
 30
0.0
 11
142.0774247882
 21
160.2542084053
 31
0.0
  0
LINE
  5
300
330
1F
100
AcDbEntity
  8
0
  6
Continuous
 62
     7
100
AcDbLine
 10
127.9352881635
 20
168.4183571167
 30
0.0
 11
127.9352881635
 21
136.573266222
 31
0.0
  0
LINE
  5
301
330
1F
100
AcDbEntity
  8
0
  6
Continuous
 62
     7
100
AcDbLine
 10
141.3703178911
 20
160.6624795434
 30
0.0
 11
127.9352881635
 21
168.4183571167
 31
0.0
  0
LINE
  5
302
330
1F
100
AcDbEntity
  8
0
  6
Continuous
 62
     7
100
AcDbLine
 10
141.3703178911
 20
128.8173886487
 30
0.0
 11
127.9352881635
 21
136.573266222
 31
0.0
  0
LINE
  5
303
330
1F
100
AcDbEntity
  8
0
  6
Continuous
 62
     7
100
AcDbLine
 10
129.3630771941
 20
169.2426021795
 30
0.0
 11
127.9352881635
 21
168.4183571167
 31
0.0
  0
LINE
  5
304
330
1F
100
AcDbEntity
  8
0
  6
Continuous
 62
     7
100
AcDbLine
 10
146.6736189607
 20
163.7240100844
 30
0.0
 11
145.6127301002
 21
164.3364481875
 31
0.0
  0
ARC
  5
305
330
1F
100
AcDbEntity
  8
0
  6
Continuous
 62
     7
100
AcDbCircle
 10
148.0608032844
 20
165.4912033084
 30
0.0
 40
2.739126476554481
100
AcDbArc
 50
244.3094219613
 51
305.8349136318
  0
LINE
  5
306
330
1F
100
AcDbEntity
  8
0
  6
Continuous
 62
     7
100
AcDbLine
 10
149.9170962009
 20
163.4164349089
 30
0.0
 11
149.6644297953
 21
163.2705736977
 31
0.0
  0
LINE
  5
307
330
1F
100
AcDbEntity
  8
0
  6
Continuous
 62
     7
100
AcDbLine
 10
153.248506255
 20
158.6764367717
 30
0.0
 11
149.9170962009
 21
163.4164349089
 31
0.0
  0
LINE
  5
308
330
1F
100
AcDbEntity
  8
0
  6
Continuous
 62
     7
100
AcDbLine
 10
153.1221730522
 20
158.3508264007
 30
0.0
 11
153.248506255
 21
158.6764367717
 31
0.0
  0
ARC
  5
309
330
1F
100
AcDbEntity
  8
0
  6
Continuous
 62
     7
100
AcDbCircle
 10
160.2866126448
 20
155.51706965
 30
0.0
 40
7.704503358272463
100
AcDbArc
 50
158.419675373
 51
173.0280560447
  0
LWPOLYLINE
  5
30A
330
1F
100
AcDbEntity
  8
0
  6
Continuous
 62
     7
100
AcDbPolyline
 90
        9
 70
   128
 43
0.0
 10
153.9165226086
 20
154.2751498592
 10
153.5999345804
 20
154.3266952231
 10
153.3177410148
 20
154.4507763938
 10
153.0764562339
 20
154.644530378
 10
152.8816502074
 20
154.9034828496
 10
152.7378207941
 20
155.2216576693
 10
152.6482883756
 20
155.5917092144
 10
152.6151188058
 20
156.0050931103
 10
152.6390786306
 20
156.4522677571
  0
LWPOLYLINE
  5
30B
330
1F
100
AcDbEntity
  8
0
  6
Continuous
 62
     7
100
AcDbPolyline
 90
       13
 70
   128
 43
0.0
 10
167.0078803481
 20
161.8326298167
 10
165.9860882871
 20
160.6687750718
 10
164.9268853005
 20
159.582287058
 10
163.8374442549
 20
158.5805263831
 10
162.7251436478
 20
157.6702757787
 10
161.5975171459
 20
156.8577018445
 10
160.4622014784
 20
156.1483067159
 10
159.3268858108
 20
155.5468942761
 10
158.1992593089
 20
155.0575383636
 10
157.0869587018
 20
154.6835540226
 10
155.9975176562
 20
154.4274728403
 10
154.9383146696
 20
154.2910311165
 10
153.9165226086
 20
154.2751498592
  0
ARC
  5
30C
330
1F
100
AcDbEntity
  8
0
  6
Continuous
 62
     7
100
AcDbCircle
 10
163.1781831138
 20
165.2216531905
 30
0.0
 40
5.113908518446067
100
AcDbArc
 50
318.4933417654
 51
2.9479286432
  0
ARC
  5
30D
330
1F
100
AcDbEntity
  8
0
  6
Continuous
 62
     7
100
AcDbCircle
 10
165.3050555337
 20
165.1682704759
 30
0.0
 40
2.997015192389919
100
AcDbArc
 50
6.059772516199999
 51
33.569007728
  0
LINE
  5
30E
330
1F
100
AcDbEntity
  8
0
  6
Continuous
 62
     7
100
AcDbLine
 10
167.6758967017
 20
167.005191994
 30
0.0
 11
167.8022299045
 21
166.8254428343
 31
0.0
  0
LINE
  5
30F
330
1F
100
AcDbEntity
  8
0
  6
Continuous
 62
     7
100
AcDbLine
 10
171.0073067558
 20
175.5915543076
 30
0.0
 11
167.6758967017
 21
167.005191994
 31
0.0
  0
LINE
  5
310
330
1F
100
AcDbEntity
  8
0
  6
Continuous
 62
     7
100
AcDbLine
 10
171.2599731614
 20
175.7374155187
 30
0.0
 11
171.0073067558
 21
175.5915543076
 31
0.0
  0
ARC
  5
311
330
1F
100
AcDbEntity
  8
0
  6
Continuous
 62
     7
100
AcDbCircle
 10
166.8550196336
 20
182.6940849343
 30
0.0
 40
8.234006615269305
100
AcDbArc
 50
302.3419346359
 51
335.6262317392001
  0
LINE
  5
312
330
1F
100
AcDbEntity
  8
0
  6
Continuous
 62
     7
100
AcDbLine
 10
174.3551514467
 20
179.2960137571
 30
0.0
 11
178.8469781685
 21
181.8890901284
 31
0.0
  0
LINE
  5
313
330
1F
100
AcDbEntity
  8
0
  6
Continuous
 62
     7
100
AcDbLine
 10
178.8469781685
 20
150.0439992337
 30
0.0
 11
178.8469781685
 21
181.8890901284
 31
0.0
  0
LINE
  5
314
330
1F
100
AcDbEntity
  8
0
  6
Continuous
 62
     7
100
AcDbLine
 10
178.8469781685
 20
150.0439992337
 30
0.0
 11
142.0774247882
 21
128.8173878884
 31
0.0
  0
ARC
  5
315
330
1F
100
AcDbEntity
  8
0
  6
Continuous
 62
     7
100
AcDbCircle
 10
147.8698249402
 20
165.8348506273
 30
0.0
 40
2.426222690242774
100
AcDbArc
 50
240.459923251
 51
306.4376922858
  0
LINE
  5
316
330
1F
100
AcDbEntity
  8
0
  6
Continuous
 62
     7
100
AcDbLine
 10
149.3108756882
 20
163.8829466121
 30
0.0
 11
149.7676665251
 21
164.1466463493
 31
0.0
  0
LINE
  5
317
330
1F
100
AcDbEntity
  8
0
  6
Continuous
 62
     7
100
AcDbLine
 10
149.9170962009
 20
163.4164349089
 30
0.0
 11
149.7676665251
 21
164.1466463493
 31
0.0
  0
LINE
  5
318
330
1F
100
AcDbEntity
  8
0
  6
Continuous
 62
     7
100
AcDbLine
 10
149.7676665251
 20
164.1466463493
 30
0.0
 11
153.303200352
 21
159.116215885
 31
0.0
  0
LINE
  5
319
330
1F
100
AcDbEntity
  8
0
  6
Continuous
 62
     7
100
AcDbLine
 10
153.248506255
 20
158.6764367717
 30
0.0
 11
153.303200352
 21
159.116215885
 31
0.0
  0
LINE
  5
31A
330
1F
100
AcDbEntity
  8
0
  6
Continuous
 62
     7
100
AcDbLine
 10
149.7676665251
 20
164.1466463493
 30
0.0
 11
146.7363545447
 21
165.896585507
 31
0.0
  0
ARC
  5
31B
330
1F
100
AcDbEntity
  8
0
  6
Continuous
 62
     7
100
AcDbCircle
 10
153.8569658537
 20
156.1674117277
 30
0.0
 40
1.238389731894215
100
AcDbArc
 50
175.89809575
 51
264.1424161217
  0
LWPOLYLINE
  5
31C
330
1F
100
AcDbEntity
  8
0
  6
Continuous
 62
     7
100
AcDbPolyline
 90
       13
 70
   128
 43
0.0
 10
153.7305805912
 20
154.935488072
 10
154.726207691
 20
154.9509613246
 10
155.7582885221
 20
155.0839101257
 10
156.8198329637
 20
155.3334337925
 10
157.9036511916
 20
155.6978425857
 10
159.002403151
 20
156.1746680187
 10
160.1086473713
 20
156.7606788699
 10
161.2148915915
 20
157.4519104086
 10
162.3136435509
 20
158.2436769851
 10
163.3974617788
 20
159.1306180821
 10
164.4590062204
 20
160.1067275392
 10
165.4910870515
 20
161.1653939015
 10
166.4867141514
 20
162.29944723
  0
ARC
  5
31D
330
1F
100
AcDbEntity
  8
0
  6
Continuous
 62
     7
100
AcDbCircle
 10
133.3438395045
 20
186.1933254587
 30
0.0
 40
25.47222441242456
100
AcDbArc
 50
304.7113962424
 51
320.6872646692
  0
LINE
  5
31E
330
1F
100
AcDbEntity
  8
0
  6
Continuous
 62
     7
100
AcDbLine
 10
167.6758967017
 20
167.005191994
 30
0.0
 11
166.9140943905
 21
166.9736177639
 31
0.0
  0
LINE
  5
31F
330
1F
100
AcDbEntity
  8
0
  6
Continuous
 62
     7
100
AcDbLine
 10
166.9140943905
 20
166.9736177639
 30
0.0
 11
170.4496282174
 21
176.0860886961
 31
0.0
  0
LINE
  5
320
330
1F
100
AcDbEntity
  8
0
  6
Continuous
 62
     7
100
AcDbLine
 10
171.0073067558
 20
175.5915543076
 30
0.0
 11
170.4496282174
 21
176.0860886961
 31
0.0
  0
LINE
  5
321
330
1F
100
AcDbEntity
  8
0
  6
Continuous
 62
     7
100
AcDbLine
 10
156.2507020071
 20
181.8731027539
 30
0.0
 11
153.4790646629
 21
174.7294953371
 31
0.0
  0
LINE
  5
322
330
1F
100
AcDbEntity
  8
0
  6
Continuous
 62
     7
100
AcDbLine
 10
170.4496282174
 20
176.0860886961
 30
0.0
 11
158.6603328254
 21
182.89190406
 31
0.0
  0
LINE
  5
323
330
1F
100
AcDbEntity
  8
0
  6
Continuous
 62
     7
100
AcDbLine
 10
166.9140943905
 20
166.9736177639
 30
0.0
 11
153.4790646629
 21
174.7294953371
 31
0.0
  0
ARC
  5
324
330
1F
100
AcDbEntity
  8
0
  6
Continuous
 62
     7
100
AcDbCircle
 10
167.005674176
 20
182.5623343231
 30
0.0
 40
7.335634740091717
100
AcDbArc
 50
302.1239663490999
 51
333.0327615813001
  0
LINE
  5
325
330
1F
100
AcDbEntity
  8
0
  6
Continuous
 62
     7
100
AcDbLine
 10
173.5436757818
 20
179.2357637102
 30
0.0
 11
174.3551514467
 21
179.2960137571
 31
0.0
  0
LINE
  5
326
330
1F
100
AcDbEntity
  8
0
  6
Continuous
 62
     7
100
AcDbLine
 10
173.5436757818
 20
179.2357637102
 30
0.0
 11
162.9353508901
 21
185.359819316
 31
0.0
  0
LINE
  5
327
330
1F
100
AcDbEntity
  8
0
  6
Continuous
 62
     7
100
AcDbLine
 10
170.4496282174
 20
176.0860886961
 30
0.0
 11
170.9064190543
 21
176.3497884332
 31
0.0
  0
LINE
  5
328
330
1F
100
AcDbEntity
  8
0
  6
Continuous
 62
     7
100
AcDbLine
 10
178.8469768514
 20
182.2972942512
 30
0.0
 11
177.7860879909
 21
182.9097323543
 31
0.0
  0
LINE
  5
329
330
1F
100
AcDbEntity
  8
0
  6
Continuous
 62
     7
100
AcDbLine
 10
178.8469781685
 20
181.8890901284
 30
0.0
 11
178.8469768514
 21
182.2972942512
 31
0.0
  0
LINE
  5
32A
330
1F
100
AcDbEntity
  8
0
  6
Continuous
 62
     7
100
AcDbLine
 10
167.1424894797
 20
166.6486520604
 30
0.0
 11
166.9140943905
 21
166.9736177639
 31
0.0
  0
LINE
  5
32B
330
1F
100
AcDbEntity
  8
0
  6
Continuous
 62
     7
100
AcDbLine
 10
153.4790646629
 20
174.7294953371
 30
0.0
 11
153.7074597521
 21
174.4045296336
 31
0.0
  0
ARC
  5
32C
330
1F
100
AcDbEntity
  8
0
  6
Continuous
 62
     7
100
AcDbCircle
 10
164.8723385124
 20
165.142134276
 30
0.0
 40
2.724551568347111
100
AcDbArc
 50
6.059752036699999
 51
33.569051007
  0
ARC
  5
32D
330
1F
100
AcDbEntity
  8
0
  6
Continuous
 62
     7
100
AcDbCircle
 10
151.4373087848
 20
172.8980118493
 30
0.0
 40
2.724551568347167
100
AcDbArc
 50
6.059752036699999
 51
33.569051007
  0
ARC
  5
32E
330
1F
100
AcDbEntity
  8
0
  6
Continuous
 62
     7
100
AcDbCircle
 10
163.2041188491
 20
165.2043237369
 30
0.0
 40
4.383347971448362
100
AcDbArc
 50
318.4933281723
 51
2.9479410269
  0
ARC
  5
32F
330
1F
100
AcDbEntity
  8
0
  6
Continuous
 62
     7
100
AcDbCircle
 10
149.7690891214
 20
172.9602013101
 30
0.0
 40
4.383347971448258
100
AcDbArc
 50
318.4933281723
 51
2.9479410269
  0
ARC
  5
330
330
1F
100
AcDbEntity
  8
0
  6
Continuous
 62
     7
100
AcDbCircle
 10
132.3325019014
 20
186.8715047334
 30
0.0
 40
26.57767081985994
100
AcDbArc
 50
305.639114421
 51
320.5856761007
  0
LINE
  5
331
330
1F
100
AcDbEntity
  8
0
  6
Continuous
 62
     7
100
AcDbLine
 10
153.4790646629
 20
174.7294953371
 30
0.0
 11
153.5337587599
 21
175.1692744504
 31
0.0
  0
LINE
  5
332
330
1F
100
AcDbEntity
  8
0
  6
Continuous
 62
     7
100
AcDbLine
 10
153.5337587599
 20
175.1692744504
 30
0.0
 11
156.1559828919
 21
181.9277834104
 31
0.0
  0
ARC
  5
333
330
1F
100
AcDbEntity
  8
0
  6
Continuous
 62
     7
100
AcDbCircle
 10
148.7618616003
 20
173.5384102693
 30
0.0
 40
5.420835947124469
100
AcDbArc
 50
319.2054158698
 51
354.8149996910001
  0
LINE
  5
334
330
1F
100
AcDbEntity
  8
RIQUADRO
100
AcDbLine
 10
132.3547065996
 20
167.2957952087
 30
0.0
 11
132.0915785559
 21
167.4833769978
 31
0.0
  0
LWPOLYLINE
  5
335
330
1F
100
AcDbEntity
  8
RIQUADRO
100
AcDbPolyline
 90
        3
 70
   128
 43
0.0
 10
132.0915222168
 20
167.4833769978
 10
131.9017570528
 20
167.6984420115
 10
131.8364228522
 20
167.8147701234
  0
ARC
  5
336
330
1F
100
AcDbEntity
  8
RIQUADRO
100
AcDbCircle
 10
133.6278911734
 20
169.6210969734
 30
0.0
 40
2.65104267339194
100
AcDbArc
 50
241.2977432493
 51
261.885539019
  0
LINE
  5
337
330
1F
100
AcDbEntity
  8
RIQUADRO
100
AcDbLine
 10
139.4257729363
 20
163.2137555011
 30
0.0
 11
139.1626448927
 21
163.4013372903
 31
0.0
  0
LWPOLYLINE
  5
338
330
1F
100
AcDbEntity
  8
RIQUADRO
100
AcDbPolyline
 90
        3
 70
   128
 43
0.0
 10
139.1625404358
 20
163.4013372903
 10
138.9728233895
 20
163.616402304
 10
138.9074891889
 20
163.7327304159
  0
ARC
  5
339
330
1F
100
AcDbEntity
  8
RIQUADRO
100
AcDbCircle
 10
140.6990577438
 20
165.5392982336
 30
0.0
 40
2.651302170963393
100
AcDbArc
 50
241.2983442136
 51
261.8831002109999
  0
LINE
  5
33A
330
1F
100
AcDbEntity
  8
RIQUADRO
100
AcDbLine
 10
171.599130827
 20
181.787039668
 30
0.0
 11
171.3360027834
 21
181.9746214571
 31
0.0
  0
LWPOLYLINE
  5
33B
330
1F
100
AcDbEntity
  8
RIQUADRO
100
AcDbPolyline
 90
        3
 70
   128
 43
0.0
 10
171.3359355927
 20
181.9746214571
 10
171.1461812802
 20
182.1896864708
 10
171.0910676904
 20
182.284706834
  0
ARC
  5
33C
330
1F
100
AcDbEntity
  8
RIQUADRO
100
AcDbCircle
 10
172.8666053948
 20
184.0988053704
 30
0.0
 40
2.636427970360512
100
AcDbArc
 50
241.2653098663
 51
261.1534376826
  0
LINE
  5
33D
330
1F
100
AcDbEntity
  8
RIQUADRO
100
AcDbLine
 10
164.5280644903
 20
185.8690793755
 30
0.0
 11
164.2649364467
 21
186.0566611647
 31
0.0
  0
LWPOLYLINE
  5
33E
330
1F
100
AcDbEntity
  8
RIQUADRO
100
AcDbPolyline
 90
        3
 70
   128
 43
0.0
 10
164.2649173737
 20
186.0566611647
 10
164.0751149435
 20
186.2717261783
 10
164.0200013536
 20
186.3667465416
  0
ARC
  5
33F
330
1F
100
AcDbEntity
  8
RIQUADRO
100
AcDbCircle
 10
165.7953362054
 20
188.1803423709
 30
0.0
 40
2.635889647510659
100
AcDbArc
 50
241.263922922
 51
261.1571374197999
  0
OLE2FRAME
  5
340
330
1F
100
AcDbEntity
  8
0
100
AcDbOle2Frame
 70
     2
  3
Picture (Device Independent Bitmap)
 10
26.92785008344709
 20
41.45149038461538
 30
0.0
 11
66.98001354498554
 21
21.42540865384612
 31
0.0
 71
     3
 72
     0
 73
     1
 90
    41600
310
805501FF439587ED3A40D530DA6FCAB9444000000000000000006556BB8AB8BE
310
5040D530DA6FCAB9444000000000000000006556BB8AB8BE504059B4DF94E76C
310
3540000000000000000001FF439587ED3A4059B4DF94E76C3540000000000000
310
0000000000000100000000010000010000000100000000000100000000A20000
310
D0CF11E0A1B11AE1000000000000000000000000000000003E000300FEFF0900
310
0600000000000000000000000100000001000000000000000010000002000000
310
01000000FEFFFFFF0000000000000000FFFFFFFFFFFFFFFFFFFFFFFFFFFFFFFF
310
FFFFFFFFFFFFFFFFFFFFFFFFFFFFFFFFFFFFFFFFFFFFFFFFFFFFFFFFFFFFFFFF
310
FFFFFFFFFFFFFFFFFFFFFFFFFFFFFFFFFFFFFFFFFFFFFFFFFFFFFFFFFFFFFFFF
310
FFFFFFFFFFFFFFFFFFFFFFFFFFFFFFFFFFFFFFFFFFFFFFFFFFFFFFFFFFFFFFFF
310
FFFFFFFFFFFFFFFFFFFFFFFFFFFFFFFFFFFFFFFFFFFFFFFFFFFFFFFFFFFFFFFF
310
FFFFFFFFFFFFFFFFFFFFFFFFFFFFFFFFFFFFFFFFFFFFFFFFFFFFFFFFFFFFFFFF
310
FFFFFFFFFFFFFFFFFFFFFFFFFFFFFFFFFFFFFFFFFFFFFFFFFFFFFFFFFFFFFFFF
310
FFFFFFFFFFFFFFFFFFFFFFFFFFFFFFFFFFFFFFFFFFFFFFFFFFFFFFFFFFFFFFFF
310
FFFFFFFFFFFFFFFFFFFFFFFFFFFFFFFFFFFFFFFFFFFFFFFFFFFFFFFFFFFFFFFF
310
FFFFFFFFFFFFFFFFFFFFFFFFFFFFFFFFFFFFFFFFFFFFFFFFFFFFFFFFFFFFFFFF
310
FFFFFFFFFFFFFFFFFFFFFFFFFFFFFFFFFFFFFFFFFFFFFFFFFFFFFFFFFFFFFFFF
310
FFFFFFFFFFFFFFFFFFFFFFFFFFFFFFFFFFFFFFFFFFFFFFFFFFFFFFFFFFFFFFFF
310
FFFFFFFFFFFFFFFFFFFFFFFFFFFFFFFFFFFFFFFFFFFFFFFFFFFFFFFFFFFFFFFF
310
FFFFFFFFFFFFFFFFFFFFFFFFFFFFFFFFFFFFFFFFFFFFFFFFFFFFFFFFFFFFFFFF
310
FDFFFFFFFEFFFFFFFEFFFFFFFEFFFFFF05000000060000000700000008000000
310
090000000A0000000B0000000C0000000D0000000E0000000F00000010000000
310
1100000012000000130000001400000015000000160000001700000018000000
310
190000001A0000001B0000001C0000001D0000001E0000001F00000020000000
310
2100000022000000230000002400000025000000260000002700000028000000
310
290000002A0000002B0000002C0000002D0000002E0000002F00000030000000
310
3100000032000000330000003400000035000000360000003700000038000000
310
390000003A0000003B0000003C0000003D0000003E0000003F00000040000000
310
4100000042000000430000004400000045000000460000004700000048000000
310
490000004A0000004B0000004C0000004D0000004E0000004F000000FEFFFFFF
310
FFFFFFFFFFFFFFFFFFFFFFFFFFFFFFFFFFFFFFFFFFFFFFFFFFFFFFFFFFFFFFFF
310
FFFFFFFFFFFFFFFFFFFFFFFFFFFFFFFFFFFFFFFFFFFFFFFFFFFFFFFFFFFFFFFF
310
FFFFFFFFFFFFFFFFFFFFFFFFFFFFFFFFFFFFFFFFFFFFFFFFFFFFFFFFFFFFFFFF
310
FFFFFFFFFFFFFFFFFFFFFFFFFFFFFFFFFFFFFFFFFFFFFFFFFFFFFFFFFFFFFFFF
310
FFFFFFFFFFFFFFFFFFFFFFFFFFFFFFFFFFFFFFFFFFFFFFFFFFFFFFFFFFFFFFFF
310
FFFFFFFFFFFFFFFFFFFFFFFFFFFFFFFFFFFFFFFFFFFFFFFFFFFFFFFFFFFFFFFF
310
52006F006F007400200045006E00740072007900000000000000000000000000
310
0000000000000000000000000000000000000000000000000000000000000000
310
16000500FFFFFFFFFFFFFFFF020000001603000000000000C000000000000046
310
0000000000000000000000006036D942AD39CE0103000000C000000000000000
310
01004F006C006500000000000000000000000000000000000000000000000000
310
0000000000000000000000000000000000000000000000000000000000000000
310
0A000200FFFFFFFFFFFFFFFFFFFFFFFF00000000000000000000000000000000
310
0000000000000000000000000000000000000000000000001400000000000000
310
010043006F006D0070004F0062006A0000000000000000000000000000000000
310
0000000000000000000000000000000000000000000000000000000000000000
310
120002010100000003000000FFFFFFFF00000000000000000000000000000000
310
0000000000000000000000000000000000000000010000006B00000000000000
310
43004F004E00540045004E005400530000000000000000000000000000000000
310
0000000000000000000000000000000000000000000000000000000000000000
310
12000200FFFFFFFFFFFFFFFFFFFFFFFF00000000000000000000000000000000
310
000000000000000000000000000000000000000004000000D696000000000000
310
FEFFFFFF02000000FEFFFFFFFFFFFFFFFFFFFFFFFFFFFFFFFFFFFFFFFFFFFFFF
310
FFFFFFFFFFFFFFFFFFFFFFFFFFFFFFFFFFFFFFFFFFFFFFFFFFFFFFFFFFFFFFFF
310
FFFFFFFFFFFFFFFFFFFFFFFFFFFFFFFFFFFFFFFFFFFFFFFFFFFFFFFFFFFFFFFF
310
FFFFFFFFFFFFFFFFFFFFFFFFFFFFFFFFFFFFFFFFFFFFFFFFFFFFFFFFFFFFFFFF
310
FFFFFFFFFFFFFFFFFFFFFFFFFFFFFFFFFFFFFFFFFFFFFFFFFFFFFFFFFFFFFFFF
310
FFFFFFFFFFFFFFFFFFFFFFFFFFFFFFFFFFFFFFFFFFFFFFFFFFFFFFFFFFFFFFFF
310
FFFFFFFFFFFFFFFFFFFFFFFFFFFFFFFFFFFFFFFFFFFFFFFFFFFFFFFFFFFFFFFF
310
FFFFFFFFFFFFFFFFFFFFFFFFFFFFFFFFFFFFFFFFFFFFFFFFFFFFFFFFFFFFFFFF
310
FFFFFFFFFFFFFFFFFFFFFFFFFFFFFFFFFFFFFFFFFFFFFFFFFFFFFFFFFFFFFFFF
310
FFFFFFFFFFFFFFFFFFFFFFFFFFFFFFFFFFFFFFFFFFFFFFFFFFFFFFFFFFFFFFFF
310
FFFFFFFFFFFFFFFFFFFFFFFFFFFFFFFFFFFFFFFFFFFFFFFFFFFFFFFFFFFFFFFF
310
FFFFFFFFFFFFFFFFFFFFFFFFFFFFFFFFFFFFFFFFFFFFFFFFFFFFFFFFFFFFFFFF
310
FFFFFFFFFFFFFFFFFFFFFFFFFFFFFFFFFFFFFFFFFFFFFFFFFFFFFFFFFFFFFFFF
310
FFFFFFFFFFFFFFFFFFFFFFFFFFFFFFFFFFFFFFFFFFFFFFFFFFFFFFFFFFFFFFFF
310
FFFFFFFFFFFFFFFFFFFFFFFFFFFFFFFFFFFFFFFFFFFFFFFFFFFFFFFFFFFFFFFF
310
FFFFFFFFFFFFFFFFFFFFFFFFFFFFFFFFFFFFFFFFFFFFFFFFFFFFFFFFFFFFFFFF
310
0100000200000000000000000000000000000000000000000000000000000000
310
0000000000000000000000000000000000000000000000000000000000000000
310
0100FEFF030A0000FFFFFFFF1603000000000000C00000000000004625000000
310
496D6D6167696E6520284269746D61702044657669636520496E646570656E64
310
656E742900FFFFFFFF080000000A00000053746174696344696200F439B27100
310
0000000000000000000000000000000000000000000000000000000000000000
310
0000000000000000000000000000000000000000000000000000000000000000
310
0000000000000000000000000000000000000000000000000000000000000000
310
0000000000000000000000000000000000000000000000000000000000000000
310
0000000000000000000000000000000000000000000000000000000000000000
310
0000000000000000000000000000000000000000000000000000000000000000
310
0000000000000000000000000000000000000000000000000000000000000000
310
0000000000000000000000000000000000000000000000000000000000000000
310
0000000000000000000000000000000000000000000000000000000000000000
310
0000000000000000000000000000000000000000000000000000000000000000
310
0000000000000000000000000000000000000000000000000000000000000000
310
424DD69600000000000036000000280000009E00000051000000010018000000
310
00000000000074120000741200000000000000000000FFFFFFFFFFFFFFFFFFFF
310
FFFFFFFFFFFFFFFFFFFFFFFFFFFFFFFFFFFFFFFFFFFFFFFFFFFFFFFFFFFFFFFF
310
FFFFFFFFFFFFFFFFFFFFFFFFFFFFFFFFFFFFFFFFFFFFFFFFFFFFFFFFFFFFFFFF
310
FFFFFFFFFFFFFFFFFFFFFFFFFFFFFFFFFFFFFFFFFFFFFFFFFFFCFCFCFFFFFFFE
310
FEFEFEFEFEEAEAEADBDBDBFFFFFFFFFFFFFFFFFFFFFFFFFFFFFFFFFFFFFFFFFF
310
FFFFFFFFFFFFFFFFFFFFFFFFFFFFFFFFFFFFFFFFFFFFFFFFFFFFFFFFFFFFFFFF
310
FFFFFFFFFFFFFFFFFFFFFFFFFFFFFFFFFFFFFFFFFFFFFFFFFFFFFFFFFFFFFFFF
310
FFFFFFFFFFFFFFFFFFFFFFFFFFFEFFFFFFFFFFFEFCFDFBFFFFFEFEFCFB989695
310
2826252A28279E9E9EFFFFFFFEFEFEFEFEFEFEFEFEFFFFFFFDFDFDFFFFFFFFFF
310
FFFFFFFFFFFFFFFFFFFFFFFFFFFFFFFFFFFFFFFFFFFFFFFFFFFFFFFFFFFFFFFF
310
FFFFFFFFFFFFFFFFFFFFFFFFFFFFFFFFFFFFFFFFFFFFFFFFFFFFFFFFFFFFFFFF
310
FFFFFFFFFFFFFFFFFFFFFFFFFFFFFFFFFFFFFFFFFFFFFFFFFFFFFFFFFFFFFEFE
310
FEFEFEFEC0C0C0323232212121787878FEFEFEFFFFFFFBFBFBFEFEFEFFFFFFFF
310
FFFFFFFFFFFEFEFEFFFFFFFFFFFFFFFFFFFFFFFFFFFFFFFFFFFFFFFFFFFFFFFF
310
FFFFFFFFFFFFFFFFFFFFFFFFFFFFFFFFFFFFFFFFFFFFFFFFFFFFFFFFFFFFFFFF
310
FFFFFFFFFFFFFFFFFFFFFFFFFFFFFFFF0000FFFFFFF9F9F9FFFFFFFFFFFFEFEF
310
EFFFFFFFF8F8F8FFFFFFFFFFFFF6F6F6FFFFFFFFFFFFFCFCFCFFFFFFFFFFFFF5
310
F5F5FFFFFFE1E1E1FFFFFFFFFFFFF7F7F7FFFFFFF5F5F5FFFFFFF6F6F6FFFFFF
310
F5F5F5FDFDFDFFFFFFF4F4F4FFFFFFFAFAFAFFFFFFF2F2F2FFFFFFFFFFFFF9F9
310
F9BFBFBF5D5D5DFFFFFFFDFDFDFEFEFEFFFFFFFFFFFFF8F8F8FFFFFFFFFFFFFD
310
FDFDFEFEFEF9F9F9FFFFFFFDFDFDFFFFFFFFFFFFF0F0F0FFFFFFFFFFFFFFFFFF
310
FBFBFBF7F7F7FAFAFAFCFCFCFFFFFFFEFEFEFAFCFCFDFFFFFDFFFFFDFFFFFFFF
310
FEF0F1EFFEFCFBFEFDF9FFFFFEFAF9F5FFFEFAFFFFFC64615C383530DBD8D3D1
310
CECA1B1918949494FFFFFFF9F9F9FDFDFDFFFFFFFDFDFDF7F7F7FFFFFFFFFFFF
310
FCFCFCFFFFFFEFEFEFFFFFFFFFFFFFF6F6F6FFFFFFFAFAFAF7F7F7FFFFFFF2F2
310
F2FFFFFFFBFBFBFFFFFFFAFAFAFFFFFFFCFCFCFFFFFFFDFDFDFFFFFFF2F2F2FF
310
FFFFFFFFFFFAFAFAFFFFFFF2F2F2FFFFFFFFFFFFF5F5F5FFFFFFFDFDFDBABABA
310
000000C8C8C8DDDDDD4A4A4A404040FFFFFFFBFBFBFFFFFFFFFFFFFDFDFDFFFF
310
FFFFFFFFF5F5F5FFFFFFF8F8F8FBFBFBFFFFFFFAFAFAF3F3F3FFFFFFFCFCFCFB
310
FBFBFDFDFDFFFFFFF0F0F0FFFFFFFFFFFFFCFCFCFFFFFFFBFBFBFFFFFFFFFFFF
310
F2F2F2FDFDFDFEFEFEFFFFFF0000FFFFFFFBFBFBFFFFFFFFFFFFFFFFFFFDFDFD
310
FFFFFFFCFCFCFFFFFFFFFFFFFAFAFAFFFFFFFFFFFFFCFCFCFFFFFFFFFFFFF8F8
310
F8FAFAFAFFFFFFF9F9F9FFFFFFFAFAFAFFFFFFFEFEFEFFFFFFECECECFFFFFFFD
310
FDFDFEFEFEFAFAFAF5F5F5FFFFFFF4F4F4FFFFFFFFFFFFF6F6F6FEFEFEBBBBBB
310
646464FFFFFFFFFFFFFFFFFFEBEBEBFFFFFFFCFCFCFFFFFFF6F6F6FDFDFDFFFF
310
FFF6F6F6F4F4F4FFFFFFF5F5F5FFFFFFFDFDFDFEFEFEF6F6F6FAFAFAFDFDFDFF
310
FFFFFFFFFFF3F3F3FFFFFFFCFCFCFAFCFCFDFFFFF4F6F6F6F8F8F2F3F1FFFFFE
310
FFFFFCFFFEFAFFFFFCFFFEFAFFFFFCFFFFFB494641EAE8E0FFFFFBFCF9F4F2F0
310
EF141414FAFAFAF4F4F4FFFFFFEFEFEFFFFFFFFFFFFFF6F6F6E8E8E8FFFFFFF3
310
F3F3FFFFFFFFFFFFEEEEEEFFFFFFFFFFFFF1F1F1FFFFFFFFFFFFFBFBFBFFFFFF
310
FFFFFFF1F1F1FBFBFBEEEEEEFFFFFFF7F7F7F5F5F5FFFFFFFFFFFFFBFBFBF1F1
310
F1FFFFFFF5F5F5FFFFFFF3F3F3FEFEFEFBFBFBFFFFFFFEFEFE484848D9D9D9FF
310
FFFFFEFEFEF0F0F0393939D6D6D6FFFFFFFAFAFAFFFFFFFCFCFCF9F9F9FFFFFF
310
FFFFFFFAFAFAFFFFFFFAFAFAF6F6F6FFFFFFFFFFFFFCFCFCF8F8F8FFFFFFF8F8
310
F8FFFFFFFDFDFDEDEDEDF7F7F7F8F8F8F3F3F3FFFFFFF7F7F7FAFAFAFBFBFBFE
310
FEFEFEFEFEEEEEEE0000FBFBFBFFFFFFB2B2B2E7E7E7FFFFFFFDFDFD9E9E9EF9
310
F9F9F9F9F9FFFFFFFEFEFEA2A2A2FDFDFDF6F6F6FBFBFBA9A9A9F6F6F6FFFFFF
310
FFFFFFF7F7F7A2A2A2FEFEFEFBFBFBEDEDEDC3C3C3FFFFFFF7F7F79F9F9FF2F2
310
F2FFFFFFFFFFFFCECECE5656563232328E8E8EFFFFFFFFFFFFADADAD969696D1
310
D1D13B3B3B2A2A2A9A9A9AFFFFFFFCFCFCFDFDFDB3B3B3E2E2E2F4F4F4FFFFFF
310
E6E6E64F4F4F2222227B7B7BFFFFFFF9F9F9FFFFFFF7F7F7FFFFFFFFFFFFEAEA
310
EAF4F4F4D3D3D34242424647458D8E8CFFFFFEFFFFFED5D6D4B2B3B1F4F5F3FF
310
FFFEF5F6F4B5B6B4C5C6C4F4F3EFFFFFFCC2C2BC3B3834555450FCFDFB5B5B5B
310
D5D5D5D1D1D1BBBBBBF8F8F8989898F2F2F2FFFFFFFFFFFFE6E6E69F9F9FF1F1
310
F1FFFFFFD3D3D33C3C3C272727989898FFFFFFFCFCFCFEFEFEEAEAEAA9A9A938
310
3838444444CACACAF9F9F9F0F0F0BCBCBCD3D3D3F2F2F2D0D0D0BBBBBBF6F6F6
310
9D9D9DFFFFFFF5F5F5FEFEFEDDDDDDAFAFAFFFFFFFE9E9E9E2E2E24242423D3D
310
3DD8D8D8959595929292FDFDFD999999E9E9E9FFFFFFEDEDEDF8F8F86666662B
310
2B2B656565FFFFFFECECECFFFFFFF4F4F4CFCFCF3838382A2A2AA5A5A5F7F7F7
310
F1F1F1E2E2E2BDBDBDFEFEFEFFFFFFF2F2F2B7B7B7D4D4D4FFFFFFFFFFFFF3F3
310
F39898980000F6F6F6FFFFFF3B3B3BABABABF5F5F5FFFFFF0A0A0AEDEDEDFBFB
310
FBFBFBFBFEFEFE151515E3E3E3FDFDFDDBDBDB111111FFFFFFFFFFFFFFFFFFEB
310
EBEB090909FFFFFFF0F0F0B6B6B63D3D3DEFEFEFFFFFFF202020F0F0F0FAFAFA
310
CACACA0000009A9A9AB6B6B62E2E2E707070F4F4F4C2C2C2343434141414B0B0
310
B0D1D1D12626264E4E4EFCFCFCFFFFFF2B2B2BDDDDDDFFFFFFE5E5E508080872
310
7272D9D9D9626262313131FDFDFDFCFCFCFFFFFFE6E6E6FFFFFFFFFFFFB5B5B5
310
171717ACACACB3B4B22122206E6F6DF8F9F7A2A3A17F807EF1F2F0FFFFFEFFFF
310
FE787977B7B8B6FFFFFE797A7820211FC6C7C59394921313133F3F3FCACACACA
310
CACA666666FFFFFF2C2C2CFFFFFFFEFEFEFEFEFEBBBBBB5B5B5BFFFFFFD1D1D1
310
080808B5B5B5C9C9C92F2F2F626262DDDDDDFFFFFF8B8B8B2F2F2FC7C7C7AAAA
310
AA040404ACACACFFFFFF616161B5B5B5FDFDFD9393938A8A8ADEDEDE444444FC
310
FCFCFBFBFBFFFFFFC1C1C1575757EBEBEBDADADA000000919191B0B0B0272727
310
6969696F6F6FFFFFFF383838C9C9C9F8F8F8FCFCFC000000828282C2C2C25F5F
310
5F1C1C1CFFFFFFFBFBFBC5C5C50B0B0BA9A9A9C8C8C81B1B1B8A8A8AFFFFFF94
310
94946A6A6AFBFBFBFFFFFFFFFFFF797979ADADADFFFFFFFFFFFFF1F1F14C4C4C
310
0000FEFEFEFBFBFB111111717171FEFEFED8D8D8000000ACACACFFFFFFFEFEFE
310
D4D4D4040404A4A4A4FFFFFF9B9B9B000000DFDFDFFDFDFDFFFFFFA9A9A90000
310
00DCDCDCFAFAFA686868030303FFFFFFF2F2F2919191FFFFFFF2F2F2121212F4
310
F4F4FAFAFAFFFFFFFFFFFF1D1D1DE0E0E0CBCBCB080808C9C9C9FEFEFEF2F2F2
310
FDFDFD2C2C2CC6C6C6FFFFFF3F3F3FE8E8E8F8F8F83E3E3EB1B1B1FFFFFFFFFF
310
FFEFEFEF3B3B3BABABABFFFFFFFFFFFFFFFFFFFFFFFFFBFBFB1E1E1EE4E4E4FF
310
FFFFFFFFFEFFFFFE050604EEEFED969795868785FDFFFFFDFFFFFDFFFF6F7171
310
B1B3B3E9EBEB0C0E0EFAFCFCFDFFFFFDFFFFDDDDDD040404DBDBDBB3B3B36B6B
310
6BFFFFFF363636F8F8F8F9F9F9FFFFFFE0E0E04C4C4CECECEC2A2A2ADADADAFD
310
FDFDFAFAFAFFFFFF151515DDDDDDD6D6D61E1E1EFFFFFFF5F5F5FFFFFFDDDDDD
310
121212FFFFFF5A5A5AB1B1B1FFFFFF9E9E9E848484F2F2F2333333FFFFFFF7F7
310
F7FEFEFEC9C9C9606060FFFFFF020202DADADAFFFFFFFFFFFFFFFFFF0303038A
310
8A8AEAEAEAB4B4B4D5D5D5FAFAFA6A6A6AA0A0A0F9F9F9FFFFFFFFFFFF5A5A5A
310
858585F7F7F7000000DFDFDFFFFFFFE9E9E9FFFFFF0B0B0BE6E6E6C0C0C08A8A
310
8AF0F0F0FFFFFFFAFAFA737373A9A9A9FFFFFFFFFFFFFCFCFC4242420000FFFF
310
FFC1C1C1575757555555FFFFFF8787877E7E7E525252FFFFFFFFFFFF8787877C
310
7C7C646464FFFFFF5B5B5B7F7F7F8F8F8FFFFFFFFDFDFD5050508A8A8A969696
310
FFFFFF3D3D3D656565BCBCBCFFFFFFF3F3F3FFFFFFE0E0E0323232E4E4E4F6F6
310
F6FBFBFBEFEFEF9F9F9F7E7E7EC1C1C1303030FFFFFFFCFCFCFFFFFFFFFFFF9E
310
9E9E585858FFFFFF565656C6C6C6F8F8F8232323FFFFFFF7F7F7F8F8F8FFFFFF
310
E0E0E0464646FAFAFAEFEFEFFFFFFFFFFFFFBBBBBB676767FFFFFFFFFFFFF5F6
310
F4F6F7F5FFFFFEFCFDFBB6B7B56D6E6CFDFFFFE3E5E5FDFFFF717675BFC3C477
310
7B7C8F9394E8ECEDFBFFFFF9FDFEFDFFFF1C1C1CD2D2D2C6C6C6727272FAFAFA
310
323232FCFCFCFFFFFFF4F4F4CACACA797979EBEBEB535353FFFFFFFEFEFEFAFA
310
FAFFFFFFEFEFEFFBFBFB939393959595FFFFFFFFFFFFFFFFFFF3F3F3EBEBEBF7
310
F7F7636363D6D6D6E8E8E8A6A6A6868686FCFCFC383838FFFFFFFAFAFAFFFFFF
310
CECECE6D6D6DE4E4E43E3E3EFFFFFFF5F5F5F3F3F3F6F6F68888886F6F6FFFFF
310
FFFBFBFBFFFFFFF6F6F6070707FFFFFFE8E8E8FFFFFFF6F6F6E7E7E7F9F9F9D0
310
D0D0484848FFFFFFF6F6F6FFFFFFF2F2F27A7A7AA2A2A2A1A1A1848484FEFEFE
310
F8F8F8FFFFFF7E7E7EB3B3B3FEFEFEFFFFFFFFFFFF4040400000FEFEFE6F6F6F
310
C0C0C05E5E5EECECEC535353E5E5E5343434F0F0F0FFFFFF4A4A4AE3E3E34F4F
310
4FEFEFEF434343EFEFEF464646FFFFFFF0F0F02C2C2CF9F9F9595959E6E6E657
310
5757C4C4C4757575F3F3F3FFFFFFF5F5F5B7B7B7696969FFFFFFFFFFFFFFFFFF
310
FFFFFFB3B3B3575757DADADA565656FBFBFBFFFFFFE6E6E6FFFFFFC5C5C54545
310
45FFFFFF4C4C4CDEDEDEE8E8E82E2E2EFCFCFCFFFFFFFFFFFFFFFFFFDCDCDC2D
310
2D2DE2E2E23737370B0B0B828282BFBFBF3131315F5F5F5959596162605C5D5B
310
686967B2B3B1B5B7B77E8080F3F5F5FDFFFFF0F4F5747879BCBFC3515659BCC1
310
C4FAFFFFEDF2F5FAFFFFF8FAFB858585ABABABB7B7B76B6B6BFFFFFF323232FF
310
FFFFFFFFFFF9F9F9D9D9D9474747C9C9C91E1E1E5B5B5B6E6E6E636363565656
310
7777778F8F8F6060605050505D5D5D5353535959595F5F5F676767E1E1E16767
310
67B8B8B8FFFFFFA0A0A0828282EEEEEE383838FDFDFDFFFFFFFFFFFFC5C5C561
310
6161AEAEAE707070FEFEFEFFFFFFFFFFFFEEEEEEC9C9C9656565EFEFEFFCFCFC
310
F1F1F1FFFFFF373737FFFFFFFFFFFFFDFDFDFFFFFFFFFFFFFEFEFE8F8F8F6D6D
310
6DFFFFFFF2F2F2F4F4F4F6F6F6D8D8D8606060C6C6C6838383FFFFFFFFFFFFF0
310
F0F0787878B7B7B7FBFBFBFFFFFFFCFCFC3535350000FBFBFB383838FFFFFF74
310
7474C0C0C0515151F7F7F74F4F4FDDDDDDF4F4F4343434F6F6F65A5A5AD1D1D1
310
4B4B4BFFFFFF272727FBFBFBE8E8E83A3A3AFFFFFF3C3C3CB4B4B4898989F9F9
310
F9292929FFFFFFEEEEEEFFFFFFB1B1B1535353FEFEFEFEFEFEE8E8E8FFFFFFC0
310
C0C05D5D5DBEBEBE626262FDFDFDF8F8F8FFFFFFFFFFFFC4C4C4595959F2F2F2
310
545454D7D7D7EDEDED2E2E2EFFFFFFF7F7F7FFFFFFF6F6F6F3F3F3313131FFFF
310
FFBEBEBED2D2D2E9E9E9ABABAB3B3B3BCDCDCDB4B4B4B8B9B7CDCECC6D6E6C77
310
7876BBBDBD717373FDFFFFF6F8F8FBFFFF5D6162CED2D362676AA6ABAEEFF4F7
310
FAFFFFEDF2F5FDFFFF444444CFCFCFC2C2C27F7F7FEDEDED2F2F2FF7F7F7F0F0
310
F0FFFFFFCBCBCB5B5B5BDFDFDF333333D1D1D1B5B5B5ABABABC4C4C47C7C7C5A
310
5A5A868686828282B5B5B5BCBCBCB4B4B4CDCDCD373737C3C3C3707070C5C5C5
310
FFFFFF969696888888EFEFEF474747F6F6F6FFFFFFFFFFFFC6C6C6707070C3C3
310
C3636363FCFCFCFCFCFCF8F8F8FDFDFDACACAC5E5E5EFFFFFFFFFFFFF5F5F5ED
310
EDED292929FEFEFEFDFDFDFFFFFFF8F8F8FFFFFFFCFCFCB1B1B1717171F9F9F9
310
F8F8F8FFFFFFFFFFFFAAAAAA797979C0C0C07A7A7AF5F5F5FFFFFFFFFFFF7171
310
71B8B8B8FAFAFAFFFFFFFFFFFF3C3C3C0000FBFBFB2A2A2AFFFFFFCACACA2B2B
310
2B6E6E6EFEFEFE9393938F8F8FDADADA555555FDFDFDA0A0A02D2D2DA4A4A4FF
310
FFFF595959CACACA818181A0A0A0FFFFFF6868682F2F2FDEDEDEF9F9F93D3D3D
310
D7D7D7FFFFFFFEFEFEF5F5F5252525F7F7F7FFFFFFFFFFFFFAFAFA6E6E6EA0A0
310
A0C7C7C7000000FFFFFFFFFFFFF7F7F7FFFFFF4949499F9F9FFFFFFF484848DC
310
DCDCFCFCFC262626E5E5E5FFFFFFF7F7F7FFFFFF999999626262FFFFFFFCFCFC
310
FFFFFFFEFEFEE2E2E2121212FFFFFFFFFFFFFBFCFAFFFFFE545553BABBB9BEC0
310
C0525454F5F7F7FDFFFFF9FBFB585A5AD1D3D3ACB0B155595AF5F9FAF3F7F8FB
310
FFFFFDFFFF000000DADADAB9B9B9787878FCFCFC232323F6F6F6FFFFFFFDFDFD
310
BDBDBD595959FBFBFB1D1D1DF7F7F7FFFFFFFFFFFFF4F4F4585858A9A9A9ADAD
310
AD5F5F5FF4F4F4FFFFFFF8F8F8FFFFFF212121ECECEC5F5F5FB8B8B8FAFAFAA3
310
A3A3888888F1F1F1191919FFFFFFFEFEFEFFFFFFA5A5A57D7D7DF0F0F01C1C1C
310
FEFEFEFBFBFBFCFCFCFFFFFF4646467A7A7AFFFFFFF5F5F5FFFFFFFFFFFF2F2F
310
2FDADADAFFFFFFFDFDFDFFFFFFB7B7B7AAAAAAF1F1F1202020FBFBFBFDFDFDFF
310
FFFFFFFFFF4E4E4EB9B9B9C1C1C15A5A5AF3F3F3FFFFFFFFFFFF555555878787
310
FFFFFFFBFBFBFCFCFC41414100009D9D9D888888FFFFFFFFFFFF080808B5B5B5
310
EFEFEFE1E1E1555555686868C4C4C4FDFDFDE3E3E3000000DDDDDDF8F8F8ABAB
310
AB7979793E3E3EE5E5E5FFFFFFB3B3B30B0B0BF2F2F2FFFFFF626262BFBFBFFF
310
FFFFEEEEEEFBFBFB606060636363FEFEFEF8F8F8CCCCCC050505F1F1F1DCDCDC
310
060606494949FCFCFCFFFFFF989898171717FFFFFFFFFFFF585858C5C5C5FFFF
310
FF858585484848F6F6F6FFFFFFDCDCDC151515EEEEEEECECECFFFFFFF8F8F8FF
310
FFFFFFFFFF555555797979FFFFFFFFFFFEB1B2B00F100EF7F8F6C1C3C3000000
310
DBDDDDF0F2F2DDDFDF050604EFF0EEF4F5F30A0C0CC0C2C2FDFFFFF1F3F36B6B
310
6B0A0A0AC5C5C5D5D5D5616161FFFFFF0000008B8B8BFFFFFFFFFFFF282828C0
310
C0C0FFFFFF525252696969F2F2F2EFEFEFD4D4D40E0E0EFFFFFFFFFFFF171717
310
D9D9D9EDEDEDFAFAFA747474323232FFFFFF6C6C6C1C1C1CEFEFEFA0A0A08B8B
310
8BFEFEFE0202029B9B9BFFFFFFF3F3F31E1E1ED3D3D3FFFFFF343434696969FF
310
FFFFEEEEEEAFAFAF000000777777F2F2F2FFFFFFEEEEEEFAFAFAC1C1C1161616
310
FFFFFFF9F9F9E8E8E8050505D3D3D3F4F4F45353537B7B7BFAFAFAFBFBFBA8A8
310
A8282828FFFFFFA0A0A0000000E7E7E7F2F2F2DBDBDB000000393939E1E1E1F5
310
F5F5BBBBBB3131310000787878BABABAEFEFEFF9F9F9505050E7E7E7F3F3F3FF
310
FFFF2B2B2B3D3D3DEEEEEEFFFFFFFEFEFE434343FFFFFFFFFFFFDCDCDC464646
310
4B4B4BF3F3F3FFFFFFDDDDDD505050FFFFFFFBFBFBC4C4C4515151F9F9F9FFFF
310
FFF9F9F9FFFFFF4242420707072B2B2B050505EFEFEFFFFFFFB8B8B882828266
310
66660000001B1B1B282828ECECECFFFFFF0D0D0D0101010101018C8C8CFFFFFF
310
646464050505353535090909B3B3B3F1F1F1FDFDFDFFFFFFFFFFFFF1F1F1FFFF
310
FFEAEAEA4747471E1E1E1D1F1F1E2020CACCCCFDFFFFAFB0AE5D5E5C2E2F2D15
310
1614070806B3B2AEFFFFFCFDFCF8EFEEEA201F1B0B08032B2A26575856818181
310
BBBBBBB6B6B67B7B7BE6E6E65A5A5A595959151515000000686868FFFFFFE4E4
310
E4FAFAFA6060601A1A1A212121020202D0D0D0F3F3F3F8F8F8DBDBDB0B0B0B26
310
2626212121323232F7F7F7FBFBFB7979795B5B5B404040B7B7B7878787F7F7F7
310
434343555555131313000000888888F0F0F0FEFEFEFFFFFF4949490404042D2D
310
2D242424C3C3C3767676FDFDFDFFFFFFFDFDFDFFFFFFFAFAFA94949404040429
310
2929000000B6B6B6FFFFFFFFFFFFFFFFFF2828281F1F1F202020191919EFEFEF
310
FFFFFFC6C6C65A5A5A1D1D1D1313130D0D0DBBBBBBBBBBBB0F0F0F0E0E0E0505
310
05F5F5F50000F1F1F1FEFEFEFFFFFFFBFBFBF0F0F0FFFFFFFFFFFFFFFFFFFFFF
310
FFF6F6F6F6F6F6F0F0F0FFFFFFF1F1F1FFFFFFF7F7F7FEFEFEE3E3E3FDFDFDF1
310
F1F1FFFFFFFFFFFFFBFBFBF4F4F4FFFFFFFAFAFAF8F8F8FFFFFFF6F6F6FFFFFF
310
FFFFFFFFFFFFDDDDDDC2C2C2FFFFFFF5F5F5FFFFFFFFFFFFE7E7E7FDFDFDEBEB
310
EBE0E0E0FAFAFAEFEFEFFFFFFFFFFFFF4E4E4EE1E1E1FFFFFFF4F4F4FBFBFBE3
310
E3E3C6C6C6EDEDEDFFFFFFFFFFFFFFFFFFF4F4F4FFFFFFFFFFFFF0F0F0FFFFFF
310
FCFCFCDBDBDBD0D2D2F8FAFAFDFFFFFDFFFFF0F1EFFFFFFEFFFFFEDDDCD8FFFF
310
FCF1EEE9FFFFF9F5F2EAFFFFF9FFFFF8DCD7CEEFECE4FFFFFEFFFFFFFFFFFFFD
310
FDFDF7F7F7FFFFFFFFFFFFECECECE7E7E7FFFFFFFDFDFDF1F1F1FFFFFFFFFFFF
310
FFFFFFCBCBCBD0D0D0FFFFFFFFFFFFFDFDFDFFFFFFFFFFFFFFFFFFD5D5D5CDCD
310
CDFFFFFFF4F4F4FFFFFFEDEDEDFCFCFCF2F2F2FCFCFCFAFAFAF7F7F7FFFFFFF7
310
F7F7E1E1E1F5F5F5F8F8F8FFFFFFF3F3F3FFFFFFFFFFFFDBDBDBEAEAEAEEEEEE
310
F5F5F5F8F8F8FFFFFFEBEBEBF5F5F5F1F1F1FFFFFFFBFBFBFFFFFFBDBDBDFFFF
310
FFF0F0F0F5F5F5FEFEFEF5F5F5FFFFFFD0D0D0CBCBCBFAFAFAFDFDFDF1F1F1FB
310
FBFBFBFBFBFFFFFFE8E8E8F8F8F8FFFFFFFFFFFFE5E5E5DFDFDFFFFFFFF3F3F3
310
0000FFFFFFFCFCFCFAFAFAFFFFFFFFFFFFF5F5F5F7F7F7FAFAFAE5E5E5FFFFFF
310
FFFFFFF8F8F8FFFFFFFFFFFFECECECFFFFFFFFFFFFFFFFFFFFFFFFFFFFFFF8F8
310
F8EBEBEBF9F9F9FFFFFFFFFFFFFFFFFFF0F0F0F7F7F7FFFFFFF9F9F9E7E7E7FF
310
FFFFF8F8F8FFFFFFFDFDFDF2F2F2FFFFFFFFFFFFF0F0F0FFFFFFFFFFFFF6F6F6
310
FFFFFFFFFFFFF6F6F6FFFFFF323232D4D4D4FBFBFBE6E6E6FFFFFFFFFFFFFAFA
310
FAF3F3F3FFFFFFECECECFFFFFFF0F0F0F5F5F5FFFFFFFFFFFFFEFEFEFDFDFDFF
310
FFFFF7F9FAFAFEFFECF1F0EEF0F0FFFFFEFFFFFEF9F8F4FFFFFBFFFEF6FFFEF5
310
FFFEF3FFFFF7FFF7EAFFF8EBFFFFF5FAF4E9FFFEFAF1F1F1FBFBFBB8B8B87979
310
79FFFFFFF5F5F5FFFFFFFFFFFFECECECFFFFFFF6F6F6FBFBFBF4F4F4ECECECFF
310
FFFFFDFDFDF1F1F1FEFEFEFBFBFBFDFDFDFFFFFFF4F4F4FEFEFEFFFFFFFFFFFF
310
F2F2F2FFFFFFFFFFFFF5F5F5FFFFFFA4A4A47D7D7DFFFFFFF7F7F7FFFFFFFDFD
310
FDFFFFFFEAEAEAFFFFFFFAFAFAFFFFFFEEEEEEFFFFFFEEEEEEFFFFFFFFFFFFFF
310
FFFFFFFFFFFFFFFFFFFFFFF9F9F9F6F6F6FAFAFAF7F7F7FFFFFFFCFCFCFFFFFF
310
F2F2F2FFFFFFFFFFFFF7F7F7FAFAFAFFFFFFFFFFFFFFFFFFFAFAFAF9F9F9F9F9
310
F9FAFAFAEAEAEAFFFFFFEDEDEDF6F6F6FFFFFFFFFFFFF6F6F6FFFFFF0000F8F8
310
F8F4F4F4F2F2F2FFFFFFFDFDFDFFFFFFFFFFFFFFFFFFFFFFFFFAFAFAFFFFFFED
310
EDEDFBFBFBFFFFFFF7F7F7FFFFFFF3F3F3FFFFFFFFFFFFF1F1F1FEFEFEFFFFFF
310
FFFFFFFFFFFFFFFFFFFAFAFAFFFFFFFFFFFFFFFFFFFFFFFFFFFFFFFFFFFFFFFF
310
FFFCFCFCFFFFFFFFFFFFF4F4F4F8F8F8FEFEFEF2F2F2FDFDFDFFFFFFF9F9F9F7
310
F7F7FCFCFCFFFFFF898989D5D5D5FCFCFCFFFFFFF7F7F7FBFBFBFFFFFFFFFFFF
310
FFFFFFF9F9F9FEFEFEFFFFFFFFFFFFF6F6F6EBEBEBFFFFFFF5F5F5FDFFFFFBFF
310
FFFBFFFFFBFFFFFBFFFFF1F2F0F5F4F0FFFFFAFFFEF6FFFBF2FFFFF7FFFFF5F4
310
EBDDFFFFF4FFFFF2FFFFEFFFFFF5FFFFFCFFFFFFFFFFFFB8B8B8787878FFFFFF
310
FFFFFFFEFEFEFBFBFBFFFFFFFFFFFFFCFCFCFFFFFFFFFFFFFCFCFCFFFFFFFCFC
310
FCFFFFFFFCFCFCFFFFFFFFFFFFFBFBFBFFFFFFFAFAFAF5F5F5FFFFFFFFFFFFEB
310
EBEBFFFFFFFFFFFFF3F3F3ADADADA1A1A1F8F8F8FFFFFFFFFFFFDFDFDFFFFFFF
310
FFFFFFFFFFFFFFFFFFF4F4F4FFFFFFF7F7F7FFFFFFF9F9F9FFFFFFE8E8E8F7F7
310
F7F1F1F1F1F1F1FFFFFFFFFFFFF2F2F2FFFFFFF9F9F9ECECECFFFFFFFFFFFFE5
310
E5E5FFFFFFFFFFFFF4F4F4FFFFFFF3F3F3FCFCFCFFFFFFFFFFFFFFFFFFFFFFFF
310
F7F7F7FEFEFEFFFFFFFCFCFCF4F4F4FAFAFAF7F7F7FFFFFF0000FFFFFFFDFDFD
310
FFFFFFFEFEFEFBFBFBF8F8F8FFFFFFEFEFEFF9F9F9F1F1F1FFFFFFFFFFFFFAFA
310
FAF6F6F6F7F7F7FFFFFFFFFFFFF3F3F3FEFEFEF4F4F4FFFFFFF4F4F4F4F4F4FB
310
FBFBFFFFFFF6F6F6FFFFFFFFFFFFEEEEEEFBFBFBFFFFFFF9F9F9FFFFFFFEFEFE
310
EEEEEEF8F8F8F7F7F7FFFFFFF8F8F8FFFFFFFBFBFBFFFFFFFFFFFFFFFFFFFFFF
310
FFF9F9F9EFEFEFFFFFFFFCFCFCFAFAFAFFFFFFFEFEFEFFFFFFF3F3F3FDFDFDFF
310
FFFFFFFFFFF5F5F5FBFBFBFFFFFFF7F7F7FFFFFFF4F4F4FDFFFFFBFFFFE6EBEC
310
F1F5F6FBFFFFFDFEFCFFFFFCFFFFFBFDFAF2E5DFD4D5CDC0CDC4B6E5DBCAD2C6
310
B4FFFFEFF4E6D3FFFCEEFFFFFAF8F8F8F0F0F0FFFFFFFFFFFFF5F5F5FEFEFEF5
310
F5F5FFFFFFFFFFFFF4F4F4FFFFFFFFFFFFF8F8F8FFFFFFF5F5F5FFFFFFFFFFFF
310
F5F5F5FFFFFFFFFFFFF2F2F2FFFFFFFFFFFFFFFFFFE5E5E5FFFFFFFFFFFFE7E7
310
E7FFFFFFFFFFFFFFFFFFFFFFFFE6E6E6FEFEFEFFFFFFFFFFFFFFFFFFF3F3F3FD
310
FDFDF8F8F8F2F2F2FFFFFFFFFFFFFFFFFFFFFFFFFFFFFFFFFFFFFDFDFDFFFFFF
310
FFFFFFEFEFEFFFFFFFFBFBFBEEEEEEFEFEFEFFFFFFEDEDEDFFFFFFFFFFFFEEEE
310
EEFFFFFFFBFBFBFFFFFFFFFFFFFFFFFFF7F7F7FFFFFFFFFFFFFBFBFBFEFEFEFE
310
FEFEFAFAFAFFFFFFF9F9F9F5F5F5FFFFFFFFFFFF0000FFFFFFF7F7F7FFFFFFFF
310
FFFFFEFEFEFFFFFFFFFFFFFFFFFFFFFFFFFFFFFFFFFFFFEBEBEBFFFFFFFFFFFF
310
FFFFFFF8F8F8F5F5F5FFFFFFF8F8F8FFFFFFFFFFFFF0F0F0FFFFFFFDFDFDFFFF
310
FFFFFFFFF5F5F5FFFFFFFFFFFFF6F6F6FFFFFFF9F9F9F8F8F8FCFCFCFFFFFFFE
310
FEFEFFFFFFF9F9F9FFFFFFF7F7F7FFFFFFFAFAFAF7F7F7FFFFFFFFFFFFFFFFFF
310
FFFFFFFCFCFCFFFFFFFEFEFEFFFFFFF5F5F5FFFFFFF2F2F2FFFFFFF5F5F5F3F3
310
F3FFFFFFFEFEFEF4F4F4FFFFFFF2F2F2FCFCFCFDFFFFF1F5F6FBFFFFF7FBFCFB
310
FFFFFAFCFCF0F1EFFFFFFBFFFFF7F5ECDED0C4B2D2C4AEE0CFB5DCC9AED2BDA1
310
EFD9BDD9C5ACDDD0C0FFF7EDFFFFF6FFFAF3FFFFFBFFFFFCF8F6F5FFFFFFF8FA
310
FBFBFDFEFDFFFFFDFFFFEEF0F0FDFFFFF5F6F4FFFFFEFDFFFFFDFFFFFBFDFDFD
310
FFFFFCFEFEFBFBFBFEFEFEFFFFFFF7F7F7FFFFFFFEFEFEFDFDFDFFFFFFF9F9F9
310
FFFFFFF2F2F2F7F7F7FFFFFFFDFDFDFFFFFFF0F0F0FFFFFFFFFFFFFFFFFFFCFC
310
FCFFFFFFF6F6F6F5F5F5FEFEFEFCFCFCFFFFFFFBFBFBFFFFFFE9E9E9FFFFFFFF
310
FFFFF8F8F8FFFFFFFFFFFFFFFFFFF6F6F6FFFFFFF4F4F4FFFFFFFAFAFAFFFFFF
310
FFFFFFFAFAFAFFFFFFF2F2F2FFFFFFFFFFFFF6F6F6FEFEFEFFFFFFFFFFFFFBFB
310
FBF8F8F8FFFFFFFFFFFFF1F1F1F9F9F90000FDFDFDFFFFFFFFFFFFFFFFFFFCFC
310
FCFCFCFCFFFFFFFFFFFFFFFFFFFFFFFFFFFFFFFFFFFFFFFFFFFFFFFFFFFFFFFF
310
FFFFF5F5F5FFFFFFEBEBEBBABABACBCBCBD6D6D6BABABAD6D6D6D2D2D2CBCBCB
310
CECECED0D0D0CACACACCCCCCD1D1D1CDCDCDCCCCCCCECECEC5C5C5FFFFFFFBFB
310
FBFDFDFDFFFFFFFBFBFBFFFFFFFFFFFFFFFFFFFFFFFFFFFFFFFFFFFFFFFFFFFF
310
FFFFFFFFFFFFFFFFFFFFFFFFFFFFFFFFFFFFFFFFFFFFFFFFFFFFF2F2F2FEFEFE
310
FFFFFFFFFFFFFFFFFFFFFFFFFEFEFEF8F8F8FDFFFFFAFCFCF1F6F7F2F7FAF9FE
310
FFFBFFFFFFFFFCFFFCF1F7E9D6DEC9AEE5CAA8ECCDA6EDCBA0EFCCA0EBC69AF0
310
CCA4F6D3B1E1C3A6DFC4AAFDE8D3FFFFF4FFFFF8FBF6F3FAF9FBEFF4F7F1F7FC
310
F5FBFFF7FEFFFAFFFFFBFFFEFDFFFCFCFFFBF1F6F4FBFFFFF9FEFDF2F7F6F7FC
310
FBFBFDFDF9FBFBFCFEFEFCFCFCFCFCFCFEFCFCFFFDFDFFFDFDFFFDFDFFFDFEFF
310
FEFEFDFDFDFDFDFDFDFDFDFDFDFDFDFDFDFDFDFDFDFDFDFDFDFDFDFDFDFDFDFD
310
FDFDFDFDFDFDFDFDFDFDFDFDFDFDFDFDFDFDFEFEFEFDFDFDFCFCFCFCFCFCFCFC
310
FCFCFCFCFDFDFDFEFEFEFDFDFDFDFDFDFDFDFDFDFDFDFDFDFDFDFDFDFDFDFDFD
310
FDFDFBFBFBFCFCFCFCFCFCFDFDFDFDFDFDFEFEFEFEFEFEFEFEFEFFFFFFF3F3F3
310
FFFFFFFAFAFAF8F8F8FDFDFD0000FBFBFBFDFDFDFFFFFFFFFFFFFFFFFFFFFFFF
310
FEFEFEFDFDFDFFFFFFFFFFFFFFFFFFFFFFFFFFFFFFFFFFFFFFFFFFFFFFFFFFFF
310
FFFDFDFDEAEAEA8F8F8F8080807A7A7A8D8D8D8585858282827E7E7E83838386
310
86868080808282828585857F7F7F8585858585858F8F8FF7F7F7FBFBFBFDFDFD
310
FFFFFFFFFFFFFFFFFFFFFFFFFFFFFFFFFFFFFFFFFFFFFFFFFFFFFFFFFFFFFFFF
310
FFFFFFFFFFFFFFFFFFFFFFFFFFFFFFFFFFFFFFFFFFFFFFFFFFFFFFFFFAFAFAF6
310
F6F6FBFBFBFFFFFFFFFFFFFFFFFFF5F6F4FCFEFEFAFFFFF8FFFFF7FDFFF4F7FB
310
FDFBFAFFFFF7F6E7D4DFC7A9E7C7A3F0CB9FF2C99CF4CA9BECC293F1C79AE9BE
310
93FDD4ADF4CFADDABC9FDDC5B1F3E3D6FFFCF5FFFFFEFBFFFFF6FDFFEDF3F8F2
310
F9FCF7FFFEF7FEFBF9FFFAFBFFFCFBFFFEFAFFFFF2F8F7F5FBFAFBFFFFFBFFFF
310
FDFFFFF2F4F4FEFEFEFEFEFEFFFFFFFFFFFFFFFEFFFFFEFFFFFEFFFFFFFFFFFF
310
FFFFFFFFFFFFFFFFFFFFFFFFFFFFFFFFFFFFFFFFFFFFFEFEFEFEFEFEFEFEFEFE
310
FEFEFEFEFEFEFEFEFEFEFEFEFEFEFFFFFFFFFFFFFFFFFFFEFEFEFEFEFEFFFFFF
310
FFFFFFFFFFFFFCFCFCFCFCFCFCFCFCFCFCFCFCFCFCFCFCFCFCFCFCFCFCFCFEFE
310
FEFEFEFEFEFEFEFFFFFFFFFFFFFFFFFFFFFFFFFFFFFFF6F6F6F1F1F1FFFFFFFF
310
FFFFFFFFFFFEFEFE0000FFFFFFFEFEFEFEFEFEFFFFFFFFFFFFFFFFFFFEFEFEFC
310
FCFCFFFFFFFFFFFFFFFFFFFFFFFFFFFFFFFFFFFFFFFFFFFFFFFFF9F9F9FFFFFF
310
EBEBEBCBCBCB7070708484849494948080808989898686868D8D8D9292928D8D
310
8D8E8E8E9090908989898F8F8F878787919191FFFFFFFFFFFFFFFFFFFAFAFAFA
310
FAFAFFFFFFFFFFFFFFFFFFFFFFFFFFFFFFFFFFFFFFFFFFFFFFFFFFFFFFFFFFFF
310
FFFFFFFFFFFFFFFFFFFFFFFFFFFFFFFFFFFFFBFBFBFEFEFEFFFFFFFFFFFFFFFF
310
FFF8F8F8F6F6F6F9F9F9FFFFFEFFFFFEF6FAFBF0F5F8EEF4F9F6F9FDFFFFFEFF
310
FFF8FAECDADFCAAFE3C7A5E9C8A1EDC9A1F6D3A8F4D0A8FCD5AEEDC399FAD0A6
310
F4CEABE8C9AAE3CAB0DFCBB9DED2C6E8E0D9FEFBF7FBFCFAFAFCFCFAFFFEFBFF
310
FEFBFFFCFDFFFBFAFFFBFBFFFEF7FDFCFBFFFFFBFFFFFBFFFFEAEFEEFDFFFFFD
310
FFFFFDFDFDFDFDFDFFFDFDFFFDFDFFFDFDFFFDFDFFFBFCFEFCFCFFFDFDFDFDFD
310
FDFDFDFDFDFDFDFDFDFDFDFDFDFDFDFDFDFDFDFDFDFDFDFDFDFDFDFDFDFDFDFD
310
FDFDFDFDFDFDFDFDFDFDFDFDFDFDFDFDFDFDFDFDFDFDFDFDFDFDFDFDFDFDFDFD
310
FDFDFFFFFFFFFFFFFFFFFFFFFFFFFFFFFFFFFFFFFFFFFFFFFFFFFCFCFCFCFCFC
310
FCFCFCFDFDFDFDFDFDFDFDFDFEFEFEFEFEFEFFFFFFFFFFFFFDFDFDFFFFFFFAFA
310
FAFAFAFA0000FFFFFFFFFFFFFFFFFFFEFEFEFCFCFCFDFDFDFFFFFFFFFFFFFFFF
310
FFFFFFFFFFFFFFFFFFFFFFFFFFFFFFFFFFFFFFFFFFFFF6F6F6FFFFFFFAFAFAFF
310
FFFF9E9E9E8A8A8A8C8C8C8181818282827F7F7F8585858A8A8A858585878787
310
8A8A8A848484909090898989929292FFFFFFFFFFFFFDFDFDFDFDFDFFFFFFFFFF
310
FFFFFFFFFFFFFFFFFFFFFFFFFFFFFFFFFFFFFFFFFFFFFFFFFFFFFFFFFFFFFFFF
310
FFFFFFFFFFFFFFFFFFFFFFFFFFFFFDFDFDFCFCFCFFFFFFFFFFFFFFFFFFFDFDFD
310
FFFFFFFFFFFEFCFBF7F8F9F7F6FAFBFAFFFFF8FEFFFAFFFFFFFFFFFFFDF6F0E3
310
D5DAC8B1E3CBAFE9CCADEACBAAEBCCABDEBF9EDEBE9BFED7B0F4CBA4E6C19BE8
310
C8A5EBCEB3D8C2A9D0BEADDBD0C2E8E2D7FFFEF6FFFFFBFFFFFCFDFEFAFDFFFC
310
FDFFFCF5FBF6F9FEFCE9EFEEF4F9F8F6FBFAFBFFFFFBFFFFF4F6F6F4F6F6FFFF
310
FFFFFFFFFFFFFFFFFFFFFFFEFEFFFEFEFFFDFEFFFEFEFEFEFEFEFEFEFEFEFEFE
310
FEFEFEFEFEFEFEFEFEFEFEFEFEFEFFFFFFFFFFFFFFFFFFFFFFFFFFFFFFFFFFFF
310
FFFFFFFFFFFFFEFEFEFEFEFEFFFFFFFFFFFFFFFFFFFFFFFFFEFEFEFEFEFEFDFD
310
FDFDFDFDFDFDFDFDFDFDFDFDFDFDFDFDFDFDFDFDFDFDFEFEFEFEFEFEFEFEFEFE
310
FEFEFEFEFEFFFFFFFFFFFFFFFFFFF7F7F7FFFFFFF4F4F4FFFFFFFFFFFFFEFEFE
310
0000F8F8F8FEFEFEFFFFFFFFFFFFFEFEFEFCFCFCFFFFFFFFFFFFFFFFFFFFFFFF
310
FFFFFFFFFFFFFFFFFFFFFFFFFFFFFFFFFFFFFFFFFFF9F9F9FFFFFFF5F5F5DDDD
310
DD7575758585858888888989898383838888888B8B8B8686868A8A8A8F8F8F8A
310
8A8A818181878787929292F7F7F7F7F7F7FAFAFAFFFFFFFFFFFFFFFFFFFFFFFF
310
FFFFFFFFFFFFFFFFFFFFFFFFFFFFFFFFFFFFFFFFFFFFFFFFFFFFFFFFFFFFFFFF
310
FFFFFFFFFFFFFFFFFFFFFFFFFFFFFFFFFAFAFAFEFEFEFFFFFFFFFFFFF8F8F8F4
310
F5F3FFFFFBFFFFFCFDFFFFFAFFFFF2F8FDEEF2F7F3F5F6FFFBF8F6ECE2DDCDBC
310
DEC9B3DBC3ABD9C1A9E5CDB5E4CDB7F0D5BBE1BE9CF1CCA6EDC9A5E1C19EE3C6
310
A7E5CAAFE0CAB1DECDB8D7CBB9E6DDCFF7F1E6FDFAF2FFFFF9FFFFFCFDFFFCFA
310
FFFDFBFFFFFBFFFFFBFFFFF5FAF9F4F6F6FDFFFFEDEFEFFDFFFFFFFFFFFFFFFF
310
FFFFFFFFFFFFFFFFFFFFFFFFFFFFFFFFFFFFFFFFFFFFFFFFFFFFFFFFFFFFFFFF
310
FFFFFFFFFFFFFFFFFFFFFFFFFFFFFFFFFFFFFFFFFFFFFFFFFFFFFFFFFFFFFFFF
310
FFFFFFFFFFFFFFFFFFFFFFFFFFFFFFFFFFFFFFFFFFFFFFFFFFFFFFFFFFFFFFFF
310
FFFFFFFFFFFFFFFFFFFFFFFFFFFFFFFFFFFFFFFFFFFFFFFFFFFFFFFFFFFFFFFF
310
FFFFFFFFFFFFFFFFFFFFFFFFFFFFFFFFFBFBFBFFFFFFFEFEFEF8F8F80000E2E2
310
E2EDEDEDFBFBFBFFFFFFFFFFFFFFFFFFFDFDFDFCFCFCFFFFFFFFFFFFFFFFFFFF
310
FFFFFFFFFFFFFFFFFFFFFFFFFFFFFFFFFFF4F4F4FAFAFAFDFDFDFFFFFFA1A1A1
310
8A8A8A9696968989898282828686868888888282828686868C8C8C8888888585
310
859090909F9F9FFFFFFFFDFDFDFCFCFCFEFEFEF9F9F9FFFFFFFFFFFFFFFFFFFF
310
FFFFFFFFFFFFFFFFFFFFFFFFFFFFFFFFFFFFFFFFFFFFFFFFFFFFFFFFFFFFFFFF
310
FFFFFFFFFFFFFAFAFAFFFFFFFFFFFFFFFFFFFEFEFEFFFFFFFFFFFFFFFFFEFFFC
310
F8FEFDF9FAFCFCF4F7FBECF0F5E1E5EAD8DADBD5D3D2C0B9B0B9ADA1D2C2B2DD
310
CBBAE1CFBEE7D7C7DFCFC2E5D1BFE8CCAEEFCFACEBCAA9EACBAAF0D3B4E7CDAF
310
D7C1A5D3BFA6D5C7B1CBBFADDBD3C6FFFBF2FFFFFBF2F3EFDDE2E0DDE3E2D4D9
310
D8DDE2E1E6EBEAE2E7E6DCDEDEECEEEEEAECECC5C7C7C9C9C9C9C9C9C9C9C9CA
310
CACACCCACACDCBCBCDCBCBCDCBCBCACACACACACACACACACACACACACACACACACA
310
CACACACACACAC8C8C8C8C8C8C8C8C8C8C8C8C8C8C8C8C8C8C8C8C8C8C8C8C8C8
310
C8C9C9C9CBCBCBCCCCCCCCCCCCCBCBCBC9C9C9C8C8C8CCCCCCCCCCCCCCCCCCCC
310
CCCCCCCCCCCCCCCCCCCCCCCCCCCCCBCBCBCBCBCBCBCBCBCACACACACACACACACA
310
C9C9C9C9C9C9CBCBCBBFBFBFF4F4F4FAFAFAFCFCFCF6F6F60000D3D3D3D9D9D9
310
E4E4E4F3F3F3FEFEFEFFFFFFFFFFFFFBFBFBFFFFFFFFFFFFFFFFFFFFFFFFFFFF
310
FFFFFFFFFFFFFFFFFFFFFFFFFFFFFFFFF5F5F5FFFFFFFAFAFADEDEDE8C8C8C7E
310
7E7E8A8A8A8585858A8A8A8C8C8C8787878989898D8D8D8787877E7E7E808080
310
8F8F8FFFFFFFFFFFFFFEFEFEFFFFFFFFFFFFFFFFFFFFFFFFFFFFFFFFFFFFFFFF
310
FFFFFFFFFFFFFFFFFFFFFFFFFFFFFFFFFFFFFFFFFFFFFFFFFFFFFFFFFFFFFFFF
310
FFFFFCFCFCFFFFFFFFFFFFF7F7F7F8F8F8FFFFFFFFFFFFF7F5F4CAC7C295928D
310
4849470E1213000004000004000307060606100C070B02000F0300190D01372B
310
2172675FA49B97D0C4BAE2CAB6E8CDB3E0C5AADEC3A8E3C8ADDFC7ABDCC5ABE3
310
CFB6DAC9B4D6CAB8E4DCCFFDF8EFFFFFFCF7F9F9ECF1F2ECF4F4F2F6F7E6E8E8
310
DDDFDFEDEFEFE5E7E7D2D4D4FDFFFF4D4F4F4242424242424343434444444545
310
4546464647474748484845454545454545454545454545454545454545454545
310
4545434343434343434343434343434343434343434343434343434343444444
310
4646464747474747474646464444444343433D3D3D3D3D3D3D3D3D3D3D3D3D3D
310
3D3D3D3D3D3D3D3D3D3D46464646464645454545454545454544444444444444
310
4444383838434343DEDEDEFFFFFFFFFFFFFEFEFE0000D0D0D0CCCCCCCFCFCFDE
310
DEDEF4F4F4FFFFFFFFFFFFFFFFFFFFFFFFFFFFFFFFFFFFFFFFFFFFFFFFFFFFFF
310
FFFFFFFFFFFFFFFFFFF6F6F6FFFFFFF7F7F7FEFEFEFFFFFFBFBFBF8686868A8A
310
8A8686868C8C8C9090908A8A8A8A8A8A8C8C8C8484849C9C9C8B8B8B909090FF
310
FFFFFFFFFFF9F9F9F9F9F9FFFFFFFFFFFFFFFFFFFFFFFFFFFFFFFFFFFFFFFFFF
310
FFFFFFFFFFFFFFFFFFFFFFFFFFFFFFFFFFFFFFFFFFFFFFFFFFFFFFFFFFFFFFFF
310
FFFDFDFDFAFAFAFFFFFFFFFFFFDFDFDF7373730D0B0A04010004010000010000
310
010200030801050A0003070101010D0805090100170E05120900090100080300
310
0601020F08056A5A4DC6B2A0F5E1CFE2CDB8D8C3ADE9D4BEEFDAC4E0CFBAFFFF
310
F0FFFFF0DFD6CC88857D3E3F3D1B1F20060C110000040000010000000001010A
310
0C0C000000080A0AFDFFFF595B5B4B4B4B4B4B4B4C4C4C4E4E4E505050515151
310
5252525353534F4F4F4F4F4F4F4F4F4F4F4F4F4F4F4F4F4F4F4F4F4F4F4F5151
310
515151515151515151515151515151515151515151514C4C4C4E4E4E50505051
310
51515151515050504E4E4E4C4C4C545454545454545454545454545454545454
310
5454545454545050505050505050504F4F4F4E4E4E4E4E4E4D4D4D4D4D4D4545
310
45404040F3F3F3FCFCFCFDFDFDEEEEEE0000D9D9D9D9D9D9D2D2D2CACACACFCF
310
CFE3E3E3F8F8F8FFFFFFFAFAFAFFFFFFFFFFFFFCFCFCF8F8F8FBFBFBFFFFFFFF
310
FFFFFFFFFFF8F8F8FFFFFFFFFFFFEFEFEFFFFFFFF8F8F89C9C9C858585858585
310
8484849292928181817F7F7F9A9A9A7C7C7C878787888888949494FFFFFFFFFF
310
FFFDFDFDFEFEFEFEFEFEFFFFFFFFFFFFFFFFFFFFFFFFFFFFFFFFFFFFFFFFFFFF
310
FFFFFFFFFFF6F6F6FFFFFFFBFBFBFFFFFFFAFAFAFFFFFFF7F7F7FDFDFDFAFAFA
310
FEFEFEDFDFDF5C5C5C0000000C0C0C0200000401000E0B06070806090D0E050A
310
0D00010605080C030303060100070100160E0719110A0500000D08090A0B0F00
310
0001130A060C0200675B4FCDC0B2CCBDADFFF0E0FFFAE8EADDCD695E502D241A
310
07020007060200020200000300070E0000050408090000000606060606060D0D
310
0D040404EFEFEF6969694C4E4E4D4F4F4F51515153535153534F51514D4F4F4C
310
4E4E5454545252525050505151515252525353535353535252524E4E4E4F4F4F
310
5151515353535353535151514F4F4F4E4E4E4F4F4F5050505050505151515151
310
515252525252525353535454545454545454545454545252525151514F4F4F4E
310
4E4E5454545353535252525151515151515252525353535454545151513D3D3D
310
ECECECFFFFFFF8F8F8FFFFFF0000CCCCCCD8D8D8DCDCDCD1D1D1C7C7C7CFCFCF
310
E4E4E4F5F5F5FFFFFFFFFFFFFAFAFAF8F8F8FEFEFEFFFFFFFFFFFFFBFBFBFFFF
310
FFF7F7F7FFFFFFFFFFFFF7F7F7FFFFFFFFFFFFCBCBCB8181818686867C7C7C86
310
86868787878989897777778F8F8F878787888888949494FFFFFFFFFFFFFDFDFD
310
FEFEFEFEFEFEFFFFFFFFFFFFFFFFFFFFFFFFFFFFFFFFFFFFFFFFFFFFFFFFFCFC
310
FCFFFFFFF8F8F8F4F4F4FBFBFBFFFFFFF6F6F6FFFFFFFFFFFFF5F5F583838301
310
01010000001010100909090806050D0A050B0803000100000203000407000003
310
0204050200000B0702170F080901000901000904010A07090000042021250200
310
001B16130701006A625BFFFFF8D0C7BE4E453B0F06000902000701000703000E
310
0D0906080801060903090E000005090B0C0404040A0A0A000000000000000000
310
FFFFFF626262494B4B4B4D4D4C4E4E4E50504E50504C4E4E4B4D4D494B4B5151
310
514F4F4F4E4E4E4E4E4E4F4F4F5050505050504F4F4F4B4B4B4D4D4D4E4E4E50
310
50505050504E4E4E4D4D4D4B4B4B515151515151515151515151525252525252
310
5252525252525050505151515151515151515050504F4F4F4D4D4D4D4D4D5050
310
504F4F4F4F4F4F4E4E4E4E4E4E4F4F4F4F4F4F5050504545453E3E3EEBEBEBFF
310
FFFFFEFEFEFFFFFF0000D2D2D2D4D4D4D2D2D2CFCFCFCFCFCFD3D3D3D5D5D5D4
310
D4D4E8E8E8F5F5F5FFFFFFFFFFFFFDFDFDFDFDFDFFFFFFFFFFFFFFFFFFF9F9F9
310
FEFEFEFFFFFFFDFDFDFFFFFFFFFFFFFAFAFAA7A7A78181818585858585858F8F
310
8F8B8B8B767676979797878787888888949494FFFFFFFFFFFFFDFDFDFEFEFEFE
310
FEFEFFFFFFFFFFFFFFFFFFFFFFFFFFFFFFFFFFFFFFFFFFFFFFFFFAFAFAFCFCFC
310
FFFFFFF7F7F7FFFFFFF6F6F6FFFFFFFFFFFFD0D0D02323230000000808080707
310
070202020000000405030504001615110A0C0C0105060000030001051010100B
310
08040701001D140A170D030B020017110C040000121115000004000203030303
310
CCCCCCEEECEB5B57560501000E0906050000181511100D090704000200000001
310
000303030608080A0A0A0303030200000A08080200000B0B0B0B0B0BFFFFFF5E
310
5E5E4B4D4D4C4E4E4D4F4F4E50504C51504B504F4A4F4E4B4D4D525252505050
310
4E4E4E4E4E4E5050505151515151515050504D4D4D4E4E4E4F4F4F5050505050
310
504F4F4F4E4E4E4D4D4D5050505050505050505050505050504F4F4F4F4F4F4F
310
4F4F4F4F4F5050505151515151515151515050505050504F4F4F4E4E4E4E4E4E
310
4F4F4F4F4F4F4F4F4F4F4F4F4E4E4E4E4E4E4C4C4C4E4E4EE3E3E3FEFEFEF9F9
310
F9FDFDFD0000D9D9D9D3D3D3CECECED0D0D0D8D8D8D9D9D9D1D1D1C7C7C7CDCD
310
CDE1E1E1F8F8F8FFFFFFFEFEFEFAFAFAFCFCFCFFFFFFFFFFFFFFFFFFFDFDFDFE
310
FEFEFFFFFFFBFBFBFDFDFDFFFFFFE7E7E78383838E8E8E8B8B8B8D8D8D7D7D7D
310
939393878787878787888888949494FFFFFFFFFFFFFDFDFDFEFEFEFEFEFEFFFF
310
FFFFFFFFFFFFFFFFFFFFFFFFFFFFFFFFFFFFFFFFFFFFFDFDFDF5F5F5FFFFFFFB
310
FBFBFFFFFFFFFFFFF7F7F7A7A7A7030303020202121212080808000000020202
310
0000000F100E0001000001000001001317181B2023242829757674C4C0BBAAA1
310
97887C7061544633271B130902070000161113030206101115F7FBFCBEC0C111
310
13140000011416170000010808080402020200000502000E0B071F1B16322C25
310
3E3831544E49605C5B5755555A5858514F4F585858525252EEEEEE5757573F41
310
413F41414042424143433F44433E43423D42413D424143454543434341414141
310
4141434343444444444444434343414141414141424242434343434343424242
310
4141414141414343434343434242424141414141414040404040404040404141
310
414141414343434343434444444444444444444343433F3F3F40404041414142
310
42424242424141414040403F3F3F3A3A3A4C4C4CD2D2D2FDFDFDFFFFFFFFFFFF
310
0000CFCFCFD4D4D4D9D9D9D9D9D9D3D3D3CFCFCFD1D1D1D6D6D6D1D1D1CFCFCF
310
D6D6D6E8E8E8FDFDFDFFFFFFFFFFFFF6F6F6FAFAFAFFFFFFFFFFFFFAFAFAFFFF
310
FFFFFFFFFBFBFBFFFFFFFFFFFFADADAD7F7F7F8989898282827B7B7B9696967D
310
7D7D878787888888949494FFFFFFFFFFFFFDFDFDFEFEFEFEFEFEFFFFFFFFFFFF
310
FFFFFFFFFFFFFFFFFFFFFFFFFFFFFFFFFFFFFEFEFEFFFFFFF3F3F3FBFBFBFEFE
310
FEFFFFFF8D8D8D12121202020200000000000000000007070700000009090902
310
02021C1D1B4043414E53524A4F503D40445B5D5EBEBCBBFFFFF9FAF1E4E5D6C6
310
E8D8C7F6E6D5BDAFA38A81780700003C3738FFFFFF8688890000010004050000
310
03000003000003040509000000393736A39F9AE1DAD1FEF5E8FFFFF2FFFFF1FF
310
FFF4FFFAF5FFFEFFFFFFFFFFFFFFFEFCFCF7F5F5FFFFFFD7D7D7E2E4E4E3E5E5
310
E1E6E5E1E6E5E1E6E5E1E6E5E0E6E5E0E5E4E6E8E8E6E6E6E4E4E4E4E4E4E6E6
310
E6E7E7E7E6E6E6E5E5E5E4E4E4E5E5E5E5E5E5E5E5E5E5E5E5E5E5E5E5E5E5E4
310
E4E4E9E9E9E9E9E9E8E8E8E8E8E8E7E7E7E6E6E6E6E6E6E6E6E6E3E3E3E4E4E4
310
E5E5E5E6E6E6E7E7E7E7E7E7E7E7E7E7E7E7E2E2E2E3E3E3E4E4E4E5E5E5E5E5
310
E5E4E4E4E3E3E3E2E2E2F0F0F0DFDFDFFFFFFFFCFCFCF4F4F4F8F8F80000D3D3
310
D3D1D1D1D2D2D2D5D5D5D5D5D5D3D3D3D4D4D4D7D7D7D6D6D6CECECECBCBCBD6
310
D6D6E7E7E7F4F4F4FAFAFAFDFDFDF7F7F7FFFFFFFFFFFFFBFBFBFFFFFFFFFFFF
310
FFFFFFFAFAFAFFFFFFF2F2F28383838787878080808F8F8F8080808B8B8B8787
310
87888888949494FFFFFFFFFFFFFDFDFDFEFEFEFEFEFEFFFFFFFFFFFFFFFFFFFF
310
FFFFFFFFFFFFFFFFFFFFFFFFFFFFFFFFFFFBFBFBFFFFFFFFFFFFFFFFFF878787
310
1717170000000000002626260909090000000909090000001414143232324A4D
310
4B4E53523E434451565795989CE5E7E7FFFFFCFFFFF8F5E8D8D9CAB7CCB9A4D9
310
C6B1DECEBEC9BBAFF0E6DFFFFCF7757372020301020404000001080D1005090E
310
070B1026292DDDDFE0E4E1DDFFFFF8EEE3D5D0BFACE4D0B7E3CBAFD5C0AAD8CE
310
C7E9E4E5FFFEFEFFFFFFFFFEFEFFFFFFF5F5F5FFFFFFFDFFFFFDFFFFFBFFFFFB
310
FFFFFBFFFFFBFFFFFAFFFFFBFFFFFDFFFFFFFFFFFEFEFEFEFEFEFFFFFFFFFFFF
310
FFFFFFFFFFFFFFFFFFFFFFFFFFFFFFFFFFFFFFFFFFFFFFFFFFFFFFFFFFFFFFFF
310
FFFFFFFFFFFFFFFFFFFFFFFFFFFFFFFFFFFFFFFFFFFFFDFDFDFEFEFEFFFFFFFF
310
FFFFFFFFFFFFFFFFFFFFFFFFFFFFFDFDFDFEFEFEFEFEFEFFFFFFFFFFFFFEFEFE
310
FEFEFEFDFDFDF2F2F2F0F0F0FEFEFEFFFFFFFFFFFFFFFFFF0000DCDCDCD1D1D1
310
CACACAD1D1D1D9D9D9D9D9D9D3D3D3D0D0D0D3D3D3D0D0D0D0D0D0D1D1D1D2D2
310
D2D7D7D7E8E8E8FAFAFAFBFBFBFEFEFEFFFFFFFFFFFFFFFFFFFFFFFFFFFFFFFC
310
FCFCF8F8F8FFFFFFBDBDBD8C8C8C8585859595957E7E7E949494878787888888
310
949494FFFFFFFFFFFFFDFDFDFEFEFEFEFEFEFFFFFFFFFFFFFFFFFFFFFFFFFFFF
310
FFFFFFFFFFFFFFFFFFFFFFFFFFECECECFFFFFFFFFFFFB5B5B512121200000014
310
14141515150000000000000C0C0C060606242424545454515151404242636867
310
A5AAABF9FEFFFBFFFFEEEEEEF4F0EBFFFFF7E8DAC8DFCCB7DEC8AFD7C2ACE4D0
310
BECDBDADFFFDF3736A6105010008070300010004060600000400000491979EFA
310
FEFF848484716D68BBB1A7DCCCBBD7C0A6F0D4B5ECCCA8D9BFA1CCC2B8D9D4D5
310
F8F3F4FFFEFFFBF9F9FCFAFAF0F0F0FFFFFFFCFEFEFBFDFDF9FEFDF8FDFCF7FD
310
FCF8FEFDF8FEFDFAFFFEFDFFFFFDFDFDFBFBFBFBFBFBFDFDFDFEFEFEFEFEFEFD
310
FDFDFEFEFEFDFDFDFDFDFDFCFCFCFCFCFCFDFDFDFDFDFDFEFEFEFAFAFAFAFAFA
310
FBFBFBFBFBFBFBFBFBFBFBFBFCFCFCFCFCFCFCFCFCFCFCFCFDFDFDFEFEFEFEFE
310
FEFEFEFEFDFDFDFDFDFDFDFDFDFDFDFDFCFCFCFCFCFCFCFCFCFCFCFCFDFDFDFD
310
FDFDFFFFFFFFFFFFFBFBFBFCFCFCFEFEFEFBFBFB0000D7D4D6D8D5D7DDDADCDD
310
DADCD3D2D4CBCACCCFCED0D7D9DAD6D8D9C9CDCEC2C5C9C6CBCCCCD1D4D0D5D6
310
D2D9DCD9DEDFFDFFFFFAFBF9FDFEFCFFFFFEFCFDFBFAFBF9FFFFFEFFFFFEFEFC
310
FBFFFFFEFFFFFE918F8E888685878584918F8E8A8B89878787888888949494FF
310
FFFFFFFFFFFDFDFDFEFEFEFEFEFEFFFFFFFFFFFFFFFFFFFFFFFFFFFFFFFFFFFF
310
FFFFFFFFFFFFFFFFFFFFFDFDF3F1F1F4F2F20301010C090B0603050200010200
310
010F0C0E0F0D0D0200003331304F4D4C3E3C3B646563C3C5C5F4F8F9FBFFFFF6
310
FAFBF3F5F5FFFFFEFFFFF9FCF3E6F2E3D3D6C5B2D9C6B1D8C5B0D4C2B1FFFFF4
310
867A700C05000906010506020F0D0C020000191416E0DCE1DDDBE126272B0D0F
310
10020100746F66DCD2C1DFCBB2DFC2A3E5C09AF5D4B3D6C3B4D5C9C3F0E8E1FF
310
FEF9FFFFFCFFFEFDFFFFFFF5F7F8FCFEFFFCFEFFFBFDFEFBFDFEFBFDFDF9FEFD
310
FAFFFEFAFFFEFFFFFFFDFDFDFCFCFCFCFCFCFDFDFDFEFEFEFEFEFEFDFDFDFEFE
310
FEFEFEFEFDFDFDFDFDFDFDFDFDFDFDFDFEFEFEFEFEFEFDFDFDFDFDFDFEFEFEFE
310
FEFEFFFFFFFFFFFFFFFFFFFFFFFFFDFDFDFDFDFDFEFEFEFEFEFEFEFEFEFEFEFE
310
FDFDFDFCFCFCFFFFFFFEFEFEFDFDFDFCFCFCFCFCFCFDFDFDFEFEFEFFFFFFF6F6
310
F6FFFFFFF5F5F5FCFCFCFFFFFFFDFDFD0000DFD4DCDBD3DAD9D0DAD8D0DAD8D3
310
DCD8D5DED6D5DED2D5DDD5DBE2CFD9E0CBD6DEC6D4DAC3D3DAC0D3D8BFD2D9C5
310
D4D7D4D9D8F0EFEBFFFFFCFFFFFBFEFDF9FFFFFCFFFFFCFFFFFCFFFFFBF1F1EB
310
FFFFFBF7F4EF787570918E898E8C8482827C8C8D8B898C8A939694FCFFFDFFFF
310
FEFDFEFCFFFFFFFFFFFFFBF9F9FFFFFFFFFEFFFFFBFDFFFAFCFFFEFFFFFEFFFF
310
F9FAFFFEFFFFF9F9FFFEFF322A2B0E05080700030A000610060C0900050C0208
310
090003292121534C498D8782DED8D3FFFCF8FDFFFFFBFFFFFDFFFFFFFFFFFFFF
310
FEFFFFFBFFFFF8FFFFF7F4E9DBC8BDAFD8CBBDCEC3B5FFFBEEBDB4AA11090202
310
0200000605000707110F0F0B0000F2DFE2D8C3C618090D080207000003081212
310
000200888C81E7DDCBDFC5ADEDC5A8F4C8ABE8C7ADE5CDB7DDCCB9FFFFF2FFFF
310
F8FEFDF9FDFFFFFAFDFFFDFDFFFDFCFFFFFDFFFFFDFFFFFEFFFFFFFFFFFFFEFF
310
FFFEFFFFFFFFFFFFFFFFFFFFFFFFFFFFFFFFFFFFFFFFFFFFFFFFFFFFFFFFFFFF
310
FFFFFFFFFFFFFFFFFFFFFFFFFFFFFFFFFFFFFFFFFFFFFFFFFFFFFFFFFFFFFFFF
310
FFFFFFFFFFFFFFFFFFFFFFFFFFFFFFFFFFFFFFFFFFFFFFFFFFFFFFFFFFFFFFFF
310
FFFFFFFFFFFFFFFFFFFFFFFFFFFFFFFFFFFFFFFFFFFFFFFFFFFFFFFFFFFFFFFF
310
FFFFFFFFFFFFFFFFFFFFFFFF0000D9D5DBD9D5DBD9D5DBD8D6DCD8D6DCD4D2D8
310
CCCDD1C6C9CDCCD1D4CED3D6CFD6D9D1D8DBCED8D8C9D5D5C5D1D1C5D0CECED1
310
CFCECFCDE2E3DFFFFFFCFFFFFCFCFDF9F8F7F3FFFFFBFFFFFBFFFFFAFFFFFBF5
310
F5EFC8C5C07B787394928A8686808A8B87888B89939694FCFFFDFFFFFEFDFEFC
310
FFFFFFFFFFFFFFFFFFFDFBFBFFFDFFFFFEFFFFFBFDF7F2F4FEF7FAFFFEFFF3EE
310
EDFFFFFE8A85840A05061A13160701060B0409040003050004211B20221C1D92
310
8E8DFAF5F2F6F4ECFFFFF9FFFFFBFDFFFFFBFFFFFFFEFFFFFFFEFFFFFCFFFFF9
310
FFFFF8FFFFF7F3E9DFC9C0B6C6BDB3E2DBD2F8F1E82620190501000F100C0410
310
10000101040000F4E2E3FFFBFB2102051300000B0003010609000103000F0E2C
310
3630C3BDB0DFC7B3F0C6AFEFBFA3EFC8A8EDCEAFE1CAB0FFF5DFFFFFF4FCFDF4
310
FCFEFEFBFEFFFDFCFFFFFBFFFFFCFFFFFCFFFFFDFFFFFEFFFFFFFEFFFFFEFFFF
310
FFFFFFFFFFFFFFFFFFFFFFFFFFFFFFFFFFFFFFFFFFFFFFFFFFFFFFFFFFFFFFFF
310
FFFFFFFFFFFFFFFFFFFFFFFFFFFFFFFFFFFFFFFFFFFFFFFFFFFFFFFFFFFFFFFF
310
FFFFFFFFFFFFFFFFFFFFFFFFFFFFFFFFFFFFFFFFFFFFFFFFFFFFFFFFFFFFFFFF
310
FFFFFFFFFFFFFFFFFFFFFFFFFFFFFFFFFFFFFFFFFFFFFFFFFFFFFFFFFFFFFFFF
310
FFFFFFFFFFFFFFFF0000C5D2D0C5D2D0C9D4D2CDD6D3D2D9D6D4D8D3D4D6D0D5
310
D3CBDAD8CEDDD7CCDED4CAE1D3C7E3D3C6E4D4C7E7D7C7E3D7CBD3D0CCCDCFCF
310
CFD1D1D8DADAEAECECFAFCFCFFFFFFFDFDFDFFFFFEFFFFFEFFFFFEF5F6F4FFFF
310
FE8A8B89848583929391888987898A88949593FEFFFDFFFFFEFEFFFDFFFFFFFF
310
FFFFF3F3F3FFFFFFFFFFFFFFFFFFFFFEFEFFFFFFFFFEFFFEFFFDFDFFFCF8FFF9
310
0F151000020004090700040303070800000106090D2B3031FAFFFEFAFFFEDDE3
310
DEFAFFF9FBFFF9F5FCF5FBFFFFFBFFFFFFFEFFFFFFFEFFFFFCFFFFFBFFFFF9FF
310
FFF8EDE4DBCCC3BACEC5BCFFFFF8706A630501000F0B06030400000200000400
310
BCB3AFFFFDF8D9BAB7A98A892E161616090B000001000305000201000802635D
310
52F7E1CFEBC2ACF6C7ACF1C8A8F0CDACE2C7ACEEDEC7FFFFF2FDFBF1FCFDFBFD
310
FFFFFDFDFFFFFCFFFFFCFFFFFCFFFFFDFFFFFFFFFFFFFEFFFFFEFFFFFFFFFFFF
310
FFFFFFFFFFFFFFFFFFFFFFFFFFFFFFFFFFFFFFFFFFFFFFFFFFFFFFFFFFFFFFFF
310
FFFFFFFFFFFFFFFFFFFFFFFFFFFFFFFFFFFFFFFFFFFFFFFFFFFFFFFFFFFFFFFF
310
FFFFFFFFFFFFFFFFFFFFFFFFFFFFFFFFFFFFFFFFFFFFFFFFFFFFFFFFFFFFFFFF
310
FFFFFFFFFFFFFFFFFFFFFFFFFFFFFFFFFFFFFFFFFFFFFFFFFFFFFFFFFFFFFFFF
310
FFFFFFFF0000C9DACFC5D6CBC0D1C6C2D0C5C7D3C7CED6CBD6DACFDBDAD0DEDA
310
CFE2D9CFE4D8CEE5D6CDE8D6CBEBD7CCEDD9CEE9D9D2DBD7D6D6DADBCBCED2BE
310
C2C3CACDD1E9EDEEFDFEFFFBFDFEFDFFFFFDFFFFFDFFFFFAFCFDFBFDFEC9CBCC
310
787A7B979999868785878886939492FEFFFDFFFFFEFEFFFDFFFFFFFFFFFFFFFF
310
FFFCFCFCF2F2F2FBFBFBFFFFFFFFFFFFFAFAFAF7FAF8EBF6EE7D8B8000040004
310
100A000300000502000A08000303000A0AF6FFFFF4FFFCEEF9F6F6FFFCDFECE4
310
F6FFF9F5FFF8FAFFFFFBFEFFFDFFFFFFFFFFFFFFFEFFFFFCFFFFF9FFFFF9E9E1
310
DAC7BFB8F6EEE7D9D3CC050100100D0915120E020100070B05606157FDF1E7E6
310
D0C5E8C7BEF4D2CC664B471203010000000C1616000200000A04100A00D6C1B2
310
EEC9B5F5C7AFF1C5A6F1CBABE4C8AAE0CCB3FFFFF2FFFCF1FCFBF7FFFFFFFFFD
310
FFFFFCFFFFFCFFFFFDFFFFFDFFFFFFFFFDFFFFFBFFFEFFFFFFFFFFFFFFFFFFFF
310
FFFFFFFFFFFFFFFFFFFFFFFFFFFFFFFFFFFFFFFFFFFFFFFFFFFFFFFFFFFFFFFF
310
FFFFFFFFFFFFFFFFFFFFFFFFFFFFFFFFFFFFFFFFFFFFFFFFFFFFFFFFFFFFFFFF
310
FFFFFFFFFFFFFFFFFFFFFFFFFFFFFFFFFFFFFFFFFFFFFFFFFFFFFFFFFFFFFFFF
310
FFFFFFFFFFFFFFFFFFFFFFFFFFFFFFFFFFFFFFFFFFFFFFFFFFFFFFFFFFFFFFFF
310
0000E6F2DCDEEBD5D5E1CDCEDAC8CCD6C6CAD2C7C9D1C7C9CFCAC9CECCCDD1D2
310
D2D5D9D7D9E1D8D9E3D6D7E1D2D2DECFD0DAD4D7DCCCCFD3CFD2D7D8DBDFD4D7
310
DCCBCED2D6D9DEEBEEF2F4F7FBFAFDFFFBFEFFFBFEFFEFF2F6F4F7FB9A9DA183
310
8788838585878886939492FEFFFDFFFFFEFEFFFDFDFFFEFDFFFEF0F3F1FDFFFE
310
FDFFFEFAFDFBF9FCFAFDFFFEFAFDFBE2E8E36A756B000C0100050005120A0005
310
00000906000B08000200A5B0AEF0FBF9F0FBF8E9F4F1F6FFFCF6FFFBF6FFFBF7
310
FFFBFAFFFFFBFEFFFDFFFFFFFFFFFFFFFEFFFFFCFFFFFCFFFFFBE8E2DDC9C5C0
310
FFFFFB5A55520F0C08120E0D0400000D0A05040400FFFFF2ECDCCBD4BAAAEDCA
310
BCE8C6B9DABFB5100000050400091110000705000400070200665548FDDBCBE8
310
BEA7F0C4A5F3CAA9EACBACDAC5AAFFFCEAFFFFF3FDFAF5FFFDFCFFFDFFFFFDFF
310
FFFDFFFFFDFFFFFEFFFDFFFFFAFFFFFAFFFEFDFFFFFFFFFFFFFFFFFFFFFFFFFF
310
FFFFFFFFFFFFFFFFFFFFFFFFFFFFFFFFFFFFFFFFFFFFFFFFFFFFFFFFFFFFFFFF
310
FFFFFFFFFFFFFFFFFFFFFFFFFFFFFFFFFFFFFFFFFFFFFFFFFFFFFFFFFFFFFFFF
310
FFFFFFFFFFFFFFFFFFFFFFFFFFFFFFFFFFFFFFFFFFFFFFFFFFFFFFFFFFFFFFFF
310
FFFFFFFFFFFFFFFFFFFFFFFFFFFFFFFFFFFFFFFFFFFFFFFFFFFFFFFF0000FAFF
310
EFF7FDECF2F9EAEEF5E8E9EFE4E0E8DED7DED9D2D9D6CBD3D3C8CFD2C2CAD1BD
310
C6CFBEC7D1C1CAD7C7D0DDCCD5DFC8CBD3D2D3D7DBDCE0DADBDFD0D1D5C7C8CC
310
CBCBD1D5D6DAE4E4EAF9F9FFF9F9FFFDFDFFFDFDFFF6F9FEDBDEE37E81858385
310
85878886939492FFFFFEFFFFFEFDFEFCFCFFFDFBFEFCFDFFFEFAFFFDF4F9F7FB
310
FFFEFBFFFEF7FCFA9CA19F3C433E1F27200004000109020003000C130E000401
310
0209061F2524FAFFFFECF2F1FAFFFFFAFFFFEDF4F1F2F9F6F1F8F3FAFFFEFBFF
310
FFFBFEFFFDFFFFFDFFFFFFFFFFFFFFFEFFFFFEFFFFFCE4E1DDDDDAD6EDEAE615
310
13120D09080200000B0908050200837F6DFFFFEDD6C1ABF7DAC5EAC7B3EBCAB7
310
EED3C59281780501000001000008070006030D0A021E0E02E8CBBCF0CBB5F2C6
310
A7F4CAA7EDCBADDBC4AAFCEDDAFFFFF4FFFCF4FDFCF8FFFEFFFFFDFFFFFDFFFF
310
FEFFFDFFFFFAFFFFF8FFFFF8FFFEFDFFFFFFFFFFFFFFFFFFFFFFFFFFFFFFFFFF
310
FFFFFFFFFFFFFFFFFFFFFFFFFFFFFFFFFFFFFFFFFFFFFFFFFFFFFFFFFFFFFFFF
310
FFFFFFFFFFFFFFFFFFFFFFFFFFFFFFFFFFFFFFFFFFFFFFFFFFFFFFFFFFFFFFFF
310
FFFFFFFFFFFFFFFFFFFFFFFFFFFFFFFFFFFFFFFFFFFFFFFFFFFFFFFFFFFFFFFF
310
FFFFFFFFFFFFFFFFFFFFFFFFFFFFFFFFFFFFFFFFFFFFFFFF0000FEFDFFFFFEFF
310
FFFEFFFFFEFFFFFEFFFCFEFFF6F8F9F0F5F4E9EEEDE0E5E3D4D9D7C8CFCAC4CB
310
C6C6D1C9CDD8D0D5DCD7C8C8C8DBD8DADCD9DBCCC9CBC9C6C8D7D4D6D8D7DBCD
310
CCCED8D7DBE1E0E4F0EFF3FCFBFFFFFEFFFBFCFFFDFEFFAFB0B4868686878787
310
949494FFFFFFFDFFFEFBFEFCFAFDFBF9FCFAFAFFFBF4FAF5FBFFFCFAFFFCAFB6
310
B1454C472C332E545A552E2F2B1A17120F0C080400000E0A090500010500019A
310
9597FAF5F7FFFBFDFFFBFDFFFCFEFFFCFEFFFEFFFFFEFFFEFBFDFFFEFFFDFEFF
310
FDFFFFFDFFFFFFFFFFFFFFFFFFFFFFFFFFFEE1DFDEF1EFEE9A98971111110200
310
00000000191919090600FFF5E3F4E5CBD5BCA2F3D5BAD8B49CE6C4ADE5C9B8CE
310
BDB0120C050105000002000308060805001509009B8377FDDCC9F4CAADF3C8A7
310
EBC9ABDEC5ABE9D8C3FFFFF4FFFDF4FFFCF7FFFFFFFFFEFFFFFEFFFFFEFFFBFF
310
FFF8FFFFF6FFFFF6FFFFFBFFFFFFFFFFFFFFFFFFFFFFFFFFFFFFFFFFFFFFFFFF
310
FFFFFFFFFFFFFFFFFFFFFFFFFFFFFFFFFFFFFFFFFFFFFFFFFFFFFFFFFFFFFFFF
310
FFFFFFFFFFFFFFFFFFFFFFFFFFFFFFFFFFFFFFFFFFFFFFFFFFFFFFFFFFFFFFFF
310
FFFFFFFFFFFFFFFFFFFFFFFFFFFFFFFFFFFFFFFFFFFFFFFFFFFFFFFFFFFFFFFF
310
FFFFFFFFFFFFFFFFFFFFFFFFFFFFFFFFFFFFFFFF0000FFFDF9FFFEF9FFFCF7FF
310
FCF7FFFFF8FFFFF8FFFFF8FFFFF7FFFFF7FFFFF7FFFFF4FBFEEFF0F5E6E2E9DA
310
D6DDCED0D4C8D2CFCACCC5C2CEC6C6DBD6D5E5DDDDDDD8D7D7D2D1D8D3D4D6D1
310
D2C6C1C2E9E4E6F1ECEEF4F1F3FFFEFFFFFDFFF1EEF0868686888888959595FF
310
FFFFFDFFFEFAFDFBF9FCFAF8FBF9F2F8F3FBFFFCEAF0EB7C837E323934555D56
310
B2B9B4F4FAF53632310500000E0607110B0C070001110A0D070001FFFDFFFFFC
310
FFFFFDFFFBF1F7FFFDFFFFFCFFF8F0F7FFFBFFFFFCFFFFFDFFFDFFFFFDFFFFFD
310
FFFFFFFFFFFFFFFFFFFFFFFFFFFFE6E6E6F7F7F7545454030303090909080808
310
010101312E26FFFFF0D9C6ABF2D7BCE1C3A6E8C5ABEECCB4E9CEBAE6D5C83932
310
290F100C0D1210000100110E09110800513E36F2D6C5F5CEB2F0C7A7E7C7AADE
310
C5ABD8C9B6FFFFF4FFFEF5FFFDF8FFFFFEFFFFFFFFFEFFFDFFFFFBFFFFF8FFFF
310
F4FFFFF6FFFFFBFFFFFFFFFFFFFFFFFFFFFFFFFFFFFFFFFFFFFFFFFFFFFFFFFF
310
FFFFFFFFFFFFFFFFFFFFFFFFFFFFFFFFFFFFFFFFFFFFFFFFFFFFFFFFFFFFFFFF
310
FFFFFFFFFFFFFFFFFFFFFFFFFFFFFFFFFFFFFFFFFFFFFFFFFFFFFFFFFFFFFFFF
310
FFFFFFFFFFFFFFFFFFFFFFFFFFFFFFFFFFFFFFFFFFFFFFFFFFFFFFFFFFFFFFFF
310
FFFFFFFFFFFFFFFFFFFFFFFFFFFFFFFF0000A96C40A66A40B27A51D19D75F1C0
310
9AFFD8B5FFECCCFFFDE0FFFFE5FFFFEBFFFFEFFFFFEFFFFFF2FFFFF5FFFFF7FF
310
FFF8FFF8EFF2E7DFDFD3CDD4CAC3D5C9C3D8CEC7D9CFC8D5CCC8D2C9C5DAD1CD
310
D6CFCCD1CAC7E3DBDBFFFBFBFFFFFEFFFBFABCBABA858585939393FEFEFEFDFF
310
FEF8FBF9FDFFFCFBFFFAFBFFFAB0B4AF31352F4E554EC9D0C9F9FFF7F5FCF5EC
310
F0EB040202040003171015040003171015090308453E43FFFAFFFCF4FBFFFBFF
310
FFFCFFFFFBFFFFFAFFFFFBFFFFFAFFFDF6FDFFFEFFFFFFFFFFFFFFFEFEFEFEFE
310
FEFEFEFEFBFDFEFBFDFEE3E5E6FDFFFF0B0D0E0608090000010403050B0B0B81
310
7E76FFF5E2E7D4B9D9C1A5E7CBADECCEB1E0C2A9DEC5B1E7D7C7857E75020100
310
0C0E0E000101020100120C0522120BDDC6B7E3BFA7FBD4B8ECCEB3DAC3ADDACC
310
B9F2EBDCFEF9F0FFFFFBFFFFFCFFFFFFFFFFFFFFFFFFFBFFFFF8FFFFF4FFFFF6
310
FFFEFBFFFFFFFFFFFFFFFFFFFFFFFFFFFFFFFFFFFFFFFFFFFFFFFFFFFFFFFFFF
310
FFFFFFFFFFFFFFFFFFFFFFFFFFFFFFFFFFFFFFFFFFFFFFFFFFFFFFFFFFFFFFFF
310
FFFFFFFFFFFFFFFFFFFFFFFFFFFFFFFFFFFFFFFFFFFFFFFFFFFFFFFFFFFFFFFF
310
FFFFFDFDFDFDFDFDFDFDFDFDFDFDFDFDFDFDFDFDFDFDFDFDFDFDFFFFFFFFFFFF
310
FFFFFFFFFFFFFFFFFFFFFFFF0000C78C5AAD7240915928844E1F7B491B75481D
310
7A4F287F593681603F8F7355A58E74BDAB94D9C8B5F0E2D0FCF0DEFEF4E3FFFC
310
EEFFFFF3FFFFF5FFFFF5FFFDF1FAEEE4EADED4DDD2CADED3CBD9CFC8DBD1CADF
310
D6D2DFD6D2E3DAD6F4EDEAFFFFFCFFFFFF7575758F8F8FFFFFFFEDF0EEEEF1EF
310
FDFFFCE8ECE75C605B797B75BABCB6FFFFF9F3F8EFF7FCF3FDFFF9C4C8C20C0B
310
0D050309010005000003000003000003939294FFFEFFF9F8FAFCFBFFFBFAFEF6
310
F5F9F7F6FAFEFCFFFFFDFFFFFEFFFFFFFFFFFFFCFFFFFEFFFEFDFDFDFDFCFCFC
310
FBFAFCF8FAFBE1E3E4E1E3E407090A010304080709070707020202C4C0BBF3E6
310
D6E1CFB8D6C1A6DFC7ABE3C8ADDAC1A7D8C3AEDFD0C0AAA39A0A0703080A0A0B
310
0D0E090706060200160C05C9B8ABE0C1ACE6C4ACDCC1ACD4C1ACD1C7B6FFFDF0
310
F8F6ECFFFFFBFFFFFCFFFFFEFFFFFFFFFFFFFBFFFFF8FFFEF6FFFEF6FFFEFBFF
310
FFFFFFFFFFFFFFFFFFFFFFFFFFFFFFFFFFFFFFFFFFFFFFFFFFFFFFFFFFFFFFFF
310
FFFFFFFFFFFFFFFFFFFFFFFFFFFFFFFFFFFFFFFFFFFFFFFFFFFFFFFFFFFFFFFF
310
FFFFFFFFFFFFFFFFFFFFFFFFFFFFFFFFFFFFFFFFFFFFFFFFFFFFFFFFFFFFFFFF
310
FFFFFFFFFFFFFFFFFFFFFFFFFFFFFFFFFFFFFFFFFFFFFFFFFFFFFFFFFEFEFEFD
310
FDFDFDFDFDFDFDFD0000FFFFE9FFFDE1FFFBE0FFFEE2FFF6DAFBE0C5EBCFB1E4
310
C6A9BA9A7DB49275A47F63936C508961458C62458F654888654B816B598F8070
310
AE9E91CBBEB0E4D7C9F8ECE0FFFFF3FFFFF7F4EAE0F8EFE6F6EDE4E5DBD4CCC4
310
BDC3BBB4D2C9C5E2DDDAFFFFFFD1D3D48B8D8DF2F4F4FFFFFEFFFFFE9798946B
310
6C68E0E2DCF0F0EAFFFFFBFFFFF9F7F8EFFEFFF5FFFFF68C8E88000102000409
310
0000030C1414000202000201D7E0DDF0F9F6F8FFFEF8FFFEF8FFFEF8FFFEF8FF
310
FEF8FFFFF7FFFEF6FBFAF9F8F4FEFAF5FFFCF9FFFFFCFFFFFEFFFFFFFFFEFFFF
310
FEFFFDFFFFCCCECF060809000001010101000000020000EEEAE5E8DCD0E1D1C0
310
DDCAB5E0CBB5E0CCB3DDC8B2D9CAB7DBD0C2B3ABA4221E1D0000010000010200
310
0004010019130EA69A8EEBD2C2E1C8B4D8C4B2D5C8B8C8C2B5FFFFF5F3F3EDFF
310
FFFBFFFCFBFFFCFBFFFBFCFEFCFCFAFDFBF7FEFBF5FEFBF5FEFBFAFCFCFCFCFC
310
FCFCFCFCFCFCFCFCFCFCFCFCFCFCFCFCFCFCFCFCFCFCFCFCFCFCFCFCFCFCFCFC
310
FCFCFCFCFCFCFCFCFCFCFCFCFCFCFCFCFCFCFCFCFCFCFCFCFCFCFCFCFCFCFCFC
310
FCFCFBFBFBFBFBFBFBFBFBFBFBFBFBFBFBFBFBFBFBFBFBFBFBFBFDFDFDFDFDFD
310
FDFDFDFDFDFDFDFDFDFDFDFDFDFDFDFDFDFDFFFFFFFFFFFFFFFFFFFFFFFFFFFF
310
FFFFFFFF0000FFFFF5FFFFF3FFFFF3FFFFF4FFFFF4FFFFF2FFFDEBFFFCE9FFFF
310
F0FFFFEEFFFFEEFFFEEAFFF9E6FFF9E4FFF7E2FFF4E0FFF0DEF5E6D6E0D3C3C4
310
B7A9A89D8F988C80948B7E978D83B5ACA2B4ADA4C0B8B1D4CEC7EAE4DFF1EBE6
310
E9E3DEDDDAD6DADADAF3F5F6939595FDFFFFD8D9D7969795EDEEEAFFFFFCFCFC
310
F6FFFFF9FFFFF9FCFAF0FFFFF6FFFFF7FFFFF57C7A7200010000020200010004
310
0D0A000200000400F9FFF8F2FEF2F3FDF1F2FFF1F6FFF4F5FFF5F9FFF7F8FFF8
310
F9FFF8FAFFF6FFFFF8FFFFF9FFFFF9FFFFFAFFFDF9FAF8F7F7F5F5F3F2F4FCFB
310
FDA6A8A90000010000000F0F0F12100F151312E5E1DCFFFFF6FFFFF4FFFFF2FF
310
FDEBFFFBE8FFFDEAFFFDEDFFFCF2FFFFFBE9E5E4F3F2F4FFFEFFFFFEFFFCFAF9
310
E7E3DEFFFDF4FFF6E9FFFDEEFFFFF4FFFFF5F7F6ECF6F8F2FFFFFCF9FAF8FFFF
310
FEFFFFFEFFFEFFFFFFFEFFFFFEFDFFFCFAFFFCFAFFFCFDFFFEFFFFFFFFFFFFFF
310
FFFFFFFFFFFFFFFFFFFFFFFFFFFFFFFFFFFFFFFFFFFFFFFFFFFFFFFFFFFFFFFF
310
FFFFFFFFFFFFFFFFFFFFFFFFFFFFFFFFFFFFFFFFFFFFFFFFFFFFFFFFFFFFFFFF
310
FFFFFFFFFFFFFFFFFFFFFFFFFFFFFFFFFFFFFFFFFFFFFFFFFFFFFFFFFFFFFFFF
310
FFFFFFFFFFFFFFFFFFFFFFFFFFFFFCFCFCFCFCFCFEFEFEFFFFFFFFFFFFFFFFFF
310
0000FAFFF7F7FFF4F0FAEEEEF6EBF1F6EDF5F8EFFCFCF6FFFFFCF5F0EDFCF4F4
310
FFF8F9FFF7FAFFF8FCFFFBFFFFFBFFFFF9FAFFFEF4FFFFF1FFFFF2FFFFF3FFFF
310
F4FFFFF7FFFFF7FFFFF8FFFCF5F8F5EDF4F0EBF1EEE9E4E1DDD1D0CCD0CECDDA
310
DBD9E2E4E5E3E7E8E8EDECC2C4C4E0E1DFEFF0EEECEBE7F8F5F1FFFFFBFEF8F1
310
FFFFF9FFFFF8FFF6EDFFFFF7FFFFF7766F66110D080D0C080A08000E0F050909
310
000E1102F6F8E5FFFFF0FFFFF0FFFFF0FFFFEAF9FFE6FBFEE8FBFFEAFFFFEFFF
310
FFF2FFFFF2FFFFF5FFFFF8FFFFF9FFFFFBFFFFFCFFFFFFFFFFFFFFFFFFA1A1A1
310
040404090909020000040100040100443F3C3A3532443D3A474037433A304239
310
2B463D2F463E313E3930403D393B39393A393D31303435343644424140403A40
310
3D354A3F3750453D39342B33312930342E3A403BE7ECEAF9FBFBFDFDFDFFFCFD
310
FFFDFCFFFDFCFFFDFCFDFEFAF9FFFAF9FFFAFAFDFBFCFCFCFCFCFCFCFCFCFCFC
310
FCFCFCFCFCFCFCFCFCFCFDFDFDFDFDFDFDFDFDFDFDFDFDFDFDFDFDFDFDFDFDFD
310
FDFDFDFDFDFDFDFDFDFDFDFDFDFDFDFDFDFDFDFDFDFDFDFDFDFDFCFCFCFCFCFC
310
FCFCFCFCFCFCFCFCFCFCFCFCFCFCFCFCFCFCF9F9F9F9F9F9F9F9F9F9F9F9F9F9
310
F9F9F9F9F9F9F9F9F9F9F9F9F9FAFAFAFCFCFCFDFDFDFDFDFDFDFDFD0000F2FB
310
F1F5FEF4FAFFFBFAFFFBFAFFFCFAFFFEFAFFFFF9FFFEFAFFFFFAFFFFF8FEFFEF
310
F5FCF0F2FCF6F8FFFAFCFFFDFDFFFFFFF9FFFFF5FFFFF7FFFFF7FFFFF8FFFFF8
310
FFFCF4F8F5F0F1F0ECFFFFFCFFFFFEF5F8F6F7F9F9FBFFFFFBFFFFF5F9FACED2
310
D3D2D6D7A6ABAAEDF2F1E3E4E2D1CFCEEBE8E4D5D1CCCEC8C3CAC2BBC5BCB3B0
310
A69CC2B8AECFC3B9DDCFC372635A3828212A1A131E1004140700180C00352A14
310
F6ECD4FFFFEAFFFFE2FFFEDDFFFFDEFFFFE5FFFFE7FFFFE9FFFFE9FFFFEBFFFA
310
E8FFF9ECFFF9EFFFF9F0FEF8F1FDF9F4FCF8F7FBF9F9FFFFFFA0A0A00707070E
310
0C0B0805010805001B17120E0B070200010605070A08070705000705000B0900
310
0B090005020006040305020408070B0403070302040607050303000604000701
310
00110D08020100000300020B08000200E7EFEEF5FAF9FBFBFBFFFAFBFFFBFAFF
310
FAFAFFFCF8FDFCF8F9FDF7F9FDF8FAFBF9FAFAFAFAFAFAFAFAFAFAFAFAFAFAFA
310
FAFAFAFAFAFAFBFBFBFBFBFBFBFBFBFBFBFBFBFBFBFBFBFBFBFBFBFBFBFBFBFB
310
FBFBFBFBFBFBFBFBFBFBFBFBFBFBFBFBFBFBFBFBFBFBFBFBFBFBFBFBFBFBFBFB
310
FBFBFBFBFBFBFBFBFBFBFBFBFBFBF9F9F9F9F9F9F9F9F9F9F9F9F9F9F9F9F9F9
310
F9F9F9F9F9F9FEFEFEFFFFFFFFFFFFFFFFFFFFFFFFFFFFFF0000FFFFFEFFFFFE
310
FFFFFEF9FCFAF7FAF8F8FBF9F8FEF9F8FFFAECF3EEF2FCF6F6FFFBF6FFFBF4FF
310
FBF4FFFBF1FFF8EDF8F0FFFFF9FFFFF6FFFEF6FFFFF8FFFFFBFFFFFBFFFFFCFF
310
FFFEFDFFFFFBFFFFFAFFFFF6FDFFF8FEFFECF5F9BBC3CA868C91BBC0C3F9FEFF
310
ACB1B0D3D8D7F6F7F5F8F6F5C6C3BFCAC6C1CFC6C2F9EFE8FFFDF5EFE3D9FFF5
310
ECEEE0D4E5D5C98973687A5B5288645A997668A07F6C83634C73553ACAAD8EA6
310
8A68E9CEA9E9CFA7F3D9B1FFECC4FFFCD4FFFFDBFFFFDDFFFFE3FFFFEEFFFFF4
310
FFFFF5FFFFF6FFFEF7FFFFFAFFFFFEFFFFFEFCFCFC9F9F9F0E0C0B0301000401
310
00050100110B0604000002020802040C01050601040204060008090008080205
310
04000707070000030B090F0B0A0E09080A070806000200050500090706090909
310
000100000706000806000808EEF8F8FAFFFFFFFFFFFFFEFFFFFEFEFFFEFEFFFF
310
FCFFFFFCFFFFFBFFFFFCFFFFFEFFFFFFFFFFFFFFFFFFFFFFFFFFFFFFFFFFFFFF
310
FFFFFFFFFFFFFFFFFFFFFFFFFFFFFFFFFFFFFFFFFFFFFFFFFFFFFFFFFFFFFFFF
310
FFFFFFFFFFFFFFFFFFFFFFFFFFFFFFFFFFFFFFFFFFFFFFFFFFFFFFFFFFFFFFFF
310
FFFFFFFFFFFFFFFFFFFFFFFFFFFFFFFFFFFFFFFFFFFFFFFFFFFFFFFFFFFFFFFF
310
FFFFFAFAFAFBFBFBFEFEFEFFFFFFFFFFFFFFFFFF0000FDF8F9FDFBFBFFFDFDFD
310
FBFBFBFCFAFCFDFBFBFFFAF9FFFAFAFFFBFAFFFBF6FFF7EFFDF1EFFDF1F6FFF8
310
F4FFF8F8FFF8FFFFF9FFFFFBFFFFFBFFFEFAFCFDF9FBFCFAF9FBFBFAFCFCFBFF
310
FFEFF4F5FAFFFFF8FFFFB0B6BB5F686C8C9299F7FDFFFAFFFFAAAEAFB5BAB9B2
310
B4B4FFFFFEF2F0EFFFFCFBE3DEDBDFD9D4C3BAB6DDD3CCD7CEC5DFD4CCF6E9E1
310
FFFBF36C59511C00002400002D0A004726173D1D0A65462FDBBDA4B19479967A
310
5C8367487156346B502E6C5031705435775B3C7D63459E866AA28B71AE987FBD
310
A990D0BEA7E4D3BEF5E4CFFDEEDBFFF2DFBAA69448352047321D59442E4E3A21
310
4D39204C392449392D43342B43342445372148391F4B3A1F4A391F4A38214837
310
24402E1D4D3A2B412F1E43321F5240294534194C391E543E254A351F44331E53
310
46303D34203B321EF9EEDAF8E9D6FEEBD6FFEBD5FFEBD5FFEBD5FFEBD6FEEBD6
310
FAEBD8F9EBD8FAECD9FAECD9FAECD9FAECD9FAECD9FAECD9FAECD9FAECD9F9EB
310
D8F9EBD8F9EBD8F9EBD8F9EBD8F9EBD8F9EBD8F9EBD8FAEBD8FAEBD8FAEBD8FA
310
EBD8FAEBD8FAEBD8FAEBD8FAEBD8FCEDDAFCEDDAFCEDDAFCEDDAFCEDDAFCEDDA
310
FCEDDAFCEDDAF9EBD8F9EBD8F9EBD9F9EBD9F9EBD9F7EBD9F7EADAF5EADCF6ED
310
E0F8EFE5F9F4EBFCF8F3FFFCF8FFFFFB0000FFFFFFFFFFFFFFFFFFFFFFFFFFFF
310
FFFFFFFFFFFFFEFDFFFEFDFFFEFBFEFCFAFDFBF8FEF9F6FCF7F5FBF6F9FFFAFD
310
FFFCFCFDFBFFFFFEFFFFFEFFFFFEFDFEFCFDFDFDFDFDFDFAFAFAF8FAFAFDFFFF
310
A9ABAC4C4E4F565859D8DCDDFDFFFFF9FBFCD1D3D4AFB1B1B2B4B4B0B0B0EBEB
310
EBFFFFFFFFFEFEFFFDFCE3E1E0D9D5D4CBC7C6D5D2CEC7C4C0DBD6D3DFDAD769
310
625F0F0603160A080B00001207030F05000C0300FFFEF5FFFFF8FFFFF6FFFFF6
310
FFFFF7FFF7EDEEE5DBCDC4BACFC6BC9A8674A7825C9E7041885F2E7F5723754D
310
186D460F7B4F199061298C571E925B22975D229F652A905A1E9360229867298D
310
5D2385501DA069368F581F8F581BAA702F894F0DA16A27955F1E885516936224
310
92602495642695602197621F99611A985D15A3601B9D5A15A26523965C1BA067
310
298F581B965F22935A1C995C1C985B1B985B1B935A1D8E582189592586582885
310
5A27845C22865D1F865D1F865D1F865D1F865D1F865D1F865D1F845B1D845B1D
310
845B1D845B1D845B1D845B1D845B1D845B1D865A1D8A5D208C5F228B5E21885B
310
1E86591C895C1F8B5E21895C1F885B1E86591C86591C86591C86591C885B1E88
310
5C21855A21855A218458228259228258238059257D59297B5A2D73562F685131
310
F8E7CDFFFFF1FFF7EDFFFFF80000FFFFFFFFFFFFFFFFFFFFFFFFFFFFFFFFFFFF
310
FFFFFFFFFFFFFFFFFFFDFDFDFDFDFDFFFFFFFFFFFFFFFFFFFAFAFAF8F8F8FEFE
310
FEFEFEFEFAFAFAF8F8F8FFFFFFFFFFFFFDFDFDEEEEEE9D9D9D393939444444B0
310
B0B0FFFFFFFDFDFDF5F5F5F4F4F4BFBFBFACACACADADADB1B1B1D0D0D0FEFEFE
310
FCFCFCFEFEFEF7F7F7EFEFEFDADADAD9D9D9C4C4C4CDCDCDD6D6D67C7C7C0000
310
000E0E0E080808080808050505030303C6C6C6EEEEEEFFFFFFFDFDFDFFFFFFFB
310
FBFBFFFFFFF0F0F0FFFFFFFFFFF7FFFFE5FFFFD6FFFDD1FFF6C8FFDFADE3BD87
310
CCA36CC79860D29B62DBA1669C5D23A4682CAB74379562248B5C1FD7A569DCA3
310
6CC3864EDA9B5EE0A05FDB9A55DC9C55DA9C56D29954DDA766C89556D2A163B8
310
8547D7A361E0A966CE924CE3A45AE8A255E6A053E19F58D29551D59858CF9658
310
D59C5ED29A59D69C5AD59B59D39C59CF9A5BC9995FC59964C09868BF9A68C39B
310
61C59C5DC59C5EC59C5DC59C5EC59C5DC59C5EC59C5DC59C5EC59C5DC59C5EC5
310
9C5DC59C5EC59C5DC59C5EC59C5DC6995CC79B5CCA9B5EC89C5DC99A5DC69A5B
310
C99A5DC89C5DD0A164CDA162CE9F62CB9F60CD9E61CCA061CFA063CEA164C79A
310
5DC79A5DC79A5DC79A5DC69A5FC3985FBE9661B89464B7976CA78D69FFEDD2FF
310
FFF1FCF6EBFFFFF90000FFFFFFFFFFFFFFFFFFFFFFFFFFFFFFFFFFFFFFFFFFFF
310
FFFFF6F6F6FFFFFFFFFFFFF3F3F3F5F5F5FFFFFFFFFFFFFBFBFBFFFFFFFDFDFD
310
FDFDFDFFFFFFFFFFFFD7D7D78787874040403A3A3A8D8D8DF2F2F2F7F7F7F8F8
310
F8FDFDFDFDFDFDC0C0C0B2B2B2AFAFAFB0B0B0B8B8B8B6B6B6F6F6F6FFFFFFFF
310
FFFFFFFFFFFFFFFFF1F1F1E9E9E9D2D2D2CCCCCCD4D4D4A0A0A0060606000000
310
0808080909090000000A0A0A8C8C8CD2D2D2CFCFCFCFCFCFE1E1E1E6E6E6FFFF
310
FFFEFEFEF7F7F7FFFFFEFFFFFBFFFFF9FFFFF7FFFEF1FFFEEFFFFFECFFFFEDFF
310
FFEEFFFAE4FFEDD53415002203001E0400210B00201000DFCBB2FFF1D8FFE1C7
310
FFE8C8FFEBC8FFDDB7FFEAC4FFF3CFFFE6C4A28C70634F366B58435F4C37705B
310
45695238654A2FEED2AFFFE8BDFFF0C3FFE7BFF7E1BEF4E2C3FFFCE0FFFFEAFF
310
FFEAFFFFE9FFFFE9FFFFE9FFFFEAFFFFEEFFFFF1FFFFF5FFFFF4FFFFEEFFFFEB
310
FFFFEDFFFFEBFFFFEDFFFFEBFFFFEDFFFFEBFFFFEDFFFFEBFFFFEDFFFFEBFFFF
310
EDFFFFEBFFFFEDFFFFEBFFFFEDFFFFEBFFFFEDFFFFEBFFFFEDFFFFEBFFFFEDFF
310
FFEBFFFFECFFFFEAFFFFEBFFFFE8FFFFEAFFFFE9FFFFECFFFFEAFFFFE9FFFFE7
310
FFFFE6FFFFE6FFFFE6FFFFE6FFFFE4FFFFE5FFFEE7FBEFDDFFFFF5FFFFF9F8FA
310
FAFAFFFF0000FFFFFFFFFFFFFFFFFFFFFFFFFFFFFFFFFFFFFFFFFFFFFFFFFFFF
310
FFF9F9F9FCFCFCFFFFFFFFFFFFF1F1F1F1F1F1FFFFFFFFFFFFFFFFFFFAFAFAC3
310
C3C37373733C3C3C3C3C3C555555C5C5C5F5F5F5FFFFFFFFFFFFFDFDFDFFFFFF
310
D8D8D8ACACACB2B2B2B2B2B2B9B9B9B6B6B6ABABABE5E5E5FFFFFFF9F9F9F9F9
310
F9FFFFFFFDFDFDFBFBFBEBEBEBDADADADADADAC2C2C20B0B0B00000009090900
310
0000010101080808434343DEDEDED2D2D2C5C5C5D5D5D5C5C5C5CACACADFDFDF
310
DADADADCDDE1F0EFF9F4F6FFF6FBFFF4FCFFF5FEFFF6FFFFFAFFFEF9FAF8E8E0
310
E0FFFEFC382B291B0F0D1008081F1D1C000100999691FEECE5E1C9BDE5CCBCD8
310
BEADE2C9B5DEC9B4D5C5B4E9DDD136302902000000000108090D000001040000
310
1B1411E7DBD1D9C5ACE9D4B8D4C6B0CFC7B6CBC9BFF6F8F2FDFFFEFBFFFEFCFF
310
FBFBFFFAFAFEF8F8FEF9F5FDFCF1FDFFEFFDFFF2FEFFF8FEFDF9FEFCFBFEFCF9
310
FEFCFBFEFCF9FEFCFBFEFCF9FEFCFBFEFCF9FEFCFBFEFCF9FEFCFBFEFCF9FEFC
310
FBFEFCFBFEFCFFFFFEFEFFFDFCFDFBFDFEFCFFFFFEFFFFFEFFFFFEFCFDFBFFFF
310
FEFFFFFEFFFFFEFFFFFEFFFFFEFFFFFEFFFFFEFFFFFEFFFFFCFFFFFBFFFFF9FF
310
FFF8FFFFF6FFFFF3FFFFF2FFFFF2FFFFF7FFFFF9F7F6F2FDFFFFEFF5FAF6FEFF
310
0000FFFFFFFFFFFFFFFFFFFFFFFFFFFFFFFFFFFFFFFFFFFFFFFFFFFFFFFFFFFF
310
FEFEFEF6F6F6FDFDFDFFFFFFFFFFFFFFFFFFFCFCFCA7A7A76565655454544141
310
413D3D3D8F8F8FFCFCFCF4F4F4FFFFFFFDFDFDF9F9F9F9F9F9EFEFEFB7B7B7B0
310
B0B0B2B2B2AEAEAEB9B9B9ACACACADADADCFCFCFFFFFFFF3F3F3F6F6F6FFFFFF
310
FFFFFFFFFFFFFEFEFEEFEFEFEAEAEAE1E1E11F1F1F1010100C0C0C0000001313
310
13000000010101D9D9D9E6E6E6CACACAE0E0E0D8D8D8B8B8B8CACACACFCFCFD3
310
D4D8C4C6D1CED4E1DBE3F0E3EDF7E8F5FDF0FFFFF6FFFFFAFFFFD8D7D9FBF6F8
310
716A6D040001000003070C0F0000043D4241FFFFF9C5AFA3E0C9BAD3BCACE4CE
310
BCD7C5B4BFB3A7CAC4BD00000000020700000800000800020D00000854545AD7
310
CCC8E4C5B0F7D2B8DFC1AED7C1B6D5C6C4FFF6F9FFFAFFF9F4FDFFFAFFFFFAFF
310
FFFBFFFFFAFFFEFAFFFDFAFFF9F9FFF9FBFFF6FCFFF4FDFFF6FCFFF4FDFFF6FC
310
FFF4FDFFF6FCFFF4FDFFF8FEFFF6FFFFF8FEFFF6FFFFF8FEFFF6FFFFF8FEFFF8
310
FEFFF8FEFFF6FCFFF4FAFFF5FBFFF8FEFFF8FEFFF7FDFFF4FAFFF8FEFFF8FEFF
310
F8FEFFF8FEFFF8FEFFF8FEFFF8FEFFF6FEFFF3FCFFF0FCFFF1FBFFF1FBFFF5FB
310
FFF9FDFEFDFFFFFFFFFEF2F3F1FBFEFCEAECEDFAFFFFF1F7FCF4FAFF0000FFFF
310
FFFFFFFFFFFFFFFFFFFFFFFFFFFFFFFFFFFFFFFFFFFFF4F4F4FFFFFFFFFFFFF8
310
F8F8FDFDFDFFFFFFE4E4E4ACACAC5151515B5B5B4848483737376D6D6DD4D4D4
310
FFFFFFFFFFFFFFFFFFFEFEFEF6F6F6F3F3F3FFFFFFC2C2C29F9F9FB4B4B4B4B4
310
B4ADADADB6B6B6ACACACB6B6B6C0C0C0FAFAFAFAFAFAFFFFFFFFFFFFFEFEFEFF
310
FFFFFFFFFFFDFDFDFAFAFAF6F6F67E7E7E0000000000000F0F0F040404000000
310
0303036D6D6DEAEAEAC8C8C8CFCFCFE4E4E4D0D0D0D3D3D3CACACAC5C4C6D4D4
310
DACFD1D9C6CCD1BDC6C9BAC6C8C8D2D2E3E9E8F9FCFAE9E5E4EAE5E4D7CFCF07
310
0102090909000001091215000100F5E6DDF5DECEDCC4B2E5CDB9E0C8B4D9C5B3
310
F3E6D6615B5002000002050911141C0000070E10180000049C9799DECDC4F0C9
310
ADFCCFAEEAC4ACE1C4B5E8D4CFFFF7F9FCF4FBEAE2ECF1E9F3F1E9F0F1EAEFF2
310
E9ECF2E9ECF1EAEFF0E9F0EFEBF1EAEBEFE7ECEFE8EBEFE7ECEFE8EBEFE7ECEF
310
E8EBEFE7ECEFE7EAEEE6EBEEE7EAEEE6EBEEE7EAEEE6EBEEE7EAEEE6EBEEE6EB
310
EEE5EAEDE4E9ECE4E9ECE6EBEEE6EBEEE5EAEDE4E9ECE2E7EAE3E8EBE3E8EBE4
310
E9ECE4E9ECE3E8EBE3E8EBDEE6EDD9E8F8D5E7F8D6E6F6D9E7F3DEE7F0E1EAEE
310
E7ECEFE9EDEEE6E8E8F4F5F3F7F8F6FDFFFFFDFFFFF6FBFA0000FFFFFFFFFFFF
310
FFFFFFFFFFFFFFFFFFFFFFFFFFFFFFFFFFFFFFFFFFF5F5F5FAFAFAFFFFFFE3E3
310
E39191915454544545454F4F4F3232324A4A4AA7A7A7F9F9F9FFFFFFFAFAFAF0
310
F0F0F1F1F1FEFEFEFFFFFFF2F2F2D7D7D7AFAFAFBABABAC0C0C0B4B4B4B5B5B5
310
AEAEAEB7B7B7B6B6B6B4B4B4E5E5E5FFFFFFFFFFFFFAFAFAFEFEFEFFFFFFFBFB
310
FBFFFFFFFFFFFFFBFBFBE2E2E20B0B0B00000013131300000003030314141407
310
0707C8C8C8DFDFDFC6C6C6C9C9C9CECECEDEDEDED7D7D7DAD8D7D8D2CDDAD2CB
310
D9D7CDD9D9CDD5D5C9DADACCF3F0E1FFFFF4ECE1D3D0C3B5FFEFE22D1F130D04
310
000703001B1C12070400755F4DFFFFEAEACDB2E8CCAEDCC0A2E6CEB2DAC6AD13
310
0400160D000A0300161009070100110800190B00D4C1B2F2D7BDF2C99CF5C895
310
EBC79FE3C9ABF9E7D6FFF8EFF3F0ECD4D2D2CDCBCBCCCBC7CFCBC6D0CBC2D0CB
310
C2D1CCC3D1CCC3D2CDC4D1CBC4D1CBC4D3CBC4D1CBC4D3CBC4D1CBC4D3CBC4D1
310
CBC4D0C8C1CEC8C1D0C8C1CEC8C1D0C8C1CEC8C1D0C8C1CEC8C1CDCAC2CECBC3
310
CFCCC4CECBC3CDCAC2CCC9C1CDCAC2CFCCC4D0CDC5D1CEC6D2CFC7D3D0C8D3D0
310
C8D2CFC7D1CEC6CBCCCABDC6CFBBC7D3BFC9D3C3CBD2C7CCCFC8CACACAC8C7CB
310
C8C3CCC9C1D2CDC4F2EDE4FFFBF2FFFFF6FFFEF40000FFFFFFFFFFFFFFFFFFFF
310
FFFFFFFFFFFFFFFFFFFFFFFFFFFFFCFCFCFFFFFFDBDBDB838383454545404040
310
4D4D4D4D4D4D3A3A3A878787E1E1E1FFFFFFFFFFFFF7F7F7FBFBFBFFFFFFFFFF
310
FFF8F8F8F8F8F8F9F9F9B0B0B0AEAEAEB3B3B3A9A9A9B0B0B0BABABAA3A3A3BE
310
BEBEACACACA6A6A6CCCCCCFFFFFFFFFFFFF2F2F2FFFFFFFFFFFFF8F8F8FFFFFF
310
FFFFFFF6F6F6FFFFFF5B5B5B0A0A0A0000000A0A0A0000000000000505055353
310
53E4E4E4E4E4E4CACACACACACAD9D9D9D0D0D0DDD9D8E0D8D1DED5CBDDD7CCDB
310
D8CAD0D0C0CDCDBBE9E5D3FFFFF1F8ECDAD9CBB9FFFFF278685B170E01100A00
310
0606000F0C00140400F7DFCBFFEFD9D9C2A8DBC4AAFEE9CE57452E180A00170C
310
00140B000C0300190D0113030076604EFFE5CDDDBD9AFDD5A1F4CC97F1D1A6E6
310
D1B1FFF7E3F9F7ECE6EAE5BEC4C3CBD1D0CBD1CCCED1C8D0D1C7D2D2C6D3D2C4
310
D4D3C5D5D3C8D8D1C8DAD1C8DAD1C8DAD1C8DAD1C8DAD1C8DAD1C8DAD1C8DED5
310
CCDED5CCDED5CCDED5CCDED5CCDED5CCDED5CCDCD5CCD6D1C8D8D3CADBD6CDD9
310
D4CBD6D1C8D5D0C7D7D2C9DAD5CCD0CBC2D1CCC3D3CEC5D3CEC5D3CEC5D3CEC5
310
D1CCC3CDCAC5CBCFD0CBD1D6D1D6D9D7D9D9D8D9D7D7D4CFD2CFC7D0CBC2E1DB
310
D0D8D0C3FFFDF0FFFFF2FFFFF5FFFFF40000F5F5F5FFFFFFFAFAFAFFFFFFFFFF
310
FFF9F9F9FFFFFFFFFFFFCECECE8181814343433B3B3B4747474D4D4D50505052
310
5252CDCDCDF4F4F4FFFFFFFDFDFDFFFFFFFFFFFFF7F7F7FEFEFEF4F4F4FFFFFF
310
F6F6F6C2C2C2AFAFAFB1B1B1B2B2B2B9B9B9B0B0B0ADADADB5B5B5B1B1B1B8B8
310
B8AEAEAEB4B4B4FFFFFFFFFFFFF8F8F8FEFEFEFFFFFFFDFDFDFCFCFCFFFFFFFF
310
FFFFFFFFFFE3E3E30404040909090404040000000B0B0B000000010101949494
310
D9D9D9DADADAD4D4D4E5E5E5D4D4D4C6C4C4D8D4D3DCD9D5D8D7D3D3D5CFDFE4
310
DBCCD2C7EBECE2FEFDF3FDF6EDC4BBB2F2E6E0FDF3EC110D0802020000060100
310
060114100F2E2724FEF6EFDED5CCDED5C8958C7F090300140F060B08000A0601
310
110B04130A00130200DCC4B0DCC1A7E5C4A3F0CDA1EACB9EE2CCA9DFD3BBFFFF
310
F7FBFFFEC0CBCFC8D6DCCAD8DECBD7DBCED8D8D1D8D5D3D9D4D4DBD4D5DCD5D8
310
DCD7D6D4D3D8D6D6D6D4D4D2D0D0D3D1D1D8D6D6DBD9D9D9D7D7D9D7D7D9D7D7
310
D9D7D7D9D7D7D9D7D7D9D7D7D9D7D7D9D7D7D1D1D1D2D4D4D6D8D8D6D8D8D3D5
310
D5CFD1D1CBCDCDC9CBCBD1D3D3D3D5D5D3D5D5D2D4D4D3D5D5D5D7D7D6D8D8D7
310
D8D6D5D4D0D6D5D1DAD7D2D9D6D1D9D6CEDAD5CCDED8CDDFD9CED6CEC1D6CEC1
310
FFFAEDFFFFF4FFFFF8FFFEF50000FFFFFFFAFAFAF7F7F7FFFFFFF8F8F8F9F9F9
310
CBCBCB4C4C4C3F3F3F4343434B4B4B5757574F4F4F4545458A8A8AFBFBFBEAEA
310
EAFFFFFFFFFFFFF9F9F9FFFFFFFFFFFFFBFBFBFFFFFFFFFFFFFBFBFBDCDCDCB7
310
B7B7ADADADB1B1B1B2B2B2B2B2B2B3B3B3AFAFAFB2B2B2AEAEAEB8B8B8B1B1B1
310
B0B0B0EBEBEBFFFFFFFBFBFBFFFFFFFFFFFFFDFDFDFDFDFDFFFFFFFFFFFFFEFE
310
FEFBFBFB7474740000000D0D0D000000191919080808000000181818B0B0B0D9
310
D9D9CFCFCFBDBDBDDADADACFCFCFD4D3D5DEDDDFD7DBDCC9CFCEC9D2CFB8BFBA
310
E2E8E3FFFFFBDBD7D2D3CDC8CDC4C1F0E9E6656362030604000201030D0D0000
310
06000007787B80FEFDFFA5A3A20F0E0A1617130001000002000001000E0B070B
310
02006B5B4BFFEED8DDBFA4FAD9B8EBCAA3EBCDAAE1CCB1F7EADAFFFFFCE1E6E9
310
C0C9D2C5D1DDCAD4DEC9D2DBCBD1D6CCD1D2CDD2D1CFD4D3D1D6D5D3D7D8CFD2
310
D6D2D5D9D3D3D9CDD0D4CFCFD5D1D4D8D5D5DBD1D4D8D0D0D6CED1D5D0D0D6CE
310
D1D5D0D0D6CED1D5D0D0D6CED1D5CBCFD4CCD3D6D1D5DAD1D8DBD2D6DBD0D7DA
310
D3D7DCD1D8DBD0D4D9CFD6D9D1D5DACED5D8D0D4D9CFD6D9D0D4D9D1D5D6D1D0
310
CCD6D3CBD9D6CED9D6CEDAD7CFDAD7CFDDDAD2DFDCD4D0CDC5D0CDC5FBF8F3FE
310
FDF9FFFFFEFCFDFB0000F2F2F2FFFFFFFFFFFFF5F5F5A7A7A74F4F4F44444457
310
57575454545151514C4C4C3E3E3E636363D2D2D2FFFFFFFDFDFDFFFFFFFFFFFF
310
FEFEFEF9F9F9FFFFFFFFFFFFFDFDFDFFFFFFFFFFFFE1E1E1BEBEBEB0B0B0AEAE
310
AEB3B3B3B5B5B5ADADADB3B3B3B2B2B2B1B1B1ACACACB7B7B7B3B3B3ACACACCD
310
CDCDFFFFFFFFFFFFFFFFFFFFFFFFFDFDFDFFFFFFFFFFFFFFFFFFFDFDFDFCFCFC
310
FFFFFF1B1B1B0C0C0C0D0D0D000000080808040404000000030303ADADADEBEB
310
EBCFCFCFBABABADFDEE0C7C6CACCCCD2CACED3C9D0D3DDE5E4CFD8D5EEF3F1FF
310
FFFCF6F1EEC9C2BFCDC4C1EFE8E5F3EFEE131614090F0E000205010A1700010F
310
0000087A8087FAFFFF2E32330000010C111200000101030313100C30271ED9C7
310
B6D2B8A0F2D0B2E2BD9BEDC7A7ECC9AFE5C9B8FFFEF6FFFDFFD5CED5CBC9D5C8
310
C8D6D7D5E1D7D4DDD7D3D8D7D2D4D8D1D4D8D3D5DAD4D9D8D7DBCFD2D7D1D5DA
310
D1D3DBCDD1D6CED0D8D0D4D9D0D2DACCD0D5CED0D8CDD1D6CED0D8CDD1D6CED0
310
D8CDD1D6CED0D8CDD1D6D1D7DED0D9DDD2D8DFCED7DBCED4DBCBD4D8CFD5DCCE
310
D7DBD1D7DECED7DBCFD5DCCDD6DACED4DBCBD4D8CCD2D9CED3D6D0D1CFD4D3CF
310
D4D5D3D5D6D4D5D6D4D3D5D5D5D7D7D5D9DAC7CCCFC6CBCEF0F6FBF2FAFFF4FD
310
FFF0FAFF0000FFFFFFE6E6E69393934D4D4D4242424848484747474545455252
310
524343434D4D4DA4A4A4FFFFFFFFFFFFECECECFFFFFFFFFFFFFFFFFFFCFCFCFE
310
FEFEFFFFFFFFFFFFFDFDFDFEFEFEFAFAFAC7C7C7AFAFAFB5B5B5B2B2B2B3B3B3
310
B6B6B6AFAFAFAFAFAFB5B5B5B2B2B2AFAFAFB6B6B6B4B4B4ACACACB8B8B8F7F7
310
F7FFFFFFFFFFFFFCFCFCFEFEFEFFFFFFFEFEFEFEFEFEFFFFFFFFFFFFF0F0F0E2
310
E2E20606060000001010100000000707070000000303030A0A0A959595EDEDED
310
D6D6D6DCDBDDD2CED3DDDCE0D9DADEC7CBCCC6CDCAB7BDB8E5E7E1FFFFFBEAE2
310
DBCDC1BBCABEB8BEB2ACFFFFF9D4D0CB00020000020100000701091600000700
310
00047F8384FBFFFF686D6C0001000C10110404040D0904B4AAA0E2CEBCE0C5AA
310
FEDBB9ECC7A5EDCBAEE2C6AEF1D8C8FFFFF7FFF9F9D7D1D6D2CFD8CCC9D2DAD6
310
DBDCD7D9DDD8D7DCD7D4DCD7D6DBD6D7D9D6D8D6D5D9D0D1D5D4D5D9D4D5D9D1
310
D2D6D0D1D5D2D3D7D1D2D6CDCED2D5D6DAD5D6DAD5D6DAD5D6DAD5D6DAD5D6DA
310
D5D6DAD3D6DAD3D6DAD3D8DBD3D8DBD0D5D8CDD2D5CBD0D3CCD1D4CDD2D5D2D7
310
DAD0D5D8CFD4D7D1D6D9D0D5D8CED3D6CED3D6D0D4D5D2D4D4D3D5D5D4D6D6D1
310
D5D6D0D4D5CED3D6CDD3D8CCD4DBC1CAD3C0C9D2EAF4FEECF8FFEFFCFFECF9FF
310
00009696964545453131314545454B4B4B5D5D5D6363634C4C4C3F3F3F797979
310
DCDCDCFFFFFFFCFCFCFFFFFFFFFFFFF2F2F2FEFEFEFBFBFBFDFDFDFFFFFFFFFF
310
FFFFFFFFFFFFFFFBFBFBD9D9D9B4B4B4AEAEAEBDBDBDB5B5B5AFAFAFB4B4B4B3
310
B3B3ABABABB6B6B6B5B5B5B3B3B3B4B4B4B1B1B1B1B1B1B1B1B1E7E7E7FEFEFE
310
FFFFFFFAFAFAFFFFFFFFFFFFFDFDFDFFFFFFFFFFFFFAFAFAFFFFFFFFFFFFACAC
310
AC0000000404041111110404040303030C0C0C0505050000005B5B5BEFEFEFC9
310
C7C7D7D1D2E2DDDCDFDCD8D4D4CEE1E2D9D7D6CCFCF6EBFFFFF5F6E6D9E6D3C4
310
E2CDBEE3D0C1E3D3C3F8EBDD7F786917150B0402010000000806051D1A150705
310
0027251DFFFFF9E2E2DC23221E0401008D867DDED1C3E9D2BCD9BB9EE9C3A0EC
310
CAA6DFCBACD9CEB3FFFCE8FFFFF3DFE2D9CFD5D0CAD1CECED5D0CDD5CBD1D7CC
310
D6DBCCD8DDCED6DDD0D0D9CFCBD5CFCBD2CDD3D4D0DAD7D2DAD7D2D7D4CFD7D4
310
CFD9D6D1D7D4CFD4D1CCDBD8D3DBD8D3DBD8D3DBD8D3DBD8D3DBD8D3DBD8D3DB
310
D8D3D0CDC8D3D0CBD7D4CFD9D6D1D9D6D1D8D5D0D9D6D1DAD7D2D9D6D1D5D2CD
310
D6D3CEDAD7D2DBD8D3D7D4CFD7D4CFDAD9D5D2D4D4D2D6D7D3D7D8D1D6D9CFD4
310
D7CBD1D6CCD2D7CCD4DBC2CBD4C1CAD3EAF4FEEEF8FFF1FDFFEDF9FF00006464
310
644C4C4C5959595D5D5D4E4E4E474747414141434343BEBEBEF8F8F8FFFFFFFD
310
FDFDFFFFFFFFFFFFF9F9F9FFFFFFFFFFFFFBFBFBFEFEFEFDFDFDFBFBFBFFFFFF
310
FFFFFFEEEEEEB9B9B9AEAEAEB2B2B2BBBBBBB4B4B4ACACACAFAFAFB3B3B3ACAC
310
ACB6B6B6B3B3B3B7B7B7B3B3B3AEAEAEB7B7B7B1B1B1D0D0D0F7F7F7FFFFFFF9
310
F9F9FFFFFFFFFFFFFBFBFBFFFFFFF2F2F2FFFFFFFFFFFFF5F5F5FFFFFFB2B2B2
310
0000000000000000000E0E0E0000000303030000000E0E0E111111A2A0A0DBD5
310
D6E7DFDFDEDAD9CDCDC7D9D7CFCFCDC3F5EFE4FFFEF0F0E0D0D7C3B2DBC4B4CE
310
B7A7E9D5C4F3E3D2FFFFF2776F62100D050B08030502000702000B0700110F04
310
04020095958FFFFFFCE4E3DFE1DDD8D7CDC3D1BDABF2D7BDE8C5A4EBCEAFD4C7
310
ADDED9C4FFFFF2F5F7EBC5CAC1C4CCC5C2CAC3D0D8CECDD4C7D2D8C7D8DBCBD9
310
DFCED5DED1D0DBD1C9D7D1C9D4D1D4D6D0DBD9D1DCD8D3D7D5CDD8D4CFDAD8D0
310
DBD7D2D7D5CDD7D3CED6D4CCD7D3CED6D4CCD7D3CED6D4CCD7D3CED6D4CCD4D0
310
CBD6D4CCDBD7D2DBD9D1DBD7D2D9D7CFDAD6D1D9D7CFDAD6D1D3D1C9D5D1CCDA
310
D8D0DCD8D3D6D4CCD8D4CFDDDAD5D1D2D0D1D3D3D3D5D5D1D5D6D0D4D5D0D4D5
310
D1D6D9D3D8DBC8CDD0C7CCCFF1F6F9F4F9FCFAFFFFF6FBFE00006565654C4C4C
310
4C4C4C515151515151484848808080FFFFFFFBFBFBF8F8F8FFFFFFFFFFFFF5F5
310
F5FCFCFCFFFFFFF9F9F9FFFFFFFCFCFCFFFFFFFDFDFDF9F9F9FFFFFFF4F4F4CB
310
CBCBACACACB5B5B5B4B4B4B1B1B1B3B3B3B1B1B1AFAFAFB3B3B3B2B2B2B5B5B5
310
ACACACB6B6B6B2B2B2ABABABBABABAB0B0B0B9B9B9EFEFEFFFFFFFF9F9F9FFFF
310
FFFFFFFFFAFAFAFFFFFFFCFCFCFFFFFFFCFCFCFFFFFFFFFFFFF7F7F7ACACAC06
310
06060A0A0A0000000808080606060B0B0B0000001414140000012A262C76747A
310
C1C1C7DDE1E2EBEDEDD4D5D1F6F3EEFFFFF9FFFFF7DAC8BDF2DED3E9D5CACFBD
310
B27E7064423A2DFFFFF7928F870401001411090D0B010403000F1007070B060B
310
11100B1215858B90E6E9EDF9F7F6FFFFF9DFCEC1EFD6C2D4BCA8E5D8CAF4EDE4
310
FFFFFBF7F4F0DBD9D9D7D7D7DBD9D8D9D6D1D7D2C9DBD5CADAD6CBDAD8CED8D8
310
D2D3D8D7D0D7DACFD5DAD1D5D6D5D8D6D6D6D6D1D4D2D3D3D3D5D8D6D9D9D9D5
310
D8D6D2D2D2D0D3D1D2D2D2D0D3D1D2D2D2D0D3D1D2D2D2D0D3D1D7D7D7D6D9D7
310
D9D9D9D5D8D6D4D4D4D0D3D1D3D3D3D2D5D3D7D7D7CED1CFD0D0D0D5D8D6D7D7
310
D7CFD2D0D1D1D1D8D9D7D4D3CFD7D4CFD9D6D1D7D6D2D6D5D1D6D5D1DAD7D2DB
310
D8D3D2CFCAD1CEC6FBF8F0FFFBF2FFFFF8FFFDF400006B6B6B4D4D4D50505042
310
4242646464CDCDCDFFFFFFFFFFFFFFFFFFFEFEFEF9F9F9FFFFFFFFFFFFFFFFFF
310
F9F9F9FFFFFFFBFBFBFAFAFAFFFFFFFFFFFFFDFDFDFFFFFFE5E5E5A7A7A7AEAE
310
AEBFBFBFB6B6B6A8A8A8B4B4B4B9B9B9B2B2B2B3B3B3B9B9B9B4B4B4A6A6A6B5
310
B5B5B2B2B2AAAAAABCBCBCAEAEAEABABABEAEAEAFFFFFFF9F9F9FFFFFFFFFFFF
310
F9F9F9FFFFFFFEFEFEFDFDFDFEFEFEF4F4F4FFFFFFFFFFFFF1F1F1BFBFBF0202
310
020808080404040303030000000D0D0D0000000403050000040200060000050B
310
0E12414546555A597D7E7C84817D766F6C5F54505347411C100A1208010E0600
310
0D0A02232119FEFBF6CBC8C3050200040200171711000200080D0C0000030004
310
0B000710090F162A2D327B7677D0C7C4EFDFD8FFFCF5FFF9F5FFFFFCFAF5F4FF
310
FDFEFFFEFFFBF8FAFFFAFBE1DCD9D6CDC9D6CEC7D5CDC6D3CDC8D2CECDD0CFD1
310
CED2D7D0D3DBD2D5D9D4D8D9D4D6D7CED2D3D1D3D4D4D8D9D9DBDCD5D9DAD5D7
310
D8D3D7D8D5D7D8D3D7D8D5D7D8D3D7D8D5D7D8D3D7D8D0D2D3CFD3D4D0D2D3CE
310
D2D3CFD1D2D0D4D5D7D9DAD8DCDDD7D9DACDD1D2CFD1D2D4D8D9D5D7D8CBCFD0
310
CCCECFD3D5D5D8D7D3DBD8D3DBD8D3DAD7D2D7D4CFD6D3CED7D4CCD8D5CDD5CF
310
C8D3CEC5FFF9EEFFFCF1FFFFF5FFFEF100006868683A3A3A474747A7A7A7F7F7
310
F7FFFFFFF9F9F9FFFFFFFFFFFFFFFFFFFFFFFFFFFFFFFFFFFFFFFFFFFFFFFFFF
310
FFFFFFFFFFFFFFFFF6F6F6FFFFFFFFFFFFEDEDEDB8B8B8B1B1B1B7B7B7B6B6B6
310
B4B4B4B2B2B2B1B1B1B0B0B0B0B0B0B0B0B0B2B2B2B2B2B2B2B2B2B2B2B2B2B2
310
B2B2B2B2B2B2B2B2B2B2B3B3B3BABABAFFFFFFF9F9F9FFFFFFFFFFFFF4F4F4FF
310
FFFFFFFFFFFFFFFFFFFFFFFFFFFFFFFFFFFFFFFFFFFFFFFFFFFFD5D5D5313131
310
0000000808080606060000000A0A0A040404110D0C0B07060402010101010305
310
0504090803070801050600000100010201030403050606080804090800040200
310
0100000100DDDEDCF3F4F24D4E4C09090904060600000102070A00020A01040C
310
00020C00000700000506040A07060A060305020000100E0D100E0E0A08080C0C
310
0C060606F8F6F6E0DEDDDAD6D5DAD6D5DBD7D6D9D7D6D8D6D6D5D5D5D1D3D4D0
310
D2D3CED0D1D0D2D2D3D3D3CFD1D1CFCFCFCED0D0D4D4D4D6D8D8D4D4D4D4D6D6
310
D8D8D8D7D9D9D8D8D8D4D6D6D3D3D3CFD1D1D9D9D9D5D7D7D4D4D4D0D2D2D2D2
310
D2D2D4D4D7D7D7D7D9D9D2D2D2D2D4D4D7D7D7D7D9D9D9D9D9D5D7D7D4D4D4D2
310
D2D2D3D4D2D5D3D2D5D3D2D6D4D3D7D5D4D8D6D5D8D6D5D8D6D5D1CFCECFCECA
310
FCF9F5FFFDF9FFFFFCFFFCF80000575757878787CBCBCBFCFCFCFFFFFFFEFEFE
310
F8F8F8FAFAFAFFFFFFFFFFFFFFFFFFFFFFFFFFFFFFFFFFFFFFFFFFFFFFFFFFFF
310
FFF5F5F5FFFFFFF7F7F7FFFFFFC5C5C5B8B8B8B0B0B0B3B3B3B3B3B3B2B2B2B2
310
B2B2B2B2B2B2B2B2B3B3B3B3B3B3B2B2B2B2B2B2B2B2B2B2B2B2B2B2B2B2B2B2
310
B2B2B2B2B2B2B1B1B1B8B8B8F5F5F5FEFEFEFFFFFFFFFFFFF7F7F7FFFFFFFFFF
310
FFFFFFFFFFFFFFFFFFFFFFFFFFFFFFFFFFFFFFFFFFFFF4F4F4FFFFFF8B8B8B00
310
00000202021313130000000806050401000401000C09050D0C08060606000100
310
000001000003070E11060D1004090C000304000001000403060B0A0D100E1411
310
0D0501007A7671FEFBF7B8B5B12F2D2C0705050D0C0E00000300000400000601
310
030B03050D02040C00020C00020A0406070D0D0D0505050101010C0C0C040404
310
F7F7F7D3D3D3D5D5D5D6D6D6D8D8D8D9D9D9DADADAD8D8D8D7D7D7D5D5D5D5D5
310
D5D7D7D7D9D9D9D9D9D9D8D8D8D7D7D7D8D8D8D9D9D9D5D5D5D5D5D5D6D6D6D7
310
D7D7D8D8D8D8D8D8D9D9D9D9D9D9D7D7D7D6D6D6D5D5D5D3D3D3D3D3D3D5D5D5
310
D6D6D6D7D7D7D1D1D1D3D3D3D5D5D5D7D7D7D7D7D7D5D5D5D3D3D3D1D1D1D4D4
310
D4D4D4D4D4D4D4D4D4D4D4D4D4D4D4D4D3D3D3D3D3D3CACACAC8C8C8F3F3F3F7
310
F7F7FFFFFFFCFCFC0000BEBEBEEBEBEBFFFFFFFFFFFFF6F6F6F7F7F7FFFFFFFF
310
FFFFFFFFFFFFFFFFFFFFFFFFFFFFFFFFFFFFFFFFFFFFFFFFFFFFFEFEFEFDFDFD
310
FFFFFFFFFFFFDADADAB8B8B8AEAEAEB9B9B9B0B0B0B0B0B0B0B0B0B1B1B1B2B2
310
B2B3B3B3B5B5B5B6B6B6B2B2B2B2B2B2B2B2B2B2B2B2B2B2B2B2B2B2B2B2B2B2
310
B2B2B0B0B0B4B4B4DBDBDBFFFFFFFEFEFEFEFEFEFEFEFEFCFCFCFFFFFFFFFFFF
310
FFFFFFFFFFFFFFFFFFFFFFFFFFFFFFFFFFFFFFFFFFDADADAF9F9F9E0E0E04848
310
48000000101010060705090804090804090804070602030303020404050A090A
310
0E0F0000010000000808080A08070403000401000502000A050012060026190B
310
7F7264D0C4B8F6EAE0FFFFF8CAC0B9362D29120B080C07060B06070B080A0403
310
07000003000003090A0E050406050505000000000000080808030303FFFFFFDF
310
DFDFCCCCCCCFCFCFD2D2D2D4D4D4D5D5D5D4D4D4D2D2D2D1D1D1D2D2D2D2D2D2
310
D3D3D3D5D5D5D6D6D6D5D5D5D2D2D2CFCFCFD2D2D2D1D1D1D0D0D0D0D0D0D0D0
310
D0D2D2D2D4D4D4D5D5D5D4D4D4D3D3D3D3D3D3D3D3D3D3D3D3D3D3D3D3D3D3D4
310
D4D4CFCFCFD0D0D0D2D2D2D4D4D4D4D4D4D2D2D2D0D0D0CFCFCFD9D9D9D9D9D9
310
D8D8D8D8D8D8D7D7D7D6D6D6D5D5D5D5D5D5D5D5D5D1D1D1F8F8F8FAFAFAFFFF
310
FFFCFCFC0000FFFFFFFFFFFFFFFFFFFFFFFFFFFFFFFEFEFEFBFBFBF9F9F9FFFF
310
FFFFFFFFFFFFFFFFFFFFFFFFFFFFFFFFFFFFFFFFFFFFFFFFFFFFFFFFFDFDFDFA
310
FAFAB7B7B7B2B2B2AFAFAFBBBBBBB0B0B0B0B0B0B0B0B0B0B0B0B1B1B1B3B3B3
310
B4B4B4B5B5B5B2B2B2B2B2B2B2B2B2B2B2B2B2B2B2B2B2B2B2B2B2B2B2B2B0B0
310
B0B4B4B4C2C2C2FFFFFFFDFDFDFDFDFDFFFFFFF8F8F8FFFFFFFFFFFFFFFFFFFF
310
FFFFFFFFFFFFFFFFFFFFFFFFFFFFFEFEFEFFFFFFFFFFFFFFFFFFFFFFFFCECECE
310
6060600202020809070001000201000001000506040608080000000001000F0D
310
0C0C09050903000901000B0200120900281D0F3E2E1DBCA58FD7BFA7E1C9B3E3
310
CBB7E5CFBDE0CCBBF6E6D6FFFFF5F2E6DC9C928B3E35310F0805050000050001
310
030101040202030303060606070707020202090909000000EDEDEDD0D0D0CECE
310
CED1D1D1D4D4D4D7D7D7D7D7D7D6D6D6D3D3D3D1D1D1D4D4D4D2D2D2D1D1D1D2
310
D2D2D5D5D5D4D4D4D1D1D1CDCDCDD6D6D6D5D5D5D4D4D4D3D3D3D2D2D2D2D2D2
310
D2D2D2D2D2D2D4D4D4D5D5D5D6D6D6D7D7D7D7D7D7D6D6D6D5D5D5D4D4D4D2D2
310
D2D3D3D3D5D5D5D6D6D6D6D6D6D5D5D5D3D3D3D2D2D2CCCCCCCCCCCCCCCCCCCB
310
CBCBCBCBCBCACACACACACACACACAD7D7D7D2D2D2F9F9F9FCFCFCFFFFFFFDFDFD
310
0000FEFEFEF6F6F6F8F8F8FFFFFFFFFFFFFCFCFCFBFBFBFFFFFFFFFFFFFFFFFF
310
FFFFFFFFFFFFFFFFFFFFFFFFFFFFFFFFFFFFFFFFFFF6F6F6FBFBFBC7C7C7B1B1
310
B1A2A2A2BEBEBEAFAFAFB2B2B2B1B1B1B1B1B1B0B0B0B1B1B1B1B1B1B2B2B2B3
310
B3B3B2B2B2B2B2B2B2B2B2B2B2B2B2B2B2B2B2B2B2B2B2B2B2B2B1B1B1B5B5B5
310
B3B3B3F7F7F7FDFDFDFEFEFEFFFFFFF8F8F8FFFFFFFFFFFFFFFFFFFFFFFFFFFF
310
FFFFFFFFFFFFFFFFFFFFFFFFFFF6F6F6EFEFEFFAFAFAFFFFFFFFFFFFFBFBFBFF
310
FFFFA6A7A5797C7A40413F1314120001000001000705040C07040701000B0200
310
1E120847372A786655A99381D4BCA8F4D9BFEECCAEF1CCAAF3D0AFF2D0B2E7C9
310
AEE1C3AADABFAAD0BBA6EEDBCCF9E9DCFFFEF4FFFEF5D9D0CC968F8C6964615C
310
58573937372D2D2D2828282121212E2E2E2F2F2FECECECD7D7D7CBCBCBCCCCCC
310
CFCFCFD0D0D0D0D0D0CDCDCDCACACAC8C8C8CFCFCFCBCBCBC8C8C8C7C7C7CACA
310
CACBCBCBCACACAC7C7C7CCCCCCCDCDCDCFCFCFCFCFCFCFCFCFCDCDCDCACACAC9
310
C9C9C8C8C8C9C9C9CBCBCBCCCCCCCCCCCCCBCBCBC9C9C9C8C8C8C9C9C9C9C9C9
310
CBCBCBCBCBCBCBCBCBCBCBCBC9C9C9C9C9C9D0D0D0D0D0D0D0D0D0D1D1D1D1D1
310
D1D2D2D2D2D2D2D2D2D2CBCBCBC7C7C7F0F0F0F6F6F6FFFFFFFFFFFF0000F9F9
310
F9FFFFFFFFFFFFFAFAFAF5F5F5FBFBFBFFFFFFFFFFFFFFFFFFFFFFFFFFFFFFFF
310
FFFFFFFFFFFFFFFFFFFFFFFFFFFFFFFFFFF4F4F4DDDDDDB6B6B6A9A9A9B1B1B1
310
BCBCBCAFAFAFB3B3B3B3B3B3B1B1B1B0B0B0B0B0B0B0B0B0B0B0B0B0B0B0B2B2
310
B2B2B2B2B2B2B2B2B2B2B2B2B2B2B2B2B2B2B2B2B2B2B2B2B2B6B6B6AEAEAEE0
310
E0E0FDFDFDFFFFFFFFFFFFFBFBFBFFFFFFFFFFFFFFFFFFFFFFFFFFFFFFFFFFFF
310
FFFFFFFFFFFFF8F8F8FBFBFBFFFFFFFFFFFFFCFCFCFDFDFDFFFFFFF5F5F5FDFF
310
FFFDFFFEFAFDFBF0F3F1E6E7E5DEDCDBDCD7D4DED5D1D4C9C1D1C1B5D5C2B3E9
310
D1BFF5DAC5F4D6BDEFCEB4EECBAAFBCFAAF9CCA6F8CCA7EFC5A2E7C0A0F3CFB1
310
F5D7BCE2C8B0E5CDBBD6C3B4D7CABCECE2D8FFFAF3FFFFFBFFFCF9FBF7F6F5F3
310
F3F3F3F3FFFFFFFFFFFFFFFFFFE0E0E0FFFFFFD1D1D1DADADADADADADBDBDBDB
310
DBDBDADADAD8D8D8D7D7D7D5D5D5DCDCDCD9D9D9D6D6D6D5D5D5D6D6D6D8D8D8
310
D9D9D9D9D9D9D4D4D4D6D6D6D9D9D9DCDCDCDDDDDDDBDBDBD9D9D9D8D8D8D6D6
310
D6D7D7D7D8D8D8D9D9D9D9D9D9D8D8D8D7D7D7D6D6D6D7D7D7D7D7D7D8D8D8D8
310
D8D8D8D8D8D8D8D8D7D7D7D7D7D7D2D2D2D2D2D2D3D3D3D3D3D3D4D4D4D5D5D5
310
D6D6D6D6D6D6DCDCDCD4D4D4F7F7F7F8F8F8FFFFFFFFFFFF0000FAFAFAFFFFFF
310
FFFFFFFFFFFFFFFFFFFFFFFFFFFFFFF0F0F0FFFFFFFFFFFFFFFFFFFFFFFFFFFF
310
FFFFFFFFFFFFFFFFFFFFFFFFFFEEEEEEB7B7B7B9B9B9A9A9A9C2C2C2AEAEAEB5
310
B5B5B3B3B3B2B2B2B1B1B1B0B0B0B0B0B0B0B0B0B0B0B0B0B0B0B2B2B2B2B2B2
310
B2B2B2B2B2B2B2B2B2B2B2B2B2B2B2B2B2B2B0B0B0B7B7B7AFAFAFC5C5C5FBFB
310
FBFFFFFFFDFDFDFFFFFFFFFFFFFFFFFFFFFFFFFFFFFFFFFFFFFFFFFFFFFFFFFF
310
FFFFFFFFFFF5F5F5F9F9F9FDFDFDEDEDEDF5F5F5FFFFFFFDFFFFEBF0EFF3F8F7
310
FBFFFFFDFFFFFFFFFEFFFFFBFFFFFBFFFFF8F5E7DBE4D1C2D9C0ACDEBFA8E5C4
310
AAE9C3A5ECC3A2F4C8A3F4C39BFFD0A6FAC9A1F4C7A1FBD1AEECC5A5DFBDA0EE
310
D0B7D3BBA7DCCAB9ECDED2FBF2E8FFFCF5FFFFFAFFFFFCFFFFFEFFFFFFFFFFFF
310
FBFBFBF7F7F7FDFDFDFFFFFFFFFFFFFFFFFFFDFDFDFDFDFDFDFDFDFCFCFCFCFC
310
FCFCFCFCFCFCFCFDFDFDFBFBFBFCFCFCFDFDFDFDFDFDFCFCFCFCFCFCFDFDFDFF
310
FFFFF9F9F9FAFAFAFCFCFCFEFEFEFEFEFEFEFEFEFEFEFEFDFDFDFEFEFEFEFEFE
310
FFFFFFFFFFFFFFFFFFFFFFFFFEFEFEFEFEFEFDFDFDFEFEFEFEFEFEFEFEFEFEFE
310
FEFEFEFEFEFEFEFDFDFDFFFFFFFFFFFFFFFFFFFFFFFFFFFFFFFFFFFFFFFFFFFF
310
FFFFFDFDFDEEEEEEFFFFFFFEFEFEFFFFFFFCFCFC0000FFFFFFFFFFFFFAFAFAFA
310
FAFAFDFDFDFFFFFFFFFFFFFFFFFFFFFFFFFFFFFFFFFFFFFFFFFFFFFFFFFFFFFF
310
FFFFFFFFFFFFFBFBFBD3D3D3B0B0B0A1A1A1C3C3C3B0B0B0ABABABB1B1B1B1B1
310
B1B1B1B1B0B0B0B0B0B0B0B0B0B0B0B0B1B1B1B2B2B2B2B2B2B2B2B2B2B2B2B2
310
B2B2B2B2B2B2B2B2B2B2B2B2B2B2AFAFAFB6B6B6B2B2B2B3B3B3F9F9F9FEFEFE
310
F8F8F8FFFFFFFFFFFFFFFFFFFFFFFFFFFFFFFFFFFFFFFFFFFFFFFFFFFFFFF9F9
310
F9FDFDFDFFFFFFFFFFFFFFFFFFFEFEFEFDFDFDFDFFFFFBFFFFFAFFFFF7FCFBFA
310
FCFCFFFFFEFFFFFCFFFDF9FFFBF1EFDED1E2CCBADEC1ACE6C5ABF0CAACF0C7A6
310
F3C6A1F9CAA4F8C59DFFCDA5FFCEA8F5C8A3F0C5A4F0CAACEAC9AFE0C4ACE4CE
310
BCF4E4D4FFF9EFFFFEF7FFFCF7FCFAF9FBFBFBFAFCFCF6F6F6FCFCFCFFFFFFFF
310
FFFFF8F8F8FFFFFFEDEDEDFEFEFEFFFFFFFFFFFFFEFEFEFEFEFEFFFFFFFFFFFF
310
FFFFFFFFFFFFF9F9F9FDFDFDFFFFFFFFFFFFFFFFFFFEFEFEFFFFFFFFFFFFFFFF
310
FFFFFFFFFFFFFFFFFFFFFEFEFEFEFEFEFFFFFFFFFFFFFFFFFFFFFFFFFFFFFFFF
310
FFFFFFFFFFFFFFFFFFFFFFFFFFFFFEFEFEFEFEFEFEFEFEFEFEFEFEFEFEFEFEFE
310
FEFEFEFEFEFEFFFFFFFEFEFEFEFEFEFDFDFDFCFCFCFCFCFCFBFBFBFBFBFBFFFF
310
FFF5F5F5FFFFFFFBFBFBFFFFFFFBFBFB0000FFFFFFFFFFFFFFFFFFFFFFFFFFFF
310
FFFFFFFFFFFFFFFFFFFFFFFFFFFFFFFFFFFFFFFFFFFFFFFFFFFFFFFFFFFFFFFF
310
FFFFDDDDDDC6C6C6B7B7B7BCBCBCC4C4C4C2C2C2BDBDBDBDBDBDC0C0C0C0C0C0
310
C0C0C0C0C0C0C0C0C0C0C0C0C0C0C0C0C0C0C0C0C0C0C0C0C0C0C0C0C0C0C0C0
310
C0C0C0C0C0C0C0C0C0C0C1C1C1BFBFBFBBBBBBC0C0C0DADADAF8F8F8FFFFFFFB
310
FBFBFFFFFFFFFFFFFFFFFFFFFFFFFFFFFFFFFFFFFFFFFFFFFFFFFFFFFFFFFFFF
310
FFFFFFFFFFFFFFFFFFFFFFFFFFFFFFFDFFFFFAFFFFFAFFFFFBFFFFFDFFFFFFFF
310
FEFFFFFCFFFFF9FFFFF7F2E1D4DDC7B5E4C8B0E6C6A9EDC6A6FBD1AEFBCCA6FC
310
CDA7F3C6A1F7CAA8FACFAEF5CEAEEFCAAEE8C9B0E5CAB5E4CEBCFFFAEDFFFBF1
310
FFFDF6FFFFFBFFFFFFFBFFFFF9FEFFF8FDFEFDFFFFFFFFFFFFFFFFFFFFFFFFFF
310
FFFFFFFFFFFFFFFFFFFFFFFFFFFFFFFFFFFFFFFFFFFFFFFFFFFFFFFFFFFFFFFF
310
FFFFFFFFFFFFFFFFFFFFFFFFFFFFFFFFFFFFFFFFFFFFFFFFFFFFFFFFFFFFFFFF
310
FFFFFFFFFFFFFFFFFFFFFFFFFFFFFFFFFFFFFFFFFFFFFFFFFFFFFFFFFFFFFFFF
310
FFFFFFFFFFFFFFFFFFFFFFFFFFFFFFFFFFFFFFFFFFFFFFFFFFFFFFFFFFFFFFFF
310
FFFFFFFFFFFFFFFFFFFFFFFFFFFFFFFFFFFFFFFFFFFFFFFFFFFFFFFFFFFFFFFF
310
FFFFFFFFFFFFFFFFFFFFFFFF0000FFFFFFFFFFFFFFFFFFFFFFFFFFFFFFFFFFFF
310
FFFFFFFFFFFFFFFFFFFFFFFFFFFFFFFFFFFFFFFFFFFFFFFFFFFFFFFFFFFFFFFF
310
FFF9F9F9F4F4F4FBFBFBFFFFFFFBFBFBFAFAFAFEFEFEFBFBFBFBFBFBFBFBFBFB
310
FBFBFBFBFBFBFBFBFBFBFBFBFBFBFBFBFBFBFBFBFBFBFBFBFBFBFBFBFBFBFBFB
310
FBFBFBFBFBFBFDFDFDFEFEFEF8F8F8F2F2F2F8F8F8FFFFFFFFFFFFFEFEFEFFFF
310
FFFFFFFFFFFFFFFFFFFFFFFFFFFFFFFFFFFFFFFFFFFFFFFFFFFFFFFFFFFFFFFF
310
FFFFFFFFFFFFFFFFFFFFFFFDFFFFFAFFFFFAFFFFFBFFFFFDFFFFFFFFFEFFFFFC
310
FFFFF9FFFFF7FCECDFE3CDBBE6CCB4E7C9AEEAC4A4F0C8A5EDC19CF1C5A0F7D0
310
B0EFCAAEE5C2A8DDBBA3DCBFAAEAD1BDFEEAD9FFFCEFFFFAF0FFFBF4FFFDF9FE
310
FEFEFBFEFFFAFEFFF5FEFFF6FCFFFDFFFFFFFFFFFFFFFFFFFFFFFFFFFFFFFFFF
310
FFFFFFFFFFFFFFFFFFFFFFFFFFFFFFFFFFFFFFFFFFFFFFFFFFFFFFFFFFFFFFFF
310
FFFFFFFFFFFFFFFFFFFFFFFFFFFFFFFFFFFFFFFFFFFFFFFFFFFFFFFFFFFFFFFF
310
FFFFFFFFFFFFFFFFFFFFFFFFFFFFFFFFFFFFFFFFFFFFFFFFFFFFFFFFFFFFFFFF
310
FFFFFFFFFFFFFFFFFFFFFFFFFFFFFFFFFFFFFFFFFFFFFFFFFFFFFFFFFFFFFFFF
310
FFFFFFFFFFFFFFFFFFFFFFFFFFFFFFFFFFFFFFFFFFFFFFFFFFFFFFFFFFFFFFFF
310
FFFFFFFFFFFFFFFF0000FFFFFFFFFFFFFFFFFFFFFFFFFFFFFFFFFFFFFFFFFFFF
310
FFFFFFFFFFFFFFFFFFFFFFFFFFFFFFFFFFFFFFFFFFFFFFFFFFFFFFFFFFFCFCFC
310
FFFFFFFFFFFFFFFFFFFFFFFFFFFFFFFFFFFFFFFFFFFFFFFFFFFFFFFFFFFFFFFF
310
FFFFFFFFFFFFFFFFFFFFFFFFFFFFFFFFFFFFFFFFFFFFFFFFFFFFFFFFFFFFFFFF
310
FFFFFFFFFFFFFFFFFFFFFFFEFEFEF9F9F9FBFBFBFBFBFBF7F7F7FFFFFFFFFFFF
310
FFFFFFFFFFFFFFFFFFFFFFFFFFFFFFFFFFFFFFFFFFFFFFFFFFFFFFFFFFFFFFFF
310
FFFFFFFFFFFFFFFDFFFFFBFFFFFBFFFFFBFFFFFDFFFFFFFFFEFFFFFCFFFFFBFF
310
FFF8F1E3D7D5C3B2DCC4B0E6CAB2E8CAADF2CFAEF2CDABFAD7B6E0C2A9DFC4B0
310
E1C7B6E4CDBDECD7C8F8E7DAFFF9F0FFFFF8FFF9F5FFFBFAFDFDFDFAFDFFFAFE
310
FFF6FEFFF5FDFFF6FCFFFDFFFFFFFFFFFFFFFFFFFFFFFFFFFFFFFFFFFFFFFFFF
310
FFFFFFFFFFFFFFFFFFFFFFFFFFFFFFFFFFFFFFFFFFFFFFFFFFFFFFFFFFFFFFFF
310
FFFFFFFFFFFFFFFFFFFFFFFFFFFFFFFFFFFFFFFFFFFFFFFFFFFFFFFFFFFFFFFF
310
FFFFFFFFFFFFFFFFFFFFFFFFFFFFFFFFFFFFFFFFFFFFFFFFFFFFFFFFFFFFFFFF
310
FFFFFFFFFFFFFFFFFFFFFFFFFFFFFFFFFFFFFFFFFFFFFFFFFFFFFFFFFFFFFFFF
310
FFFFFFFFFFFFFFFFFFFFFFFFFFFFFFFFFFFFFFFFFFFFFFFFFFFFFFFFFFFFFFFF
310
FFFFFFFF0000FFFFFFFFFFFFFFFFFFFFFFFFFFFFFFFFFFFFFFFFFFFFFFFFFFFF
310
FFFFFFFFFFFFFFFFFFFFFFFFFFFFFFFFFFFFFFFFFFFFF8F8F8F8F8F8FCFCFCFF
310
FFFFFCFCFCF6F6F6F6F6F6FCFCFCFCFCFCFCFCFCFCFCFCFCFCFCFCFCFCFCFCFC
310
FCFCFCFCFCFCFCFCFCFCFCFCFCFCFCFCFCFCFCFCFCFCFCFCFCFCFCFCFCFCF5F5
310
F5FDFDFDFFFFFFFDFDFDFBFBFBFFFFFFFFFFFFFFFFFFFFFFFFFFFFFFFFFFFFFF
310
FFFFFFFFFFFFFFFFFFFFFFFFFFFFFFFFFFFFFFFFFFFFFFFFFFFFFFFFFFFFFFFF
310
FFFFFFFFFFFFFDFFFFFBFFFFFBFFFFFDFFFFFFFFFEFFFFFEFFFFFCFFFFF9F3EA
310
E0D3C6B8D8C6B5DFCAB5DDC5ADDEC3A8DDC0A1E6CBB0D8C4B2E1D1C4F5E5D9FF
310
F4EBFFFCF4FFFDF6FFFBF4FEF8F3FFFBFAFCFCFCFBFDFEF9FEFFF8FEFFF8FEFF
310
F5FDFFF6FCFFFDFFFFFFFFFFFFFFFFFFFFFFFFFFFFFFFFFFFFFFFFFFFFFFFFFF
310
FFFFFFFFFFFFFFFFFFFFFFFFFFFFFFFFFFFFFFFFFFFFFFFFFFFFFFFFFFFFFFFF
310
FFFFFFFFFFFFFFFFFFFFFFFFFFFFFFFFFFFFFFFFFFFFFFFFFFFFFFFFFFFFFFFF
310
FFFFFFFFFFFFFFFFFFFFFFFFFFFFFFFFFFFFFFFFFFFFFFFFFFFFFFFFFFFFFFFF
310
FFFFFFFFFFFFFFFFFFFFFFFFFFFFFFFFFFFFFFFFFFFFFFFFFFFFFFFFFFFFFFFF
310
FFFFFFFFFFFFFFFFFFFFFFFFFFFFFFFFFFFFFFFFFFFFFFFFFFFFFFFFFFFFFFFF
310
0000FFFFFFFFFFFFFFFFFFFFFFFFFFFFFFFFFFFFFFFFFFFFFFFFFFFFFFFFFFFF
310
FFFFFFFFFFFFFFFFFFFFFFFFFFFFFFFFFFFFFFFFFFFFFFFFFFFFFFFFFFFFFFFF
310
FFFEFEFEFDFDFDFFFFFFFFFFFFFFFFFFFFFFFFFFFFFFFFFFFFFFFFFFFFFFFFFF
310
FFFFFFFFFFFFFFFFFFFFFFFFFFFFFFFFFFFFFFFFFFFFFFFFFFFFFEFEFEFFFFFF
310
FFFFFFFEFEFEFFFFFFFFFFFFFFFFFFFFFFFFFFFFFFFFFFFFFFFFFFFFFFFFFFFF
310
FFFFFFFFFFFFFFFFFFFFFFFFFFFFFFFFFFFFFFFFFFFFFFFFFFFFFFFFFFFFFFFF
310
FFFFFDFFFFFDFFFFFDFFFFFDFFFFFFFFFFFFFFFEFFFFFCFFFFFBE8E2DBCCC3B9
310
D3C7BBDBCCBCDBCAB7DECCB5DECAB1E5D4BFF6EDE0F8F2EBFFFBF4FFFFFBFFFF
310
FBFFFFFCFFFFFCFFFEFDFCFDFBFBFDFDF9FEFDFAFEFFF9FEFFF9FEFFF9FEFFFA
310
FEFFFDFFFFFFFFFFFFFFFFFFFFFFFFFFFFFFFFFFFFFFFFFFFFFFFFFFFFFFFFFF
310
FFFFFFFFFFFFFFFFFFFFFFFFFFFFFFFFFFFFFFFFFFFFFFFFFFFFFFFFFFFFFFFF
310
FFFFFFFFFFFFFFFFFFFFFFFFFFFFFFFFFFFFFFFFFFFFFFFFFFFFFFFFFFFFFFFF
310
FFFFFFFFFFFFFFFFFFFFFFFFFFFFFFFFFFFFFFFFFFFFFFFFFFFFFFFFFFFFFFFF
310
FFFFFFFFFFFFFFFFFFFFFFFFFFFFFFFFFFFFFFFFFFFFFFFFFFFFFFFFFFFFFFFF
310
FFFFFFFFFFFFFFFFFFFFFFFFFFFFFFFFFFFFFFFFFFFFFFFFFFFFFFFF0000FFFF
310
FFFFFFFFFFFFFFFFFFFFFFFFFFFFFFFFFFFFFFFFFFFFFFFFFFFFFFFFFFFFFFFF
310
FFFFFFFFFFFFFFFFFFFFFFFFFFFFFFFFFFFDFDFDFAFAFAFAFAFAFDFDFDFFFFFF
310
FEFEFEFDFDFDFDFDFDFDFDFDFDFDFDFDFDFDFDFDFDFDFDFDFDFDFDFDFDFDFDFD
310
FDFDFDFDFDFDFDFDFDFDFDFDFDFDFDFDFDFDFDFDFDFDFFFFFFFDFDFDFAFAFAF9
310
F9F9FCFCFCFEFEFEFDFDFDFAFAFAFFFFFFFFFFFFFFFFFFFFFFFFFFFFFFFFFFFF
310
FFFFFFFFFFFFFFFFFFFFFFFFFFFFFFFFFFFFFFFFFFFFFFFFFFFFFFFFFFFFFFFF
310
FEFDFFFEFDFFFFFDFFFFFFFFFFFFFFFFFFFFFEFFFFFCEAE7E2D6D3CBE5DED5EE
310
E6D9F4EAD9FFF6E4FFF7E4FFFFEFFFFFF9FFFFFEFFFFFEFEFFFDFEFFFDFEFFFD
310
FFFFFEFDFFFEFCFEFEFCFEFEFCFEFEFCFEFEFCFEFEFCFEFEFCFEFEFCFEFEFFFF
310
FFFFFFFFFFFFFFFFFFFFFFFFFFFFFFFFFFFFFFFFFFFFFFFFFFFFFFFFFFFFFFFF
310
FFFFFFFFFFFFFFFFFFFFFFFFFFFFFFFFFFFFFFFFFFFFFFFFFFFFFFFFFFFFFFFF
310
FFFFFFFFFFFFFFFFFFFFFFFFFFFFFFFFFFFFFFFFFFFFFFFFFFFFFFFFFFFFFFFF
310
FFFFFFFFFFFFFFFFFFFFFFFFFFFFFFFFFFFFFFFFFFFFFFFFFFFFFFFFFFFFFFFF
310
FFFFFFFFFFFFFFFFFFFFFFFFFFFFFFFFFFFFFFFFFFFFFFFFFFFFFFFFFFFFFFFF
310
FFFFFFFFFFFFFFFFFFFFFFFFFFFFFFFFFFFFFFFFFFFFFFFF0000FFFFFFFFFFFF
310
FFFFFFFFFFFFFFFFFFFFFFFFFFFFFFFFFFFFFFFFFFFFFFFFFFFFFFFFFFFFFFFF
310
FFFFFFFFFFFFFFFFFFFFFFFFFFFEFEFEFDFDFDFDFDFDFEFEFEFFFFFFFFFFFFFF
310
FFFFFFFFFFFFFFFFFFFFFFFFFFFFFFFFFFFFFFFFFFFFFFFFFFFFFFFFFFFFFFFF
310
FFFFFFFFFFFFFFFFFFFFFFFFFFFFFFFFFFFFFFFFFFFFFFFFFEFEFEFFFFFFFFFF
310
FFFFFFFFFFFFFFFFFFFFFFFFFFFFFFFFFFFFFFFFFFFFFFFFFFFFFFFFFFFFFFFF
310
FFFFFFFFFFFFFFFFFFFFFFFFFFFFFFFFFFFFFFFFFFFFFFFFFFFFFFFFFEFFFFFC
310
FFFFFEFFFFFEFDFFFFFDFFFFFDFFFFFFFFFEFFFFFEFAF9F5FFFFFBFFFFF5FFFC
310
F1FFFFF4FFFFF2FFFFF5F9FDF8F7FDFCF7FDFCF8FEFDFAFFFEF9FEFDF7FCFAF7
310
FAF8FDFFFEFFFFFEFEFFFDFEFFFBFFFFFBFFFFFBFFFFFBFFFFFCFFFFFFFFFFFF
310
FFFFFFFFFFFFFFFFFFFFFFFFFFFFFFFFFFFFFFFFFFFFFFFFFFFFFFFFFFFFFFFF
310
FFFFFFFFFFFFFFFFFFFFFFFFFFFFFFFFFFFFFFFFFFFFFFFFFFFFFFFFFFFFFFFF
310
FFFFFFFFFFFFFFFFFFFFFFFFFFFFFFFFFFFFFFFFFFFFFFFFFFFFFFFFFFFFFFFF
310
FFFFFFFFFFFFFFFFFFFFFFFFFFFFFFFFFFFFFFFFFFFFFFFFFFFFFFFFFFFFFFFF
310
FFFFFFFFFFFFFFFFFFFFFFFFFFFFFFFFFFFFFFFFFFFFFFFFFFFFFFFFFFFFFFFF
310
FFFFFFFFFFFFFFFFFFFFFFFFFFFFFFFFFFFFFFFF0000FFFFFFFFFFFFFFFFFFFF
310
FFFFFFFFFFFFFFFFFFFFFFFFFFFFFFFFFFFFFFFFFFFFFFFFFFFFFFFFFFFFFFFF
310
FFFFFFFFFFFFFCFCFCFFFFFFFFFFFFFFFFFFFDFDFDFDFDFDFDFDFDFCFCFCFFFF
310
FFFFFFFFFFFFFFFFFFFFFFFFFFFFFFFFFFFFFFFFFFFFFFFFFFFFFFFFFFFFFFFF
310
FFFFFFFFFFFFFFFFFFFFFFFFFFFFFAFAFAFBFBFBFEFEFEFFFFFFFFFFFFFCFCFC
310
FCFCFCFDFDFDFFFFFFFFFFFFFFFFFFFFFFFFFFFFFFFFFFFFFFFFFFFFFFFFFFFF
310
FFFFFFFFFFFFFFFFFFFFFFFFFFFFFFFFFFFFFFFFFFFEFFFFFEFFFFFCFFFFFEFF
310
FFFEFDFFFFFDFFFFFDFFFFFDFFFFFAFDFBF2F6F1FFFFFCFAFBF2FAF8EEFFFFF5
310
FFFFF5FEFEF2FAFFFEF5FFFFF6FEFEF6FEFEFAFFFFFAFFFFFBFFFEFBFFFEFFFF
310
FEFFFFFEFFFFFBFFFFFBFFFFFAFFFFFAFFFFFBFFFFFCFFFFFEFFFFFFFFFFFFFF
310
FFFFFFFFFFFFFFFFFFFFFFFFFFFFFFFFFFFFFFFFFFFFFFFFFFFFFFFFFFFFFFFF
310
FFFFFFFFFFFFFFFFFFFFFFFFFFFFFFFFFFFFFFFFFFFFFFFFFFFFFFFFFFFFFFFF
310
FFFFFFFFFFFFFFFFFFFFFFFFFFFFFFFFFFFFFFFFFFFFFFFFFFFFFFFFFFFFFFFF
310
FFFFFFFFFFFFFFFFFFFFFFFFFFFFFFFFFFFFFFFFFFFFFFFFFFFFFFFFFFFFFFFF
310
FFFFFFFFFFFFFFFFFFFFFFFFFFFFFFFFFFFFFFFFFFFFFFFFFFFFFFFFFFFFFFFF
310
FFFFFFFFFFFFFFFFFFFFFFFFFFFFFFFF00000000000000000000000000000000
310
0000000000000000000000000000000000000000000000000000000000000000
310
0000000000000000000000000000000000000000000000000000000000000000
310
0000000000000000000000000000000000000000000000000000000000000000
310
0000000000000000000000000000000000000000000000000000000000000000
310
0000000000000000000000000000000000000000000000000000000000000000
310
0000000000000000000000000000000000000000000000000000000000000000
310
0000000000000000000000000000000000000000000000000000000000000000
310
0000000000000000000000000000000000000000000000000000000000000000
310
0000000000000000000000000000000000000000000000000000000000000000
  1
OLE
  0
ENDSEC
  0
SECTION
  2
OBJECTS
  0
DICTIONARY
  5
C
330
0
100
AcDbDictionary
281
     1
  3
ACAD_GROUP
350
D
  3
ACAD_IMAGE_VARS
350
37E
  3
ACAD_LAYOUT
350
341
  3
ACAD_MATERIAL
350
366
  3
ACAD_MLEADERSTYLE
350
385
  3
ACAD_MLINESTYLE
350
17
  3
ACAD_SCALELIST
350
344
  3
ACAD_TABLESTYLE
350
37B
  3
ACAD_VISUALSTYLE
350
36A
  3
ACDB_RECOMPOSE_DATA
350
383
  3
AcDbVariableDictionary
350
37F
  3
APPDATA
350
37D
  0
DICTIONARY
  5
D
102
{ACAD_REACTORS
330
C
102
}
330
C
100
AcDbDictionary
281
     1
  0
RASTERVARIABLES
  5
37E
102
{ACAD_REACTORS
330
C
102
}
330
C
100
AcDbRasterVariables
 90
        0
 70
     1
 71
     1
 72
     0
  0
DICTIONARY
  5
341
102
{ACAD_REACTORS
330
C
102
}
330
C
100
AcDbDictionary
281
     1
  3
Foglio 1
350
343
  3
Model
350
342
  0
DICTIONARY
  5
366
102
{ACAD_REACTORS
330
C
102
}
330
C
100
AcDbDictionary
281
     1
  3
ByBlock
350
368
  3
ByLayer
350
367
  3
Global
350
369
  0
DICTIONARY
  5
385
102
{ACAD_REACTORS
330
C
102
}
330
C
100
AcDbDictionary
281
     1
  0
DICTIONARY
  5
17
102
{ACAD_REACTORS
330
C
102
}
330
C
100
AcDbDictionary
281
     1
  3
STANDARD
350
18
  0
DICTIONARY
  5
344
102
{ACAD_REACTORS
330
C
102
}
330
C
100
AcDbDictionary
281
     1
  3
A0
350
345
  3
A1
350
346
  3
A2
350
347
  3
A3
350
348
  3
A4
350
349
  3
A5
350
34A
  3
A6
350
34B
  3
A7
350
34C
  3
A8
350
34D
  3
A9
350
34E
  3
B0
350
34F
  3
B1
350
350
  3
B2
350
351
  3
B3
350
352
  3
B4
350
353
  3
B5
350
354
  3
B6
350
355
  3
B7
350
356
  3
B8
350
357
  3
B9
350
358
  3
C0
350
359
  3
C1
350
35A
  3
C2
350
35B
  3
C3
350
35C
  3
C4
350
35D
  3
C5
350
35E
  3
C6
350
35F
  3
C7
350
360
  3
C8
350
361
  3
C9
350
362
  3
D0
350
363
  3
D1
350
364
  3
D2
350
365
  0
DICTIONARY
  5
37B
102
{ACAD_REACTORS
330
C
102
}
330
C
100
AcDbDictionary
281
     1
  3
Standard
350
37C
  0
DICTIONARY
  5
36A
102
{ACAD_REACTORS
330
C
102
}
330
C
100
AcDbDictionary
281
     1
  3
2dWireframe
350
36F
  3
3D Hidden
350
371
  3
3dWireframe
350
370
  3
Basic
350
372
  3
Brighten
350
376
  3
ColorChange
350
37A
  3
Conceptual
350
374
  3
Dim
350
375
  3
Facepattern
350
379
  3
Flat
350
36B
  3
FlatWithEdges
350
36C
  3
Gouraud
350
36D
  3
GouraudWithEdges
350
36E
  3
Linepattern
350
378
  3
Realistic
350
373
  3
Thicken
350
377
  0
XRECORD
  5
383
102
{ACAD_REACTORS
330
C
102
}
330
C
100
AcDbXrecord
280
     1
 90
        1
330
37C
  0
DICTIONARY
  5
37F
102
{ACAD_REACTORS
330
C
102
}
330
C
100
AcDbDictionary
281
     1
  3
CANNOSCALE
350
380
  3
CTABLESTYLE
350
384
  0
DICTIONARY
  5
37D
102
{ACAD_REACTORS
330
C
102
}
330
C
100
AcDbDictionary
281
     1
  0
LAYOUT
  5
343
102
{ACAD_REACTORS
330
341
102
}
330
341
100
AcDbPlotSettings
  1

  2
none_device
  4

  6

 40
0.0
 41
0.0
 42
0.0
 43
0.0
 44
0.0
 45
0.0
 46
0.0
 47
0.0
 48
0.0
 49
0.0
140
0.0
141
0.0
142
1.0
143
1.0
 70
   688
 72
     0
 73
     0
 74
     5
  7

 75
    16
 76
     0
 77
     2
 78
   300
147
1.0
148
0.0
149
0.0
100
AcDbLayout
  1
Foglio 1
 70
     1
 71
     1
 10
0.0
 20
0.0
 11
0.0
 21
0.0
 12
0.0
 22
0.0
 32
0.0
 14
1.000000000000000E+20
 24
1.000000000000000E+20
 34
1.000000000000000E+20
 15
-1.000000000000000E+20
 25
-1.000000000000000E+20
 35
-1.000000000000000E+20
146
0.0
 13
0.0
 23
0.0
 33
0.0
 16
1.0
 26
0.0
 36
0.0
 17
0.0
 27
1.0
 37
0.0
 76
     0
330
1B
  0
LAYOUT
  5
342
102
{ACAD_REACTORS
330
341
102
}
330
341
100
AcDbPlotSettings
  1

  2
none_device
  4

  6

 40
0.0
 41
0.0
 42
0.0
 43
0.0
 44
0.0
 45
0.0
 46
0.0
 47
0.0
 48
0.0
 49
0.0
140
0.0
141
0.0
142
1.0
143
1.0
 70
  1712
 72
     0
 73
     0
 74
     0
  7

 75
     0
 76
     0
 77
     2
 78
   300
147
1.0
148
0.0
149
0.0
100
AcDbLayout
  1
Model
 70
     1
 71
     0
 10
0.0
 20
0.0
 11
210.0
 21
297.0
 12
0.0
 22
0.0
 32
0.0
 14
0.0
 24
0.0
 34
0.0
 15
210.0
 25
297.0
 35
0.0
146
0.0
 13
0.0
 23
0.0
 33
0.0
 16
1.0
 26
0.0
 36
0.0
 17
0.0
 27
1.0
 37
0.0
 76
     0
330
1F
331
29
  0
MATERIAL
  5
368
102
{ACAD_REACTORS
330
366
102
}
330
366
100
AcDbMaterial
  1
ByBlock
 72
     1
 94
      127
  0
MATERIAL
  5
367
102
{ACAD_REACTORS
330
366
102
}
330
366
100
AcDbMaterial
  1
ByLayer
 72
     1
 94
      127
  0
MATERIAL
  5
369
102
{ACAD_REACTORS
330
366
102
}
330
366
100
AcDbMaterial
  1
Global
 72
     1
 94
      127
  0
MLINESTYLE
  5
18
102
{ACAD_REACTORS
330
17
102
}
330
17
100
AcDbMlineStyle
  2
Standard
 70
     0
  3

 62
   256
 51
90.0
 52
90.0
 71
     2
 49
0.5
 62
   256
  6
BYLAYER
 49
-0.5
 62
   256
  6
BYLAYER
  0
SCALE
  5
345
102
{ACAD_REACTORS
330
344
102
}
330
344
100
AcDbScale
 70
     0
300
1:1
140
1.0
141
1.0
290
     1
  0
SCALE
  5
346
102
{ACAD_REACTORS
330
344
102
}
330
344
100
AcDbScale
 70
     0
300
1:2
140
1.0
141
2.0
290
     0
  0
SCALE
  5
347
102
{ACAD_REACTORS
330
344
102
}
330
344
100
AcDbScale
 70
     0
300
1:4
140
1.0
141
4.0
290
     0
  0
SCALE
  5
348
102
{ACAD_REACTORS
330
344
102
}
330
344
100
AcDbScale
 70
     0
300
1:5
140
1.0
141
5.0
290
     0
  0
SCALE
  5
349
102
{ACAD_REACTORS
330
344
102
}
330
344
100
AcDbScale
 70
     0
300
1:8
140
1.0
141
8.0
290
     0
  0
SCALE
  5
34A
102
{ACAD_REACTORS
330
344
102
}
330
344
100
AcDbScale
 70
     0
300
1:10
140
1.0
141
10.0
290
     0
  0
SCALE
  5
34B
102
{ACAD_REACTORS
330
344
102
}
330
344
100
AcDbScale
 70
     0
300
1:16
140
1.0
141
16.0
290
     0
  0
SCALE
  5
34C
102
{ACAD_REACTORS
330
344
102
}
330
344
100
AcDbScale
 70
     0
300
1:20
140
1.0
141
20.0
290
     0
  0
SCALE
  5
34D
102
{ACAD_REACTORS
330
344
102
}
330
344
100
AcDbScale
 70
     0
300
1:30
140
1.0
141
30.0
290
     0
  0
SCALE
  5
34E
102
{ACAD_REACTORS
330
344
102
}
330
344
100
AcDbScale
 70
     0
300
1:40
140
1.0
141
40.0
290
     0
  0
SCALE
  5
34F
102
{ACAD_REACTORS
330
344
102
}
330
344
100
AcDbScale
 70
     0
300
1:50
140
1.0
141
50.0
290
     0
  0
SCALE
  5
350
102
{ACAD_REACTORS
330
344
102
}
330
344
100
AcDbScale
 70
     0
300
1:100
140
1.0
141
100.0
290
     0
  0
SCALE
  5
351
102
{ACAD_REACTORS
330
344
102
}
330
344
100
AcDbScale
 70
     0
300
2:1
140
2.0
141
1.0
290
     0
  0
SCALE
  5
352
102
{ACAD_REACTORS
330
344
102
}
330
344
100
AcDbScale
 70
     0
300
4:1
140
4.0
141
1.0
290
     0
  0
SCALE
  5
353
102
{ACAD_REACTORS
330
344
102
}
330
344
100
AcDbScale
 70
     0
300
8:1
140
8.0
141
1.0
290
     0
  0
SCALE
  5
354
102
{ACAD_REACTORS
330
344
102
}
330
344
100
AcDbScale
 70
     0
300
10:1
140
10.0
141
1.0
290
     0
  0
SCALE
  5
355
102
{ACAD_REACTORS
330
344
102
}
330
344
100
AcDbScale
 70
     0
300
100:1
140
100.0
141
1.0
290
     0
  0
SCALE
  5
356
102
{ACAD_REACTORS
330
344
102
}
330
344
100
AcDbScale
 70
     0
300
1/128" = 1'-0"
140
0.0078125
141
12.0
290
     0
  0
SCALE
  5
357
102
{ACAD_REACTORS
330
344
102
}
330
344
100
AcDbScale
 70
     0
300
1/64" = 1'-0"
140
0.015625
141
12.0
290
     0
  0
SCALE
  5
358
102
{ACAD_REACTORS
330
344
102
}
330
344
100
AcDbScale
 70
     0
300
1/32" = 1'-0"
140
0.03125
141
12.0
290
     0
  0
SCALE
  5
359
102
{ACAD_REACTORS
330
344
102
}
330
344
100
AcDbScale
 70
     0
300
1/16" = 1'-0"
140
0.0625
141
12.0
290
     0
  0
SCALE
  5
35A
102
{ACAD_REACTORS
330
344
102
}
330
344
100
AcDbScale
 70
     0
300
3/32" = 1'-0"
140
0.09375
141
12.0
290
     0
  0
SCALE
  5
35B
102
{ACAD_REACTORS
330
344
102
}
330
344
100
AcDbScale
 70
     0
300
1/8" = 1'-0"
140
0.125
141
12.0
290
     0
  0
SCALE
  5
35C
102
{ACAD_REACTORS
330
344
102
}
330
344
100
AcDbScale
 70
     0
300
3/16" = 1'-0"
140
0.1875
141
12.0
290
     0
  0
SCALE
  5
35D
102
{ACAD_REACTORS
330
344
102
}
330
344
100
AcDbScale
 70
     0
300
1/4" = 1'-0"
140
0.25
141
12.0
290
     0
  0
SCALE
  5
35E
102
{ACAD_REACTORS
330
344
102
}
330
344
100
AcDbScale
 70
     0
300
3/8" = 1'-0"
140
0.375
141
12.0
290
     0
  0
SCALE
  5
35F
102
{ACAD_REACTORS
330
344
102
}
330
344
100
AcDbScale
 70
     0
300
1/2" = 1'-0"
140
0.5
141
12.0
290
     0
  0
SCALE
  5
360
102
{ACAD_REACTORS
330
344
102
}
330
344
100
AcDbScale
 70
     0
300
3/4" = 1'-0"
140
0.75
141
12.0
290
     0
  0
SCALE
  5
361
102
{ACAD_REACTORS
330
344
102
}
330
344
100
AcDbScale
 70
     0
300
1" = 1'-0"
140
1.0
141
12.0
290
     0
  0
SCALE
  5
362
102
{ACAD_REACTORS
330
344
102
}
330
344
100
AcDbScale
 70
     0
300
1-1/2" = 1'-0"
140
1.5
141
12.0
290
     0
  0
SCALE
  5
363
102
{ACAD_REACTORS
330
344
102
}
330
344
100
AcDbScale
 70
     0
300
3" = 1'-0"
140
3.0
141
12.0
290
     0
  0
SCALE
  5
364
102
{ACAD_REACTORS
330
344
102
}
330
344
100
AcDbScale
 70
     0
300
6" = 1'-0"
140
6.0
141
12.0
290
     0
  0
SCALE
  5
365
102
{ACAD_REACTORS
330
344
102
}
330
344
100
AcDbScale
 70
     0
300
1'-0" = 1'-0"
140
12.0
141
12.0
290
     0
  0
TABLESTYLE
  5
37C
102
{ACAD_REACTORS
330
37B
102
}
102
{ACAD_XDICTIONARY
360
381
102
}
330
37B
100
AcDbTableStyle
  3
Standard
 70
     0
 71
     0
 40
0.06
 41
0.06
280
     0
281
     0
  7
STANDARD
140
4.5
170
     2
 62
     0
 63
   257
283
     0
 90
        4
 91
        0
  1

274
    -2
284
     1
 64
     0
275
    -2
285
     1
 65
     0
276
    -2
286
     1
 66
     0
277
    -2
287
     1
 67
     0
278
    -2
288
     1
 68
     0
279
    -2
289
     1
 69
     0
  7
STANDARD
140
6.0
170
     5
 62
     0
 63
   257
283
     0
 90
        4
 91
        0
  1

274
    -2
284
     1
 64
     0
275
    -2
285
     1
 65
     0
276
    -2
286
     1
 66
     0
277
    -2
287
     1
 67
     0
278
    -2
288
     1
 68
     0
279
    -2
289
     1
 69
     0
  7
STANDARD
140
4.5
170
     5
 62
     0
 63
   257
283
     0
 90
        4
 91
        0
  1

274
    -2
284
     1
 64
     0
275
    -2
285
     1
 65
     0
276
    -2
286
     1
 66
     0
277
    -2
287
     1
 67
     0
278
    -2
288
     1
 68
     0
279
    -2
289
     1
 69
     0
  0
VISUALSTYLE
  5
36F
102
{ACAD_REACTORS
330
36A
102
}
330
36A
100
AcDbVisualStyle
  2
2dWireframe
 70
     4
177
     2
291
     0
 71
     0
176
     1
 72
     2
176
     1
 73
     0
176
     1
 90
        0
176
     1
 40
-0.6
176
     1
 41
-30.0
176
     1
 62
     5
 63
     7
421
 16777215
176
     1
 74
     1
176
     1
 91
        4
176
     1
 64
     7
176
     1
 65
   257
176
     1
 75
     1
176
     1
175
     1
176
     1
 42
1.0
176
     1
 92
        0
176
     1
 66
   257
176
     1
 43
1.0
176
     1
 76
     1
176
     1
 77
     6
176
     1
 78
     2
176
     1
 67
     7
176
     1
 79
     5
176
     1
170
     0
176
     1
171
     0
176
     1
290
     0
176
     1
 93
        1
176
     1
 44
0.0
176
     1
173
     0
176
     1
  0
VISUALSTYLE
  5
371
102
{ACAD_REACTORS
330
36A
102
}
330
36A
100
AcDbVisualStyle
  2
3D Hidden
 70
     6
177
     2
291
     0
 71
     1
176
     1
 72
     2
176
     1
 73
     2
176
     1
 90
        0
176
     1
 40
-0.6
176
     1
 41
-30.0
176
     1
 62
     5
 63
     7
421
 16777215
176
     1
 74
     2
176
     1
 91
        2
176
     1
 64
     7
176
     1
 65
   257
176
     1
 75
     2
176
     1
175
     1
176
     1
 42
40.0
176
     1
 92
        0
176
     1
 66
   257
176
     1
 43
1.0
176
     1
 76
     1
176
     1
 77
     6
176
     1
 78
     2
176
     1
 67
     7
176
     1
 79
     3
176
     1
170
     0
176
     1
171
     0
176
     1
290
     0
176
     1
 93
        1
176
     1
 44
0.0
176
     1
173
     0
176
     1
  0
VISUALSTYLE
  5
370
102
{ACAD_REACTORS
330
36A
102
}
330
36A
100
AcDbVisualStyle
  2
3dWireframe
 70
     5
177
     2
291
     0
 71
     0
176
     1
 72
     2
176
     1
 73
     0
176
     1
 90
        0
176
     1
 40
-0.6
176
     1
 41
-30.0
176
     1
 62
     5
 63
     7
421
 16777215
176
     1
 74
     1
176
     1
 91
        4
176
     1
 64
     7
176
     1
 65
   257
176
     1
 75
     1
176
     1
175
     1
176
     1
 42
1.0
176
     1
 92
        0
176
     1
 66
   257
176
     1
 43
1.0
176
     1
 76
     1
176
     1
 77
     6
176
     1
 78
     2
176
     1
 67
     7
176
     1
 79
     5
176
     1
170
     0
176
     1
171
     0
176
     1
290
     0
176
     1
 93
        1
176
     1
 44
0.0
176
     1
173
     0
176
     1
  0
VISUALSTYLE
  5
372
102
{ACAD_REACTORS
330
36A
102
}
330
36A
100
AcDbVisualStyle
  2
Basic
 70
     7
177
     2
291
     1
 71
     1
176
     1
 72
     0
176
     1
 73
     1
176
     1
 90
        0
176
     1
 40
-0.6
176
     1
 41
-30.0
176
     1
 62
     5
 63
     7
421
 16777215
176
     1
 74
     0
176
     1
 91
        4
176
     1
 64
     7
176
     1
 65
   257
176
     1
 75
     1
176
     1
175
     1
176
     1
 42
1.0
176
     1
 92
        8
176
     1
 66
     7
176
     1
 43
1.0
176
     1
 76
     1
176
     1
 77
     6
176
     1
 78
     2
176
     1
 67
     7
176
     1
 79
     5
176
     1
170
     0
176
     1
171
     0
176
     1
290
     0
176
     1
 93
        1
176
     1
 44
0.0
176
     1
173
     0
176
     1
  0
VISUALSTYLE
  5
376
102
{ACAD_REACTORS
330
36A
102
}
330
36A
100
AcDbVisualStyle
  2
Brighten
 70
    12
177
     2
291
     1
 71
     2
176
     1
 72
     2
176
     1
 73
     0
176
     1
 90
        0
176
     1
 40
-0.6
176
     1
 41
-30.0
176
     1
 62
     5
 63
     7
421
 16777215
176
     1
 74
     1
176
     1
 91
        4
176
     1
 64
     7
176
     1
 65
   257
176
     1
 75
     1
176
     1
175
     1
176
     1
 42
1.0
176
     1
 92
        8
176
     1
 66
     7
176
     1
 43
1.0
176
     1
 76
     1
176
     1
 77
     6
176
     1
 78
     2
176
     1
 67
     7
176
     1
 79
     5
176
     1
170
     0
176
     1
171
     0
176
     1
290
     0
176
     1
 93
        1
176
     1
 44
50.0
176
     1
173
     0
176
     1
  0
VISUALSTYLE
  5
37A
102
{ACAD_REACTORS
330
36A
102
}
330
36A
100
AcDbVisualStyle
  2
ColorChange
 70
    16
177
     2
291
     1
 71
     2
176
     1
 72
     2
176
     1
 73
     3
176
     1
 90
        0
176
     1
 40
-0.6
176
     1
 41
-30.0
176
     1
 62
     5
 63
     8
421
  8421504
176
     1
 74
     1
176
     1
 91
        4
176
     1
 64
     7
176
     1
 65
   257
176
     1
 75
     1
176
     1
175
     1
176
     1
 42
1.0
176
     1
 92
        8
176
     1
 66
     8
424
  8421504
176
     1
 43
1.0
176
     1
 76
     1
176
     1
 77
     6
176
     1
 78
     2
176
     1
 67
     7
176
     1
 79
     5
176
     1
170
     0
176
     1
171
     0
176
     1
290
     0
176
     1
 93
        1
176
     1
 44
0.0
176
     1
173
     0
176
     1
  0
VISUALSTYLE
  5
374
102
{ACAD_REACTORS
330
36A
102
}
330
36A
100
AcDbVisualStyle
  2
Conceptual
 70
     9
177
     2
291
     0
 71
     3
176
     1
 72
     2
176
     1
 73
     0
176
     1
 90
        0
176
     1
 40
-0.6
176
     1
 41
-30.0
176
     1
 62
     5
 63
     7
421
 16777215
176
     1
 74
     2
176
     1
 91
        2
176
     1
 64
     7
176
     1
 65
   257
176
     1
 75
     1
176
     1
175
     1
176
     1
 42
40.0
176
     1
 92
        8
176
     1
 66
     7
176
     1
 43
1.0
176
     1
 76
     1
176
     1
 77
     6
176
     1
 78
     2
176
     1
 67
     7
176
     1
 79
     3
176
     1
170
     0
176
     1
171
     0
176
     1
290
     0
176
     1
 93
        1
176
     1
 44
0.0
176
     1
173
     0
176
     1
  0
VISUALSTYLE
  5
375
102
{ACAD_REACTORS
330
36A
102
}
330
36A
100
AcDbVisualStyle
  2
Dim
 70
    11
177
     2
291
     1
 71
     2
176
     1
 72
     2
176
     1
 73
     0
176
     1
 90
        0
176
     1
 40
-0.6
176
     1
 41
-30.0
176
     1
 62
     5
 63
     7
421
 16777215
176
     1
 74
     1
176
     1
 91
        4
176
     1
 64
     7
176
     1
 65
   257
176
     1
 75
     1
176
     1
175
     1
176
     1
 42
1.0
176
     1
 92
        8
176
     1
 66
     7
176
     1
 43
1.0
176
     1
 76
     1
176
     1
 77
     6
176
     1
 78
     2
176
     1
 67
     7
176
     1
 79
     5
176
     1
170
     0
176
     1
171
     0
176
     1
290
     0
176
     1
 93
        1
176
     1
 44
-50.0
176
     1
173
     0
176
     1
  0
VISUALSTYLE
  5
379
102
{ACAD_REACTORS
330
36A
102
}
330
36A
100
AcDbVisualStyle
  2
Facepattern
 70
    15
177
     2
291
     1
 71
     2
176
     1
 72
     2
176
     1
 73
     0
176
     1
 90
        0
176
     1
 40
-0.6
176
     1
 41
-30.0
176
     1
 62
     5
 63
     7
421
 16777215
176
     1
 74
     1
176
     1
 91
        4
176
     1
 64
     7
176
     1
 65
   257
176
     1
 75
     1
176
     1
175
     1
176
     1
 42
1.0
176
     1
 92
        8
176
     1
 66
     7
176
     1
 43
1.0
176
     1
 76
     1
176
     1
 77
     6
176
     1
 78
     2
176
     1
 67
     7
176
     1
 79
     5
176
     1
170
     0
176
     1
171
     0
176
     1
290
     0
176
     1
 93
        1
176
     1
 44
0.0
176
     1
173
     0
176
     1
  0
VISUALSTYLE
  5
36B
102
{ACAD_REACTORS
330
36A
102
}
330
36A
100
AcDbVisualStyle
  2
Flat
 70
     0
177
     2
291
     1
 71
     2
176
     1
 72
     1
176
     1
 73
     1
176
     1
 90
        2
176
     1
 40
-0.6
176
     1
 41
30.0
176
     1
 62
     5
 63
     7
421
 16777215
176
     1
 74
     0
176
     1
 91
        4
176
     1
 64
     7
176
     1
 65
   257
176
     1
 75
     1
176
     1
175
     1
176
     1
 42
1.0
176
     1
 92
        8
176
     1
 66
     7
176
     1
 43
1.0
176
     1
 76
     1
176
     1
 77
     6
176
     1
 78
     2
176
     1
 67
     7
176
     1
 79
     5
176
     1
170
     0
176
     1
171
     0
176
     1
290
     0
176
     1
 93
       13
176
     1
 44
0.0
176
     1
173
     0
176
     1
  0
VISUALSTYLE
  5
36C
102
{ACAD_REACTORS
330
36A
102
}
330
36A
100
AcDbVisualStyle
  2
FlatWithEdges
 70
     1
177
     2
291
     1
 71
     2
176
     1
 72
     1
176
     1
 73
     1
176
     1
 90
        2
176
     1
 40
-0.6
176
     1
 41
30.0
176
     1
 62
     5
 63
     7
421
 16777215
176
     1
 74
     1
176
     1
 91
        4
176
     1
 64
     7
176
     1
 65
   257
176
     1
 75
     1
176
     1
175
     1
176
     1
 42
1.0
176
     1
 92
        0
176
     1
 66
   257
176
     1
 43
1.0
176
     1
 76
     1
176
     1
 77
     6
176
     1
 78
     2
176
     1
 67
     7
176
     1
 79
     5
176
     1
170
     0
176
     1
171
     0
176
     1
290
     0
176
     1
 93
       13
176
     1
 44
0.0
176
     1
173
     0
176
     1
  0
VISUALSTYLE
  5
36D
102
{ACAD_REACTORS
330
36A
102
}
330
36A
100
AcDbVisualStyle
  2
Gouraud
 70
     2
177
     2
291
     1
 71
     2
176
     1
 72
     2
176
     1
 73
     1
176
     1
 90
        2
176
     1
 40
-0.6
176
     1
 41
30.0
176
     1
 62
     5
 63
     7
421
 16777215
176
     1
 74
     0
176
     1
 91
        4
176
     1
 64
     7
176
     1
 65
   257
176
     1
 75
     1
176
     1
175
     1
176
     1
 42
1.0
176
     1
 92
        0
176
     1
 66
     7
176
     1
 43
1.0
176
     1
 76
     1
176
     1
 77
     6
176
     1
 78
     2
176
     1
 67
     7
176
     1
 79
     5
176
     1
170
     0
176
     1
171
     0
176
     1
290
     0
176
     1
 93
       13
176
     1
 44
0.0
176
     1
173
     0
176
     1
  0
VISUALSTYLE
  5
36E
102
{ACAD_REACTORS
330
36A
102
}
330
36A
100
AcDbVisualStyle
  2
GouraudWithEdges
 70
     3
177
     2
291
     1
 71
     2
176
     1
 72
     2
176
     1
 73
     1
176
     1
 90
        2
176
     1
 40
-0.6
176
     1
 41
30.0
176
     1
 62
     5
 63
     7
421
 16777215
176
     1
 74
     1
176
     1
 91
        4
176
     1
 64
     7
176
     1
 65
   257
176
     1
 75
     1
176
     1
175
     1
176
     1
 42
1.0
176
     1
 92
        0
176
     1
 66
   257
176
     1
 43
1.0
176
     1
 76
     1
176
     1
 77
     6
176
     1
 78
     2
176
     1
 67
     7
176
     1
 79
     5
176
     1
170
     0
176
     1
171
     0
176
     1
290
     0
176
     1
 93
       13
176
     1
 44
0.0
176
     1
173
     0
176
     1
  0
VISUALSTYLE
  5
378
102
{ACAD_REACTORS
330
36A
102
}
330
36A
100
AcDbVisualStyle
  2
Linepattern
 70
    14
177
     2
291
     1
 71
     2
176
     1
 72
     2
176
     1
 73
     0
176
     1
 90
        0
176
     1
 40
-0.6
176
     1
 41
-30.0
176
     1
 62
     5
 63
     7
421
 16777215
176
     1
 74
     1
176
     1
 91
        4
176
     1
 64
     7
176
     1
 65
   257
176
     1
 75
     7
176
     1
175
     7
176
     1
 42
1.0
176
     1
 92
        8
176
     1
 66
     7
176
     1
 43
1.0
176
     1
 76
     1
176
     1
 77
     6
176
     1
 78
     2
176
     1
 67
     7
176
     1
 79
     5
176
     1
170
     0
176
     1
171
     0
176
     1
290
     0
176
     1
 93
        1
176
     1
 44
0.0
176
     1
173
     0
176
     1
  0
VISUALSTYLE
  5
373
102
{ACAD_REACTORS
330
36A
102
}
330
36A
100
AcDbVisualStyle
  2
Realistic
 70
     8
177
     2
291
     0
 71
     2
176
     1
 72
     2
176
     1
 73
     0
176
     1
 90
        0
176
     1
 40
-0.6
176
     1
 41
-30.0
176
     1
 62
     5
 63
     7
421
 16777215
176
     1
 74
     1
176
     1
 91
        0
176
     1
 64
     7
176
     1
 65
   257
176
     1
 75
     1
176
     1
175
     1
176
     1
 42
1.0
176
     1
 92
        8
176
     1
 66
     8
424
  7895160
176
     1
 43
1.0
176
     1
 76
     1
176
     1
 77
     6
176
     1
 78
     2
176
     1
 67
     7
176
     1
 79
     5
176
     1
170
     0
176
     1
171
     0
176
     1
290
     0
176
     1
 93
       13
176
     1
 44
0.0
176
     1
173
     0
176
     1
  0
VISUALSTYLE
  5
377
102
{ACAD_REACTORS
330
36A
102
}
330
36A
100
AcDbVisualStyle
  2
Thicken
 70
    13
177
     2
291
     1
 71
     2
176
     1
 72
     2
176
     1
 73
     0
176
     1
 90
        0
176
     1
 40
-0.6
176
     1
 41
-30.0
176
     1
 62
     5
 63
     7
421
 16777215
176
     1
 74
     1
176
     1
 91
        4
176
     1
 64
     7
176
     1
 65
   257
176
     1
 75
     1
176
     1
175
     1
176
     1
 42
1.0
176
     1
 92
       12
176
     1
 66
     7
176
     1
 43
1.0
176
     1
 76
     1
176
     1
 77
     6
176
     1
 78
     2
176
     1
 67
     7
176
     1
 79
     5
176
     1
170
     0
176
     1
171
     0
176
     1
290
     0
176
     1
 93
        1
176
     1
 44
0.0
176
     1
173
     0
176
     1
  0
DICTIONARYVAR
  5
380
102
{ACAD_REACTORS
330
37F
102
}
330
37F
100
DictionaryVariables
280
     0
  1
1:1
  0
DICTIONARYVAR
  5
384
102
{ACAD_REACTORS
330
37F
102
}
330
37F
100
DictionaryVariables
280
     0
  1
Standard
  0
DICTIONARY
  5
381
330
37C
100
AcDbDictionary
280
     1
281
     1
  3
ACAD_ROUNDTRIP_2008_TABLESTYLE_CELLSTYLEMAP
360
382
  0
CELLSTYLEMAP
  5
382
102
{ACAD_REACTORS
330
381
102
}
330
381
100
AcDbCellStyleMap
 90
        3
300
CELLSTYLE
  1
TABLEFORMAT_BEGIN
 90
        5
170
     1
 91
        0
 92
        0
 62
   257
 93
        1
300
CONTENTFORMAT
  1
CONTENTFORMAT_BEGIN
 90
        0
 91
        0
 92
        4
 93
        0
300

 40
0.0
140
1.0
 94
        5
 62
     0
340
11
144
6.0
309
CONTENTFORMAT_END
171
     1
301
MARGIN
  1
CELLMARGIN_BEGIN
 40
1.5
 40
1.5
 40
1.5
 40
1.5
 40
1.5
 40
1.5
309
CELLMARGIN_END
 94
        6
 95
        1
302
GRIDFORMAT
  1
GRIDFORMAT_BEGIN
 90
        0
 91
        1
 62
     0
 92
       -2
340
14
 93
        0
 40
0.045
309
GRIDFORMAT_END
 95
        2
302
GRIDFORMAT
  1
GRIDFORMAT_BEGIN
 90
        0
 91
        1
 62
     0
 92
       -2
340
14
 93
        0
 40
0.045
309
GRIDFORMAT_END
 95
        4
302
GRIDFORMAT
  1
GRIDFORMAT_BEGIN
 90
        0
 91
        1
 62
     0
 92
       -2
340
14
 93
        0
 40
0.045
309
GRIDFORMAT_END
 95
        8
302
GRIDFORMAT
  1
GRIDFORMAT_BEGIN
 90
        0
 91
        1
 62
     0
 92
       -2
340
14
 93
        0
 40
0.045
309
GRIDFORMAT_END
 95
       16
302
GRIDFORMAT
  1
GRIDFORMAT_BEGIN
 90
        0
 91
        1
 62
     0
 92
       -2
340
14
 93
        0
 40
0.045
309
GRIDFORMAT_END
 95
       32
302
GRIDFORMAT
  1
GRIDFORMAT_BEGIN
 90
        0
 91
        1
 62
     0
 92
       -2
340
14
 93
        0
 40
0.045
309
GRIDFORMAT_END
309
TABLEFORMAT_END
  1
CELLSTYLE_BEGIN
 90
        1
 91
        1
300
_TITLE
309
CELLSTYLE_END
300
CELLSTYLE
  1
TABLEFORMAT_BEGIN
 90
        5
170
     1
 91
        0
 92
        0
 62
   257
 93
        1
300
CONTENTFORMAT
  1
CONTENTFORMAT_BEGIN
 90
        0
 91
        0
 92
        4
 93
        0
300

 40
0.0
140
1.0
 94
        5
 62
     0
340
11
144
4.5
309
CONTENTFORMAT_END
171
     1
301
MARGIN
  1
CELLMARGIN_BEGIN
 40
1.5
 40
1.5
 40
1.5
 40
1.5
 40
1.5
 40
1.5
309
CELLMARGIN_END
 94
        6
 95
        1
302
GRIDFORMAT
  1
GRIDFORMAT_BEGIN
 90
        0
 91
        1
 62
     0
 92
       -2
340
14
 93
        0
 40
0.045
309
GRIDFORMAT_END
 95
        2
302
GRIDFORMAT
  1
GRIDFORMAT_BEGIN
 90
        0
 91
        1
 62
     0
 92
       -2
340
14
 93
        0
 40
0.045
309
GRIDFORMAT_END
 95
        4
302
GRIDFORMAT
  1
GRIDFORMAT_BEGIN
 90
        0
 91
        1
 62
     0
 92
       -2
340
14
 93
        0
 40
0.045
309
GRIDFORMAT_END
 95
        8
302
GRIDFORMAT
  1
GRIDFORMAT_BEGIN
 90
        0
 91
        1
 62
     0
 92
       -2
340
14
 93
        0
 40
0.045
309
GRIDFORMAT_END
 95
       16
302
GRIDFORMAT
  1
GRIDFORMAT_BEGIN
 90
        0
 91
        1
 62
     0
 92
       -2
340
14
 93
        0
 40
0.045
309
GRIDFORMAT_END
 95
       32
302
GRIDFORMAT
  1
GRIDFORMAT_BEGIN
 90
        0
 91
        1
 62
     0
 92
       -2
340
14
 93
        0
 40
0.045
309
GRIDFORMAT_END
309
TABLEFORMAT_END
  1
CELLSTYLE_BEGIN
 90
        2
 91
        1
300
_HEADER
309
CELLSTYLE_END
300
CELLSTYLE
  1
TABLEFORMAT_BEGIN
 90
        5
170
     1
 91
        0
 92
        0
 62
   257
 93
        1
300
CONTENTFORMAT
  1
CONTENTFORMAT_BEGIN
 90
        0
 91
        0
 92
        4
 93
        0
300

 40
0.0
140
1.0
 94
        2
 62
     0
340
11
144
4.5
309
CONTENTFORMAT_END
171
     1
301
MARGIN
  1
CELLMARGIN_BEGIN
 40
1.5
 40
1.5
 40
1.5
 40
1.5
 40
1.5
 40
1.5
309
CELLMARGIN_END
 94
        6
 95
        1
302
GRIDFORMAT
  1
GRIDFORMAT_BEGIN
 90
        0
 91
        1
 62
     0
 92
       -2
340
14
 93
        0
 40
0.045
309
GRIDFORMAT_END
 95
        2
302
GRIDFORMAT
  1
GRIDFORMAT_BEGIN
 90
        0
 91
        1
 62
     0
 92
       -2
340
14
 93
        0
 40
0.045
309
GRIDFORMAT_END
 95
        4
302
GRIDFORMAT
  1
GRIDFORMAT_BEGIN
 90
        0
 91
        1
 62
     0
 92
       -2
340
14
 93
        0
 40
0.045
309
GRIDFORMAT_END
 95
        8
302
GRIDFORMAT
  1
GRIDFORMAT_BEGIN
 90
        0
 91
        1
 62
     0
 92
       -2
340
14
 93
        0
 40
0.045
309
GRIDFORMAT_END
 95
       16
302
GRIDFORMAT
  1
GRIDFORMAT_BEGIN
 90
        0
 91
        1
 62
     0
 92
       -2
340
14
 93
        0
 40
0.045
309
GRIDFORMAT_END
 95
       32
302
GRIDFORMAT
  1
GRIDFORMAT_BEGIN
 90
        0
 91
        1
 62
     0
 92
       -2
340
14
 93
        0
 40
0.045
309
GRIDFORMAT_END
309
TABLEFORMAT_END
  1
CELLSTYLE_BEGIN
 90
        3
 91
        2
300
_DATA
309
CELLSTYLE_END
  0
ENDSEC
  0
EOF
