  0
SECTION
  2
HEADER
  9
$ACADVER
  1
AC1014
  9
$ACADMAINTVER
 70
     9
  9
$DWGCODEPAGE
  3
ANSI_1252
  9
$INSBASE
 10
0.0
 20
0.0
 30
0.0
  9
$EXTMIN
 10
0.0
 20
0.0
 30
0.0
  9
$EXTMAX
 10
2376.0
 20
1680.0
 30
0.0
  9
$LIMMIN
 10
0.0
 20
0.0
  9
$LIMMAX
 10
2376.0
 20
1680.0
  9
$ORTHOMODE
 70
     0
  9
$REGENMODE
 70
     1
  9
$FILLMODE
 70
     1
  9
$QTEXTMODE
 70
     0
  9
$MIRRTEXT
 70
     1
  9
$DRAGMODE
 70
     2
  9
$LTSCALE
 40
4.0
  9
$OSMODE
 70
    37
  9
$ATTMODE
 70
     1
  9
$TEXTSIZE
 40
14.0
  9
$TRACEWID
 40
1.0
  9
$TEXTSTYLE
  7
STANDARD
  9
$CLAYER
  8
0
  9
$CELTYPE
  6
BYLAYER
  9
$CECOLOR
 62
   256
  9
$CELTSCALE
 40
1.0
  9
$DELOBJ
 70
     1
  9
$DISPSILH
 70
     0
  9
$DIMSCALE
 40
1.0
  9
$DIMASZ
 40
10.0
  9
$DIMEXO
 40
4.0
  9
$DIMDLI
 40
3.75
  9
$DIMRND
 40
0.0
  9
$DIMDLE
 40
0.0
  9
$DIMEXE
 40
4.0
  9
$DIMTP
 40
0.0
  9
$DIMTM
 40
0.0
  9
$DIMTXT
 40
14.0
  9
$DIMCEN
 40
2.5
  9
$DIMTSZ
 40
0.0
  9
$DIMTOL
 70
     0
  9
$DIMLIM
 70
     0
  9
$DIMTIH
 70
     1
  9
$DIMTOH
 70
     1
  9
$DIMSE1
 70
     0
  9
$DIMSE2
 70
     0
  9
$DIMTAD
 70
     1
  9
$DIMZIN
 70
     0
  9
$DIMBLK
  1

  9
$DIMASO
 70
     1
  9
$DIMSHO
 70
     1
  9
$DIMPOST
  1

  9
$DIMAPOST
  1

  9
$DIMALT
 70
     0
  9
$DIMALTD
 70
     3
  9
$DIMALTF
 40
0.0393700787
  9
$DIMLFAC
 40
1.0
  9
$DIMTOFL
 70
     1
  9
$DIMTVP
 40
0.0
  9
$DIMTIX
 70
     0
  9
$DIMSOXD
 70
     0
  9
$DIMSAH
 70
     0
  9
$DIMBLK1
  1

  9
$DIMBLK2
  1

  9
$DIMSTYLE
  2
ISO-25
  9
$DIMCLRD
 70
     0
  9
$DIMCLRE
 70
     0
  9
$DIMCLRT
 70
     0
  9
$DIMTFAC
 40
1.0
  9
$DIMGAP
 40
6.096
  9
$DIMJUST
 70
     0
  9
$DIMSD1
 70
     0
  9
$DIMSD2
 70
     0
  9
$DIMTOLJ
 70
     0
  9
$DIMTZIN
 70
     0
  9
$DIMALTZ
 70
     0
  9
$DIMALTTZ
 70
     0
  9
$DIMFIT
 70
     3
  9
$DIMUPT
 70
     0
  9
$DIMUNIT
 70
     2
  9
$DIMDEC
 70
     2
  9
$DIMTDEC
 70
     2
  9
$DIMALTU
 70
     2
  9
$DIMALTTD
 70
     3
  9
$DIMTXSTY
  7
STANDARD
  9
$DIMAUNIT
 70
     0
  9
$LUNITS
 70
     2
  9
$LUPREC
 70
     2
  9
$SKETCHINC
 40
1.0
  9
$FILLETRAD
 40
10.0
  9
$AUNITS
 70
     0
  9
$AUPREC
 70
     2
  9
$MENU
  1
.
  9
$ELEVATION
 40
0.0
  9
$PELEVATION
 40
0.0
  9
$THICKNESS
 40
0.0
  9
$LIMCHECK
 70
     0
  9
$CHAMFERA
 40
10.0
  9
$CHAMFERB
 40
10.0
  9
$CHAMFERC
 40
20.0
  9
$CHAMFERD
 40
0.0
  9
$SKPOLY
 70
     0
  9
$TDCREATE
 40
2456405.545193704
  9
$TDUPDATE
 40
2456405.545196597
  9
$TDINDWG
 40
0.0000000116
  9
$TDUSRTIMER
 40
0.0000000116
  9
$USRTIMER
 70
     1
  9
$ANGBASE
 50
0.0
  9
$ANGDIR
 70
     0
  9
$PDMODE
 70
     0
  9
$PDSIZE
 40
-1.0
  9
$PLINEWID
 40
0.0
  9
$COORDS
 70
     1
  9
$SPLFRAME
 70
     0
  9
$SPLINETYPE
 70
     6
  9
$SPLINESEGS
 70
     8
  9
$ATTDIA
 70
     0
  9
$ATTREQ
 70
     1
  9
$HANDLING
 70
     1
  9
$HANDSEED
  5
3DF
  9
$SURFTAB1
 70
     6
  9
$SURFTAB2
 70
     6
  9
$SURFTYPE
 70
     6
  9
$SURFU
 70
     6
  9
$SURFV
 70
     6
  9
$UCSNAME
  2

  9
$UCSORG
 10
0.0
 20
0.0
 30
0.0
  9
$UCSXDIR
 10
1.0
 20
0.0
 30
0.0
  9
$UCSYDIR
 10
0.0
 20
1.0
 30
0.0
  9
$PUCSNAME
  2

  9
$PUCSORG
 10
0.0
 20
0.0
 30
0.0
  9
$PUCSXDIR
 10
1.0
 20
0.0
 30
0.0
  9
$PUCSYDIR
 10
0.0
 20
1.0
 30
0.0
  9
$USERI1
 70
     0
  9
$USERI2
 70
     0
  9
$USERI3
 70
     0
  9
$USERI4
 70
     0
  9
$USERI5
 70
     0
  9
$USERR1
 40
0.0
  9
$USERR2
 40
0.0
  9
$USERR3
 40
0.0
  9
$USERR4
 40
0.0
  9
$USERR5
 40
0.0
  9
$WORLDVIEW
 70
     1
  9
$SHADEDGE
 70
     3
  9
$SHADEDIF
 70
    70
  9
$TILEMODE
 70
     1
  9
$MAXACTVP
 70
    64
  9
$PINSBASE
 10
0.0
 20
0.0
 30
0.0
  9
$PLIMCHECK
 70
     0
  9
$PEXTMIN
 10
1.0000000000E+20
 20
1.0000000000E+20
 30
1.0000000000E+20
  9
$PEXTMAX
 10
-1.0000000000E+20
 20
-1.0000000000E+20
 30
-1.0000000000E+20
  9
$PLIMMIN
 10
0.0
 20
0.0
  9
$PLIMMAX
 10
420.0
 20
297.0
  9
$UNITMODE
 70
     0
  9
$VISRETAIN
 70
     1
  9
$PLINEGEN
 70
     0
  9
$PSLTSCALE
 70
     1
  9
$TREEDEPTH
 70
  3020
  9
$PICKSTYLE
 70
     1
  9
$CMLSTYLE
  2
STANDARD
  9
$CMLJUST
 70
     0
  9
$CMLSCALE
 40
20.0
  9
$PROXYGRAPHICS
 70
     1
  9
$MEASUREMENT
 70
     1
  0
ENDSEC
  0
SECTION
  2
CLASSES
  0
CLASS
  1
ACDBDICTIONARYWDFLT
  2
AcDbDictionaryWithDefault
  3
ObjectDBX Classes
 90
        0
280
     0
281
     0
  0
CLASS
  1
VISUALSTYLE
  2
AcDbVisualStyle
  3
ObjectDBX Classes
 90
     4095
280
     0
281
     0
  0
CLASS
  1
MATERIAL
  2
AcDbMaterial
  3
ObjectDBX Classes
 90
     1153
280
     0
281
     0
  0
CLASS
  1
XRECORD
  2
AcDbXrecord
  3
AutoCAD 2000
 90
        0
280
     0
281
     0
  0
CLASS
  1
LWPOLYLINE
  2
AcDbPolyline
  3
AutoCAD 2000
 90
        0
280
     0
281
     1
  0
CLASS
  1
HATCH
  2
AcDbHatch
  3
AutoCAD 2000
 90
        0
280
     0
281
     1
  0
ENDSEC
  0
SECTION
  2
TABLES
  0
TABLE
  2
VPORT
  5
8
330
0
100
AcDbSymbolTable
 70
     1
  0
VPORT
  5
29
330
8
100
AcDbSymbolTableRecord
100
AcDbViewportTableRecord
  2
*ACTIVE
 70
     0
 10
0.0
 20
0.0
 11
1.0
 21
1.0
 12
1188.0
 22
840.0
 13
0.0
 23
0.0
 14
10.0
 24
10.0
 15
10.0
 25
10.0
 16
0.0
 26
0.0
 36
1.0
 17
0.0
 27
0.0
 37
0.0
 40
1680.0
 41
1.4142857143
 42
50.0
 43
0.0
 44
0.0
 50
0.0
 51
0.0
 71
     0
 72
  2000
 73
     1
 74
     3
 75
     0
 76
     0
 77
     0
 78
     0
  0
ENDTAB
  0
TABLE
  2
LTYPE
  5
5
330
0
100
AcDbSymbolTable
 70
     6
  0
LTYPE
  5
14
330
5
100
AcDbSymbolTableRecord
100
AcDbLinetypeTableRecord
  2
BYBLOCK
 70
     0
  3

 72
    65
 73
     0
 40
0.0
  0
LTYPE
  5
15
330
5
100
AcDbSymbolTableRecord
100
AcDbLinetypeTableRecord
  2
BYLAYER
 70
     0
  3

 72
    65
 73
     0
 40
0.0
  0
LTYPE
  5
16
330
5
100
AcDbSymbolTableRecord
100
AcDbLinetypeTableRecord
  2
CONTINUOUS
 70
     0
  3
Solid line
 72
    65
 73
     0
 40
0.0
  0
LTYPE
  5
3F
330
5
100
AcDbSymbolTableRecord
100
AcDbLinetypeTableRecord
  2
HIDDEN
 70
     0
  3
Hidden __ __ __ __ __ __ __ __ __ __ __ __ __ __
 72
    65
 73
     2
 40
1.905
 49
1.27
 74
     0
 49
-0.635
 74
     0
  0
LTYPE
  5
40
330
5
100
AcDbSymbolTableRecord
100
AcDbLinetypeTableRecord
  2
PHANTOM
 70
     0
  3
Phantom ______  __  __  ______  __  __  ______
 72
    65
 73
     6
 40
12.7
 49
6.35
 74
     0
 49
-1.27
 74
     0
 49
1.27
 74
     0
 49
-1.27
 74
     0
 49
1.27
 74
     0
 49
-1.27
 74
     0
  0
LTYPE
  5
41
330
5
100
AcDbSymbolTableRecord
100
AcDbLinetypeTableRecord
  2
CENTER
 70
     0
  3
Center ____ _ ____ _ ____ _ ____ _ ____ _ ____
 72
    65
 73
     4
 40
10.16
 49
6.35
 74
     0
 49
-1.27
 74
     0
 49
1.27
 74
     0
 49
-1.27
 74
     0
  0
LTYPE
  5
42
330
5
100
AcDbSymbolTableRecord
100
AcDbLinetypeTableRecord
  2
CENTERX2
 70
     0
  3
Center (2x) ________  __  ________  __  _____
 72
    65
 73
     4
 40
20.32
 49
12.7
 74
     0
 49
-2.54
 74
     0
 49
2.54
 74
     0
 49
-2.54
 74
     0
  0
LTYPE
  5
43
330
5
100
AcDbSymbolTableRecord
100
AcDbLinetypeTableRecord
  2
DOT2
 70
     0
  3
Dot (.5x) ........................................
 72
    65
 73
     2
 40
0.635
 49
0.0
 74
     0
 49
-0.635
 74
     0
  0
ENDTAB
  0
TABLE
  2
LAYER
  5
2
330
0
100
AcDbSymbolTable
 70
     8
  0
LAYER
  5
10
330
2
100
AcDbSymbolTableRecord
100
AcDbLayerTableRecord
  2
0
 70
     0
 62
     7
  6
CONTINUOUS
  0
LAYER
  5
44
330
2
100
AcDbSymbolTableRecord
100
AcDbLayerTableRecord
  2
SLD-0
 70
     0
 62
     7
  6
CONTINUOUS
  0
LAYER
  5
45
330
2
100
AcDbSymbolTableRecord
100
AcDbLayerTableRecord
  2
CONTORNO
 70
     0
 62
     7
  6
CONTINUOUS
  0
LAYER
  5
46
330
2
100
AcDbSymbolTableRecord
100
AcDbLayerTableRecord
  2
RIQUADRO
 70
     0
 62
     5
  6
CONTINUOUS
  0
LAYER
  5
47
330
2
100
AcDbSymbolTableRecord
100
AcDbLayerTableRecord
  2
LOGO
 70
     0
 62
   176
  6
CONTINUOUS
  0
LAYER
  5
48
330
2
100
AcDbSymbolTableRecord
100
AcDbLayerTableRecord
  2
PROIEZ
 70
     0
 62
    16
  6
CONTINUOUS
  0
LAYER
  5
49
330
2
100
AcDbSymbolTableRecord
100
AcDbLayerTableRecord
  2
CARTIGLIO
 70
     0
 62
     5
  6
CONTINUOUS
  0
LAYER
  5
4A
330
2
100
AcDbSymbolTableRecord
100
AcDbLayerTableRecord
  2
TABELLA_REV
 70
     0
 62
   136
  6
CONTINUOUS
  0
ENDTAB
  0
TABLE
  2
STYLE
  5
3
330
0
100
AcDbSymbolTable
 70
     5
  0
STYLE
  5
11
330
3
100
AcDbSymbolTableRecord
100
AcDbTextStyleTableRecord
  2
STANDARD
 70
     0
 40
0.0
 41
1.0
 50
0.0
 71
     0
 42
14.0
  3
txt
  4

  0
STYLE
  5
C1
330
3
100
AcDbSymbolTableRecord
100
AcDbTextStyleTableRecord
  2
SLDTEXTSTYLE0
 70
     0
 40
0.0
 41
0.75
 50
0.0
 71
     0
 42
0.2
  3
TXT
  4

  0
STYLE
  5
F6
330
3
100
AcDbSymbolTableRecord
100
AcDbTextStyleTableRecord
  2
SLDTEXTSTYLE1
 70
     0
 40
0.0
 41
0.6375
 50
0.0
 71
     0
 42
0.2
  3
TXT
  4

  0
STYLE
  5
FC
330
3
100
AcDbSymbolTableRecord
100
AcDbTextStyleTableRecord
  2
SLDTEXTSTYLE2
 70
     0
 40
0.0
 41
0.6514124294
 50
0.0
 71
     0
 42
0.2
  3
TXT
  4

  0
STYLE
  5
10F
330
3
100
AcDbSymbolTableRecord
100
AcDbTextStyleTableRecord
  2
SLDTEXTSTYLE3
 70
     0
 40
0.0
 41
0.7
 50
0.0
 71
     0
 42
0.2
  3
TXT
  4

  0
ENDTAB
  0
TABLE
  2
VIEW
  5
6
330
0
100
AcDbSymbolTable
 70
     0
  0
ENDTAB
  0
TABLE
  2
UCS
  5
7
330
0
100
AcDbSymbolTable
 70
     0
  0
ENDTAB
  0
TABLE
  2
APPID
  5
9
330
0
100
AcDbSymbolTable
 70
     1
  0
APPID
  5
12
330
9
100
AcDbSymbolTableRecord
100
AcDbRegAppTableRecord
  2
ACAD
 70
     0
  0
ENDTAB
  0
TABLE
  2
DIMSTYLE
  5
A
330
0
100
AcDbSymbolTable
 70
    11
  0
DIMSTYLE
105
27
330
A
100
AcDbSymbolTableRecord
100
AcDbDimStyleTableRecord
  2
ISO-25
 70
     0
  3

  4

  5

  6

  7

 40
1.0
 41
2.5
 42
0.625
 43
3.75
 44
1.25
 45
0.0
 46
0.0
 47
0.0
 48
0.0
140
2.5
141
2.5
142
0.0
143
0.0393700787
144
1.0
145
0.0
146
1.0
147
0.625
 71
     0
 72
     0
 73
     0
 74
     0
 75
     0
 76
     0
 77
     1
 78
     8
170
     0
171
     3
172
     1
173
     0
174
     0
175
     0
176
     0
177
     0
178
     0
270
     2
271
     2
272
     2
273
     2
274
     3
340
11
275
     0
280
     0
281
     0
282
     0
283
     0
284
     8
285
     0
286
     0
287
     3
288
     0
  0
DIMSTYLE
105
200
102
{ACAD_REACTORS
330
1FF
102
}
330
A
100
AcDbSymbolTableRecord
100
AcDbDimStyleTableRecord
  2
SLDDIMSTYLE0
 70
     0
  3

  4

  5

  6
ORIGIN
  7
ORIGIN
 40
1.0
 41
0.8266666667
 42
0.0625
 43
0.38
 44
0.0
 45
0.000000001
 46
0.0
 47
0.0
 48
0.0
140
14.0
141
0.09
142
0.0
143
25.4
144
1.0
145
0.0
146
1.0
147
3.5
 71
     0
 72
     0
 73
     1
 74
     1
 75
     0
 76
     0
 77
     0
 78
    12
170
     0
171
     2
172
     0
173
     1
174
     0
175
     0
176
     0
177
     0
178
     0
270
     2
271
     0
272
     2
273
     2
274
     2
340
C1
275
     0
280
     0
281
     0
282
     0
283
     1
284
    12
285
     0
286
     0
287
     3
288
     0
  0
DIMSTYLE
105
20F
102
{ACAD_REACTORS
330
20E
330
21E
330
25D
102
}
330
A
100
AcDbSymbolTableRecord
100
AcDbDimStyleTableRecord
  2
SLDDIMSTYLE1
 70
     0
  3

  4

  5

  6
CLOSED
  7
CLOSED
 40
1.0
 41
10.0
 42
0.0625
 43
0.38
 44
0.0
 45
0.000000001
 46
0.0
 47
0.0
 48
0.0
140
14.0
141
0.09
142
0.0
143
25.4
144
1.0
145
0.0
146
1.0
147
3.5
 71
     0
 72
     0
 73
     1
 74
     1
 75
     0
 76
     0
 77
     0
 78
    12
170
     0
171
     2
172
     0
173
     1
174
     0
175
     0
176
     0
177
     0
178
     0
270
     2
271
     1
272
     2
273
     2
274
     2
340
C1
275
     0
280
     0
281
     0
282
     0
283
     1
284
    12
285
     0
286
     0
287
     3
288
     0
  0
DIMSTYLE
105
227
102
{ACAD_REACTORS
330
226
330
22F
330
239
330
243
330
24D
330
255
102
}
330
A
100
AcDbSymbolTableRecord
100
AcDbDimStyleTableRecord
  2
SLDDIMSTYLE2
 70
     0
  3

  4

  5

  6
CLOSED
  7
CLOSED
 40
1.0
 41
10.0
 42
0.0625
 43
0.38
 44
0.0
 45
0.000000001
 46
0.0
 47
0.0
 48
0.0
140
14.0
141
0.09
142
0.0
143
25.4
144
1.0
145
0.0
146
1.0
147
3.5
 71
     0
 72
     0
 73
     1
 74
     1
 75
     0
 76
     0
 77
     0
 78
    12
170
     0
171
     2
172
     0
173
     1
174
     0
175
     0
176
     0
177
     0
178
     0
270
     2
271
     2
272
     2
273
     2
274
     2
340
C1
275
     0
280
     0
281
     0
282
     0
283
     1
284
    12
285
     0
286
     0
287
     3
288
     0
  0
DIMSTYLE
105
268
102
{ACAD_REACTORS
330
267
330
35E
330
36B
330
375
102
}
330
A
100
AcDbSymbolTableRecord
100
AcDbDimStyleTableRecord
  2
SLDDIMSTYLE3
 70
     0
  3

  4

  5

  6
CLOSED
  7
CLOSED
 40
1.0
 41
10.0
 42
0.0625
 43
0.38
 44
0.0
 45
0.000000001
 46
0.0
 47
0.0
 48
0.0
140
14.0
141
0.09
142
0.0
143
25.4
144
1.0
145
0.0
146
1.0
147
3.5
 71
     0
 72
     0
 73
     0
 74
     0
 75
     0
 76
     0
 77
     1
 78
    12
170
     0
171
     2
172
     1
173
     1
174
     0
175
     0
176
     0
177
     0
178
     0
270
     2
271
     2
272
     2
273
     2
274
     2
340
C1
275
     0
280
     0
281
     0
282
     0
283
     1
284
    12
285
     0
286
     0
288
     0
  0
DIMSTYLE
105
277
102
{ACAD_REACTORS
330
276
330
297
330
2A1
330
2BB
330
353
102
}
330
A
100
AcDbSymbolTableRecord
100
AcDbDimStyleTableRecord
  2
SLDDIMSTYLE4
 70
     0
  3

  4

  5

  6
CLOSED
  7
CLOSED
 40
1.0
 41
10.0
 42
0.0625
 43
0.38
 44
0.0
 45
0.000000001
 46
0.0
 47
0.0
 48
0.0
140
14.0
141
0.09
142
0.0
143
25.4
144
1.0
145
0.0
146
1.0
147
3.5
 71
     0
 72
     0
 73
     0
 74
     0
 75
     0
 76
     0
 77
     1
 78
    12
170
     0
171
     2
172
     0
173
     1
174
     0
175
     0
176
     0
177
     0
178
     0
270
     2
271
     2
272
     2
273
     2
274
     2
340
C1
275
     0
280
     0
281
     0
282
     0
283
     1
284
    12
285
     0
286
     0
287
     3
288
     0
  0
DIMSTYLE
105
288
102
{ACAD_REACTORS
330
287
102
}
330
A
100
AcDbSymbolTableRecord
100
AcDbDimStyleTableRecord
  2
SLDDIMSTYLE5
 70
     0
  3

  4

  5

  6
CLOSED
  7
CLOSED
 40
1.0
 41
10.0
 42
0.0625
 43
0.38
 44
0.0
 45
0.000000001
 46
0.0
 47
0.0
 48
0.039
140
14.0
141
0.09
142
0.0
143
25.4
144
1.0
145
0.0
146
1.0
147
3.5
 71
     1
 72
     0
 73
     0
 74
     0
 75
     0
 76
     0
 77
     1
 78
    12
170
     0
171
     2
172
     0
173
     1
174
     0
175
     0
176
     0
177
     0
178
     0
270
     2
271
     2
272
     3
273
     2
274
     2
340
C1
275
     0
280
     0
281
     0
282
     0
283
     1
284
     8
285
     0
286
     0
287
     3
288
     0
  0
DIMSTYLE
105
2AC
102
{ACAD_REACTORS
330
2AB
102
}
330
A
100
AcDbSymbolTableRecord
100
AcDbDimStyleTableRecord
  2
SLDDIMSTYLE6
 70
     0
  3

  4

  5

  6
CLOSED
  7
CLOSED
 40
1.0
 41
10.0
 42
0.0625
 43
0.38
 44
0.0
 45
0.000000001
 46
0.0
 47
0.0
 48
0.1
140
14.0
141
0.09
142
0.0
143
25.4
144
1.0
145
0.0
146
1.0
147
3.5
 71
     1
 72
     0
 73
     0
 74
     0
 75
     0
 76
     0
 77
     1
 78
    12
170
     0
171
     2
172
     0
173
     1
174
     0
175
     0
176
     0
177
     0
178
     0
270
     2
271
     2
272
     1
273
     2
274
     2
340
C1
275
     0
280
     0
281
     0
282
     0
283
     1
284
     8
285
     0
286
     0
287
     3
288
     0
  0
DIMSTYLE
105
340
102
{ACAD_REACTORS
330
33F
102
}
330
A
100
AcDbSymbolTableRecord
100
AcDbDimStyleTableRecord
  2
SLDDIMSTYLE7
 70
     0
  3

  4

  5

  6
CLOSED
  7
CLOSED
 40
1.0
 41
10.0
 42
0.0625
 43
0.38
 44
0.0
 45
0.0
 46
0.0
 47
0.0
 48
0.0
140
14.0
141
0.09
142
0.0
143
25.4
144
4.0
145
0.0
146
1.0
147
3.5
 71
     0
 72
     0
 73
     0
 74
     0
 75
     0
 76
     0
 77
     1
 78
    12
170
     0
171
     2
172
     0
173
     1
174
     0
175
     0
176
     0
177
     0
178
     0
179
     2
270
     2
271
     4
272
     2
273
     2
274
     2
340
C1
275
     0
280
     0
281
     0
282
     0
283
     1
284
    12
285
     0
286
     0
287
     3
288
     0
  0
DIMSTYLE
105
349
102
{ACAD_REACTORS
330
348
102
}
330
A
100
AcDbSymbolTableRecord
100
AcDbDimStyleTableRecord
  2
SLDDIMSTYLE8
 70
     0
  3

  4

  5

  6
CLOSED
  7
CLOSED
 40
1.0
 41
10.0
 42
0.0625
 43
0.38
 44
0.0
 45
0.0
 46
0.0
 47
0.0
 48
0.0
140
14.0
141
0.09
142
0.0
143
25.4
144
4.0
145
0.0
146
1.0
147
3.5
 71
     0
 72
     0
 73
     0
 74
     0
 75
     0
 76
     0
 77
     1
 78
    12
170
     0
171
     2
172
     0
173
     1
174
     0
175
     0
176
     0
177
     0
178
     0
179
     2
270
     2
271
     4
272
     2
273
     2
274
     2
340
C1
275
     0
280
     0
281
     0
282
     0
283
     1
284
    12
285
     0
286
     0
287
     3
288
     0
  0
DIMSTYLE
105
3D5
102
{ACAD_REACTORS
330
3D4
102
}
330
A
100
AcDbSymbolTableRecord
100
AcDbDimStyleTableRecord
  2
SLDDIMSTYLE9
 70
     0
  3

  4

  5

  6
CLOSED
  7
CLOSED
 40
1.0
 41
10.0
 42
0.0625
 43
0.38
 44
0.0
 45
0.000000001
 46
0.0
 47
0.0
 48
0.0
140
14.0
141
0.0
142
0.0
143
25.4
144
1.0
145
0.0
146
1.0
147
3.5
 71
     0
 72
     0
 73
     0
 74
     0
 75
     0
 76
     0
 77
     1
 78
    12
170
     0
171
     2
172
     1
173
     1
174
     0
175
     0
176
     0
177
     0
178
     0
270
     2
271
     2
272
     2
273
     2
274
     2
340
C1
275
     0
280
     0
281
     0
282
     0
283
     1
284
    12
285
     0
286
     0
287
     3
288
     0
  0
ENDTAB
  0
TABLE
  2
BLOCK_RECORD
  5
1
330
0
100
AcDbSymbolTable
 70
    37
  0
BLOCK_RECORD
  5
1F
330
1
100
AcDbSymbolTableRecord
100
AcDbBlockTableRecord
  2
*MODEL_SPACE
  0
BLOCK_RECORD
  5
1B
330
1
100
AcDbSymbolTableRecord
100
AcDbBlockTableRecord
  2
*PAPER_SPACE
  0
BLOCK_RECORD
  5
23
330
1
100
AcDbSymbolTableRecord
100
AcDbBlockTableRecord
  2
*PAPER_SPACE0
  0
BLOCK_RECORD
  5
103
330
1
100
AcDbSymbolTableRecord
100
AcDbBlockTableRecord
  2
SW_NOTE_0
  0
BLOCK_RECORD
  5
109
330
1
100
AcDbSymbolTableRecord
100
AcDbBlockTableRecord
  2
SW_NOTE_1
  0
BLOCK_RECORD
  5
114
330
1
100
AcDbSymbolTableRecord
100
AcDbBlockTableRecord
  2
SW_NOTE_2
  0
BLOCK_RECORD
  5
11A
330
1
100
AcDbSymbolTableRecord
100
AcDbBlockTableRecord
  2
SW_NOTE_3
  0
BLOCK_RECORD
  5
120
330
1
100
AcDbSymbolTableRecord
100
AcDbBlockTableRecord
  2
SW_NOTE_4
  0
BLOCK_RECORD
  5
126
330
1
100
AcDbSymbolTableRecord
100
AcDbBlockTableRecord
  2
SW_NOTE_5
  0
BLOCK_RECORD
  5
12C
330
1
100
AcDbSymbolTableRecord
100
AcDbBlockTableRecord
  2
SW_NOTE_6
  0
BLOCK_RECORD
  5
132
330
1
100
AcDbSymbolTableRecord
100
AcDbBlockTableRecord
  2
SW_NOTE_7
  0
BLOCK_RECORD
  5
138
330
1
100
AcDbSymbolTableRecord
100
AcDbBlockTableRecord
  2
SW_NOTE_8
  0
BLOCK_RECORD
  5
13E
330
1
100
AcDbSymbolTableRecord
100
AcDbBlockTableRecord
  2
SW_NOTE_9
  0
BLOCK_RECORD
  5
201
330
1
100
AcDbSymbolTableRecord
100
AcDbBlockTableRecord
  2
_ORIGIN
  0
BLOCK_RECORD
  5
206
330
1
100
AcDbSymbolTableRecord
100
AcDbBlockTableRecord
  2
_D
  0
BLOCK_RECORD
  5
210
330
1
100
AcDbSymbolTableRecord
100
AcDbBlockTableRecord
  2
_CLOSED
  0
BLOCK_RECORD
  5
217
330
1
100
AcDbSymbolTableRecord
100
AcDbBlockTableRecord
  2
_D_1
  0
BLOCK_RECORD
  5
21F
330
1
100
AcDbSymbolTableRecord
100
AcDbBlockTableRecord
  2
_D_2
  0
BLOCK_RECORD
  5
228
330
1
100
AcDbSymbolTableRecord
100
AcDbBlockTableRecord
  2
_D_3
  0
BLOCK_RECORD
  5
230
330
1
100
AcDbSymbolTableRecord
100
AcDbBlockTableRecord
  2
_D_4
  0
BLOCK_RECORD
  5
23A
330
1
100
AcDbSymbolTableRecord
100
AcDbBlockTableRecord
  2
_D_5
  0
BLOCK_RECORD
  5
244
330
1
100
AcDbSymbolTableRecord
100
AcDbBlockTableRecord
  2
_D_6
  0
BLOCK_RECORD
  5
24E
330
1
100
AcDbSymbolTableRecord
100
AcDbBlockTableRecord
  2
_D_7
  0
BLOCK_RECORD
  5
256
330
1
100
AcDbSymbolTableRecord
100
AcDbBlockTableRecord
  2
_D_8
  0
BLOCK_RECORD
  5
25E
330
1
100
AcDbSymbolTableRecord
100
AcDbBlockTableRecord
  2
_D_9
  0
BLOCK_RECORD
  5
269
330
1
100
AcDbSymbolTableRecord
100
AcDbBlockTableRecord
  2
_D_10
  0
BLOCK_RECORD
  5
278
330
1
100
AcDbSymbolTableRecord
100
AcDbBlockTableRecord
  2
_D_11
  0
BLOCK_RECORD
  5
289
330
1
100
AcDbSymbolTableRecord
100
AcDbBlockTableRecord
  2
_D_12
  0
BLOCK_RECORD
  5
298
330
1
100
AcDbSymbolTableRecord
100
AcDbBlockTableRecord
  2
_D_13
  0
BLOCK_RECORD
  5
2A2
330
1
100
AcDbSymbolTableRecord
100
AcDbBlockTableRecord
  2
_D_14
  0
BLOCK_RECORD
  5
2AD
330
1
100
AcDbSymbolTableRecord
100
AcDbBlockTableRecord
  2
_D_15
  0
BLOCK_RECORD
  5
2BC
330
1
100
AcDbSymbolTableRecord
100
AcDbBlockTableRecord
  2
_D_16
  0
BLOCK_RECORD
  5
341
330
1
100
AcDbSymbolTableRecord
100
AcDbBlockTableRecord
  2
_D_17
  0
BLOCK_RECORD
  5
34A
330
1
100
AcDbSymbolTableRecord
100
AcDbBlockTableRecord
  2
_D_18
  0
BLOCK_RECORD
  5
354
330
1
100
AcDbSymbolTableRecord
100
AcDbBlockTableRecord
  2
_D_19
  0
BLOCK_RECORD
  5
35F
330
1
100
AcDbSymbolTableRecord
100
AcDbBlockTableRecord
  2
_D_20
  0
BLOCK_RECORD
  5
36C
330
1
100
AcDbSymbolTableRecord
100
AcDbBlockTableRecord
  2
_D_21
  0
BLOCK_RECORD
  5
376
330
1
100
AcDbSymbolTableRecord
100
AcDbBlockTableRecord
  2
_D_22
  0
BLOCK_RECORD
  5
3D6
330
1
100
AcDbSymbolTableRecord
100
AcDbBlockTableRecord
  2
_D_23
  0
ENDTAB
  0
ENDSEC
  0
SECTION
  2
BLOCKS
  0
BLOCK
  5
20
330
1F
100
AcDbEntity
  8
0
100
AcDbBlockBegin
  2
*MODEL_SPACE
 70
     0
 10
0.0
 20
0.0
 30
0.0
  3
*MODEL_SPACE
  1

  0
ENDBLK
  5
21
330
1F
100
AcDbEntity
  8
0
100
AcDbBlockEnd
  0
BLOCK
  5
1C
330
1B
100
AcDbEntity
 67
     1
  8
0
100
AcDbBlockBegin
  2
*PAPER_SPACE
 70
     0
 10
0.0
 20
0.0
 30
0.0
  3
*PAPER_SPACE
  1

  0
ENDBLK
  5
1D
330
1B
100
AcDbEntity
 67
     1
  8
0
100
AcDbBlockEnd
  0
BLOCK
  5
24
330
23
100
AcDbEntity
  8
0
100
AcDbBlockBegin
  2
*PAPER_SPACE0
 70
     0
 10
0.0
 20
0.0
 30
0.0
  3
*PAPER_SPACE0
  1

  0
ENDBLK
  5
25
330
23
100
AcDbEntity
  8
0
100
AcDbBlockEnd
  0
BLOCK
  5
104
330
103
100
AcDbEntity
  8
0
100
AcDbBlockBegin
  2
SW_NOTE_0
 70
     0
 10
0.0
 20
0.0
 30
0.0
  3
SW_NOTE_0
  1

  0
MTEXT
  5
106
330
103
100
AcDbEntity
  8
RIQUADRO
 62
     0
100
AcDbMText
 10
0.0
 20
10.3125419182
 30
0.0
 40
8.0
 41
0.0
 71
     1
 72
     1
  1
Undimensioned
  7
SLDTEXTSTYLE0
  0
MTEXT
  5
107
330
103
100
AcDbEntity
  8
RIQUADRO
 62
     0
100
AcDbMText
 10
0.0
 20
-1.6874581861
 30
0.0
 40
8.0
 41
0.0
 71
     1
 72
     1
  1
radii
  7
SLDTEXTSTYLE0
  0
ENDBLK
  5
105
330
103
100
AcDbEntity
  8
0
100
AcDbBlockEnd
  0
BLOCK
  5
10A
330
109
100
AcDbEntity
  8
0
100
AcDbBlockBegin
  2
SW_NOTE_1
 70
     0
 10
0.0
 20
0.0
 30
0.0
  3
SW_NOTE_1
  1

  0
MTEXT
  5
10C
330
109
100
AcDbEntity
  8
RIQUADRO
 62
     0
100
AcDbMText
 10
0.0
 20
10.3125419182
 30
0.0
 40
8.0
 41
0.0
 71
     1
 72
     1
  1
Undimensioned
  7
SLDTEXTSTYLE0
  0
MTEXT
  5
10D
330
109
100
AcDbEntity
  8
RIQUADRO
 62
     0
100
AcDbMText
 10
0.0
 20
-1.6874581861
 30
0.0
 40
8.0
 41
0.0
 71
     1
 72
     1
  1
bevels
  7
SLDTEXTSTYLE0
  0
ENDBLK
  5
10B
330
109
100
AcDbEntity
  8
0
100
AcDbBlockEnd
  0
BLOCK
  5
115
330
114
100
AcDbEntity
  8
0
100
AcDbBlockBegin
  2
SW_NOTE_2
 70
     0
 10
0.0
 20
0.0
 30
0.0
  3
SW_NOTE_2
  1

  0
MTEXT
  5
117
330
114
100
AcDbEntity
  8
RIQUADRO
 62
     0
100
AcDbMText
 10
14.25
 20
10.3125419182
 30
0.0
 40
8.0
 41
0.0
 71
     3
 72
     1
  1
0.5
  7
SLDTEXTSTYLE0
  0
MTEXT
  5
118
330
114
100
AcDbEntity
  8
RIQUADRO
 62
     0
100
AcDbMText
 10
14.0263899416
 20
-1.6874581861
 30
0.0
 40
8.0
 41
0.0
 71
     3
 72
     1
  1
÷3
  7
SLDTEXTSTYLE0
  0
ENDBLK
  5
116
330
114
100
AcDbEntity
  8
0
100
AcDbBlockEnd
  0
BLOCK
  5
11B
330
11A
100
AcDbEntity
  8
0
100
AcDbBlockBegin
  2
SW_NOTE_3
 70
     0
 10
0.0
 20
0.0
 30
0.0
  3
SW_NOTE_3
  1

  0
MTEXT
  5
11D
330
11A
100
AcDbEntity
  8
RIQUADRO
 62
     0
100
AcDbMText
 10
17.5
 20
10.3125419182
 30
0.0
 40
8.0
 41
0.0
 71
     3
 72
     1
  1
>3÷
  7
SLDTEXTSTYLE0
  0
MTEXT
  5
11E
330
11A
100
AcDbEntity
  8
RIQUADRO
 62
     0
100
AcDbMText
 10
17.9124995954
 20
-1.6874581861
 30
0.0
 40
8.0
 41
0.0
 71
     3
 72
     1
  1
6
  7
SLDTEXTSTYLE0
  0
ENDBLK
  5
11C
330
11A
100
AcDbEntity
  8
0
100
AcDbBlockEnd
  0
BLOCK
  5
121
330
120
100
AcDbEntity
  8
0
100
AcDbBlockBegin
  2
SW_NOTE_4
 70
     0
 10
0.0
 20
0.0
 30
0.0
  3
SW_NOTE_4
  1

  0
MTEXT
  5
123
330
120
100
AcDbEntity
  8
RIQUADRO
 62
     0
100
AcDbMText
 10
17.5
 20
10.3125419182
 30
0.0
 40
8.0
 41
0.0
 71
     3
 72
     1
  1
>6÷
  7
SLDTEXTSTYLE0
  0
MTEXT
  5
124
330
120
100
AcDbEntity
  8
RIQUADRO
 62
     0
100
AcDbMText
 10
17.7361117452
 20
-1.6874581861
 30
0.0
 40
8.0
 41
0.0
 71
     3
 72
     1
  1
30
  7
SLDTEXTSTYLE0
  0
ENDBLK
  5
122
330
120
100
AcDbEntity
  8
0
100
AcDbBlockEnd
  0
BLOCK
  5
127
330
126
100
AcDbEntity
  8
0
100
AcDbBlockBegin
  2
SW_NOTE_5
 70
     0
 10
0.0
 20
0.0
 30
0.0
  3
SW_NOTE_5
  1

  0
MTEXT
  5
129
330
126
100
AcDbEntity
  8
RIQUADRO
 62
     0
100
AcDbMText
 10
23.25
 20
10.3125419182
 30
0.0
 40
8.0
 41
0.0
 71
     3
 72
     1
  1
>30÷
  7
SLDTEXTSTYLE0
  0
MTEXT
  5
12A
330
126
100
AcDbEntity
  8
RIQUADRO
 62
     0
100
AcDbMText
 10
23.9347223788
 20
-1.6874581861
 30
0.0
 40
8.0
 41
0.0
 71
     3
 72
     1
  1
120
  7
SLDTEXTSTYLE0
  0
ENDBLK
  5
128
330
126
100
AcDbEntity
  8
0
100
AcDbBlockEnd
  0
BLOCK
  5
12D
330
12C
100
AcDbEntity
  8
0
100
AcDbBlockBegin
  2
SW_NOTE_6
 70
     0
 10
0.0
 20
0.0
 30
0.0
  3
SW_NOTE_6
  1

  0
MTEXT
  5
12F
330
12C
100
AcDbEntity
  8
RIQUADRO
 62
     0
100
AcDbMText
 10
23.5
 20
10.3125419182
 30
0.0
 40
8.0
 41
0.0
 71
     3
 72
     1
  1
>120
  7
SLDTEXTSTYLE0
  0
MTEXT
  5
130
330
12C
100
AcDbEntity
  8
RIQUADRO
 62
     0
100
AcDbMText
 10
22.8708335161
 20
-1.6874581861
 30
0.0
 40
8.0
 41
0.0
 71
     3
 72
     1
  1
÷400
  7
SLDTEXTSTYLE0
  0
ENDBLK
  5
12E
330
12C
100
AcDbEntity
  8
0
100
AcDbBlockEnd
  0
BLOCK
  5
133
330
132
100
AcDbEntity
  8
0
100
AcDbBlockBegin
  2
SW_NOTE_7
 70
     0
 10
0.0
 20
0.0
 30
0.0
  3
SW_NOTE_7
  1

  0
MTEXT
  5
135
330
132
100
AcDbEntity
  8
RIQUADRO
 62
     0
100
AcDbMText
 10
29.0
 20
10.3125419182
 30
0.0
 40
8.0
 41
0.0
 71
     3
 72
     1
  1
>400÷
  7
SLDTEXTSTYLE0
  0
MTEXT
  5
136
330
132
100
AcDbEntity
  8
RIQUADRO
 62
     0
100
AcDbMText
 10
29.709722802
 20
-1.6874581861
 30
0.0
 40
8.0
 41
0.0
 71
     3
 72
     1
  1
1000
  7
SLDTEXTSTYLE0
  0
ENDBLK
  5
134
330
132
100
AcDbEntity
  8
0
100
AcDbBlockEnd
  0
BLOCK
  5
139
330
138
100
AcDbEntity
  8
0
100
AcDbBlockBegin
  2
SW_NOTE_8
 70
     0
 10
0.0
 20
0.0
 30
0.0
  3
SW_NOTE_8
  1

  0
MTEXT
  5
13B
330
138
100
AcDbEntity
  8
RIQUADRO
 62
     0
100
AcDbMText
 10
29.25
 20
10.3125419182
 30
0.0
 40
8.0
 41
0.0
 71
     3
 72
     1
  1
>1000
  7
SLDTEXTSTYLE0
  0
MTEXT
  5
13C
330
138
100
AcDbEntity
  8
RIQUADRO
 62
     0
100
AcDbMText
 10
28.6444462687
 20
-1.6874581861
 30
0.0
 40
8.0
 41
0.0
 71
     3
 72
     1
  1
÷2000
  7
SLDTEXTSTYLE0
  0
ENDBLK
  5
13A
330
138
100
AcDbEntity
  8
0
100
AcDbBlockEnd
  0
BLOCK
  5
13F
330
13E
100
AcDbEntity
  8
0
100
AcDbBlockBegin
  2
SW_NOTE_9
 70
     0
 10
0.0
 20
0.0
 30
0.0
  3
SW_NOTE_9
  1

  0
MTEXT
  5
141
330
13E
100
AcDbEntity
  8
RIQUADRO
 62
     0
100
AcDbMText
 10
29.25
 20
10.3125419182
 30
0.0
 40
8.0
 41
0.0
 71
     3
 72
     1
  1
>2000
  7
SLDTEXTSTYLE0
  0
MTEXT
  5
142
330
13E
100
AcDbEntity
  8
RIQUADRO
 62
     0
100
AcDbMText
 10
29.029166311
 20
-1.6874581861
 30
0.0
 40
8.0
 41
0.0
 71
     3
 72
     1
  1
÷4000
  7
SLDTEXTSTYLE0
  0
ENDBLK
  5
140
330
13E
100
AcDbEntity
  8
0
100
AcDbBlockEnd
  0
BLOCK
  5
202
330
201
100
AcDbEntity
  8
0
100
AcDbBlockBegin
  2
_ORIGIN
 70
     0
 10
0.0
 20
0.0
 30
0.0
  3
_ORIGIN
  1

  0
CIRCLE
  5
204
330
201
100
AcDbEntity
  8
0
  6
BYBLOCK
 62
     0
100
AcDbCircle
 10
0.0
 20
0.0
 30
0.0
 40
0.5
  0
LINE
  5
205
330
201
100
AcDbEntity
  8
0
  6
BYBLOCK
 62
     0
100
AcDbLine
 10
0.0
 20
0.0
 30
0.0
 11
-1.0
 21
0.0
 31
0.0
  0
ENDBLK
  5
203
330
201
100
AcDbEntity
  8
0
100
AcDbBlockEnd
  0
BLOCK
  5
207
330
206
100
AcDbEntity
  8
0
100
AcDbBlockBegin
  2
_D
 70
     0
 10
0.0
 20
0.0
 30
0.0
  3
_D
  1

  0
INSERT
  5
209
330
206
100
AcDbEntity
  8
RIQUADRO
100
AcDbBlockReference
  2
_ORIGIN
 10
1575.5882557093
 20
766.887487464
 30
0.1
 41
2.48
 42
2.48
 50
0.0
  0
LINE
  5
20A
330
206
100
AcDbEntity
  8
RIQUADRO
100
AcDbLine
 10
1575.5882557093
 20
723.4940563249
 30
0.0
 11
1575.5882557093
 21
721.887487464
 31
0.0
  0
LINE
  5
20B
330
206
100
AcDbEntity
  8
RIQUADRO
100
AcDbLine
 10
1575.5882557093
 20
723.4940563249
 30
0.0
 11
1575.5882557093
 21
742.5548014605
 31
0.0
  0
LINE
  5
20C
330
206
100
AcDbEntity
  8
RIQUADRO
100
AcDbLine
 10
1575.5882557093
 20
742.5548014605
 30
0.0
 11
1575.5882557093
 21
995.1085600961
 31
0.0
  0
MTEXT
  5
20D
330
206
100
AcDbEntity
  8
RIQUADRO
100
AcDbMText
 10
1568.6481543581
 20
705.2118566464
 30
0.0
 40
14.0
 41
0.0
 71
     1
 72
     1
  1
0
  7
SLDTEXTSTYLE0
 11
-7.044195017643634E-15
 21
1.0
 31
0.0
  0
ENDBLK
  5
208
330
206
100
AcDbEntity
  8
0
100
AcDbBlockEnd
  0
BLOCK
  5
211
330
210
100
AcDbEntity
  8
0
100
AcDbBlockBegin
  2
_CLOSED
 70
     0
 10
0.0
 20
0.0
 30
0.0
  3
_CLOSED
  1

  0
LINE
  5
213
330
210
100
AcDbEntity
  8
0
  6
BYBLOCK
 62
     0
100
AcDbLine
 10
-1.0
 20
0.166667
 30
0.0
 11
0.0
 21
0.0
 31
0.0
  0
LINE
  5
214
330
210
100
AcDbEntity
  8
0
  6
BYBLOCK
 62
     0
100
AcDbLine
 10
0.0
 20
0.0
 30
0.0
 11
-1.0
 21
-0.166667
 31
0.0
  0
LINE
  5
215
330
210
100
AcDbEntity
  8
0
  6
BYBLOCK
 62
     0
100
AcDbLine
 10
-1.0
 20
0.166667
 30
0.0
 11
-1.0
 21
-0.166667
 31
0.0
  0
LINE
  5
216
330
210
100
AcDbEntity
  8
0
  6
BYBLOCK
 62
     0
100
AcDbLine
 10
0.0
 20
0.0
 30
0.0
 11
-1.0
 21
0.0
 31
0.0
  0
ENDBLK
  5
212
330
210
100
AcDbEntity
  8
0
100
AcDbBlockEnd
  0
BLOCK
  5
218
330
217
100
AcDbEntity
  8
0
100
AcDbBlockBegin
  2
_D_1
 70
     0
 10
0.0
 20
0.0
 30
0.0
  3
_D_1
  1

  0
INSERT
  5
21A
330
217
100
AcDbEntity
  8
RIQUADRO
100
AcDbBlockReference
  2
_CLOSED
 10
1550.2702557093
 20
766.887487464
 30
0.1
 41
10.0
 42
10.0
 50
180.0
  0
LINE
  5
21B
330
217
100
AcDbEntity
  8
RIQUADRO
100
AcDbLine
 10
1550.2702557093
 20
995.2085600961
 30
0.0
 11
1550.2702557093
 21
721.887487464
 31
0.0
  0
LINE
  5
21C
330
217
100
AcDbEntity
  8
RIQUADRO
100
AcDbLine
 10
1575.5882557093
 20
766.887487464
 30
0.0
 11
1550.2702557093
 21
766.887487464
 31
0.0
  0
MTEXT
  5
21D
330
217
100
AcDbEntity
  8
RIQUADRO
100
AcDbMText
 10
1543.3301543581
 20
679.3524917481
 30
0.0
 40
14.0
 41
0.0
 71
     1
 72
     1
  1
25,3
  7
SLDTEXTSTYLE0
 11
-7.044195017643634E-15
 21
1.0
 31
0.0
  0
ENDBLK
  5
219
330
217
100
AcDbEntity
  8
0
100
AcDbBlockEnd
  0
BLOCK
  5
220
330
21F
100
AcDbEntity
  8
0
100
AcDbBlockBegin
  2
_D_2
 70
     0
 10
0.0
 20
0.0
 30
0.0
  3
_D_2
  1

  0
INSERT
  5
222
330
21F
100
AcDbEntity
  8
RIQUADRO
100
AcDbBlockReference
  2
_CLOSED
 10
1521.1123440953
 20
766.887487464
 30
0.1
 41
10.0
 42
10.0
 50
180.0
  0
LINE
  5
223
330
21F
100
AcDbEntity
  8
RIQUADRO
100
AcDbLine
 10
1521.1123440953
 20
995.2085600961
 30
0.0
 11
1521.1123440953
 21
721.887487464
 31
0.0
  0
LINE
  5
224
330
21F
100
AcDbEntity
  8
RIQUADRO
100
AcDbLine
 10
1550.2702557093
 20
766.887487464
 30
0.0
 11
1521.1123440953
 21
766.887487464
 31
0.0
  0
MTEXT
  5
225
330
21F
100
AcDbEntity
  8
RIQUADRO
100
AcDbMText
 10
1514.172242744
 20
679.3524917481
 30
0.0
 40
14.0
 41
0.0
 71
     1
 72
     1
  1
54,5
  7
SLDTEXTSTYLE0
 11
-7.044195017643634E-15
 21
1.0
 31
0.0
  0
ENDBLK
  5
221
330
21F
100
AcDbEntity
  8
0
100
AcDbBlockEnd
  0
BLOCK
  5
229
330
228
100
AcDbEntity
  8
0
100
AcDbBlockBegin
  2
_D_3
 70
     0
 10
0.0
 20
0.0
 30
0.0
  3
_D_3
  1

  0
INSERT
  5
22B
330
228
100
AcDbEntity
  8
RIQUADRO
100
AcDbBlockReference
  2
_CLOSED
 10
1402.5427508862
 20
766.887487464
 30
0.1
 41
10.0
 42
10.0
 50
180.0
  0
LINE
  5
22C
330
228
100
AcDbEntity
  8
RIQUADRO
100
AcDbLine
 10
1402.5427508862
 20
966.1085600961
 30
0.0
 11
1402.5427508862
 21
721.887487464
 31
0.0
  0
LINE
  5
22D
330
228
100
AcDbEntity
  8
RIQUADRO
100
AcDbLine
 10
1521.1123440953
 20
766.887487464
 30
0.0
 11
1402.5427508862
 21
766.887487464
 31
0.0
  0
MTEXT
  5
22E
330
228
100
AcDbEntity
  8
RIQUADRO
100
AcDbMText
 10
1395.6026495349
 20
658.6559422585
 30
0.0
 40
14.0
 41
0.0
 71
     1
 72
     1
  1
173,05
  7
SLDTEXTSTYLE0
 11
-7.044195017643634E-15
 21
1.0
 31
0.0
  0
ENDBLK
  5
22A
330
228
100
AcDbEntity
  8
0
100
AcDbBlockEnd
  0
BLOCK
  5
231
330
230
100
AcDbEntity
  8
0
100
AcDbBlockBegin
  2
_D_4
 70
     0
 10
0.0
 20
0.0
 30
0.0
  3
_D_4
  1

  0
INSERT
  5
233
330
230
100
AcDbEntity
  8
RIQUADRO
100
AcDbBlockReference
  2
_CLOSED
 10
1067.8755801893
 20
766.887487464
 30
0.1
 41
10.0
 42
10.0
 50
180.0
  0
LINE
  5
234
330
230
100
AcDbEntity
  8
RIQUADRO
100
AcDbLine
 10
1069.7608433347
 20
741.887487464
 30
0.0
 11
1069.7608433347
 21
721.887487464
 31
0.0
  0
LINE
  5
235
330
230
100
AcDbEntity
  8
RIQUADRO
100
AcDbLine
 10
1402.5427508862
 20
766.887487464
 30
0.0
 11
1067.8755801893
 21
766.887487464
 31
0.0
  0
LINE
  5
236
330
230
100
AcDbEntity
  8
RIQUADRO
100
AcDbLine
 10
1069.7608433347
 20
741.887487464
 30
0.0
 11
1067.8755801893
 21
761.887487464
 31
0.0
  0
LINE
  5
237
330
230
100
AcDbEntity
  8
RIQUADRO
100
AcDbLine
 10
1067.8755801893
 20
761.887487464
 30
0.0
 11
1067.8755801893
 21
886.1561791437
 31
0.0
  0
MTEXT
  5
238
330
230
100
AcDbEntity
  8
RIQUADRO
100
AcDbMText
 10
1062.8207419835
 20
658.6559422585
 30
0.0
 40
14.0
 41
0.0
 71
     1
 72
     1
  1
507,71
  7
SLDTEXTSTYLE0
 11
-7.044195017643634E-15
 21
1.0
 31
0.0
  0
ENDBLK
  5
232
330
230
100
AcDbEntity
  8
0
100
AcDbBlockEnd
  0
BLOCK
  5
23B
330
23A
100
AcDbEntity
  8
0
100
AcDbBlockBegin
  2
_D_5
 70
     0
 10
0.0
 20
0.0
 30
0.0
  3
_D_5
  1

  0
INSERT
  5
23D
330
23A
100
AcDbEntity
  8
RIQUADRO
100
AcDbBlockReference
  2
_CLOSED
 10
1051.481472117
 20
766.887487464
 30
0.1
 41
10.0
 42
10.0
 50
180.0
  0
LINE
  5
23E
330
23A
100
AcDbEntity
  8
RIQUADRO
100
AcDbLine
 10
1052.1832874793
 20
741.887487464
 30
0.0
 11
1052.1832874793
 21
721.887487464
 31
0.0
  0
LINE
  5
23F
330
23A
100
AcDbEntity
  8
RIQUADRO
100
AcDbLine
 10
1067.8755801893
 20
766.887487464
 30
0.0
 11
1051.481472117
 21
766.887487464
 31
0.0
  0
LINE
  5
240
330
23A
100
AcDbEntity
  8
RIQUADRO
100
AcDbLine
 10
1052.1832874793
 20
741.887487464
 30
0.0
 11
1051.481472117
 21
761.887487464
 31
0.0
  0
LINE
  5
241
330
23A
100
AcDbEntity
  8
RIQUADRO
100
AcDbLine
 10
1051.481472117
 20
761.887487464
 30
0.0
 11
1051.481472117
 21
856.1085600961
 31
0.0
  0
MTEXT
  5
242
330
23A
100
AcDbEntity
  8
RIQUADRO
100
AcDbMText
 10
1045.243186128
 20
658.6559422585
 30
0.0
 40
14.0
 41
0.0
 71
     1
 72
     1
  1
524,11
  7
SLDTEXTSTYLE0
 11
-7.044195017643634E-15
 21
1.0
 31
0.0
  0
ENDBLK
  5
23C
330
23A
100
AcDbEntity
  8
0
100
AcDbBlockEnd
  0
BLOCK
  5
245
330
244
100
AcDbEntity
  8
0
100
AcDbBlockBegin
  2
_D_6
 70
     0
 10
0.0
 20
0.0
 30
0.0
  3
_D_6
  1

  0
INSERT
  5
247
330
244
100
AcDbEntity
  8
RIQUADRO
100
AcDbBlockReference
  2
_CLOSED
 10
1036.481472117
 20
766.887487464
 30
0.1
 41
10.0
 42
10.0
 50
180.0
  0
LINE
  5
248
330
244
100
AcDbEntity
  8
RIQUADRO
100
AcDbLine
 10
1034.5962089716
 20
741.887487464
 30
0.0
 11
1034.5962089716
 21
721.887487464
 31
0.0
  0
LINE
  5
249
330
244
100
AcDbEntity
  8
RIQUADRO
100
AcDbLine
 10
1051.481472117
 20
766.887487464
 30
0.0
 11
1036.481472117
 21
766.887487464
 31
0.0
  0
LINE
  5
24A
330
244
100
AcDbEntity
  8
RIQUADRO
100
AcDbLine
 10
1034.5962089716
 20
741.887487464
 30
0.0
 11
1036.481472117
 21
761.887487464
 31
0.0
  0
LINE
  5
24B
330
244
100
AcDbEntity
  8
RIQUADRO
100
AcDbLine
 10
1036.481472117
 20
761.887487464
 30
0.0
 11
1036.481472117
 21
856.1085600961
 31
0.0
  0
MTEXT
  5
24C
330
244
100
AcDbEntity
  8
RIQUADRO
100
AcDbMText
 10
1027.6561076203
 20
658.6559422585
 30
0.0
 40
14.0
 41
0.0
 71
     1
 72
     1
  1
539,11
  7
SLDTEXTSTYLE0
 11
-7.044195017643634E-15
 21
1.0
 31
0.0
  0
ENDBLK
  5
246
330
244
100
AcDbEntity
  8
0
100
AcDbBlockEnd
  0
BLOCK
  5
24F
330
24E
100
AcDbEntity
  8
0
100
AcDbBlockBegin
  2
_D_7
 70
     0
 10
0.0
 20
0.0
 30
0.0
  3
_D_7
  1

  0
INSERT
  5
251
330
24E
100
AcDbEntity
  8
RIQUADRO
100
AcDbBlockReference
  2
_CLOSED
 10
905.7846917019
 20
766.887487464
 30
0.1
 41
10.0
 42
10.0
 50
180.0
  0
LINE
  5
252
330
24E
100
AcDbEntity
  8
RIQUADRO
100
AcDbLine
 10
905.7846917019
 20
853.1085600961
 30
0.0
 11
905.7846917019
 21
721.887487464
 31
0.0
  0
LINE
  5
253
330
24E
100
AcDbEntity
  8
RIQUADRO
100
AcDbLine
 10
1036.481472117
 20
766.887487464
 30
0.0
 11
905.7846917019
 21
766.887487464
 31
0.0
  0
MTEXT
  5
254
330
24E
100
AcDbEntity
  8
RIQUADRO
100
AcDbMText
 10
898.8445903506
 20
658.6559422585
 30
0.0
 40
14.0
 41
0.0
 71
     1
 72
     1
  1
669,80
  7
SLDTEXTSTYLE0
 11
-7.044195017643634E-15
 21
1.0
 31
0.0
  0
ENDBLK
  5
250
330
24E
100
AcDbEntity
  8
0
100
AcDbBlockEnd
  0
BLOCK
  5
257
330
256
100
AcDbEntity
  8
0
100
AcDbBlockBegin
  2
_D_8
 70
     0
 10
0.0
 20
0.0
 30
0.0
  3
_D_8
  1

  0
INSERT
  5
259
330
256
100
AcDbEntity
  8
RIQUADRO
100
AcDbBlockReference
  2
_CLOSED
 10
800.481472117
 20
766.887487464
 30
0.1
 41
10.0
 42
10.0
 50
180.0
  0
LINE
  5
25A
330
256
100
AcDbEntity
  8
RIQUADRO
100
AcDbLine
 10
800.481472117
 20
856.141985729
 30
0.0
 11
800.481472117
 21
721.887487464
 31
0.0
  0
LINE
  5
25B
330
256
100
AcDbEntity
  8
RIQUADRO
100
AcDbLine
 10
905.7846917019
 20
766.887487464
 30
0.0
 11
800.481472117
 21
766.887487464
 31
0.0
  0
MTEXT
  5
25C
330
256
100
AcDbEntity
  8
RIQUADRO
100
AcDbMText
 10
793.5413707657
 20
658.6559422585
 30
0.0
 40
14.0
 41
0.0
 71
     1
 72
     1
  1
775,11
  7
SLDTEXTSTYLE0
 11
-7.044195017643634E-15
 21
1.0
 31
0.0
  0
ENDBLK
  5
258
330
256
100
AcDbEntity
  8
0
100
AcDbBlockEnd
  0
BLOCK
  5
25F
330
25E
100
AcDbEntity
  8
0
100
AcDbBlockBegin
  2
_D_9
 70
     0
 10
0.0
 20
0.0
 30
0.0
  3
_D_9
  1

  0
INSERT
  5
261
330
25E
100
AcDbEntity
  8
RIQUADRO
100
AcDbBlockReference
  2
_CLOSED
 10
1580.1702557093
 20
766.887487464
 30
0.1
 41
10.0
 42
10.0
 50
0.0
  0
LINE
  5
262
330
25E
100
AcDbEntity
  8
RIQUADRO
100
AcDbLine
 10
1595.3638603577
 20
741.887487464
 30
0.0
 11
1595.3638603577
 21
721.887487464
 31
0.0
  0
LINE
  5
263
330
25E
100
AcDbEntity
  8
RIQUADRO
100
AcDbLine
 10
1575.5882557093
 20
766.887487464
 30
0.0
 11
1580.1702557093
 21
766.887487464
 31
0.0
  0
LINE
  5
264
330
25E
100
AcDbEntity
  8
RIQUADRO
100
AcDbLine
 10
1595.3638603577
 20
741.887487464
 30
0.0
 11
1580.1702557093
 21
761.887487464
 31
0.0
  0
LINE
  5
265
330
25E
100
AcDbEntity
  8
RIQUADRO
100
AcDbLine
 10
1580.1702557093
 20
761.887487464
 30
0.0
 11
1580.1702557093
 21
1002.2085600961
 31
0.0
  0
MTEXT
  5
266
330
25E
100
AcDbEntity
  8
RIQUADRO
100
AcDbMText
 10
1588.4237590065
 20
689.6781225656
 30
0.0
 40
14.0
 41
0.0
 71
     1
 72
     1
  1
4,6
  7
SLDTEXTSTYLE0
 11
-7.044195017643634E-15
 21
1.0
 31
0.0
  0
ENDBLK
  5
260
330
25E
100
AcDbEntity
  8
0
100
AcDbBlockEnd
  0
BLOCK
  5
26A
330
269
100
AcDbEntity
  8
0
100
AcDbBlockBegin
  2
_D_10
 70
     0
 10
0.0
 20
0.0
 30
0.0
  3
_D_10
  1

  0
INSERT
  5
26C
330
269
100
AcDbEntity
  8
RIQUADRO
100
AcDbBlockReference
  2
_CLOSED
 10
807.6472557093
 20
1244.3498707014
 30
0.1
 41
10.0
 42
10.0
 50
180.0
  0
INSERT
  5
26D
330
269
100
AcDbEntity
  8
RIQUADRO
100
AcDbBlockReference
  2
_CLOSED
 10
800.481472117
 20
1244.3498707014
 30
0.1
 41
10.0
 42
10.0
 50
0.0
  0
LINE
  5
26E
330
269
100
AcDbEntity
  8
RIQUADRO
100
AcDbLine
 10
807.6472557093
 20
1022.1085600961
 30
0.0
 11
807.6472557093
 21
1248.3498707014
 31
0.0
  0
LINE
  5
26F
330
269
100
AcDbEntity
  8
RIQUADRO
100
AcDbLine
 10
800.481472117
 20
1180.0751344632
 30
0.0
 11
800.481472117
 21
1248.3498707014
 31
0.0
  0
LINE
  5
270
330
269
100
AcDbEntity
  8
RIQUADRO
100
AcDbLine
 10
807.6472557093
 20
1244.3498707014
 30
0.0
 11
1111.1560643706
 21
1244.3498707014
 31
0.0
  0
LINE
  5
271
330
269
100
AcDbEntity
  8
RIQUADRO
100
AcDbLine
 10
807.6472557093
 20
1244.3498707014
 30
0.0
 11
800.481472117
 21
1244.3498707014
 31
0.0
  0
LINE
  5
272
330
269
100
AcDbEntity
  8
RIQUADRO
100
AcDbLine
 10
800.481472117
 20
1244.3498707014
 30
0.0
 11
790.481472117
 21
1244.3498707014
 31
0.0
  0
MTEXT
  5
273
330
269
100
AcDbEntity
  8
RIQUADRO
100
AcDbMText
 10
971.9994311579
 20
1306.8242035879
 30
0.0
 40
14.0
 41
0.0
 71
     1
 72
     1
  1
7,17
  7
SLDTEXTSTYLE0
  0
MTEXT
  5
274
330
269
100
AcDbEntity
  8
RIQUADRO
100
AcDbMText
 10
876.965293661
 20
1284.6105109738
 30
0.0
 40
14.0
 41
0.0
 71
     1
 72
     1
  1
From lens to chassis edge
  7
SLDTEXTSTYLE0
  0
MTEXT
  5
275
330
269
100
AcDbEntity
  8
RIQUADRO
100
AcDbMText
 10
879.5693452927
 20
1262.3968183597
 30
0.0
 40
14.0
 41
0.0
 71
     1
 72
     1
  1
W.D.- see the data sheet
  7
SLDTEXTSTYLE0
  0
ENDBLK
  5
26B
330
269
100
AcDbEntity
  8
0
100
AcDbBlockEnd
  0
BLOCK
  5
279
330
278
100
AcDbEntity
  8
0
100
AcDbBlockBegin
  2
_D_11
 70
     0
 10
0.0
 20
0.0
 30
0.0
  3
_D_11
  1

  0
ARC
  5
27B
330
278
100
AcDbEntity
  8
RIQUADRO
100
AcDbCircle
 10
1651.4496757352
 20
1115.0222626545
 30
0.0
 40
74.50699007463437
100
AcDbArc
 50
243.4349488229
 51
296.5650511771
  0
ARC
  5
27C
330
278
100
AcDbEntity
  8
RIQUADRO
100
AcDbCircle
 10
1651.4496757352
 20
1073.4447690806
 30
0.0
 40
74.50699007463446
100
AcDbArc
 50
63.4349488229
 51
116.5650511771
  0
INSERT
  5
27D
330
278
100
AcDbEntity
  8
RIQUADRO
100
AcDbBlockReference
  2
_CLOSED
 10
1684.7702146564
 20
1030.8085600961
 30
0.1
 41
10.0
 42
10.0
 50
90.0
  0
INSERT
  5
27E
330
278
100
AcDbEntity
  8
RIQUADRO
100
AcDbBlockReference
  2
_CLOSED
 10
1684.7702146564
 20
1005.4085600961
 30
0.1
 41
10.0
 42
10.0
 50
270.0
  0
LINE
  5
27F
330
278
100
AcDbEntity
  8
RIQUADRO
100
AcDbLine
 10
1583.3702557093
 20
1030.8085600961
 30
0.0
 11
1688.7702146564
 21
1030.8085600961
 31
0.0
  0
LINE
  5
280
330
278
100
AcDbEntity
  8
RIQUADRO
100
AcDbLine
 10
1583.3702557093
 20
1005.4085600961
 30
0.0
 11
1688.7702146564
 21
1005.4085600961
 31
0.0
  0
LINE
  5
281
330
278
100
AcDbEntity
  8
RIQUADRO
100
AcDbLine
 10
1684.7702146564
 20
1030.8085600961
 30
0.0
 11
1684.7702146564
 21
1151.1267591552
 31
0.0
  0
LINE
  5
282
330
278
100
AcDbEntity
  8
RIQUADRO
100
AcDbLine
 10
1684.7702146564
 20
1030.8085600961
 30
0.0
 11
1684.7702146564
 21
1005.4085600961
 31
0.0
  0
MTEXT
  5
283
330
278
100
AcDbEntity
  8
RIQUADRO
100
AcDbMText
 10
1622.2958810713
 20
1054.7311848122
 30
0.0
 40
14.0
 41
0.0
 71
     1
 72
     1
  1
%%c
  7
SLDTEXTSTYLE0
 11
-7.044195017643634E-15
 21
1.0
 31
0.0
  0
MTEXT
  5
284
330
278
100
AcDbEntity
  8
RIQUADRO
100
AcDbMText
 10
1622.2958817698
 20
1075.835324992
 30
0.0
 40
14.0
 41
0.0
 71
     1
 72
     1
  1
25,40
  7
SLDTEXTSTYLE0
 11
-7.044195017643634E-15
 21
1.0
 31
0.0
  0
MTEXT
  5
285
330
278
100
AcDbEntity
  8
RIQUADRO
100
AcDbMText
 10
1644.5095743839
 20
1054.7311848122
 30
0.0
 40
14.0
 41
0.0
 71
     1
 72
     1
  1
Filetto C,
  7
SLDTEXTSTYLE0
 11
-7.044195017643634E-15
 21
1.0
 31
0.0
  0
MTEXT
  5
286
330
278
100
AcDbEntity
  8
RIQUADRO
100
AcDbMText
 10
1666.723266998
 20
1054.7311848122
 30
0.0
 40
14.0
 41
0.0
 71
     1
 72
     1
  1
1/32 TPI
  7
SLDTEXTSTYLE0
 11
-7.044195017643634E-15
 21
1.0
 31
0.0
  0
ENDBLK
  5
27A
330
278
100
AcDbEntity
  8
0
100
AcDbBlockEnd
  0
BLOCK
  5
28A
330
289
100
AcDbEntity
  8
0
100
AcDbBlockBegin
  2
_D_12
 70
     0
 10
0.0
 20
0.0
 30
0.0
  3
_D_12
  1

  0
INSERT
  5
28C
330
289
100
AcDbEntity
  8
RIQUADRO
100
AcDbBlockReference
  2
_CLOSED
 10
1534.0832263519
 20
1037.0085600961
 30
0.1
 41
10.0
 42
10.0
 50
90.0
  0
INSERT
  5
28D
330
289
100
AcDbEntity
  8
RIQUADRO
100
AcDbBlockReference
  2
_CLOSED
 10
1534.0832263519
 20
999.2085600961
 30
0.1
 41
10.0
 42
10.0
 50
270.0
  0
LINE
  5
28E
330
289
100
AcDbEntity
  8
RIQUADRO
100
AcDbLine
 10
1534.0832263519
 20
1037.0085600961
 30
0.0
 11
1534.0832263519
 21
1226.69361652
 31
0.0
  0
LINE
  5
28F
330
289
100
AcDbEntity
  8
RIQUADRO
100
AcDbLine
 10
1534.0832263519
 20
1037.0085600961
 30
0.0
 11
1534.0832263519
 21
999.2085600961
 31
0.0
  0
MTEXT
  5
290
330
289
100
AcDbEntity
  8
RIQUADRO
100
AcDbMText
 10
1493.822585381
 20
1055.280708966
 30
0.0
 40
14.0
 41
0.0
 71
     1
 72
     1
  1
%%c
  7
SLDTEXTSTYLE0
 11
-7.044195017643634E-15
 21
1.0
 31
0.0
  0
MTEXT
  5
291
330
289
100
AcDbEntity
  8
RIQUADRO
100
AcDbMText
 10
1493.8225860795
 20
1076.3848491458
 30
0.0
 40
14.0
 41
0.0
 71
     1
 72
     1
  1
37,80
  7
SLDTEXTSTYLE0
 11
-7.044195017643634E-15
 21
1.0
 31
0.0
  0
MTEXT
  5
292
330
289
100
AcDbEntity
  8
RIQUADRO
100
AcDbMText
 10
1493.8225860795
 20
1128.0809350153
 30
0.0
 40
14.0
 41
0.0
 71
     1
 72
     1
  1
h8
  7
SLDTEXTSTYLE0
 11
-7.044195017643634E-15
 21
1.0
 31
0.0
  0
MTEXT
  5
293
330
289
100
AcDbEntity
  8
RIQUADRO
100
AcDbMText
 10
1493.8225860795
 20
1157.5180404162
 30
0.0
 40
14.0
 41
0.0
 71
     1
 72
     1
  1
-
  7
SLDTEXTSTYLE0
 11
-7.044195017643634E-15
 21
1.0
 31
0.0
  0
MTEXT
  5
294
330
289
100
AcDbEntity
  8
RIQUADRO
100
AcDbMText
 10
1493.8225860795
 20
1166.2585963276
 30
0.0
 40
14.0
 41
0.0
 71
     1
 72
     1
  1
0,039
  7
SLDTEXTSTYLE0
 11
-7.044195017643634E-15
 21
1.0
 31
0.0
  0
MTEXT
  5
295
330
289
100
AcDbEntity
  8
RIQUADRO
100
AcDbMText
 10
1471.6088934653
 20
1166.2585963276
 30
0.0
 40
14.0
 41
0.0
 71
     1
 72
     1
  1
0
  7
SLDTEXTSTYLE0
 11
-7.044195017643634E-15
 21
1.0
 31
0.0
  0
MTEXT
  5
296
330
289
100
AcDbEntity
  8
RIQUADRO
100
AcDbMText
 10
1516.0362786936
 20
1044.2215756072
 30
0.0
 40
14.0
 41
0.0
 71
     1
 72
     1
  1
Clamping diameter
  7
SLDTEXTSTYLE0
 11
-7.044195017643634E-15
 21
1.0
 31
0.0
  0
ENDBLK
  5
28B
330
289
100
AcDbEntity
  8
0
100
AcDbBlockEnd
  0
BLOCK
  5
299
330
298
100
AcDbEntity
  8
0
100
AcDbBlockBegin
  2
_D_13
 70
     0
 10
0.0
 20
0.0
 30
0.0
  3
_D_13
  1

  0
INSERT
  5
29B
330
298
100
AcDbEntity
  8
RIQUADRO
100
AcDbBlockReference
  2
_CLOSED
 10
1560.0675643551
 20
999.2585600961
 30
0.1
 41
10.0
 42
10.0
 50
270.0
  0
INSERT
  5
29C
330
298
100
AcDbEntity
  8
RIQUADRO
100
AcDbBlockReference
  2
_CLOSED
 10
1560.0675643551
 20
1036.9585600961
 30
0.1
 41
10.0
 42
10.0
 50
90.0
  0
LINE
  5
29D
330
298
100
AcDbEntity
  8
RIQUADRO
100
AcDbLine
 10
1560.0675643551
 20
999.2585600961
 30
0.0
 11
1560.0675643551
 21
1036.9585600961
 31
0.0
  0
LINE
  5
29E
330
298
100
AcDbEntity
  8
RIQUADRO
100
AcDbLine
 10
1560.0675643551
 20
1036.9585600961
 30
0.0
 11
1560.0675643551
 21
1176.5844173835
 31
0.0
  0
MTEXT
  5
29F
330
298
100
AcDbEntity
  8
RIQUADRO
100
AcDbMText
 10
1542.0206159983
 20
1102.597006743
 30
0.0
 40
14.0
 41
0.0
 71
     1
 72
     1
  1
%%c
  7
SLDTEXTSTYLE0
 11
6.123233995736766E-17
 21
1.0
 31
0.0
  0
MTEXT
  5
2A0
330
298
100
AcDbEntity
  8
RIQUADRO
100
AcDbMText
 10
1542.0206166968
 20
1123.7011469227
 30
0.0
 40
14.0
 41
0.0
 71
     1
 72
     1
  1
37,70
  7
SLDTEXTSTYLE0
 11
6.123233995736766E-17
 21
1.0
 31
0.0
  0
ENDBLK
  5
29A
330
298
100
AcDbEntity
  8
0
100
AcDbBlockEnd
  0
BLOCK
  5
2A3
330
2A2
100
AcDbEntity
  8
0
100
AcDbBlockBegin
  2
_D_14
 70
     0
 10
0.0
 20
0.0
 30
0.0
  3
_D_14
  1

  0
INSERT
  5
2A5
330
2A2
100
AcDbEntity
  8
RIQUADRO
100
AcDbBlockReference
  2
_CLOSED
 10
800.481472117
 20
1315.0632987713
 30
0.1
 41
10.0
 42
10.0
 50
180.0
  0
INSERT
  5
2A6
330
2A2
100
AcDbEntity
  8
RIQUADRO
100
AcDbBlockReference
  2
_CLOSED
 10
1580.1702557093
 20
1315.0632987713
 30
0.1
 41
10.0
 42
10.0
 50
0.0
  0
LINE
  5
2A7
330
2A2
100
AcDbEntity
  8
RIQUADRO
100
AcDbLine
 10
800.481472117
 20
1180.0751344632
 30
0.0
 11
800.481472117
 21
1319.0632987713
 31
0.0
  0
LINE
  5
2A8
330
2A2
100
AcDbEntity
  8
RIQUADRO
100
AcDbLine
 10
1580.1702557093
 20
1034.0085600961
 30
0.0
 11
1580.1702557093
 21
1319.0632987713
 31
0.0
  0
LINE
  5
2A9
330
2A2
100
AcDbEntity
  8
RIQUADRO
100
AcDbLine
 10
800.481472117
 20
1315.0632987713
 30
0.0
 11
1580.1702557093
 21
1315.0632987713
 31
0.0
  0
MTEXT
  5
2AA
330
2A2
100
AcDbEntity
  8
RIQUADRO
100
AcDbMText
 10
1117.6822234403
 20
1333.1102464296
 30
0.0
 40
14.0
 41
0.0
 71
     1
 72
     1
  1
779,69
  7
SLDTEXTSTYLE0
  0
ENDBLK
  5
2A4
330
2A2
100
AcDbEntity
  8
0
100
AcDbBlockEnd
  0
BLOCK
  5
2AE
330
2AD
100
AcDbEntity
  8
0
100
AcDbBlockBegin
  2
_D_15
 70
     0
 10
0.0
 20
0.0
 30
0.0
  3
_D_15
  1

  0
INSERT
  5
2B0
330
2AD
100
AcDbEntity
  8
RIQUADRO
100
AcDbBlockReference
  2
_CLOSED
 10
1192.3777612931
 20
1179.1085600961
 30
0.1
 41
10.0
 42
10.0
 50
90.0
  0
INSERT
  5
2B1
330
2AD
100
AcDbEntity
  8
RIQUADRO
100
AcDbBlockReference
  2
_CLOSED
 10
1192.3777612931
 20
857.1085600961
 30
0.1
 41
10.0
 42
10.0
 50
270.0
  0
LINE
  5
2B2
330
2AD
100
AcDbEntity
  8
RIQUADRO
100
AcDbLine
 10
1052.481472117
 20
1179.1085600961
 30
0.0
 11
1196.3777612931
 21
1179.1085600961
 31
0.0
  0
LINE
  5
2B3
330
2AD
100
AcDbEntity
  8
RIQUADRO
100
AcDbLine
 10
1052.481472117
 20
857.1085600961
 30
0.0
 11
1196.3777612931
 21
857.1085600961
 31
0.0
  0
LINE
  5
2B4
330
2AD
100
AcDbEntity
  8
RIQUADRO
100
AcDbLine
 10
1192.3777612931
 20
1179.1085600961
 30
0.0
 11
1192.3777612931
 21
857.1085600961
 31
0.0
  0
MTEXT
  5
2B5
330
2AD
100
AcDbEntity
  8
RIQUADRO
100
AcDbMText
 10
1152.1171203222
 20
957.570700246
 30
0.0
 40
14.0
 41
0.0
 71
     1
 72
     1
  1
%%c
  7
SLDTEXTSTYLE0
 11
-1.059690869644414E-14
 21
1.0
 31
0.0
  0
MTEXT
  5
2B6
330
2AD
100
AcDbEntity
  8
RIQUADRO
100
AcDbMText
 10
1152.1171210207
 20
978.6748404258
 30
0.0
 40
14.0
 41
0.0
 71
     1
 72
     1
  1
322
  7
SLDTEXTSTYLE0
 11
-1.059690869644414E-14
 21
1.0
 31
0.0
  0
MTEXT
  5
2B7
330
2AD
100
AcDbEntity
  8
RIQUADRO
100
AcDbMText
 10
1152.1171210207
 20
1017.4185999189
 30
0.0
 40
14.0
 41
0.0
 71
     1
 72
     1
  1
-
  7
SLDTEXTSTYLE0
 11
-1.059690869644414E-14
 21
1.0
 31
0.0
  0
MTEXT
  5
2B8
330
2AD
100
AcDbEntity
  8
RIQUADRO
100
AcDbMText
 10
1152.1171210207
 20
1026.1591558303
 30
0.0
 40
14.0
 41
0.0
 71
     1
 72
     1
  1
0,1
  7
SLDTEXTSTYLE0
 11
-1.059690869644414E-14
 21
1.0
 31
0.0
  0
MTEXT
  5
2B9
330
2AD
100
AcDbEntity
  8
RIQUADRO
100
AcDbMText
 10
1129.9034284066
 20
1026.1591558303
 30
0.0
 40
14.0
 41
0.0
 71
     1
 72
     1
  1
0
  7
SLDTEXTSTYLE0
 11
-1.059690869644414E-14
 21
1.0
 31
0.0
  0
MTEXT
  5
2BA
330
2AD
100
AcDbEntity
  8
RIQUADRO
100
AcDbMText
 10
1174.3308136348
 20
917.0178516682
 30
0.0
 40
14.0
 41
0.0
 71
     1
 72
     1
  1
Clamping Diameter
  7
SLDTEXTSTYLE0
 11
-1.059690869644414E-14
 21
1.0
 31
0.0
  0
ENDBLK
  5
2AF
330
2AD
100
AcDbEntity
  8
0
100
AcDbBlockEnd
  0
BLOCK
  5
2BD
330
2BC
100
AcDbEntity
  8
0
100
AcDbBlockBegin
  2
_D_16
 70
     0
 10
0.0
 20
0.0
 30
0.0
  3
_D_16
  1

  0
INSERT
  5
2BF
330
2BC
100
AcDbEntity
  8
RIQUADRO
100
AcDbBlockReference
  2
_CLOSED
 10
768.3298197791
 20
1179.1085600961
 30
0.1
 41
10.0
 42
10.0
 50
90.0
  0
INSERT
  5
2C0
330
2BC
100
AcDbEntity
  8
RIQUADRO
100
AcDbBlockReference
  2
_CLOSED
 10
768.3298197791
 20
857.1085600961
 30
0.1
 41
10.0
 42
10.0
 50
270.0
  0
LINE
  5
2C1
330
2BC
100
AcDbEntity
  8
RIQUADRO
100
AcDbLine
 10
802.481472117
 20
1179.1085600961
 30
0.0
 11
764.3298197791
 21
1179.1085600961
 31
0.0
  0
LINE
  5
2C2
330
2BC
100
AcDbEntity
  8
RIQUADRO
100
AcDbLine
 10
802.481472117
 20
857.1085600961
 30
0.0
 11
764.3298197791
 21
857.1085600961
 31
0.0
  0
LINE
  5
2C3
330
2BC
100
AcDbEntity
  8
RIQUADRO
100
AcDbLine
 10
768.3298197791
 20
1179.1085600961
 30
0.0
 11
768.3298197791
 21
857.1085600961
 31
0.0
  0
MTEXT
  5
2C4
330
2BC
100
AcDbEntity
  8
RIQUADRO
100
AcDbMText
 10
750.2828714223
 20
979.4178889356
 30
0.0
 40
14.0
 41
0.0
 71
     1
 72
     1
  1
%%c
  7
SLDTEXTSTYLE0
 11
-1.059690869644414E-14
 21
1.0
 31
0.0
  0
MTEXT
  5
2C5
330
2BC
100
AcDbEntity
  8
RIQUADRO
100
AcDbMText
 10
750.2828721208
 20
1000.5220291154
 30
0.0
 40
14.0
 41
0.0
 71
     1
 72
     1
  1
322
  7
SLDTEXTSTYLE0
 11
-1.059690869644414E-14
 21
1.0
 31
0.0
  0
ENDBLK
  5
2BE
330
2BC
100
AcDbEntity
  8
0
100
AcDbBlockEnd
  0
BLOCK
  5
342
330
341
100
AcDbEntity
  8
0
100
AcDbBlockBegin
  2
_D_17
 70
     0
 10
0.0
 20
0.0
 30
0.0
  3
_D_17
  1

  0
ARC
  5
344
330
341
100
AcDbEntity
  8
RIQUADRO
100
AcDbCircle
 10
424.9442286559
 20
1018.1085600961
 30
0.0
 40
87.52899560394391
100
AcDbArc
 50
45.0
 51
90.0
  0
INSERT
  5
345
330
341
100
AcDbEntity
  8
RIQUADRO
100
AcDbBlockReference
  2
_CLOSED
 10
486.8365749979
 20
1080.0009064381
 30
0.1
 41
10.0
 42
10.0
 50
318.2588302667
  0
INSERT
  5
346
330
341
100
AcDbEntity
  8
RIQUADRO
100
AcDbBlockReference
  2
_CLOSED
 10
424.9442286559
 20
1105.6375557001
 30
0.1
 41
10.0
 42
10.0
 50
176.7411697333
  0
MTEXT
  5
347
330
341
100
AcDbEntity
  8
RIQUADRO
100
AcDbMText
 10
454.6082360405
 20
1120.404119343
 30
0.0
 40
14.0
 41
0.0
 71
     1
 72
     1
  1
45°
  7
SLDTEXTSTYLE0
 11
0.9152129968456472
 21
-0.402970433660845
 31
0.0
  0
ENDBLK
  5
343
330
341
100
AcDbEntity
  8
0
100
AcDbBlockEnd
  0
BLOCK
  5
34B
330
34A
100
AcDbEntity
  8
0
100
AcDbBlockBegin
  2
_D_18
 70
     0
 10
0.0
 20
0.0
 30
0.0
  3
_D_18
  1

  0
ARC
  5
34D
330
34A
100
AcDbEntity
  8
RIQUADRO
100
AcDbCircle
 10
424.9442286559
 20
1018.1085600961
 30
0.0
 40
71.63242865743612
100
AcDbArc
 50
40.0
 51
45.0
  0
ARC
  5
34E
330
34A
100
AcDbEntity
  8
RIQUADRO
100
AcDbCircle
 10
424.9442286559
 20
1018.1085600961
 30
0.0
 40
71.63242865743608
100
AcDbArc
 50
11.137269704
 51
40.0
  0
ARC
  5
34F
330
34A
100
AcDbEntity
  8
RIQUADRO
100
AcDbCircle
 10
424.9442286559
 20
1018.1085600961
 30
0.0
 40
71.63242865743618
100
AcDbArc
 50
45.0
 51
53.00480755
  0
INSERT
  5
350
330
34A
100
AcDbEntity
  8
RIQUADRO
100
AcDbBlockReference
  2
_CLOSED
 10
479.817852576
 20
1064.1529976889
 30
0.1
 41
10.0
 42
10.0
 50
126.0263899814
  0
INSERT
  5
351
330
34A
100
AcDbEntity
  8
RIQUADRO
100
AcDbBlockReference
  2
_CLOSED
 10
475.5960047124
 20
1068.7603361526
 30
0.1
 41
10.0
 42
10.0
 50
318.9736100186
  0
MTEXT
  5
352
330
34A
100
AcDbEntity
  8
RIQUADRO
100
AcDbMText
 10
503.9001738134
 20
1061.5544182428
 30
0.0
 40
14.0
 41
0.0
 71
     1
 72
     1
  1
5°
  7
SLDTEXTSTYLE0
 11
0.3932192972378189
 21
-0.9194447151840048
 31
0.0
  0
ENDBLK
  5
34C
330
34A
100
AcDbEntity
  8
0
100
AcDbBlockEnd
  0
BLOCK
  5
355
330
354
100
AcDbEntity
  8
0
100
AcDbBlockBegin
  2
_D_19
 70
     0
 10
0.0
 20
0.0
 30
0.0
  3
_D_19
  1

  0
INSERT
  5
357
330
354
100
AcDbEntity
  8
RIQUADRO
100
AcDbBlockReference
  2
_CLOSED
 10
218.7402717025
 20
868.1085600961
 30
0.1
 41
10.0
 42
10.0
 50
270.0
  0
INSERT
  5
358
330
354
100
AcDbEntity
  8
RIQUADRO
100
AcDbBlockReference
  2
_CLOSED
 10
218.7402717025
 20
1168.1085600961
 30
0.1
 41
10.0
 42
10.0
 50
90.0
  0
LINE
  5
359
330
354
100
AcDbEntity
  8
RIQUADRO
100
AcDbLine
 10
420.9442286559
 20
868.1085600961
 30
0.0
 11
214.7402717025
 21
868.1085600961
 31
0.0
  0
LINE
  5
35A
330
354
100
AcDbEntity
  8
RIQUADRO
100
AcDbLine
 10
420.9442286559
 20
1168.1085600961
 30
0.0
 11
214.7402717025
 21
1168.1085600961
 31
0.0
  0
LINE
  5
35B
330
354
100
AcDbEntity
  8
RIQUADRO
100
AcDbLine
 10
218.7402717025
 20
868.1085600961
 30
0.0
 11
218.7402717025
 21
1168.1085600961
 31
0.0
  0
MTEXT
  5
35C
330
354
100
AcDbEntity
  8
RIQUADRO
100
AcDbMText
 10
200.6933233457
 20
1001.8323489529
 30
0.0
 40
14.0
 41
0.0
 71
     1
 72
     1
  1
%%c
  7
SLDTEXTSTYLE0
 11
6.123233995736766E-17
 21
1.0
 31
0.0
  0
MTEXT
  5
35D
330
354
100
AcDbEntity
  8
RIQUADRO
100
AcDbMText
 10
200.6933240442
 20
1022.9364891326
 30
0.0
 40
14.0
 41
0.0
 71
     1
 72
     1
  1
300
  7
SLDTEXTSTYLE0
 11
6.123233995736766E-17
 21
1.0
 31
0.0
  0
ENDBLK
  5
356
330
354
100
AcDbEntity
  8
0
100
AcDbBlockEnd
  0
BLOCK
  5
360
330
35F
100
AcDbEntity
  8
0
100
AcDbBlockBegin
  2
_D_20
 70
     0
 10
0.0
 20
0.0
 30
0.0
  3
_D_20
  1

  0
INSERT
  5
362
330
35F
100
AcDbEntity
  8
RIQUADRO
100
AcDbBlockReference
  2
_CLOSED
 10
421.5442286559
 20
1208.8310083988
 30
53.9685
 41
10.0
 42
10.0
 50
0.0
  0
INSERT
  5
363
330
35F
100
AcDbEntity
  8
RIQUADRO
100
AcDbBlockReference
  2
_CLOSED
 10
428.3442286559
 20
1208.8310083988
 30
53.9685
 41
10.0
 42
10.0
 50
180.0
  0
LINE
  5
364
330
35F
100
AcDbEntity
  8
RIQUADRO
100
AcDbLine
 10
421.5442286559
 20
1172.1085600961
 30
0.0
 11
421.5442286559
 21
1212.8310083988
 31
0.0
  0
LINE
  5
365
330
35F
100
AcDbEntity
  8
RIQUADRO
100
AcDbLine
 10
428.3442286559
 20
1172.1085600961
 30
0.0
 11
428.3442286559
 21
1212.8310083988
 31
0.0
  0
LINE
  5
366
330
35F
100
AcDbEntity
  8
RIQUADRO
100
AcDbLine
 10
421.5442286559
 20
1208.8310083988
 30
0.0
 11
411.5442286559
 21
1208.8310083988
 31
0.0
  0
LINE
  5
367
330
35F
100
AcDbEntity
  8
RIQUADRO
100
AcDbLine
 10
421.5442286559
 20
1208.8310083988
 30
0.0
 11
428.3442286559
 21
1208.8310083988
 31
0.0
  0
LINE
  5
368
330
35F
100
AcDbEntity
  8
RIQUADRO
100
AcDbLine
 10
428.3442286559
 20
1208.8310083988
 30
0.0
 11
497.0725085727
 21
1208.8310083988
 31
0.0
  0
MTEXT
  5
369
330
35F
100
AcDbEntity
  8
RIQUADRO
100
AcDbMText
 10
428.4969965405
 20
1226.8779560571
 30
0.0
 40
14.0
 41
0.0
 71
     1
 72
     1
  1
4 holes
  7
SLDTEXTSTYLE0
  0
MTEXT
  5
36A
330
35F
100
AcDbEntity
  8
RIQUADRO
100
AcDbMText
 10
447.452388727
 20
1249.0916486712
 30
0.0
 40
14.0
 41
0.0
 71
     1
 72
     1
  1
M8
  7
SLDTEXTSTYLE0
  0
ENDBLK
  5
361
330
35F
100
AcDbEntity
  8
0
100
AcDbBlockEnd
  0
BLOCK
  5
36D
330
36C
100
AcDbEntity
  8
0
100
AcDbBlockBegin
  2
_D_21
 70
     0
 10
0.0
 20
0.0
 30
0.0
  3
_D_21
  1

  0
INSERT
  5
36F
330
36C
100
AcDbEntity
  8
RIQUADRO
100
AcDbBlockReference
  2
_CLOSED
 10
531.4812463145
 20
1117.2050477655
 30
53.9685
 41
10.0
 42
10.0
 50
42.9277449803
  0
INSERT
  5
370
330
36C
100
AcDbEntity
  8
RIQUADRO
100
AcDbBlockReference
  2
_CLOSED
 10
538.0711649326
 20
1123.3347274151
 30
53.9685
 41
10.0
 42
10.0
 50
222.9277449803
  0
LINE
  5
371
330
36C
100
AcDbEntity
  8
RIQUADRO
100
AcDbLine
 10
531.4812463145
 20
1117.2050477655
 30
0.0
 11
524.1591145167
 21
1110.3942925992
 31
0.0
  0
LINE
  5
372
330
36C
100
AcDbEntity
  8
RIQUADRO
100
AcDbLine
 10
531.4812463145
 20
1117.2050477655
 30
0.0
 11
538.0711649326
 21
1123.3347274151
 31
0.0
  0
LINE
  5
373
330
36C
100
AcDbEntity
  8
RIQUADRO
100
AcDbLine
 10
538.0711649326
 20
1123.3347274151
 30
0.0
 11
568.7982574214
 21
1151.9158441843
 31
0.0
  0
MTEXT
  5
374
330
36C
100
AcDbEntity
  8
RIQUADRO
100
AcDbMText
 10
544.2968065556
 20
1153.7726932404
 30
0.0
 40
14.0
 41
0.0
 71
     1
 72
     1
  1
9
  7
SLDTEXTSTYLE0
 11
0.7322131797843036
 21
0.6810755166280456
 31
0.0
  0
ENDBLK
  5
36E
330
36C
100
AcDbEntity
  8
0
100
AcDbBlockEnd
  0
BLOCK
  5
377
330
376
100
AcDbEntity
  8
0
100
AcDbBlockBegin
  2
_D_22
 70
     0
 10
0.0
 20
0.0
 30
0.0
  3
_D_22
  1

  0
ARC
  5
379
330
376
100
AcDbEntity
  8
RIQUADRO
100
AcDbCircle
 10
634.2210899915
 20
1160.2848020456
 30
0.0
 40
24.83566335821135
100
AcDbArc
 50
108.4349488229
 51
161.5650511771
  0
ARC
  5
37A
330
376
100
AcDbEntity
  8
RIQUADRO
100
AcDbCircle
 10
644.6904318409
 20
1149.8154601962
 30
0.0
 40
24.8356633582111
100
AcDbArc
 50
288.4349488229
 51
341.5650511771
  0
INSERT
  5
37B
330
376
100
AcDbEntity
  8
RIQUADRO
100
AcDbBlockReference
  2
_CLOSED
 10
583.5769523043
 20
1195.2214870503
 30
53.9685
 41
10.0
 42
10.0
 50
315.0
  0
INSERT
  5
37C
330
376
100
AcDbEntity
  8
RIQUADRO
100
AcDbBlockReference
  2
_CLOSED
 10
602.0571556101
 20
1176.7412837445
 30
53.9685
 41
10.0
 42
10.0
 50
135.0
  0
LINE
  5
37D
330
376
100
AcDbEntity
  8
RIQUADRO
100
AcDbLine
 10
524.1473993032
 20
1135.7919340493
 30
0.0
 11
586.405379429
 21
1198.049914175
 31
0.0
  0
LINE
  5
37E
330
376
100
AcDbEntity
  8
RIQUADRO
100
AcDbLine
 10
542.627602609
 20
1117.3117307434
 30
0.0
 11
604.8855827348
 21
1179.5697108692
 31
0.0
  0
LINE
  5
37F
330
376
100
AcDbEntity
  8
RIQUADRO
100
AcDbLine
 10
583.5769523043
 20
1195.2214870503
 30
0.0
 11
576.5058844924
 21
1202.2925548621
 31
0.0
  0
LINE
  5
380
330
376
100
AcDbEntity
  8
RIQUADRO
100
AcDbLine
 10
583.5769523043
 20
1195.2214870503
 30
0.0
 11
602.0571556101
 21
1176.7412837445
 31
0.0
  0
LINE
  5
381
330
376
100
AcDbEntity
  8
RIQUADRO
100
AcDbLine
 10
602.0571556101
 20
1176.7412837445
 30
0.0
 11
657.0342862428
 21
1121.7641531117
 31
0.0
  0
MTEXT
  5
382
330
376
100
AcDbEntity
  8
RIQUADRO
100
AcDbMText
 10
627.9111580971
 20
1176.4095193953
 30
0.0
 40
14.0
 41
0.0
 71
     1
 72
     1
  1
26,13
  7
SLDTEXTSTYLE0
 11
0.7071067811865593
 21
-0.7071067811865357
 31
0.0
  0
ENDBLK
  5
378
330
376
100
AcDbEntity
  8
0
100
AcDbBlockEnd
  0
BLOCK
  5
3D7
330
3D6
100
AcDbEntity
  8
0
100
AcDbBlockBegin
  2
_D_23
 70
     0
 10
0.0
 20
0.0
 30
0.0
  3
_D_23
  1

  0
INSERT
  5
3D9
330
3D6
100
AcDbEntity
  8
RIQUADRO
100
AcDbBlockReference
  2
_CLOSED
 10
1822.125749235
 20
944.9644119151
 30
-53.7685
 41
10.0
 42
10.0
 50
208.6614849427
  0
INSERT
  5
3DA
330
3D6
100
AcDbEntity
  8
RIQUADRO
100
AcDbBlockReference
  2
_CLOSED
 10
2089.7537267476
 20
1091.2527082772
 30
-53.7685
 41
10.0
 42
10.0
 50
28.6614849427
  0
LINE
  5
3DB
330
3D6
100
AcDbEntity
  8
RIQUADRO
100
AcDbLine
 10
2089.7537267476
 20
1091.2527082772
 30
0.0
 11
1822.125749235
 21
944.9644119151
 31
0.0
  0
MTEXT
  5
3DC
330
3D6
100
AcDbEntity
  8
RIQUADRO
100
AcDbMText
 10
1961.2888224248
 20
1041.200673213
 30
0.0
 40
14.0
 41
0.0
 71
     1
 72
     1
  1
%%c
  7
SLDTEXTSTYLE0
 11
0.87746877872978
 21
0.4796337585642491
 31
0.0
  0
MTEXT
  5
3DD
330
3D6
100
AcDbEntity
  8
RIQUADRO
100
AcDbMText
 10
1979.8070468695
 20
1051.3229306757
 30
0.0
 40
14.0
 41
0.0
 71
     1
 72
     1
  1
305
  7
SLDTEXTSTYLE0
 11
0.87746877872978
 21
0.4796337585642491
 31
0.0
  0
ENDBLK
  5
3D8
330
3D6
100
AcDbEntity
  8
0
100
AcDbBlockEnd
  0
ENDSEC
  0
SECTION
  2
ENTITIES
  0
LINE
  5
4B
330
1F
100
AcDbEntity
  8
RIQUADRO
100
AcDbLine
 10
68.7550865198
 20
854.5665736788
 30
0.0
 11
92.7574040184
 21
854.5665736788
 31
0.0
  0
LINE
  5
4C
330
1F
100
AcDbEntity
  8
RIQUADRO
100
AcDbLine
 10
2324.7550865198
 20
854.5665736788
 30
0.0
 11
2300.7527690212
 21
854.5665736788
 31
0.0
  0
LINE
  5
4D
330
1F
100
AcDbEntity
  8
RIQUADRO
100
AcDbLine
 10
1809.8556101975
 20
177.5190596622
 30
0.0
 11
1809.8556101975
 21
93.5190596622
 31
0.0
  0
LINE
  5
4E
330
1F
100
AcDbEntity
  8
RIQUADRO
  6
CONTINUOUS
 62
     7
100
AcDbLine
 10
2364.7550865198
 20
34.5665736788
 30
0.0
 11
2324.7550865198
 21
34.5665736788
 31
0.0
  0
LINE
  5
4F
330
1F
100
AcDbEntity
  8
RIQUADRO
  6
CONTINUOUS
 62
     7
100
AcDbLine
 10
2364.7550865198
 20
34.5665736788
 30
0.0
 11
2364.7550865198
 21
74.5665736788
 31
0.0
  0
LINE
  5
50
330
1F
100
AcDbEntity
  8
CONTORNO
  6
CONTINUOUS
 62
     7
100
AcDbLine
 10
2364.7550865198
 20
1674.5665736788
 30
0.0
 11
2364.7550865198
 21
1634.5665736788
 31
0.0
  0
LINE
  5
51
330
1F
100
AcDbEntity
  8
CONTORNO
  6
CONTINUOUS
 62
     7
100
AcDbLine
 10
2364.7550865198
 20
1674.5665736788
 30
0.0
 11
2324.7550865198
 21
1674.5665736788
 31
0.0
  0
LINE
  5
52
330
1F
100
AcDbEntity
  8
RIQUADRO
100
AcDbLine
 10
48.7550865198
 20
1654.5665736788
 30
0.0
 11
48.7550865198
 21
54.5665736788
 31
0.0
  0
LINE
  5
53
330
1F
100
AcDbEntity
  8
RIQUADRO
100
AcDbLine
 10
48.7550865198
 20
54.5665736788
 30
0.0
 11
2344.7550865198
 21
54.5665736788
 31
0.0
  0
LINE
  5
54
330
1F
100
AcDbEntity
  8
RIQUADRO
100
AcDbLine
 10
2344.7550865198
 20
1654.5665736788
 30
0.0
 11
2344.7550865198
 21
54.5665736788
 31
0.0
  0
LINE
  5
55
330
1F
100
AcDbEntity
  8
RIQUADRO
100
AcDbLine
 10
48.7550865198
 20
1654.5665736788
 30
0.0
 11
2344.7550865198
 21
1654.5665736788
 31
0.0
  0
LINE
  5
56
330
1F
100
AcDbEntity
  8
RIQUADRO
100
AcDbLine
 10
68.7550865198
 20
1654.5665736788
 30
0.0
 11
68.7550865198
 21
54.5665736788
 31
0.0
  0
LINE
  5
57
330
1F
100
AcDbEntity
  8
CARTIGLIO
100
AcDbLine
 10
1604.7550865198
 20
74.5665736788
 30
0.0
 11
2344.7550865198
 21
74.5665736788
 31
0.0
  0
LINE
  5
58
330
1F
100
AcDbEntity
  8
RIQUADRO
100
AcDbLine
 10
2324.7550865198
 20
1654.5665736788
 30
0.0
 11
2324.7550865198
 21
54.5665736788
 31
0.0
  0
LINE
  5
59
330
1F
100
AcDbEntity
  8
RIQUADRO
100
AcDbLine
 10
48.7550865198
 20
1634.5665736788
 30
0.0
 11
2344.7550865198
 21
1634.5665736788
 31
0.0
  0
LINE
  5
5A
330
1F
100
AcDbEntity
  8
RIQUADRO
100
AcDbLine
 10
1944.1337469384
 20
159.5190596622
 30
0.0
 11
1944.1337469384
 21
93.5190596622
 31
0.0
  0
LINE
  5
5B
330
1F
100
AcDbEntity
  8
CARTIGLIO
100
AcDbLine
 10
2323.9483705266
 20
313.5190596622
 30
0.0
 11
1603.9483705266
 21
313.5190596622
 31
0.0
  0
LINE
  5
5C
330
1F
100
AcDbEntity
  8
CARTIGLIO
100
AcDbLine
 10
1603.9483705266
 20
313.5190596622
 30
0.0
 11
1603.9483705266
 21
73.5190596622
 31
0.0
  0
LINE
  5
5D
330
1F
100
AcDbEntity
  8
CARTIGLIO
100
AcDbLine
 10
2323.9483705266
 20
245.5190596622
 30
0.0
 11
1603.9483705266
 21
245.5190596622
 31
0.0
  0
LINE
  5
5E
330
1F
100
AcDbEntity
  8
CARTIGLIO
100
AcDbLine
 10
2323.9483705266
 20
93.5190596622
 30
0.0
 11
1603.9483705266
 21
93.5190596622
 31
0.0
  0
LINE
  5
5F
330
1F
100
AcDbEntity
  8
CARTIGLIO
100
AcDbLine
 10
2323.9483705266
 20
115.5190596622
 30
0.0
 11
2043.8452346173
 21
115.5190596622
 31
0.0
  0
LINE
  5
60
330
1F
100
AcDbEntity
  8
CARTIGLIO
100
AcDbLine
 10
2043.8452346173
 20
313.5190596622
 30
0.0
 11
2043.8452346173
 21
93.5190596622
 31
0.0
  0
LINE
  5
61
330
1F
100
AcDbEntity
  8
CARTIGLIO
100
AcDbLine
 10
2323.9483705266
 20
177.5190596622
 30
0.0
 11
1603.9483705266
 21
177.5190596622
 31
0.0
  0
LINE
  5
62
330
1F
100
AcDbEntity
  8
CARTIGLIO
100
AcDbLine
 10
2285.1470348002
 20
177.5190596622
 30
0.0
 11
2285.1470348002
 21
115.5190596622
 31
0.0
  0
LINE
  5
63
330
1F
100
AcDbEntity
  8
RIQUADRO
100
AcDbLine
 10
1948.7869496967
 20
313.5190596622
 30
0.0
 11
1948.7869496967
 21
245.5190596622
 31
0.0
  0
LINE
  5
64
330
1F
100
AcDbEntity
  8
CARTIGLIO
100
AcDbLine
 10
2323.9483705266
 20
313.5190596622
 30
0.0
 11
2323.9483705266
 21
73.5190596622
 31
0.0
  0
LINE
  5
65
330
1F
100
AcDbEntity
  8
PROIEZ
  6
CENTERX2
100
AcDbLine
 10
1996.3871795783
 20
278.6905370813
 30
0.0
 11
2041.9242271821
 21
278.6905370813
 31
0.0
  0
LINE
  5
66
330
1F
100
AcDbEntity
  8
PROIEZ
  6
CENTERX2
100
AcDbLine
 10
2019.1557033802
 20
301.4590608832
 30
0.0
 11
2019.1557033802
 21
255.9220132794
 31
0.0
  0
LINE
  5
67
330
1F
100
AcDbEntity
  8
CONTORNO
  6
CONTINUOUS
 62
     7
100
AcDbLine
 10
28.7550865198
 20
34.5665736788
 30
0.0
 11
28.7550865198
 21
74.5665736788
 31
0.0
  0
LINE
  5
68
330
1F
100
AcDbEntity
  8
CONTORNO
  6
CONTINUOUS
 62
     7
100
AcDbLine
 10
28.7550865198
 20
34.5665736788
 30
0.0
 11
68.7550865198
 21
34.5665736788
 31
0.0
  0
LINE
  5
69
330
1F
100
AcDbEntity
  8
PROIEZ
  6
CONTINUOUS
 62
    16
100
AcDbLine
 10
1983.007716425
 20
261.9036270951
 30
0.0
 11
1983.007716425
 21
295.4774470675
 31
0.0
  0
LINE
  5
6A
330
1F
100
AcDbEntity
  8
PROIEZ
  6
CENTERX2
100
AcDbLine
 10
1988.3190766765
 20
278.6905370813
 30
0.0
 11
1955.007716425
 21
278.6905370813
 31
0.0
  0
LINE
  5
6B
330
1F
100
AcDbEntity
  8
PROIEZ
  6
CONTINUOUS
 62
    16
100
AcDbLine
 10
1955.007716425
 20
269.9036270951
 30
0.0
 11
1955.007716425
 21
287.4774470675
 31
0.0
  0
LINE
  5
6C
330
1F
100
AcDbEntity
  8
PROIEZ
100
AcDbLine
 10
1955.007716425
 20
269.9036270951
 30
0.0
 11
1983.007716425
 21
261.9036270951
 31
0.0
  0
LINE
  5
6D
330
1F
100
AcDbEntity
  8
PROIEZ
  6
CONTINUOUS
 62
    16
100
AcDbLine
 10
1955.007716425
 20
287.4774470675
 30
0.0
 11
1983.007716425
 21
295.4774470675
 31
0.0
  0
LINE
  5
6E
330
1F
100
AcDbEntity
  8
CARTIGLIO
100
AcDbLine
 10
2043.8452346173
 20
283.3230958161
 30
0.0
 11
2323.9483705266
 21
283.3230958161
 31
0.0
  0
LINE
  5
6F
330
1F
100
AcDbEntity
  8
CARTIGLIO
100
AcDbLine
 10
1948.7869496967
 20
279.5190596622
 30
0.0
 11
1603.9483705266
 21
279.5190596622
 31
0.0
  0
LINE
  5
70
330
1F
100
AcDbEntity
  8
CARTIGLIO
100
AcDbLine
 10
1907.9483705266
 20
245.5190596622
 30
0.0
 11
1907.9483705266
 21
177.5190596622
 31
0.0
  0
LINE
  5
71
330
1F
100
AcDbEntity
  8
CARTIGLIO
100
AcDbLine
 10
1907.9483705266
 20
211.5190596622
 30
0.0
 11
2043.8452346173
 21
211.5190596622
 31
0.0
  0
LINE
  5
72
330
1F
100
AcDbEntity
  8
CARTIGLIO
100
AcDbLine
 10
1992.375179217
 20
245.5190596622
 30
0.0
 11
1992.375179217
 21
177.5190596622
 31
0.0
  0
LINE
  5
73
330
1F
100
AcDbEntity
  8
CARTIGLIO
100
AcDbLine
 10
1907.9483705266
 20
217.5190596622
 30
0.0
 11
1603.9483705266
 21
217.5190596622
 31
0.0
  0
LINE
  5
74
330
1F
100
AcDbEntity
  8
CARTIGLIO
100
AcDbLine
 10
1907.9483705266
 20
193.5190596622
 30
0.0
 11
1603.9483705266
 21
193.5190596622
 31
0.0
  0
LINE
  5
75
330
1F
100
AcDbEntity
  8
CARTIGLIO
100
AcDbLine
 10
1641.9483705266
 20
217.5190596622
 30
0.0
 11
1641.9483705266
 21
177.5190596622
 31
0.0
  0
LINE
  5
76
330
1F
100
AcDbEntity
  8
CARTIGLIO
100
AcDbLine
 10
1679.9483705266
 20
217.5190596622
 30
0.0
 11
1679.9483705266
 21
177.5190596622
 31
0.0
  0
LINE
  5
77
330
1F
100
AcDbEntity
  8
CARTIGLIO
100
AcDbLine
 10
1717.9483705266
 20
217.5190596622
 30
0.0
 11
1717.9483705266
 21
177.5190596622
 31
0.0
  0
LINE
  5
78
330
1F
100
AcDbEntity
  8
CARTIGLIO
100
AcDbLine
 10
1755.9483705266
 20
217.5190596622
 30
0.0
 11
1755.9483705266
 21
177.5190596622
 31
0.0
  0
LINE
  5
79
330
1F
100
AcDbEntity
  8
CARTIGLIO
100
AcDbLine
 10
1793.9483705266
 20
217.5190596622
 30
0.0
 11
1793.9483705266
 21
177.5190596622
 31
0.0
  0
LINE
  5
7A
330
1F
100
AcDbEntity
  8
CARTIGLIO
100
AcDbLine
 10
1831.9483705266
 20
217.5190596622
 30
0.0
 11
1831.9483705266
 21
177.5190596622
 31
0.0
  0
LINE
  5
7B
330
1F
100
AcDbEntity
  8
CARTIGLIO
100
AcDbLine
 10
1869.9483705266
 20
217.5190596622
 30
0.0
 11
1869.9483705266
 21
93.5190596622
 31
0.0
  0
LINE
  5
7C
330
1F
100
AcDbEntity
  8
CARTIGLIO
100
AcDbLine
 10
1603.9483705266
 20
231.5190596622
 30
0.0
 11
1907.9483705266
 21
231.5190596622
 31
0.0
  0
LINE
  5
7D
330
1F
100
AcDbEntity
  8
CARTIGLIO
100
AcDbLine
 10
1843.8946512451
 20
245.5190596622
 30
0.0
 11
1843.8946512451
 21
217.5190596622
 31
0.0
  0
LINE
  5
7E
330
1F
100
AcDbEntity
  8
CARTIGLIO
100
AcDbLine
 10
1879.0472339401
 20
245.5190596622
 30
0.0
 11
1879.0472339401
 21
217.5190596622
 31
0.0
  0
LINE
  5
7F
330
1F
100
AcDbEntity
  8
CARTIGLIO
100
AcDbLine
 10
2043.8452346173
 20
115.5190596622
 30
0.0
 11
1809.8556101975
 21
115.5190596622
 31
0.0
  0
LINE
  5
80
330
1F
100
AcDbEntity
  8
CARTIGLIO
100
AcDbLine
 10
2043.8452346173
 20
137.5190596622
 30
0.0
 11
1809.8556101975
 21
137.5190596622
 31
0.0
  0
LINE
  5
81
330
1F
100
AcDbEntity
  8
CARTIGLIO
100
AcDbLine
 10
2043.8452346173
 20
159.5190596622
 30
0.0
 11
1809.8556101975
 21
159.5190596622
 31
0.0
  0
LINE
  5
82
330
1F
100
AcDbEntity
  8
CARTIGLIO
100
AcDbLine
 10
2209.6889842996
 20
283.3230958161
 30
0.0
 11
2209.6889842996
 21
313.5190596622
 31
0.0
  0
LINE
  5
83
330
1F
100
AcDbEntity
  8
RIQUADRO
100
AcDbLine
 10
1196.7550865198
 20
74.5665736788
 30
0.0
 11
1196.7550865198
 21
94.5665736788
 31
0.0
  0
LINE
  5
84
330
1F
100
AcDbEntity
  8
CONTORNO
100
AcDbLine
 10
996.7550865198
 20
74.5665736788
 30
0.0
 11
996.7550865198
 21
54.5665736788
 31
0.0
  0
LINE
  5
85
330
1F
100
AcDbEntity
  8
CONTORNO
100
AcDbLine
 10
996.7550865198
 20
54.5665736788
 30
0.0
 11
1396.7550865198
 21
54.5665736788
 31
0.0
  0
LINE
  5
86
330
1F
100
AcDbEntity
  8
CONTORNO
100
AcDbLine
 10
1396.7550865198
 20
54.5665736788
 30
0.0
 11
1396.7550865198
 21
74.5665736788
 31
0.0
  0
LINE
  5
87
330
1F
100
AcDbEntity
  8
CONTORNO
  6
CONTINUOUS
 62
     7
100
AcDbLine
 10
28.7550865198
 20
1674.5665736788
 30
0.0
 11
68.7550865198
 21
1674.5665736788
 31
0.0
  0
LINE
  5
88
330
1F
100
AcDbEntity
  8
RIQUADRO
100
AcDbLine
 10
68.7550865198
 20
1049.5665736788
 30
0.0
 11
48.7550865198
 21
1049.5665736788
 31
0.0
  0
LINE
  5
89
330
1F
100
AcDbEntity
  8
TABELLA_REV
100
AcDbLine
 10
2324.7550865198
 20
1550.5665736788
 30
0.0
 11
1604.7550865198
 21
1550.5665736788
 31
0.0
  0
LINE
  5
8A
330
1F
100
AcDbEntity
  8
CONTORNO
  6
CONTINUOUS
 62
     7
100
AcDbLine
 10
28.7550865198
 20
1674.5665736788
 30
0.0
 11
28.7550865198
 21
1634.5665736788
 31
0.0
  0
LINE
  5
8B
330
1F
100
AcDbEntity
  8
CONTORNO
100
AcDbLine
 10
68.7550865198
 20
1634.5665736788
 30
0.0
 11
2324.7550865198
 21
1634.5665736788
 31
0.0
  0
LINE
  5
8C
330
1F
100
AcDbEntity
  8
RIQUADRO
100
AcDbLine
 10
68.7550865198
 20
854.5665736788
 30
0.0
 11
48.7550865198
 21
854.5665736788
 31
0.0
  0
LINE
  5
8D
330
1F
100
AcDbEntity
  8
RIQUADRO
100
AcDbLine
 10
68.7550865198
 20
1244.5665736788
 30
0.0
 11
48.7550865198
 21
1244.5665736788
 31
0.0
  0
LINE
  5
8E
330
1F
100
AcDbEntity
  8
RIQUADRO
100
AcDbLine
 10
2324.7550865198
 20
854.5665736788
 30
0.0
 11
2344.7550865198
 21
854.5665736788
 31
0.0
  0
LINE
  5
8F
330
1F
100
AcDbEntity
  8
CONTORNO
100
AcDbLine
 10
2324.7550865198
 20
1634.5665736788
 30
0.0
 11
2324.7550865198
 21
74.5665736788
 31
0.0
  0
LINE
  5
90
330
1F
100
AcDbEntity
  8
CONTORNO
100
AcDbLine
 10
2324.7550865198
 20
74.5665736788
 30
0.0
 11
68.7550865198
 21
74.5665736788
 31
0.0
  0
LINE
  5
91
330
1F
100
AcDbEntity
  8
CONTORNO
100
AcDbLine
 10
68.7550865198
 20
74.5665736788
 30
0.0
 11
68.7550865198
 21
1634.5665736788
 31
0.0
  0
LINE
  5
92
330
1F
100
AcDbEntity
  8
RIQUADRO
100
AcDbLine
 10
1196.7550865198
 20
1654.5665736788
 30
0.0
 11
1196.7550865198
 21
1634.5665736788
 31
0.0
  0
LINE
  5
93
330
1F
100
AcDbEntity
  8
RIQUADRO
100
AcDbLine
 10
1196.7550865198
 20
1634.5665736788
 30
0.0
 11
1196.7550865198
 21
1614.5665736788
 31
0.0
  0
LINE
  5
94
330
1F
100
AcDbEntity
  8
CONTORNO
100
AcDbLine
 10
1196.7550865198
 20
74.5665736788
 30
0.0
 11
1196.7550865198
 21
54.5665736788
 31
0.0
  0
LINE
  5
95
330
1F
100
AcDbEntity
  8
RIQUADRO
100
AcDbLine
 10
68.7550865198
 20
1439.5665736788
 30
0.0
 11
48.7550865198
 21
1439.5665736788
 31
0.0
  0
LINE
  5
96
330
1F
100
AcDbEntity
  8
TABELLA_REV
100
AcDbLine
 10
1604.7550865198
 20
1550.5665736788
 30
0.0
 11
1604.7550865198
 21
1634.5665736788
 31
0.0
  0
LINE
  5
97
330
1F
100
AcDbEntity
  8
TABELLA_REV
100
AcDbLine
 10
2324.7550865198
 20
1572.5665736788
 30
0.0
 11
1604.7550865198
 21
1572.5665736788
 31
0.0
  0
LINE
  5
98
330
1F
100
AcDbEntity
  8
TABELLA_REV
100
AcDbLine
 10
2324.7550865198
 20
1594.5665736788
 30
0.0
 11
1604.7550865198
 21
1594.5665736788
 31
0.0
  0
LINE
  5
99
330
1F
100
AcDbEntity
  8
TABELLA_REV
100
AcDbLine
 10
2324.7550865198
 20
1616.5665736788
 30
0.0
 11
1604.7550865198
 21
1616.5665736788
 31
0.0
  0
LINE
  5
9A
330
1F
100
AcDbEntity
  8
TABELLA_REV
100
AcDbLine
 10
1668.7550865198
 20
1634.5665736788
 30
0.0
 11
1668.7550865198
 21
1550.5665736788
 31
0.0
  0
LINE
  5
9B
330
1F
100
AcDbEntity
  8
TABELLA_REV
100
AcDbLine
 10
2112.7550865198
 20
1634.5665736788
 30
0.0
 11
2112.7550865198
 21
1550.5665736788
 31
0.0
  0
LINE
  5
9C
330
1F
100
AcDbEntity
  8
TABELLA_REV
100
AcDbLine
 10
2204.7550865198
 20
1634.5665736788
 30
0.0
 11
2204.7550865198
 21
1550.5665736788
 31
0.0
  0
LINE
  5
9D
330
1F
100
AcDbEntity
  8
RIQUADRO
100
AcDbLine
 10
68.7550865198
 20
659.5665736788
 30
0.0
 11
48.7550865198
 21
659.5665736788
 31
0.0
  0
LINE
  5
9E
330
1F
100
AcDbEntity
  8
RIQUADRO
100
AcDbLine
 10
68.7550865198
 20
464.5665736788
 30
0.0
 11
48.7550865198
 21
464.5665736788
 31
0.0
  0
LINE
  5
9F
330
1F
100
AcDbEntity
  8
RIQUADRO
100
AcDbLine
 10
68.7550865198
 20
269.5665736788
 30
0.0
 11
48.7550865198
 21
269.5665736788
 31
0.0
  0
LINE
  5
A0
330
1F
100
AcDbEntity
  8
RIQUADRO
100
AcDbLine
 10
48.7550865198
 20
74.5665736788
 30
0.0
 11
2344.7550865198
 21
74.5665736788
 31
0.0
  0
LINE
  5
A1
330
1F
100
AcDbEntity
  8
RIQUADRO
100
AcDbLine
 10
2324.7550865198
 20
1049.5665736788
 30
0.0
 11
2344.7550865198
 21
1049.5665736788
 31
0.0
  0
LINE
  5
A2
330
1F
100
AcDbEntity
  8
RIQUADRO
100
AcDbLine
 10
1196.7550865198
 20
94.5665736788
 30
0.0
 11
1196.7550865198
 21
54.5665736788
 31
0.0
  0
LINE
  5
A3
330
1F
100
AcDbEntity
  8
RIQUADRO
100
AcDbLine
 10
2324.7550865198
 20
1244.5665736788
 30
0.0
 11
2344.7550865198
 21
1244.5665736788
 31
0.0
  0
LINE
  5
A4
330
1F
100
AcDbEntity
  8
RIQUADRO
100
AcDbLine
 10
2324.7550865198
 20
1439.5665736788
 30
0.0
 11
2344.7550865198
 21
1439.5665736788
 31
0.0
  0
LINE
  5
A5
330
1F
100
AcDbEntity
  8
RIQUADRO
100
AcDbLine
 10
2324.7550865198
 20
659.5665736788
 30
0.0
 11
2344.7550865198
 21
659.5665736788
 31
0.0
  0
LINE
  5
A6
330
1F
100
AcDbEntity
  8
RIQUADRO
100
AcDbLine
 10
2324.7550865198
 20
464.5665736788
 30
0.0
 11
2344.7550865198
 21
464.5665736788
 31
0.0
  0
LINE
  5
A7
330
1F
100
AcDbEntity
  8
RIQUADRO
100
AcDbLine
 10
2324.7550865198
 20
269.5665736788
 30
0.0
 11
2344.7550865198
 21
269.5665736788
 31
0.0
  0
LINE
  5
A8
330
1F
100
AcDbEntity
  8
RIQUADRO
100
AcDbLine
 10
1478.7550865198
 20
74.5665736788
 30
0.0
 11
1478.7550865198
 21
54.5665736788
 31
0.0
  0
LINE
  5
A9
330
1F
100
AcDbEntity
  8
RIQUADRO
100
AcDbLine
 10
1760.7550865198
 20
74.5665736788
 30
0.0
 11
1760.7550865198
 21
54.5665736788
 31
0.0
  0
LINE
  5
AA
330
1F
100
AcDbEntity
  8
RIQUADRO
100
AcDbLine
 10
2042.7550865198
 20
74.5665736788
 30
0.0
 11
2042.7550865198
 21
54.5665736788
 31
0.0
  0
LINE
  5
AB
330
1F
100
AcDbEntity
  8
RIQUADRO
100
AcDbLine
 10
914.7550865198
 20
74.5665736788
 30
0.0
 11
914.7550865198
 21
54.5665736788
 31
0.0
  0
LINE
  5
AC
330
1F
100
AcDbEntity
  8
RIQUADRO
100
AcDbLine
 10
632.7550865198
 20
74.5665736788
 30
0.0
 11
632.7550865198
 21
54.5665736788
 31
0.0
  0
LINE
  5
AD
330
1F
100
AcDbEntity
  8
RIQUADRO
100
AcDbLine
 10
350.7550865198
 20
74.5665736788
 30
0.0
 11
350.7550865198
 21
54.5665736788
 31
0.0
  0
LINE
  5
AE
330
1F
100
AcDbEntity
  8
CONTORNO
100
AcDbLine
 10
1236.7550865198
 20
74.5665736788
 30
0.0
 11
1236.7550865198
 21
54.5665736788
 31
0.0
  0
LINE
  5
AF
330
1F
100
AcDbEntity
  8
CONTORNO
100
AcDbLine
 10
1276.7550865198
 20
74.5665736788
 30
0.0
 11
1276.7550865198
 21
54.5665736788
 31
0.0
  0
LINE
  5
B0
330
1F
100
AcDbEntity
  8
CONTORNO
100
AcDbLine
 10
1316.7550865198
 20
74.5665736788
 30
0.0
 11
1316.7550865198
 21
54.5665736788
 31
0.0
  0
LINE
  5
B1
330
1F
100
AcDbEntity
  8
CONTORNO
100
AcDbLine
 10
1356.7550865198
 20
74.5665736788
 30
0.0
 11
1356.7550865198
 21
54.5665736788
 31
0.0
  0
LINE
  5
B2
330
1F
100
AcDbEntity
  8
RIQUADRO
100
AcDbLine
 10
1396.7550865198
 20
74.5665736788
 30
0.0
 11
1396.7550865198
 21
54.5665736788
 31
0.0
  0
LINE
  5
B3
330
1F
100
AcDbEntity
  8
CONTORNO
100
AcDbLine
 10
1156.7550865198
 20
74.5665736788
 30
0.0
 11
1156.7550865198
 21
54.5665736788
 31
0.0
  0
LINE
  5
B4
330
1F
100
AcDbEntity
  8
CONTORNO
100
AcDbLine
 10
1116.7550865198
 20
74.5665736788
 30
0.0
 11
1116.7550865198
 21
54.5665736788
 31
0.0
  0
LINE
  5
B5
330
1F
100
AcDbEntity
  8
CONTORNO
100
AcDbLine
 10
1076.7550865198
 20
74.5665736788
 30
0.0
 11
1076.7550865198
 21
54.5665736788
 31
0.0
  0
LINE
  5
B6
330
1F
100
AcDbEntity
  8
CONTORNO
100
AcDbLine
 10
1036.7550865198
 20
74.5665736788
 30
0.0
 11
1036.7550865198
 21
54.5665736788
 31
0.0
  0
LINE
  5
B7
330
1F
100
AcDbEntity
  8
RIQUADRO
100
AcDbLine
 10
996.7550865198
 20
74.5665736788
 30
0.0
 11
996.7550865198
 21
54.5665736788
 31
0.0
  0
LINE
  5
B8
330
1F
100
AcDbEntity
  8
RIQUADRO
100
AcDbLine
 10
1478.7550865198
 20
1654.5665736788
 30
0.0
 11
1478.7550865198
 21
1634.5665736788
 31
0.0
  0
LINE
  5
B9
330
1F
100
AcDbEntity
  8
RIQUADRO
100
AcDbLine
 10
1760.7550865198
 20
1654.5665736788
 30
0.0
 11
1760.7550865198
 21
1634.5665736788
 31
0.0
  0
LINE
  5
BA
330
1F
100
AcDbEntity
  8
RIQUADRO
100
AcDbLine
 10
2042.7550865198
 20
1654.5665736788
 30
0.0
 11
2042.7550865198
 21
1634.5665736788
 31
0.0
  0
LINE
  5
BB
330
1F
100
AcDbEntity
  8
RIQUADRO
100
AcDbLine
 10
914.7550865198
 20
1654.5665736788
 30
0.0
 11
914.7550865198
 21
1634.5665736788
 31
0.0
  0
LINE
  5
BC
330
1F
100
AcDbEntity
  8
RIQUADRO
100
AcDbLine
 10
632.7550865198
 20
1654.5665736788
 30
0.0
 11
632.7550865198
 21
1634.5665736788
 31
0.0
  0
LINE
  5
BD
330
1F
100
AcDbEntity
  8
RIQUADRO
100
AcDbLine
 10
350.7550865198
 20
1654.5665736788
 30
0.0
 11
350.7550865198
 21
1634.5665736788
 31
0.0
  0
CIRCLE
  5
BE
330
1F
100
AcDbEntity
  8
PROIEZ
100
AcDbCircle
 10
2019.1557033802
 20
278.6905370813
 30
0.0
 40
15.99999999999996
  0
CIRCLE
  5
BF
330
1F
100
AcDbEntity
  8
PROIEZ
100
AcDbCircle
 10
2019.1557033802
 20
278.6905370813
 30
0.0
 40
7.99999999999998
  0
CIRCLE
  5
C0
330
1F
100
AcDbEntity
  8
RIQUADRO
100
AcDbCircle
 10
48.7550865198
 20
54.5665736788
 30
0.0
 40
6.000000000000099
  0
MTEXT
  5
C2
330
1F
100
AcDbEntity
  8
CARTIGLIO
100
AcDbMText
 10
2258.280543294
 20
305.7158491159
 30
0.0
 40
14.0
 41
0.0
 71
     1
 72
     1
  1
1:4
  7
SLDTEXTSTYLE0
  0
MTEXT
  5
C3
330
1F
100
AcDbEntity
  8
CARTIGLIO
100
AcDbMText
 10
2102.2403997925
 20
151.6022268087
 30
0.0
 40
18.0
 41
0.0
 71
     1
 72
     1
  1
13731-0-D
  7
SLDTEXTSTYLE0
  0
MTEXT
  5
C4
330
1F
100
AcDbEntity
  8
CARTIGLIO
100
AcDbMText
 10
1956.4198188451
 20
154.7135048326
 30
0.0
 40
12.0
 41
0.0
 71
     1
 72
     1
  1
A.Vismara
  7
SLDTEXTSTYLE0
  0
MTEXT
  5
C5
330
1F
100
AcDbEntity
  8
CARTIGLIO
100
AcDbMText
 10
1955.4781482874
 20
133.2674116513
 30
0.0
 40
12.0
 41
0.0
 71
     1
 72
     1
  1
A.Vismara
  7
SLDTEXTSTYLE0
  0
MTEXT
  5
C6
330
1F
100
AcDbEntity
  8
CARTIGLIO
100
AcDbMText
 10
1903.442283312
 20
113.0072332496
 30
0.0
 40
12.0
 41
0.0
 71
     1
 72
     1
  1
x
  7
SLDTEXTSTYLE0
  0
MTEXT
  5
C7
330
1F
100
AcDbEntity
  8
TABELLA_REV
100
AcDbMText
 10
2212.1017455074
 20
1613.9751031442
 30
0.0
 40
12.0
 41
0.0
 71
     1
 72
     1
  1
A.Vismara
  7
SLDTEXTSTYLE0
  0
MTEXT
  5
C8
330
1F
100
AcDbEntity
  8
CARTIGLIO
100
AcDbMText
 10
1950.4668474696
 20
111.7307260176
 30
0.0
 40
12.0
 41
0.0
 71
     1
 72
     1
  1
C.Sedazzari
  7
SLDTEXTSTYLE0
  0
MTEXT
  5
C9
330
1F
100
AcDbEntity
  8
RIQUADRO
100
AcDbMText
 10
1052.2920538569
 20
1652.1560129251
 30
0.0
 40
14.0
 41
0.0
 71
     1
 72
     1
  1
4
  7
SLDTEXTSTYLE0
  0
MTEXT
  5
CA
330
1F
100
AcDbEntity
  8
RIQUADRO
100
AcDbMText
 10
2329.2856526063
 20
764.6833046202
 30
0.0
 40
14.0
 41
0.0
 71
     1
 72
     1
  1
D
  7
SLDTEXTSTYLE0
  0
MTEXT
  5
CB
330
1F
100
AcDbEntity
  8
RIQUADRO
100
AcDbMText
 10
2327.8887604408
 20
576.0585308352
 30
0.0
 40
14.0
 41
0.0
 71
     1
 72
     1
  1
C
  7
SLDTEXTSTYLE0
  0
MTEXT
  5
CC
330
1F
100
AcDbEntity
  8
RIQUADRO
100
AcDbMText
 10
2330.3564056241
 20
379.0189181535
 30
0.0
 40
14.0
 41
0.0
 71
     1
 72
     1
  1
B
  7
SLDTEXTSTYLE0
  0
MTEXT
  5
CD
330
1F
100
AcDbEntity
  8
RIQUADRO
100
AcDbMText
 10
2328.0577233225
 20
173.871505921
 30
0.0
 40
14.0
 41
0.0
 71
     1
 72
     1
  1
A
  7
SLDTEXTSTYLE0
  0
MTEXT
  5
CE
330
1F
100
AcDbEntity
  8
TABELLA_REV
100
AcDbMText
 10
1854.0945422115
 20
1628.6933099239
 30
0.0
 40
8.0
 41
0.0
 71
     1
 72
     1
  1
Description
  7
SLDTEXTSTYLE0
  0
MTEXT
  5
CF
330
1F
100
AcDbEntity
  8
TABELLA_REV
100
AcDbMText
 10
2141.5138027002
 20
1629.8857114138
 30
0.0
 40
8.0
 41
0.0
 71
     1
 72
     1
  1
Date
  7
SLDTEXTSTYLE0
  0
MTEXT
  5
D0
330
1F
100
AcDbEntity
  8
TABELLA_REV
100
AcDbMText
 10
2243.5830881226
 20
1629.9396678531
 30
0.0
 40
8.0
 41
0.0
 71
     1
 72
     1
  1
Name
  7
SLDTEXTSTYLE0
  0
MTEXT
  5
D1
330
1F
100
AcDbEntity
  8
TABELLA_REV
100
AcDbMText
 10
1610.9603108204
 20
1629.7747271971
 30
0.0
 40
8.0
 41
0.0
 71
     1
 72
     1
  1
Rev No.
  7
SLDTEXTSTYLE0
  0
MTEXT
  5
D2
330
1F
100
AcDbEntity
  8
RIQUADRO
100
AcDbMText
 10
1388.1686938769
 20
50.4206687718
 30
0.0
 40
10.0
 41
0.0
 71
     1
 72
     1
  1
10
  7
SLDTEXTSTYLE0
  0
MTEXT
  5
D3
330
1F
100
AcDbEntity
  8
RIQUADRO
100
AcDbMText
 10
1348.4954955786
 20
50.4206687718
 30
0.0
 40
10.0
 41
0.0
 71
     1
 72
     1
  1
9
  7
SLDTEXTSTYLE0
  0
MTEXT
  5
D4
330
1F
100
AcDbEntity
  8
RIQUADRO
100
AcDbMText
 10
1307.8940343677
 20
50.1107219101
 30
0.0
 40
10.0
 41
0.0
 71
     1
 72
     1
  1
8
  7
SLDTEXTSTYLE0
  0
MTEXT
  5
D5
330
1F
100
AcDbEntity
  8
RIQUADRO
100
AcDbMText
 10
1268.5292052587
 20
50.1107219101
 30
0.0
 40
10.0
 41
0.0
 71
     1
 72
     1
  1
7
  7
SLDTEXTSTYLE0
  0
MTEXT
  5
D6
330
1F
100
AcDbEntity
  8
RIQUADRO
100
AcDbMText
 10
1228.6732054956
 20
50.2656953409
 30
0.0
 40
10.0
 41
0.0
 71
     1
 72
     1
  1
6
  7
SLDTEXTSTYLE0
  0
MTEXT
  5
D7
330
1F
100
AcDbEntity
  8
RIQUADRO
100
AcDbMText
 10
1188.407941508
 20
50.4206687718
 30
0.0
 40
10.0
 41
0.0
 71
     1
 72
     1
  1
5
  7
SLDTEXTSTYLE0
  0
MTEXT
  5
D8
330
1F
100
AcDbEntity
  8
RIQUADRO
100
AcDbMText
 10
1147.9666205268
 20
50.2934737695
 30
0.0
 40
10.0
 41
0.0
 71
     1
 72
     1
  1
4
  7
SLDTEXTSTYLE0
  0
MTEXT
  5
D9
330
1F
100
AcDbEntity
  8
RIQUADRO
100
AcDbMText
 10
1108.0646295192
 20
49.9930757005
 30
0.0
 40
10.0
 41
0.0
 71
     1
 72
     1
  1
3
  7
SLDTEXTSTYLE0
  0
MTEXT
  5
DA
330
1F
100
AcDbEntity
  8
RIQUADRO
100
AcDbMText
 10
1067.5641095249
 20
49.7159743342
 30
0.0
 40
10.0
 41
0.0
 71
     1
 72
     1
  1
2
  7
SLDTEXTSTYLE0
  0
MTEXT
  5
DB
330
1F
100
AcDbEntity
  8
RIQUADRO
100
AcDbMText
 10
1028.7449479236
 20
49.5719606245
 30
0.0
 40
10.0
 41
0.0
 71
     1
 72
     1
  1
1
  7
SLDTEXTSTYLE0
  0
MTEXT
  5
DC
330
1F
100
AcDbEntity
  8
RIQUADRO
100
AcDbMText
 10
989.7069102531
 20
49.7219669868
 30
0.0
 40
10.0
 41
0.0
 71
     1
 72
     1
  1
0
  7
SLDTEXTSTYLE0
  0
MTEXT
  5
DD
330
1F
100
AcDbEntity
  8
RIQUADRO
100
AcDbMText
 10
1343.4101749842
 20
1651.6764847123
 30
0.0
 40
14.0
 41
0.0
 71
     1
 72
     1
  1
5
  7
SLDTEXTSTYLE0
  0
MTEXT
  5
DE
330
1F
100
AcDbEntity
  8
RIQUADRO
100
AcDbMText
 10
767.7113737239
 20
73.3576428184
 30
0.0
 40
14.0
 41
0.0
 71
     1
 72
     1
  1
3
  7
SLDTEXTSTYLE0
  0
MTEXT
  5
DF
330
1F
100
AcDbEntity
  8
RIQUADRO
100
AcDbMText
 10
486.845368026
 20
73.0501331613
 30
0.0
 40
14.0
 41
0.0
 71
     1
 72
     1
  1
2
  7
SLDTEXTSTYLE0
  0
MTEXT
  5
E0
330
1F
100
AcDbEntity
  8
RIQUADRO
100
AcDbMText
 10
200.6231321971
 20
72.8766057525
 30
0.0
 40
14.0
 41
0.0
 71
     1
 72
     1
  1
1
  7
SLDTEXTSTYLE0
  0
MTEXT
  5
E1
330
1F
100
AcDbEntity
  8
RIQUADRO
100
AcDbMText
 10
2182.9987206036
 20
73.5210319929
 30
0.0
 40
14.0
 41
0.0
 71
     1
 72
     1
  1
8
  7
SLDTEXTSTYLE0
  0
MTEXT
  5
E2
330
1F
100
AcDbEntity
  8
RIQUADRO
100
AcDbMText
 10
1888.8581715404
 20
73.7490044398
 30
0.0
 40
14.0
 41
0.0
 71
     1
 72
     1
  1
7
  7
SLDTEXTSTYLE0
  0
MTEXT
  5
E3
330
1F
100
AcDbEntity
  8
RIQUADRO
100
AcDbMText
 10
1601.4842543544
 20
73.2706541708
 30
0.0
 40
14.0
 41
0.0
 71
     1
 72
     1
  1
6
  7
SLDTEXTSTYLE0
  0
MTEXT
  5
E4
330
1F
100
AcDbEntity
  8
RIQUADRO
100
AcDbMText
 10
2328.8133613085
 20
967.9745360381
 30
0.0
 40
14.0
 41
0.0
 71
     1
 72
     1
  1
E
  7
SLDTEXTSTYLE0
  0
MTEXT
  5
E5
330
1F
100
AcDbEntity
  8
RIQUADRO
100
AcDbMText
 10
2328.2705655355
 20
1160.2519701078
 30
0.0
 40
14.0
 41
0.0
 71
     1
 72
     1
  1
F
  7
SLDTEXTSTYLE0
  0
MTEXT
  5
E6
330
1F
100
AcDbEntity
  8
RIQUADRO
100
AcDbMText
 10
2328.8133613085
 20
1353.9023305963
 30
0.0
 40
14.0
 41
0.0
 71
     1
 72
     1
  1
G
  7
SLDTEXTSTYLE0
  0
MTEXT
  5
E7
330
1F
100
AcDbEntity
  8
RIQUADRO
100
AcDbMText
 10
2327.7277697626
 20
1552.0227877183
 30
0.0
 40
14.0
 41
0.0
 71
     1
 72
     1
  1
H
  7
SLDTEXTSTYLE0
  0
MTEXT
  5
E8
330
1F
100
AcDbEntity
  8
RIQUADRO
100
AcDbMText
 10
50.7690595536
 20
170.1033072954
 30
0.0
 40
14.0
 41
0.0
 71
     1
 72
     1
  1
A
  7
SLDTEXTSTYLE0
  0
MTEXT
  5
E9
330
1F
100
AcDbEntity
  8
RIQUADRO
100
AcDbMText
 10
53.0677418552
 20
375.2507195279
 30
0.0
 40
14.0
 41
0.0
 71
     1
 72
     1
  1
B
  7
SLDTEXTSTYLE0
  0
MTEXT
  5
EA
330
1F
100
AcDbEntity
  8
RIQUADRO
100
AcDbMText
 10
50.6000966719
 20
572.2903322096
 30
0.0
 40
14.0
 41
0.0
 71
     1
 72
     1
  1
C
  7
SLDTEXTSTYLE0
  0
MTEXT
  5
EB
330
1F
100
AcDbEntity
  8
RIQUADRO
100
AcDbMText
 10
51.9969888374
 20
760.9151059946
 30
0.0
 40
14.0
 41
0.0
 71
     1
 72
     1
  1
D
  7
SLDTEXTSTYLE0
  0
MTEXT
  5
EC
330
1F
100
AcDbEntity
  8
RIQUADRO
100
AcDbMText
 10
51.5246975395
 20
964.2063374125
 30
0.0
 40
14.0
 41
0.0
 71
     1
 72
     1
  1
E
  7
SLDTEXTSTYLE0
  0
MTEXT
  5
ED
330
1F
100
AcDbEntity
  8
RIQUADRO
100
AcDbMText
 10
50.9819017666
 20
1156.4837714822
 30
0.0
 40
14.0
 41
0.0
 71
     1
 72
     1
  1
F
  7
SLDTEXTSTYLE0
  0
MTEXT
  5
EE
330
1F
100
AcDbEntity
  8
RIQUADRO
100
AcDbMText
 10
51.5246975395
 20
1350.1341319707
 30
0.0
 40
14.0
 41
0.0
 71
     1
 72
     1
  1
G
  7
SLDTEXTSTYLE0
  0
MTEXT
  5
EF
330
1F
100
AcDbEntity
  8
RIQUADRO
100
AcDbMText
 10
50.4391059937
 20
1548.2545890927
 30
0.0
 40
14.0
 41
0.0
 71
     1
 72
     1
  1
H
  7
SLDTEXTSTYLE0
  0
MTEXT
  5
F0
330
1F
100
AcDbEntity
  8
RIQUADRO
100
AcDbMText
 10
2181.9803464009
 20
1652.2145930272
 30
0.0
 40
14.0
 41
0.0
 71
     1
 72
     1
  1
8
  7
SLDTEXTSTYLE0
  0
MTEXT
  5
F1
330
1F
100
AcDbEntity
  8
RIQUADRO
100
AcDbMText
 10
1887.8397973377
 20
1652.4425654741
 30
0.0
 40
14.0
 41
0.0
 71
     1
 72
     1
  1
7
  7
SLDTEXTSTYLE0
  0
MTEXT
  5
F2
330
1F
100
AcDbEntity
  8
RIQUADRO
100
AcDbMText
 10
1600.4658801518
 20
1651.9642152051
 30
0.0
 40
14.0
 41
0.0
 71
     1
 72
     1
  1
6
  7
SLDTEXTSTYLE0
  0
MTEXT
  5
F3
330
1F
100
AcDbEntity
  8
RIQUADRO
100
AcDbMText
 10
768.0396462253
 20
1653.0258024875
 30
0.0
 40
14.0
 41
0.0
 71
     1
 72
     1
  1
3
  7
SLDTEXTSTYLE0
  0
MTEXT
  5
F4
330
1F
100
AcDbEntity
  8
RIQUADRO
100
AcDbMText
 10
487.1736405275
 20
1652.7182928304
 30
0.0
 40
14.0
 41
0.0
 71
     1
 72
     1
  1
2
  7
SLDTEXTSTYLE0
  0
MTEXT
  5
F5
330
1F
100
AcDbEntity
  8
RIQUADRO
100
AcDbMText
 10
200.9514046985
 20
1652.5447654217
 30
0.0
 40
14.0
 41
0.0
 71
     1
 72
     1
  1
1
  7
SLDTEXTSTYLE0
  0
MTEXT
  5
F7
330
1F
100
AcDbEntity
  8
RIQUADRO
100
AcDbMText
 10
2046.1389605494
 20
309.0232056192
 30
0.0
 40
8.0
 41
0.0
 71
     1
 72
     1
  1
Mass
  7
SLDTEXTSTYLE1
  0
MTEXT
  5
F8
330
1F
100
AcDbEntity
  8
RIQUADRO
100
AcDbMText
 10
2051.2765910179
 20
174.039643508
 30
0.0
 40
8.0
 41
0.0
 71
     1
 72
     1
  1
Drawing No.
  7
SLDTEXTSTYLE1
  0
MTEXT
  5
F9
330
1F
100
AcDbEntity
  8
RIQUADRO
100
AcDbMText
 10
2224.8608428546
 20
309.5247498001
 30
0.0
 40
8.0
 41
0.0
 71
     1
 72
     1
  1
Scale
  7
SLDTEXTSTYLE1
  0
MTEXT
  5
FA
330
1F
100
AcDbEntity
  8
RIQUADRO
100
AcDbMText
 10
2291.6726460466
 20
172.7552025729
 30
0.0
 40
8.0
 41
0.0
 71
     1
 72
     1
  1
Sheet
  7
SLDTEXTSTYLE1
  0
MTEXT
  5
FB
330
1F
100
AcDbEntity
  8
RIQUADRO
100
AcDbMText
 10
2291.9900889889
 20
142.9649648684
 30
0.0
 40
14.0
 41
0.0
 71
     1
 72
     1
  1
1/1
  7
SLDTEXTSTYLE0
  0
MTEXT
  5
FD
330
1F
100
AcDbEntity
  8
RIQUADRO
100
AcDbMText
 10
1618.8179144732
 20
88.8550767577
 30
0.0
 40
8.0
 41
0.0
 71
     1
 72
     1
  1
OPTO  ENGINEERING S.r.l.    -   46100 Mantova Italy   -   Via Cremona, 29 -   Tel.     +39 0376 263525    - e-mai: info@opto-enginering.com   -   http://www.opto-engineering.com
  7
SLDTEXTSTYLE2
  0
MTEXT
  5
FE
330
1F
100
AcDbEntity
  8
RIQUADRO
100
AcDbMText
 10
2050.7188642409
 20
107.6574258795
 30
0.0
 40
7.6
 41
0.0
 71
     1
 72
     1
  1
Reproduction forbidden without specific authorization
  7
SLDTEXTSTYLE0
  0
MTEXT
  5
FF
330
1F
100
AcDbEntity
  8
RIQUADRO
100
AcDbMText
 10
2048.240711173
 20
237.5488779241
 30
0.0
 40
8.0
 41
0.0
 71
     1
 72
     1
  1
Description
  7
SLDTEXTSTYLE0
  0
MTEXT
  5
100
330
1F
100
AcDbEntity
  8
RIQUADRO
100
AcDbMText
 10
2045.989837211
 20
279.9957045763
 30
0.0
 40
8.0
 41
0.0
 71
     1
 72
     1
  1
Project-Prod.item/Instrument
  7
SLDTEXTSTYLE0
  0
MTEXT
  5
101
330
1F
100
AcDbEntity
  8
RIQUADRO
100
AcDbMText
 10
1606.3146561136
 20
310.3082413307
 30
0.0
 40
8.0
 41
0.0
 71
     1
 72
     1
  1
Material
  7
SLDTEXTSTYLE0
  0
MTEXT
  5
102
330
1F
100
AcDbEntity
  8
RIQUADRO
100
AcDbMText
 10
1608.3747080166
 20
275.6187839978
 30
0.0
 40
8.0
 41
0.0
 71
     1
 72
     1
  1
Surface treatment
  7
SLDTEXTSTYLE0
  0
INSERT
  5
108
330
1F
100
AcDbEntity
  8
RIQUADRO
100
AcDbBlockReference
  2
SW_NOTE_0
 10
1910.5591948759
 20
194.8980824547
 30
0.0
  0
INSERT
  5
10E
330
1F
100
AcDbEntity
  8
RIQUADRO
100
AcDbBlockReference
  2
SW_NOTE_1
 10
1910.1387613914
 20
225.7615668603
 30
0.0
  0
MTEXT
  5
110
330
1F
100
AcDbEntity
  8
RIQUADRO
100
AcDbMText
 10
1997.9306137073
 20
202.0144913598
 30
0.0
 40
12.0
 41
0.0
 71
     1
 72
     1
  1
R 0.5
  7
SLDTEXTSTYLE3
  0
MTEXT
  5
111
330
1F
100
AcDbEntity
  8
RIQUADRO
100
AcDbMText
 10
1996.0172747266
 20
232.5305030316
 30
0.0
 40
12.0
 41
0.0
 71
     1
 72
     1
  1
1x45°
  7
SLDTEXTSTYLE0
  0
MTEXT
  5
112
330
1F
100
AcDbEntity
  8
RIQUADRO
100
AcDbMText
 10
1610.1880890838
 20
240.3692651517
 30
0.0
 40
6.0
 41
0.0
 71
     1
 72
     1
  1
Geometrical tolerance (ISO 2768-2)
  7
SLDTEXTSTYLE0
  0
MTEXT
  5
113
330
1F
100
AcDbEntity
  8
RIQUADRO
100
AcDbMText
 10
1610.8906537641
 20
228.0303097699
 30
0.0
 40
6.0
 41
0.0
 71
     1
 72
     1
  1
Linear tolerance (ISO 2768-2)
  7
SLDTEXTSTYLE0
  0
INSERT
  5
119
330
1F
100
AcDbEntity
  8
RIQUADRO
100
AcDbBlockReference
  2
SW_NOTE_2
 10
1614.2620835572
 20
205.8249803992
 30
0.0
  0
INSERT
  5
11F
330
1F
100
AcDbEntity
  8
RIQUADRO
100
AcDbBlockReference
  2
SW_NOTE_3
 10
1650.2551283087
 20
204.468420861
 30
0.0
  0
INSERT
  5
125
330
1F
100
AcDbEntity
  8
RIQUADRO
100
AcDbBlockReference
  2
SW_NOTE_4
 10
1689.5268990218
 20
206.1010499617
 30
0.0
  0
INSERT
  5
12B
330
1F
100
AcDbEntity
  8
RIQUADRO
100
AcDbBlockReference
  2
SW_NOTE_5
 10
1724.854705297
 20
205.2273607471
 30
0.0
  0
INSERT
  5
131
330
1F
100
AcDbEntity
  8
RIQUADRO
100
AcDbBlockReference
  2
SW_NOTE_6
 10
1762.3578048505
 20
204.8044324757
 30
0.0
  0
INSERT
  5
137
330
1F
100
AcDbEntity
  8
RIQUADRO
100
AcDbBlockReference
  2
SW_NOTE_7
 10
1797.2974031737
 20
204.605886403
 30
0.0
  0
INSERT
  5
13D
330
1F
100
AcDbEntity
  8
RIQUADRO
100
AcDbBlockReference
  2
SW_NOTE_8
 10
1836.8913929995
 20
205.3471760183
 30
0.0
  0
INSERT
  5
143
330
1F
100
AcDbEntity
  8
RIQUADRO
100
AcDbBlockReference
  2
SW_NOTE_9
 10
1873.6885649929
 20
205.059928885
 30
0.0
  0
MTEXT
  5
144
330
1F
100
AcDbEntity
  8
RIQUADRO
100
AcDbMText
 10
1610.4358409138
 20
189.2606919597
 30
0.0
 40
8.0
 41
0.0
 71
     1
 72
     1
  1
±0.1
  7
SLDTEXTSTYLE0
  0
MTEXT
  5
145
330
1F
100
AcDbEntity
  8
RIQUADRO
100
AcDbMText
 10
1650.0131191007
 20
188.7578952262
 30
0.0
 40
8.0
 41
0.0
 71
     1
 72
     1
  1
±0.1
  7
SLDTEXTSTYLE0
  0
MTEXT
  5
146
330
1F
100
AcDbEntity
  8
RIQUADRO
100
AcDbMText
 10
1690.8088321328
 20
189.39843063
 30
0.0
 40
8.0
 41
0.0
 71
     1
 72
     1
  1
±0.2
  7
SLDTEXTSTYLE0
  0
MTEXT
  5
147
330
1F
100
AcDbEntity
  8
RIQUADRO
100
AcDbMText
 10
1726.9683277525
 20
188.9521323995
 30
0.0
 40
8.0
 41
0.0
 71
     1
 72
     1
  1
±0.3
  7
SLDTEXTSTYLE0
  0
MTEXT
  5
148
330
1F
100
AcDbEntity
  8
RIQUADRO
100
AcDbMText
 10
1765.0261895807
 20
189.4002230098
 30
0.0
 40
8.0
 41
0.0
 71
     1
 72
     1
  1
±0.5
  7
SLDTEXTSTYLE0
  0
MTEXT
  5
149
330
1F
100
AcDbEntity
  8
RIQUADRO
100
AcDbMText
 10
1802.4320124944
 20
190.0269723945
 30
0.0
 40
8.0
 41
0.0
 71
     1
 72
     1
  1
±0.8
  7
SLDTEXTSTYLE0
  0
MTEXT
  5
14A
330
1F
100
AcDbEntity
  8
RIQUADRO
100
AcDbMText
 10
1841.7001710337
 20
189.6687750169
 30
0.0
 40
8.0
 41
0.0
 71
     1
 72
     1
  1
±1.2
  7
SLDTEXTSTYLE0
  0
MTEXT
  5
14B
330
1F
100
AcDbEntity
  8
RIQUADRO
100
AcDbMText
 10
1883.1403239322
 20
189.5207367
 30
0.0
 40
8.0
 41
0.0
 71
     1
 72
     1
  1
±2
  7
SLDTEXTSTYLE0
  0
MTEXT
  5
14C
330
1F
100
AcDbEntity
  8
RIQUADRO
100
AcDbMText
 10
1847.2583743501
 20
241.1050616755
 30
0.0
 40
6.0
 41
0.0
 71
     1
 72
     1
  1
Class
  7
SLDTEXTSTYLE0
  0
MTEXT
  5
14D
330
1F
100
AcDbEntity
  8
RIQUADRO
100
AcDbMText
 10
1846.4864104726
 20
226.4935523098
 30
0.0
 40
6.0
 41
0.0
 71
     1
 72
     1
  1
Class
  7
SLDTEXTSTYLE0
  0
MTEXT
  5
14E
330
1F
100
AcDbEntity
  8
RIQUADRO
100
AcDbMText
 10
1886.4473358634
 20
227.5317959416
 30
0.0
 40
8.0
 41
0.0
 71
     1
 72
     1
  1
m
  7
SLDTEXTSTYLE0
  0
MTEXT
  5
14F
330
1F
100
AcDbEntity
  8
RIQUADRO
100
AcDbMText
 10
1887.5542257017
 20
242.8127469714
 30
0.0
 40
8.0
 41
0.0
 71
     1
 72
     1
  1
K
  7
SLDTEXTSTYLE0
  0
MTEXT
  5
150
330
1F
100
AcDbEntity
  8
RIQUADRO
100
AcDbMText
 10
1816.3706434009
 20
154.3369110016
 30
0.0
 40
8.0
 41
0.0
 71
     1
 72
     1
  1
Designed
  7
SLDTEXTSTYLE0
  0
MTEXT
  5
151
330
1F
100
AcDbEntity
  8
RIQUADRO
100
AcDbMText
 10
1816.3422960856
 20
132.5942172674
 30
0.0
 40
8.0
 41
0.0
 71
     1
 72
     1
  1
Draw
  7
SLDTEXTSTYLE0
  0
MTEXT
  5
152
330
1F
100
AcDbEntity
  8
RIQUADRO
100
AcDbMText
 10
1815.5692414039
 20
110.0325532836
 30
0.0
 40
8.0
 41
0.0
 71
     1
 72
     1
  1
Checked
  7
SLDTEXTSTYLE0
  0
MTEXT
  5
153
330
1F
100
AcDbEntity
  8
RIQUADRO
100
AcDbMText
 10
1978.2896615836
 20
174.5889635736
 30
0.0
 40
8.0
 41
0.0
 71
     1
 72
     1
  1
Name
  7
SLDTEXTSTYLE0
  0
MTEXT
  5
154
330
1F
100
AcDbEntity
  8
RIQUADRO
100
AcDbMText
 10
1881.2586256605
 20
173.6183936196
 30
0.0
 40
8.0
 41
0.0
 71
     1
 72
     1
  1
Date
  7
SLDTEXTSTYLE0
  0
MTEXT
  5
155
330
1F
100
AcDbEntity
  8
CARTIGLIO
100
AcDbMText
 10
2093.6962092548
 20
212.5350971568
 30
0.0
 40
14.0
 41
0.0
 71
     1
 72
     1
  1
Assembly
  7
SLDTEXTSTYLE0
  0
MTEXT
  5
156
330
1F
100
AcDbEntity
  8
CARTIGLIO
100
AcDbMText
 10
1873.6223237225
 20
134.0001790398
 30
0.0
 40
12.0
 41
0.0
 71
     1
 72
     1
  1
17/03/06
  7
SLDTEXTSTYLE0
  0
MTEXT
  5
157
330
1F
100
AcDbEntity
  8
CARTIGLIO
100
AcDbMText
 10
1874.4423798866
 20
156.4116859603
 30
0.0
 40
12.0
 41
0.0
 71
     1
 72
     1
  1
17/03/06
  7
SLDTEXTSTYLE0
  0
MTEXT
  5
158
330
1F
100
AcDbEntity
  8
CARTIGLIO
100
AcDbMText
 10
1777.852862989
 20
271.7024152645
 30
0.0
 40
14.0
 41
0.0
 71
     2
 72
     1
  1
N.A.
  7
SLDTEXTSTYLE0
  0
MTEXT
  5
159
330
1F
100
AcDbEntity
  8
CARTIGLIO
100
AcDbMText
 10
2079.8755134865
 20
306.6114935028
 30
0.0
 40
14.0
 41
0.0
 71
     1
 72
     1
  1
20.8 kg
  7
SLDTEXTSTYLE0
  0
MTEXT
  5
15A
330
1F
100
AcDbEntity
  8
CARTIGLIO
100
AcDbMText
 10
2071.6557509096
 20
267.772783186
 30
0.0
 40
14.0
 41
0.0
 71
     1
 72
     1
  1
Telecentric lens 23 240
  7
SLDTEXTSTYLE0
  0
MTEXT
  5
15B
330
1F
100
AcDbEntity
  8
RIQUADRO
100
AcDbMText
 10
1778.0385130623
 20
300.3469670486
 30
0.0
 40
14.0
 41
0.0
 71
     2
 72
     1
  1
N.A.
  7
SLDTEXTSTYLE0
  0
MTEXT
  5
15C
330
1F
100
AcDbEntity
  8
TABELLA_REV
100
AcDbMText
 10
2130.3989504443
 20
1614.8605729662
 30
0.0
 40
12.0
 41
0.0
 71
     1
 72
     1
  1
17/03/06
  7
SLDTEXTSTYLE0
  0
MTEXT
  5
15D
330
1F
100
AcDbEntity
  8
TABELLA_REV
100
AcDbMText
 10
1629.1928639288
 20
1613.3403811832
 30
0.0
 40
12.0
 41
0.0
 71
     1
 72
     1
  1
D
  7
SLDTEXTSTYLE0
  0
MTEXT
  5
15E
330
1F
100
AcDbEntity
  8
TABELLA_REV
100
AcDbMText
 10
1677.9463402558
 20
1613.2498288571
 30
0.0
 40
12.0
 41
0.0
 71
     1
 72
     1
  1
Redesign
  7
SLDTEXTSTYLE0
  0
LINE
  5
15F
330
1F
100
AcDbEntity
  8
0
  6
CONTINUOUS
 62
     7
100
AcDbLine
 10
1565.1702548515
 20
1036.9585606713
 30
0.0
 11
1550.2702559482
 21
1036.9585606713
 31
0.0
  0
LINE
  5
160
330
1F
100
AcDbEntity
  8
0
  6
CONTINUOUS
 62
     7
100
AcDbLine
 10
1550.2702559482
 20
999.2585595209
 30
0.0
 11
1565.1702548515
 21
999.2585595209
 31
0.0
  0
LINE
  5
161
330
1F
100
AcDbEntity
  8
0
  6
CONTINUOUS
 62
     7
100
AcDbLine
 10
1574.5882562499
 20
998.1085605431
 30
0.0
 11
1575.5882564139
 21
999.1085607071
 31
0.0
  0
LINE
  5
162
330
1F
100
AcDbEntity
  8
0
  6
CONTINUOUS
 62
     7
100
AcDbLine
 10
1575.5882564139
 20
1037.1085594852
 30
0.0
 11
1574.5882562499
 21
1038.1085596491
 31
0.0
  0
LINE
  5
163
330
1F
100
AcDbEntity
  8
0
  6
CONTINUOUS
 62
     7
100
AcDbLine
 10
1571.5882557582
 20
998.1085605431
 30
0.0
 11
1574.5882562499
 21
998.1085605431
 31
0.0
  0
LINE
  5
164
330
1F
100
AcDbEntity
  8
0
  6
CONTINUOUS
 62
     7
100
AcDbLine
 10
1574.5882562499
 20
1038.1085596491
 30
0.0
 11
1571.5882557582
 21
1038.1085596491
 31
0.0
  0
LINE
  5
165
330
1F
100
AcDbEntity
  8
0
  6
CONTINUOUS
 62
     7
100
AcDbLine
 10
1566.1702550154
 20
1038.1085596491
 30
0.0
 11
1565.1702548515
 21
1037.1085594852
 31
0.0
  0
LINE
  5
166
330
1F
100
AcDbEntity
  8
0
  6
CONTINUOUS
 62
     7
100
AcDbLine
 10
1565.1702548515
 20
999.1085607071
 30
0.0
 11
1566.1702550154
 21
998.1085605431
 31
0.0
  0
LINE
  5
167
330
1F
100
AcDbEntity
  8
0
  6
CONTINUOUS
 62
     7
100
AcDbLine
 10
1566.1702550154
 20
998.1085605431
 30
0.0
 11
1571.170255835
 21
998.1085605431
 31
0.0
  0
LINE
  5
168
330
1F
100
AcDbEntity
  8
0
  6
CONTINUOUS
 62
     7
100
AcDbLine
 10
1571.170255835
 20
1038.1085596491
 30
0.0
 11
1566.1702550154
 21
1038.1085596491
 31
0.0
  0
LINE
  5
169
330
1F
100
AcDbEntity
  8
0
  6
CONTINUOUS
 62
     7
100
AcDbLine
 10
1571.170255835
 20
1005.4085602496
 30
0.0
 11
1571.388256098
 21
1005.4085602496
 31
0.0
  0
LINE
  5
16A
330
1F
100
AcDbEntity
  8
0
  6
CONTINUOUS
 62
     7
100
AcDbLine
 10
1575.5882564139
 20
1005.4085602496
 30
0.0
 11
1579.3702558752
 21
1005.4085602496
 31
0.0
  0
LINE
  5
16B
330
1F
100
AcDbEntity
  8
0
  6
CONTINUOUS
 62
     7
100
AcDbLine
 10
1579.3702558752
 20
1030.8085599426
 30
0.0
 11
1575.5882564139
 21
1030.8085599426
 31
0.0
  0
LINE
  5
16C
330
1F
100
AcDbEntity
  8
0
  6
CONTINUOUS
 62
     7
100
AcDbLine
 10
1571.388256098
 20
1030.8085599426
 30
0.0
 11
1571.170255835
 21
1030.8085599426
 31
0.0
  0
LINE
  5
16D
330
1F
100
AcDbEntity
  8
0
  6
CONTINUOUS
 62
     7
100
AcDbLine
 10
1579.3702558752
 20
1005.4085602496
 30
0.0
 11
1580.1702554475
 21
1006.2085598219
 31
0.0
  0
LINE
  5
16E
330
1F
100
AcDbEntity
  8
0
  6
CONTINUOUS
 62
     7
100
AcDbLine
 10
1580.1702554475
 20
1030.0085603703
 30
0.0
 11
1579.3702558752
 21
1030.8085599426
 31
0.0
  0
ARC
  5
16F
330
1F
100
AcDbEntity
  8
0
  6
CONTINUOUS
 62
     7
100
AcDbCircle
 10
1064.8755801893
 20
1146.1085600961
 30
0.0
 40
3.000000000000227
100
AcDbArc
 50
41.0111793458
 51
90.0
  0
ARC
  5
170
330
1F
100
AcDbEntity
  8
0
  6
CONTINUOUS
 62
     7
100
AcDbCircle
 10
1064.8755801893
 20
890.1085600961
 30
0.0
 40
3.000000000000037
100
AcDbArc
 50
270.0
 51
319.0050016347
  0
LINE
  5
171
330
1F
100
AcDbEntity
  8
0
  6
CONTINUOUS
 62
     7
100
AcDbLine
 10
1057.8755925547
 20
887.1085628379
 30
0.0
 11
1064.8755620372
 21
887.1085628379
 31
0.0
  0
LINE
  5
172
330
1F
100
AcDbEntity
  8
0
  6
CONTINUOUS
 62
     7
100
AcDbLine
 10
1064.8755620372
 20
1149.1085573543
 30
0.0
 11
1057.8755925547
 21
1149.1085573543
 31
0.0
  0
LINE
  5
173
330
1F
100
AcDbEntity
  8
0
  6
CONTINUOUS
 62
     7
100
AcDbLine
 10
1069.8635171305
 20
897.5497394312
 30
0.0
 11
1387.8037522685
 21
968.108559351
 31
0.0
  0
LINE
  5
174
330
1F
100
AcDbEntity
  8
0
  6
CONTINUOUS
 62
     7
100
AcDbLine
 10
1387.8037522685
 20
1068.1085608412
 30
0.0
 11
1069.8635171305
 21
1138.667380761
 31
0.0
  0
SPLINE
  5
175
330
1F
100
AcDbEntity
  8
0
  6
CONTINUOUS
 62
     7
100
AcDbSpline
210
0.0
220
0.0
230
1.0
 70
     8
 71
     3
 72
    14
 73
    10
 74
     0
 42
0.00000001
 43
0.00000001
 12
1.0
 22
0.0
 32
0.0
 13
1.0
 23
0.0
 33
0.0
 40
0.0
 40
0.0
 40
0.0
 40
0.0
 40
0.0049444777920584
 40
0.1629955404083711
 40
0.2578833386118353
 40
0.3495889181309123
 40
0.5273486938207422
 40
0.7488225795615772
 40
1.0
 40
1.0
 40
1.0
 40
1.0
 10
1069.874603594463
 20
1138.660205851876
 30
0.0
 10
1069.87491005778
 20
1138.660121603725
 30
0.0
 10
1069.885012672473
 20
1138.657344349297
 30
0.0
 10
1069.857462714206
 20
1138.664771183591
 30
0.0
 10
1069.746549873147
 20
1138.704521937254
 30
0.0
 10
1069.526933835515
 20
1138.796825967211
 30
0.0
 10
1069.165105443995
 20
1139.000918320486
 30
0.0
 10
1068.719481436894
 20
1139.347254311658
 30
0.0
 10
1068.493728678013
 20
1139.692211651896
 30
0.0
 10
1068.373758639019
 20
1139.875529657685
 30
0.0
  0
SPLINE
  5
176
330
1F
100
AcDbEntity
  8
0
  6
CONTINUOUS
 62
     7
100
AcDbSpline
210
0.0
220
0.0
230
1.0
 70
     8
 71
     3
 72
    12
 73
     8
 74
     0
 42
0.00000001
 43
0.00000001
 12
1.0
 22
0.0
 32
0.0
 13
1.0
 23
0.0
 33
0.0
 40
0.0
 40
0.0
 40
0.0
 40
0.0
 40
0.1330769200048794
 40
0.23956565056825
 40
0.3672949107825824
 40
0.6550738515146051
 40
1.0
 40
1.0
 40
1.0
 40
1.0
 10
1069.844324434917
 20
1138.671694647156
 30
0.0
 10
1069.835080734288
 20
1138.674269512262
 30
0.0
 10
1069.818440184184
 20
1138.678904795632
 30
0.0
 10
1069.656771894791
 20
1138.740363524001
 30
0.0
 10
1069.333029043943
 20
1138.895139994598
 30
0.0
 10
1068.810335745126
 20
1139.242850087546
 30
0.0
 10
1068.507230517065
 20
1139.658278242142
 30
0.0
 10
1068.341989363354
 20
1139.884753476464
 30
0.0
  0
SPLINE
  5
177
330
1F
100
AcDbEntity
  8
0
  6
CONTINUOUS
 62
     7
100
AcDbSpline
210
0.0
220
0.0
230
1.0
 70
     8
 71
     3
 72
    14
 73
    10
 74
     0
 42
0.00000001
 43
0.00000001
 12
1.0
 22
0.0
 32
0.0
 13
1.0
 23
0.0
 33
0.0
 40
0.0
 40
0.0
 40
0.0
 40
0.0
 40
0.1902120360345858
 40
0.4016423993099353
 40
0.5704830726665381
 40
0.6801919470326888
 40
0.7699255554163427
 40
0.882810811575013
 40
1.0
 40
1.0
 40
1.0
 40
1.0
 10
1068.512220228832
 20
896.5682371962895
 30
0.0
 10
1068.609385240134
 20
896.6893364598612
 30
0.0
 10
1068.81455410895
 20
896.9450437210295
 30
0.0
 10
1069.182796200684
 20
897.2253412793312
 30
0.0
 10
1069.514321947626
 20
897.4131483940405
 30
0.0
 10
1069.720239034602
 20
897.5015420714225
 30
0.0
 10
1069.825594209392
 20
897.5403538396464
 30
0.0
 10
1069.880835970655
 20
897.557961720326
 30
0.0
 10
1069.875245664008
 20
897.5562756030952
 30
0.0
 10
1069.872398222607
 20
897.5554167736401
 30
0.0
  0
SPLINE
  5
178
330
1F
100
AcDbEntity
  8
0
  6
CONTINUOUS
 62
     7
100
AcDbSpline
210
0.0
220
0.0
230
1.0
 70
     8
 71
     3
 72
     9
 73
     5
 74
     0
 42
0.00000001
 43
0.00000001
 12
1.0
 22
0.0
 32
0.0
 13
1.0
 23
0.0
 33
0.0
 40
0.0
 40
0.0
 40
0.0
 40
0.0
 40
0.8045880839748797
 40
1.0
 40
1.0
 40
1.0
 40
1.0
 10
1068.65598663203
 20
896.7509105313649
 30
0.0
 10
1068.776185599666
 20
896.8788181186809
 30
0.0
 10
1068.925577530804
 20
897.0377908773677
 30
0.0
 10
1069.101687967775
 20
897.1500319496478
 30
0.0
 10
1069.136102045696
 20
897.1719651926388
 30
0.0
  0
LINE
  5
179
330
1F
100
AcDbEntity
  8
0
  6
CONTINUOUS
 62
     7
100
AcDbLine
 10
1069.6599672686
 20
897.4756583084
 30
0.0
 11
1069.7739909541
 21
897.5218519081
 31
0.0
  0
LINE
  5
17A
330
1F
100
AcDbEntity
  8
0
  6
CONTINUOUS
 62
     7
100
AcDbLine
 10
1400.5427549731
 20
1068.1085608412
 30
0.0
 11
1387.8037522685
 21
1068.1085608412
 31
0.0
  0
LINE
  5
17B
330
1F
100
AcDbEntity
  8
0
  6
CONTINUOUS
 62
     7
100
AcDbLine
 10
1387.8037522685
 20
968.108559351
 30
0.0
 11
1400.5427549731
 21
968.108559351
 31
0.0
  0
ARC
  5
17C
330
1F
100
AcDbEntity
  8
0
  6
CONTINUOUS
 62
     7
100
AcDbCircle
 10
1400.5427508862
 20
970.1085600961
 30
0.0
 40
2.0
100
AcDbArc
 50
270.0
 51
0.0
  0
ARC
  5
17D
330
1F
100
AcDbEntity
  8
0
  6
CONTINUOUS
 62
     7
100
AcDbCircle
 10
1400.5427508862
 20
1066.1085600961
 30
0.0
 40
2.0
100
AcDbArc
 50
0.0
 51
90.0
  0
LINE
  5
17E
330
1F
100
AcDbEntity
  8
0
  6
CONTINUOUS
 62
     7
100
AcDbLine
 10
803.4814785372
 20
857.1085616458
 30
0.0
 11
806.4814995181
 21
857.1085616458
 31
0.0
  0
LINE
  5
17F
330
1F
100
AcDbEntity
  8
0
  6
CONTINUOUS
 62
     7
100
AcDbLine
 10
806.4814995181
 20
1179.1085585464
 30
0.0
 11
803.4814785372
 21
1179.1085585464
 31
0.0
  0
LINE
  5
180
330
1F
100
AcDbEntity
  8
0
  6
CONTINUOUS
 62
     7
100
AcDbLine
 10
905.7846854579
 20
1179.1085585464
 30
0.0
 11
806.4814995181
 21
1179.1085585464
 31
0.0
  0
LINE
  5
181
330
1F
100
AcDbEntity
  8
0
  6
CONTINUOUS
 62
     7
100
AcDbLine
 10
806.4814995181
 20
857.1085616458
 30
0.0
 11
905.7846854579
 21
857.1085616458
 31
0.0
  0
ARC
  5
182
330
1F
100
AcDbEntity
  8
0
  6
CONTINUOUS
 62
     7
100
AcDbCircle
 10
905.7846917019
 20
907.1085600961
 30
0.0
 40
50.00000000000011
100
AcDbArc
 50
270.0
 51
283.0
  0
ARC
  5
183
330
1F
100
AcDbEntity
  8
0
  6
CONTINUOUS
 62
     7
100
AcDbCircle
 10
905.7846917019
 20
1129.1085600961
 30
0.0
 40
50.0
100
AcDbArc
 50
77.0
 51
90.0
  0
ARC
  5
184
330
1F
100
AcDbEntity
  8
0
  6
CONTINUOUS
 62
     7
100
AcDbCircle
 10
1039.481472117
 20
1176.1085600961
 30
0.0
 40
2.999999999999773
100
AcDbArc
 50
90.0
 51
180.0
  0
ARC
  5
185
330
1F
100
AcDbEntity
  8
0
  6
CONTINUOUS
 62
     7
100
AcDbCircle
 10
1039.481472117
 20
860.1085600961
 30
0.0
 40
3.000000000000227
100
AcDbArc
 50
180.0
 51
270.0
  0
LINE
  5
186
330
1F
100
AcDbEntity
  8
0
  6
CONTINUOUS
 62
     7
100
AcDbLine
 10
1048.4814833056
 20
1179.1085585464
 30
0.0
 11
1039.4814799678
 21
1179.1085585464
 31
0.0
  0
LINE
  5
187
330
1F
100
AcDbEntity
  8
0
  6
CONTINUOUS
 62
     7
100
AcDbLine
 10
1039.4814799678
 20
857.1085616458
 30
0.0
 11
1048.4814833056
 21
857.1085616458
 31
0.0
  0
ARC
  5
188
330
1F
100
AcDbEntity
  8
0
  6
CONTINUOUS
 62
     7
100
AcDbCircle
 10
1048.481472117
 20
860.1085600961
 30
0.0
 40
3.000000000000227
100
AcDbArc
 50
270.0
 51
0.0
  0
ARC
  5
189
330
1F
100
AcDbEntity
  8
0
  6
CONTINUOUS
 62
     7
100
AcDbCircle
 10
1048.481472117
 20
1176.1085600961
 30
0.0
 40
2.999999999999773
100
AcDbArc
 50
0.0
 51
90.0
  0
LINE
  5
18A
330
1F
100
AcDbEntity
  8
0
  6
CONTINUOUS
 62
     7
100
AcDbLine
 10
917.0322607409
 20
858.3900615085
 30
0.0
 11
1030.3567241084
 21
884.5530732978
 31
0.0
  0
LINE
  5
18B
330
1F
100
AcDbEntity
  8
0
  6
CONTINUOUS
 62
     7
100
AcDbLine
 10
1030.3567241084
 20
1151.6640468944
 30
0.0
 11
917.0322607409
 21
1177.8270586837
 31
0.0
  0
ARC
  5
18C
330
1F
100
AcDbEntity
  8
0
  6
CONTINUOUS
 62
     7
100
AcDbCircle
 10
1031.481472117
 20
1156.5358977
 30
0.0
 40
5.000000000000227
100
AcDbArc
 50
257.0
 51
0.0
  0
ARC
  5
18D
330
1F
100
AcDbEntity
  8
0
  6
CONTINUOUS
 62
     7
100
AcDbCircle
 10
1031.481472117
 20
879.6812224922
 30
0.0
 40
5.00000000000002
100
AcDbArc
 50
0.0
 51
103.0
  0
ARC
  5
18E
330
1F
100
AcDbEntity
  8
0
  6
CONTINUOUS
 62
     7
100
AcDbCircle
 10
1056.481472117
 20
882.1085600961
 30
0.0
 40
5.000000000000227
100
AcDbArc
 50
90.0
 51
180.0
  0
ARC
  5
18F
330
1F
100
AcDbEntity
  8
0
  6
CONTINUOUS
 62
     7
100
AcDbCircle
 10
1056.481472117
 20
1154.1085600961
 30
0.0
 40
5.000000000000227
100
AcDbArc
 50
180.0
 51
270.0
  0
LINE
  5
190
330
1F
100
AcDbEntity
  8
0
  6
CONTINUOUS
 62
     7
100
AcDbLine
 10
1057.8755925547
 20
1149.1085573543
 30
0.0
 11
1056.4814995181
 21
1149.1085573543
 31
0.0
  0
LINE
  5
191
330
1F
100
AcDbEntity
  8
0
  6
CONTINUOUS
 62
     7
100
AcDbLine
 10
1056.4814995181
 20
887.1085628379
 30
0.0
 11
1057.8755925547
 21
887.1085628379
 31
0.0
  0
LINE
  5
192
330
1F
100
AcDbEntity
  8
0
  6
CONTINUOUS
 62
     7
100
AcDbLine
 10
1571.5882557582
 20
1038.0085598189
 30
0.0
 11
1571.388256098
 21
1038.0085598189
 31
0.0
  0
LINE
  5
193
330
1F
100
AcDbEntity
  8
0
  6
CONTINUOUS
 62
     7
100
AcDbLine
 10
1571.388256098
 20
998.2085603733
 30
0.0
 11
1571.5882557582
 21
998.2085603733
 31
0.0
  0
LINE
  5
194
330
1F
100
AcDbEntity
  8
0
  6
CONTINUOUS
 62
     7
100
AcDbLine
 10
1402.542744125
 20
971.6085589934
 30
0.0
 11
1516.4915363442
 21
998.6674434949
 31
0.0
  0
LINE
  5
195
330
1F
100
AcDbEntity
  8
0
  6
CONTINUOUS
 62
     7
100
AcDbLine
 10
1516.4915363442
 20
1037.5496766973
 30
0.0
 11
1402.542744125
 21
1064.6085611988
 31
0.0
  0
ARC
  5
196
330
1F
100
AcDbEntity
  8
0
  6
CONTINUOUS
 62
     7
100
AcDbCircle
 10
1521.1123440953
 20
1057.0085600961
 30
0.0
 40
20.0
100
AcDbArc
 50
256.6416632504
 51
270.0
  0
ARC
  5
197
330
1F
100
AcDbEntity
  8
0
  6
CONTINUOUS
 62
     7
100
AcDbCircle
 10
1521.1123440953
 20
979.2085600961
 30
0.0
 40
20.00000000000002
100
AcDbArc
 50
90.0
 51
103.3583367496
  0
LINE
  5
198
330
1F
100
AcDbEntity
  8
0
  6
CONTINUOUS
 62
     7
100
AcDbLine
 10
1550.2702559482
 20
1037.008559655
 30
0.0
 11
1521.1123417269
 21
1037.008559655
 31
0.0
  0
LINE
  5
199
330
1F
100
AcDbEntity
  8
0
  6
CONTINUOUS
 62
     7
100
AcDbLine
 10
1521.1123417269
 20
999.2085605372
 30
0.0
 11
1550.2702559482
 21
999.2085605372
 31
0.0
  0
LINE
  5
19A
330
1F
100
AcDbEntity
  8
0
  6
CONTINUOUS
 62
     7
100
AcDbLine
 10
1574.5882562499
 20
998.1085605431
 30
0.0
 11
1574.5882562499
 21
1038.1085596491
 31
0.0
  0
LINE
  5
19B
330
1F
100
AcDbEntity
  8
0
  6
CONTINUOUS
 62
     7
100
AcDbLine
 10
1575.5882564139
 20
1037.1085594852
 30
0.0
 11
1575.5882564139
 21
999.1085607071
 31
0.0
  0
LINE
  5
19C
330
1F
100
AcDbEntity
  8
0
  6
CONTINUOUS
 62
     7
100
AcDbLine
 10
1571.5882557582
 20
1018.1085600961
 30
0.0
 11
1571.5882557582
 21
1038.1085596491
 31
0.0
  0
LINE
  5
19D
330
1F
100
AcDbEntity
  8
0
  6
CONTINUOUS
 62
     7
100
AcDbLine
 10
1571.5882557582
 20
998.1085605431
 30
0.0
 11
1571.5882557582
 21
1018.1085600961
 31
0.0
  0
LINE
  5
19E
330
1F
100
AcDbEntity
  8
0
  6
CONTINUOUS
 62
     7
100
AcDbLine
 10
1565.1702548515
 20
1018.1085600961
 30
0.0
 11
1565.1702548515
 21
1037.1085594852
 31
0.0
  0
LINE
  5
19F
330
1F
100
AcDbEntity
  8
0
  6
CONTINUOUS
 62
     7
100
AcDbLine
 10
1565.1702548515
 20
999.1085607071
 30
0.0
 11
1565.1702548515
 21
1018.1085600961
 31
0.0
  0
LINE
  5
1A0
330
1F
100
AcDbEntity
  8
0
  6
CONTINUOUS
 62
     7
100
AcDbLine
 10
1566.1702550154
 20
1018.1085600961
 30
0.0
 11
1566.1702550154
 21
998.1085605431
 31
0.0
  0
LINE
  5
1A1
330
1F
100
AcDbEntity
  8
0
  6
CONTINUOUS
 62
     7
100
AcDbLine
 10
1566.1702550154
 20
1038.1085596491
 30
0.0
 11
1566.1702550154
 21
1018.1085600961
 31
0.0
  0
LINE
  5
1A2
330
1F
100
AcDbEntity
  8
0
  6
CONTINUOUS
 62
     7
100
AcDbLine
 10
1571.170255835
 20
1018.1085600961
 30
0.0
 11
1571.170255835
 21
1038.1085596491
 31
0.0
  0
LINE
  5
1A3
330
1F
100
AcDbEntity
  8
0
  6
CONTINUOUS
 62
     7
100
AcDbLine
 10
1571.170255835
 20
998.1085605431
 30
0.0
 11
1571.170255835
 21
1018.1085600961
 31
0.0
  0
LINE
  5
1A4
330
1F
100
AcDbEntity
  8
0
  6
CONTINUOUS
 62
     7
100
AcDbLine
 10
1579.3702558752
 20
1018.1085600961
 30
0.0
 11
1579.3702558752
 21
1030.8085599426
 31
0.0
  0
LINE
  5
1A5
330
1F
100
AcDbEntity
  8
0
  6
CONTINUOUS
 62
     7
100
AcDbLine
 10
1579.3702558752
 20
1005.4085602496
 30
0.0
 11
1579.3702558752
 21
1018.1085600961
 31
0.0
  0
LINE
  5
1A6
330
1F
100
AcDbEntity
  8
0
  6
CONTINUOUS
 62
     7
100
AcDbLine
 10
1580.1702554475
 20
1018.1085600961
 30
0.0
 11
1580.1702554475
 21
1030.0085603703
 31
0.0
  0
LINE
  5
1A7
330
1F
100
AcDbEntity
  8
0
  6
CONTINUOUS
 62
     7
100
AcDbLine
 10
1580.1702554475
 20
1006.2085598219
 30
0.0
 11
1580.1702554475
 21
1018.1085600961
 31
0.0
  0
LINE
  5
1A8
330
1F
100
AcDbEntity
  8
0
  6
CONTINUOUS
 62
     7
100
AcDbLine
 10
1067.875583018
 20
951.1089384068
 30
0.0
 11
1067.875583018
 21
890.1561781276
 31
0.0
  0
SPLINE
  5
1A9
330
1F
100
AcDbEntity
  8
0
  6
CONTINUOUS
 62
     7
100
AcDbSpline
210
0.0
220
0.0
230
1.0
 70
     8
 71
     3
 72
    11
 73
     7
 74
     0
 42
0.00000001
 43
0.00000001
 12
1.0
 22
0.0
 32
0.0
 13
1.0
 23
0.0
 33
0.0
 40
0.0
 40
0.0
 40
0.0
 40
0.0
 40
0.2672596194754804
 40
0.5326045439506055
 40
0.8557398134053468
 40
1.0
 40
1.0
 40
1.0
 40
1.0
 10
1067.875583017986
 20
890.1561781276097
 30
0.0
 10
1067.843145437999
 20
889.8359582475524
 30
0.0
 10
1067.778502666561
 20
889.1978125990757
 30
0.0
 10
1067.433753938742
 20
888.5127777166816
 30
0.0
 10
1067.131278057604
 20
888.1291803092844
 30
0.0
 10
1067.137762327915
 20
888.138603035942
 30
0.0
 10
1067.139763678234
 20
888.1415113318791
 30
0.0
  0
SPLINE
  5
1AA
330
1F
100
AcDbEntity
  8
0
  6
CONTINUOUS
 62
     7
100
AcDbSpline
210
0.0
220
0.0
230
1.0
 70
     8
 71
     3
 72
    12
 73
     8
 74
     0
 42
0.00000001
 43
0.00000001
 12
1.0
 22
0.0
 32
0.0
 13
1.0
 23
0.0
 33
0.0
 40
0.0
 40
0.0
 40
0.0
 40
0.0
 40
0.0981011562269664
 40
0.3396887822870404
 40
0.613266150146458
 40
0.8913845348945812
 40
1.0
 40
1.0
 40
1.0
 40
1.0
 10
1067.139763678234
 20
1148.075608860337
 30
0.0
 10
1067.132896346523
 20
1148.083722159622
 30
0.0
 10
1067.109117263421
 20
1148.111815577278
 30
0.0
 10
1067.319900240832
 20
1147.863713619332
 30
0.0
 10
1067.630233402333
 20
1147.342093372521
 30
0.0
 10
1067.850568205181
 20
1146.669798339318
 30
0.0
 10
1067.870098008831
 20
1146.194446251375
 30
0.0
 10
1067.875583017986
 20
1146.060942064606
 30
0.0
  0
LINE
  5
1AB
330
1F
100
AcDbEntity
  8
0
  6
CONTINUOUS
 62
     7
100
AcDbLine
 10
1067.875583018
 20
1146.0609420646
 30
0.0
 11
1067.875583018
 21
1085.1081817854
 31
0.0
  0
SPLINE
  5
1AC
330
1F
100
AcDbEntity
  8
0
  6
CONTINUOUS
 62
     7
100
AcDbSpline
210
0.0
220
0.0
230
1.0
 70
     8
 71
     3
 72
    30
 73
    26
 74
     0
 42
0.00000001
 43
0.00000001
 12
1.0
 22
0.0
 32
0.0
 13
1.0
 23
0.0
 33
0.0
 40
0.0
 40
0.0
 40
0.0
 40
0.0
 40
0.1250000000000003
 40
0.1250000000000003
 40
0.2500000000000006
 40
0.2500000000000006
 40
0.3124999999999996
 40
0.3124999999999996
 40
0.3749999999999986
 40
0.3749999999999986
 40
0.4374999999999976
 40
0.4374999999999976
 40
0.4999999999999967
 40
0.4999999999999967
 40
0.5624999999999957
 40
0.5624999999999957
 40
0.6249999999999947
 40
0.6249999999999947
 40
0.6874999999999938
 40
0.6874999999999938
 40
0.7499999999999928
 40
0.7499999999999928
 40
0.8749999999999963
 40
0.8749999999999963
 40
1.0
 40
1.0
 40
1.0
 40
1.0
 10
1067.875580189292
 20
1085.108185119727
 30
0.0
 10
1067.875580189291
 20
1085.113170574806
 30
0.0
 10
1067.828172614674
 20
1085.069411197514
 30
0.0
 10
1067.684466896899
 20
1084.891286136716
 30
0.0
 10
1067.589714533491
 20
1084.759475992348
 30
0.0
 10
1067.445633088778
 20
1084.501684054559
 30
0.0
 10
1067.397292571246
 20
1084.40551012069
 30
0.0
 10
1067.307452891764
 20
1084.196434771704
 30
0.0
 10
1067.265643100642
 20
1084.083031294253
 30
0.0
 10
1067.19396481379
 20
1083.837121035887
 30
0.0
 10
1067.163972436773
 20
1083.703633259337
 30
0.0
 10
1067.122816979528
 20
1083.419094996626
 30
0.0
 10
1067.111946589665
 20
1083.270311042379
 30
0.0
 10
1067.111361985377
 20
1082.95981941235
 30
0.0
 10
1067.121837872502
 20
1082.796765422053
 30
0.0
 10
1067.162090936514
 20
1082.46374747507
 30
0.0
 10
1067.191422798437
 20
1082.295307309013
 30
0.0
 10
1067.262911504519
 20
1081.954029898031
 30
0.0
 10
1067.305337264444
 20
1081.780132423095
 30
0.0
 10
1067.395858728513
 20
1081.432579773086
 30
0.0
 10
1067.443775589519
 20
1081.259311907022
 30
0.0
 10
1067.587331898148
 20
1080.738857267963
 30
0.0
 10
1067.683430837823
 20
1080.388110018942
 30
0.0
 10
1067.826552301644
 20
1079.709879467268
 30
0.0
 10
1067.875580189291
 20
1079.374272931388
 30
0.0
 10
1067.875580189292
 20
1079.061316024867
 30
0.0
  0
LINE
  5
1AD
330
1F
100
AcDbEntity
  8
0
  6
CONTINUOUS
 62
     7
100
AcDbLine
 10
1067.875583018
 20
1079.06131665
 30
0.0
 11
1067.875583018
 21
957.1558035422
 31
0.0
  0
SPLINE
  5
1AE
330
1F
100
AcDbEntity
  8
0
  6
CONTINUOUS
 62
     7
100
AcDbSpline
210
0.0
220
0.0
230
1.0
 70
     8
 71
     3
 72
    30
 73
    26
 74
     0
 42
0.00000001
 43
0.00000001
 12
1.0
 22
0.0
 32
0.0
 13
1.0
 23
0.0
 33
0.0
 40
0.0
 40
0.0
 40
0.0
 40
0.0
 40
0.1249999999999955
 40
0.1249999999999955
 40
0.2499999999999911
 40
0.2499999999999911
 40
0.3124999999999912
 40
0.3124999999999912
 40
0.3749999999999912
 40
0.3749999999999912
 40
0.4374999999999913
 40
0.4374999999999913
 40
0.4999999999999915
 40
0.4999999999999915
 40
0.5624999999999916
 40
0.5624999999999916
 40
0.6249999999999917
 40
0.6249999999999917
 40
0.6874999999999918
 40
0.6874999999999918
 40
0.7499999999999918
 40
0.7499999999999918
 40
0.8749999999999959
 40
0.8749999999999959
 40
1.0
 40
1.0
 40
1.0
 40
1.0
 10
1067.875580189292
 20
957.1558041673482
 30
0.0
 10
1067.875580189291
 20
956.8430012700912
 30
0.0
 10
1067.828172614674
 20
956.5162231967408
 30
0.0
 10
1067.684466896899
 20
955.8326396520729
 30
0.0
 10
1067.589714533491
 20
955.486924440086
 30
0.0
 10
1067.445633088778
 20
954.9645311737505
 30
0.0
 10
1067.397292571246
 20
954.7897610511661
 30
0.0
 10
1067.307452891764
 20
954.4453840916508
 30
0.0
 10
1067.265643100642
 20
954.2747085139997
 30
0.0
 10
1067.19396481379
 20
953.9352686394249
 30
0.0
 10
1067.163972436773
 20
953.7653534883103
 30
0.0
 10
1067.122816979528
 20
953.4317965632335
 30
0.0
 10
1067.111946589665
 20
953.2706552833444
 30
0.0
 10
1067.111361985377
 20
952.959489292289
 30
0.0
 10
1067.121837872502
 20
952.8083369845697
 30
0.0
 10
1067.162090936513
 20
952.5231930335898
 30
0.0
 10
1067.191422798437
 20
952.3902773364595
 30
0.0
 10
1067.262911504519
 20
952.1420133315595
 30
0.0
 10
1067.305337264444
 20
952.0260502066019
 30
0.0
 10
1067.395858728513
 20
951.8145225701311
 30
0.0
 10
1067.443775589519
 20
951.7190364502999
 30
0.0
 10
1067.587331898148
 20
951.4613707737661
 30
0.0
 10
1067.683430837823
 20
951.3273013351469
 30
0.0
 10
1067.826552301644
 20
951.1495376900116
 30
0.0
 10
1067.875580189292
 20
951.1039471628086
 30
0.0
 10
1067.875580189292
 20
951.1089350724884
 30
0.0
  0
LINE
  5
1AF
330
1F
100
AcDbEntity
  8
0
  6
CONTINUOUS
 62
     7
100
AcDbLine
 10
1057.8755925547
 20
1018.1085600961
 30
0.0
 11
1057.8755925547
 21
1149.1085573543
 31
0.0
  0
LINE
  5
1B0
330
1F
100
AcDbEntity
  8
0
  6
CONTINUOUS
 62
     7
100
AcDbLine
 10
1057.8755925547
 20
887.1085628379
 30
0.0
 11
1057.8755925547
 21
1018.1085600961
 31
0.0
  0
LINE
  5
1B1
330
1F
100
AcDbEntity
  8
0
  6
CONTINUOUS
 62
     7
100
AcDbLine
 10
1387.8037522685
 20
1018.1085600961
 30
0.0
 11
1387.8037522685
 21
1068.1085608412
 31
0.0
  0
LINE
  5
1B2
330
1F
100
AcDbEntity
  8
0
  6
CONTINUOUS
 62
     7
100
AcDbLine
 10
1387.8037522685
 20
968.108559351
 30
0.0
 11
1387.8037522685
 21
1018.1085600961
 31
0.0
  0
LINE
  5
1B3
330
1F
100
AcDbEntity
  8
0
  6
CONTINUOUS
 62
     7
100
AcDbLine
 10
1067.875583018
 20
1082.4041053165
 30
0.0
 11
1067.875583018
 21
1085.1081817854
 31
0.0
  0
LINE
  5
1B4
330
1F
100
AcDbEntity
  8
0
  6
CONTINUOUS
 62
     7
100
AcDbLine
 10
1067.875583018
 20
1079.06131665
 30
0.0
 11
1067.875583018
 21
1082.4041053165
 31
0.0
  0
LINE
  5
1B5
330
1F
100
AcDbEntity
  8
0
  6
CONTINUOUS
 62
     7
100
AcDbLine
 10
1067.875583018
 20
953.8130148757
 30
0.0
 11
1067.875583018
 21
957.1558035422
 31
0.0
  0
LINE
  5
1B6
330
1F
100
AcDbEntity
  8
0
  6
CONTINUOUS
 62
     7
100
AcDbLine
 10
1067.875583018
 20
951.1089384068
 30
0.0
 11
1067.875583018
 21
953.8130148757
 31
0.0
  0
ARC
  5
1B7
330
1F
100
AcDbEntity
  8
0
  6
CONTINUOUS
 62
     7
100
AcDbCircle
 10
1070.8728771075
 20
1141.4786812761
 30
0.0
 40
2.997294102640683
100
AcDbArc
 50
179.9946402775
 51
212.776208887
  0
ARC
  5
1B8
330
1F
100
AcDbEntity
  8
0
  6
CONTINUOUS
 62
     7
100
AcDbCircle
 10
1070.8734920619
 20
894.738308066
 30
0.0
 40
2.997909047639535
100
AcDbArc
 50
142.1953212763
 51
180.0028578273
  0
ARC
  5
1B9
330
1F
100
AcDbEntity
  8
0
  6
CONTINUOUS
 62
     7
100
AcDbCircle
 10
1070.873415969
 20
1141.478785335
 30
0.0
 40
2.997832956184625
100
AcDbArc
 50
179.996630056
 51
207.1155531766
  0
LINE
  5
1BA
330
1F
100
AcDbEntity
  8
0
  6
CONTINUOUS
 62
     7
100
AcDbLine
 10
1387.8037522685
 20
1068.1085608412
 30
0.0
 11
1387.8037522685
 21
968.108559351
 31
0.0
  0
LINE
  5
1BB
330
1F
100
AcDbEntity
  8
0
  6
CONTINUOUS
 62
     7
100
AcDbLine
 10
1402.542744125
 20
1018.1085600961
 30
0.0
 11
1402.542744125
 21
970.1085596789
 31
0.0
  0
LINE
  5
1BC
330
1F
100
AcDbEntity
  8
0
  6
CONTINUOUS
 62
     7
100
AcDbLine
 10
1402.542744125
 20
1066.1085605133
 30
0.0
 11
1402.542744125
 21
1018.1085600961
 31
0.0
  0
LINE
  5
1BD
330
1F
100
AcDbEntity
  8
0
  6
CONTINUOUS
 62
     7
100
AcDbLine
 10
800.4816363703
 20
908.6837827671
 30
0.0
 11
800.4814575564
 21
908.7072967995
 31
0.0
  0
LINE
  5
1BE
330
1F
100
AcDbEntity
  8
0
  6
CONTINUOUS
 62
     7
100
AcDbLine
 10
800.4814575564
 20
908.7072967995
 30
0.0
 11
800.4814575564
 21
1014.8587320909
 31
0.0
  0
LINE
  5
1BF
330
1F
100
AcDbEntity
  8
0
  6
CONTINUOUS
 62
     7
100
AcDbLine
 10
800.4814575564
 20
1014.8587320909
 30
0.0
 11
800.4816363703
 21
1014.8585600291
 31
0.0
  0
SPLINE
  5
1C0
330
1F
100
AcDbEntity
  8
0
  6
CONTINUOUS
 62
     7
100
AcDbSpline
210
0.0
220
0.0
230
1.0
 70
    24
 71
     3
 72
    12
 73
     8
 74
     0
 42
0.00000001
 43
0.00000001
 12
1.0
 22
0.0
 32
0.0
 13
1.0
 23
0.0
 33
0.0
 40
0.0
 40
0.0
 40
0.0
 40
0.0
 40
0.2162794218843327
 40
0.432561236687251
 40
0.6488173783587576
 40
0.8650435050611709
 40
1.0
 40
1.0
 40
1.0
 40
1.0
 10
800.4816363703424
 20
1014.858560029053
 30
0.0
 10
800.5185763228501
 20
1014.858560029053
 30
0.0
 10
800.5924566365701
 20
1014.858560029053
 30
0.0
 10
801.1198093511017
 20
1014.858560029053
 30
0.0
 10
801.8887890370082
 20
1014.858560029053
 30
0.0
 10
802.7256736527867
 20
1014.858560029053
 30
0.0
 10
803.2716604531082
 20
1014.858560029053
 30
0.0
 10
803.481478537243
 20
1014.858560029053
 30
0.0
  0
SPLINE
  5
1C1
330
1F
100
AcDbEntity
  8
0
  6
CONTINUOUS
 62
     7
100
AcDbSpline
210
0.0
220
0.0
230
1.0
 70
     8
 71
     3
 72
    12
 73
     8
 74
     0
 42
0.00000001
 43
0.00000001
 12
1.0
 22
0.0
 32
0.0
 13
1.0
 23
0.0
 33
0.0
 40
0.0
 40
0.0
 40
0.0
 40
0.0
 40
0.2161755114175297
 40
0.4323380369163389
 40
0.6485284695450286
 40
0.8647574890990573
 40
1.0
 40
1.0
 40
1.0
 40
1.0
 10
803.481478537243
 20
906.5856620181431
 30
0.0
 10
803.1442450062356
 20
906.6091074728924
 30
0.0
 10
802.4697982022379
 20
906.6559969739949
 30
0.0
 10
801.5709300598271
 20
907.0217088765902
 30
0.0
 10
800.8923455289856
 20
907.5599484739364
 30
0.0
 10
800.5375149927551
 20
908.1491213731272
 30
0.0
 10
800.4971632805168
 20
908.5352171962625
 30
0.0
 10
800.4816363703424
 20
908.6837827671399
 30
0.0
  0
LINE
  5
1C2
330
1F
100
AcDbEntity
  8
0
  6
CONTINUOUS
 62
     7
100
AcDbLine
 10
800.4816363703
 20
1021.3585601632
 30
0.0
 11
800.4814575564
 21
1021.3583881013
 31
0.0
  0
LINE
  5
1C3
330
1F
100
AcDbEntity
  8
0
  6
CONTINUOUS
 62
     7
100
AcDbLine
 10
800.4814575564
 20
1021.3583881013
 30
0.0
 11
800.4814575564
 21
1127.5098233927
 31
0.0
  0
LINE
  5
1C4
330
1F
100
AcDbEntity
  8
0
  6
CONTINUOUS
 62
     7
100
AcDbLine
 10
800.4814575564
 20
1127.5098233927
 30
0.0
 11
800.4816363703
 21
1127.5333374251
 31
0.0
  0
SPLINE
  5
1C5
330
1F
100
AcDbEntity
  8
0
  6
CONTINUOUS
 62
     7
100
AcDbSpline
210
0.0
220
0.0
230
1.0
 70
     8
 71
     3
 72
    12
 73
     8
 74
     0
 42
0.00000001
 43
0.00000001
 12
1.0
 22
0.0
 32
0.0
 13
1.0
 23
0.0
 33
0.0
 40
0.0
 40
0.0
 40
0.0
 40
0.0
 40
0.2162814522957564
 40
0.4325618551197035
 40
0.648818473816001
 40
0.865044038223429
 40
1.0
 40
1.0
 40
1.0
 40
1.0
 10
800.4816363703424
 20
1127.533337425076
 30
0.0
 10
800.5185753350898
 20
1127.771636007602
 30
0.0
 10
800.5924530853441
 20
1128.248232016348
 30
0.0
 10
801.1198132404968
 20
1128.880013157276
 30
0.0
 10
801.8887862113459
 20
1129.353925691635
 30
0.0
 10
802.7256732011216
 20
1129.597999703803
 30
0.0
 10
803.271660453721
 20
1129.622169813996
 30
0.0
 10
803.481478537243
 20
1129.631458174073
 30
0.0
  0
SPLINE
  5
1C6
330
1F
100
AcDbEntity
  8
0
  6
CONTINUOUS
 62
     7
100
AcDbSpline
210
0.0
220
0.0
230
1.0
 70
    24
 71
     3
 72
    12
 73
     8
 74
     0
 42
0.00000001
 43
0.00000001
 12
1.0
 22
0.0
 32
0.0
 13
1.0
 23
0.0
 33
0.0
 40
0.0
 40
0.0
 40
0.0
 40
0.0
 40
0.2161758357064422
 40
0.4323401988522794
 40
0.6485292446046698
 40
0.8647584765139374
 40
1.0
 40
1.0
 40
1.0
 40
1.0
 10
803.4814785372429
 20
1021.358560163163
 30
0.0
 10
803.1442441940426
 20
1021.358560163163
 30
0.0
 10
802.4697934048387
 20
1021.358560163163
 30
0.0
 10
801.5709381141074
 20
1021.358560163163
 30
0.0
 10
800.8923417883603
 20
1021.358560163163
 30
0.0
 10
800.5375161600901
 20
1021.358560163163
 30
0.0
 10
800.4971635477436
 20
1021.358560163163
 30
0.0
 10
800.4816363703424
 20
1021.358560163163
 30
0.0
  0
LINE
  5
1C7
330
1F
100
AcDbEntity
  8
0
  6
CONTINUOUS
 62
     7
100
AcDbLine
 10
806.4814995181
 20
857.1085616458
 30
0.0
 11
806.4814995181
 21
1179.1085585464
 31
0.0
  0
LINE
  5
1C8
330
1F
100
AcDbEntity
  8
0
  6
CONTINUOUS
 62
     7
100
AcDbLine
 10
803.4814785372
 20
1129.6314581741
 30
0.0
 11
803.4814785372
 21
1134.2276542891
 31
0.0
  0
LINE
  5
1C9
330
1F
100
AcDbEntity
  8
0
  6
CONTINUOUS
 62
     7
100
AcDbLine
 10
803.4814785372
 20
1179.0757610906
 30
0.0
 11
803.4814785372
 21
1179.1085585464
 31
0.0
  0
LINE
  5
1CA
330
1F
100
AcDbEntity
  8
0
  6
CONTINUOUS
 62
     7
100
AcDbLine
 10
803.4814785372
 20
857.1085616458
 30
0.0
 11
803.4814785372
 21
857.1413591016
 31
0.0
  0
LINE
  5
1CB
330
1F
100
AcDbEntity
  8
0
  6
CONTINUOUS
 62
     7
100
AcDbLine
 10
803.4814785372
 20
901.9894659031
 30
0.0
 11
803.4814785372
 21
906.5856620181
 31
0.0
  0
LINE
  5
1CC
330
1F
100
AcDbEntity
  8
0
  6
CONTINUOUS
 62
     7
100
AcDbLine
 10
803.4814785372
 20
1014.8585600291
 30
0.0
 11
803.4814785372
 21
1021.3585601632
 31
0.0
  0
LINE
  5
1CD
330
1F
100
AcDbEntity
  8
0
  6
CONTINUOUS
 62
     7
100
AcDbLine
 10
800.4814575564
 20
1021.3583881013
 30
0.0
 11
800.4814575564
 21
1014.8587320909
 31
0.0
  0
LINE
  5
1CE
330
1F
100
AcDbEntity
  8
0
  6
CONTINUOUS
 62
     7
100
AcDbLine
 10
800.4814575564
 20
904.1113465536
 30
0.0
 11
800.4816363703
 21
904.0875941027
 31
0.0
  0
LINE
  5
1CF
330
1F
100
AcDbEntity
  8
0
  6
CONTINUOUS
 62
     7
100
AcDbLine
 10
800.4814575564
 20
908.7347968925
 30
0.0
 11
800.4814575564
 21
904.1113465536
 31
0.0
  0
LINE
  5
1D0
330
1F
100
AcDbEntity
  8
0
  6
CONTINUOUS
 62
     7
100
AcDbLine
 10
800.4816363703
 20
1132.1295260895
 30
0.0
 11
800.4814575564
 21
1132.1057736386
 31
0.0
  0
LINE
  5
1D1
330
1F
100
AcDbEntity
  8
0
  6
CONTINUOUS
 62
     7
100
AcDbLine
 10
800.4814575564
 20
1132.1057736386
 30
0.0
 11
800.4814575564
 21
1127.5098233927
 31
0.0
  0
LINE
  5
1D2
330
1F
100
AcDbEntity
  8
0
  6
CONTINUOUS
 62
     7
100
AcDbLine
 10
800.4816363703
 20
860.1085528243
 30
0.0
 11
800.4814575564
 21
860.1419910301
 31
0.0
  0
SPLINE
  5
1D3
330
1F
100
AcDbEntity
  8
0
  6
CONTINUOUS
 62
     7
100
AcDbSpline
210
0.0
220
0.0
230
1.0
 70
     8
 71
     3
 72
    12
 73
     8
 74
     0
 42
0.00000001
 43
0.00000001
 12
1.0
 22
0.0
 32
0.0
 13
1.0
 23
0.0
 33
0.0
 40
0.0
 40
0.0
 40
0.0
 40
0.0
 40
0.2162814522957564
 40
0.4325618551197035
 40
0.648818473816001
 40
0.865044038223429
 40
1.0
 40
1.0
 40
1.0
 40
1.0
 10
800.4816363703424
 20
904.0875941027035
 30
0.0
 10
800.5185753350898
 20
903.8492954963276
 30
0.0
 10
800.5924530853441
 20
903.3726994398824
 30
0.0
 10
801.1198132404968
 20
902.7409186566855
 30
0.0
 10
801.8887862113459
 20
902.267004763158
 30
0.0
 10
802.7256732011216
 20
902.022935192977
 30
0.0
 10
803.271660453721
 20
901.9987572668118
 30
0.0
 10
803.481478537243
 20
901.9894659031262
 30
0.0
  0
SPLINE
  5
1D4
330
1F
100
AcDbEntity
  8
0
  6
CONTINUOUS
 62
     7
100
AcDbSpline
210
0.0
220
0.0
230
1.0
 70
     8
 71
     3
 72
    12
 73
     8
 74
     0
 42
0.00000001
 43
0.00000001
 12
1.0
 22
0.0
 32
0.0
 13
1.0
 23
0.0
 33
0.0
 40
0.0
 40
0.0
 40
0.0
 40
0.0
 40
0.2161758357064422
 40
0.4323401988522794
 40
0.6485292446046698
 40
0.8647584765139374
 40
1.0
 40
1.0
 40
1.0
 40
1.0
 10
803.4814785372429
 20
857.1413591016163
 30
0.0
 10
803.1442441940426
 20
857.1745175031331
 30
0.0
 10
802.4697934048387
 20
857.2408325464334
 30
0.0
 10
801.5709381141074
 20
857.7580370878898
 30
0.0
 10
800.8923417883603
 20
858.51921273425
 30
0.0
 10
800.5375161600901
 20
859.3524241329427
 30
0.0
 10
800.4971635477436
 20
859.8984492362188
 30
0.0
 10
800.4816363703424
 20
860.1085528243412
 30
0.0
  0
LINE
  5
1D5
330
1F
100
AcDbEntity
  8
0
  6
CONTINUOUS
 62
     7
100
AcDbLine
 10
800.4814575564
 20
860.1419910301
 30
0.0
 11
800.4814575564
 21
904.1113465536
 31
0.0
  0
LINE
  5
1D6
330
1F
100
AcDbEntity
  8
0
  6
CONTINUOUS
 62
     7
100
AcDbLine
 10
800.4814575564
 20
1176.0751291622
 30
0.0
 11
800.4816363703
 21
1176.1085673679
 31
0.0
  0
SPLINE
  5
1D7
330
1F
100
AcDbEntity
  8
0
  6
CONTINUOUS
 62
     7
100
AcDbSpline
210
0.0
220
0.0
230
1.0
 70
     8
 71
     3
 72
    12
 73
     8
 74
     0
 42
0.00000001
 43
0.00000001
 12
1.0
 22
0.0
 32
0.0
 13
1.0
 23
0.0
 33
0.0
 40
0.0
 40
0.0
 40
0.0
 40
0.0
 40
0.2162794218843327
 40
0.432561236687251
 40
0.6488173783587576
 40
0.8650435050611709
 40
1.0
 40
1.0
 40
1.0
 40
1.0
 10
800.4816363703424
 20
1176.108567367875
 30
0.0
 10
800.5185763228501
 20
1176.445568102175
 30
0.0
 10
800.5924566365701
 20
1177.119573299356
 30
0.0
 10
801.1198093511017
 20
1178.013046617637
 30
0.0
 10
801.8887890370082
 20
1178.683255437417
 30
0.0
 10
802.7256736527867
 20
1179.028421521475
 30
0.0
 10
803.2716604531082
 20
1179.062619209802
 30
0.0
 10
803.481478537243
 20
1179.0757610906
 30
0.0
  0
SPLINE
  5
1D8
330
1F
100
AcDbEntity
  8
0
  6
CONTINUOUS
 62
     7
100
AcDbSpline
210
0.0
220
0.0
230
1.0
 70
     8
 71
     3
 72
    12
 73
     8
 74
     0
 42
0.00000001
 43
0.00000001
 12
1.0
 22
0.0
 32
0.0
 13
1.0
 23
0.0
 33
0.0
 40
0.0
 40
0.0
 40
0.0
 40
0.0
 40
0.2161755114175297
 40
0.4323380369163389
 40
0.6485284695450286
 40
0.8647574890990573
 40
1.0
 40
1.0
 40
1.0
 40
1.0
 10
803.481478537243
 20
1134.22765428909
 30
0.0
 10
803.1442450062356
 20
1134.204204817531
 30
0.0
 10
802.4697982022379
 20
1134.157307283049
 30
0.0
 10
801.5709300598271
 20
1133.791610928336
 30
0.0
 10
800.8923455289856
 20
1133.253365893599
 30
0.0
 10
800.5375149927551
 20
1132.664198420941
 30
0.0
 10
800.4971632805168
 20
1132.278094699553
 30
0.0
 10
800.4816363703424
 20
1132.129526089512
 30
0.0
  0
LINE
  5
1D9
330
1F
100
AcDbEntity
  8
0
  6
CONTINUOUS
 62
     7
100
AcDbLine
 10
800.4814575564
 20
1132.1057736386
 30
0.0
 11
800.4814575564
 21
1176.0751291622
 31
0.0
  0
LINE
  5
1DA
330
1F
100
AcDbEntity
  8
0
  6
CONTINUOUS
 62
     7
100
AcDbLine
 10
1036.4814589869
 20
860.1085528243
 30
0.0
 11
1036.4814589869
 21
1176.1085673679
 31
0.0
  0
LINE
  5
1DB
330
1F
100
AcDbEntity
  8
0
  6
CONTINUOUS
 62
     7
100
AcDbLine
 10
1051.4814446818
 20
1176.1085673679
 30
0.0
 11
1051.4814446818
 21
860.1085528243
 31
0.0
  0
LINE
  5
1DC
330
1F
100
AcDbEntity
  8
0
  6
CONTINUOUS
 62
     7
100
AcDbLine
 10
1057.8755925547
 20
1149.1085573543
 30
0.0
 11
1057.8755925547
 21
887.1085628379
 31
0.0
  0
LINE
  5
1DD
330
1F
100
AcDbEntity
  8
0
  6
CONTINUOUS
 62
     7
100
AcDbLine
 10
1571.388256098
 20
998.2085603733
 30
0.0
 11
1571.388256098
 21
1038.0085598189
 31
0.0
  0
LINE
  5
1DE
330
1F
100
AcDbEntity
  8
0
  6
CONTINUOUS
 62
     7
100
AcDbLine
 10
1550.2702559482
 20
1037.008559655
 30
0.0
 11
1550.2702559482
 21
999.2085605372
 31
0.0
  0
LINE
  5
1DF
330
1F
100
AcDbEntity
  8
0
  6
PHANTOM
 62
     8
100
AcDbLine
 10
1064.8755620372
 20
887.1085628379
 30
0.0
 11
1064.8755620372
 21
1149.1085573543
 31
0.0
  0
LWPOLYLINE
  5
1E0
330
1F
100
AcDbEntity
  8
0
  6
PHANTOM
 62
     8
100
AcDbPolyline
 90
        9
 70
   128
 43
0.0
 10
1067.875583018
 20
1077.183416437
 10
1067.9183195483
 20
1076.9417941082
 10
1068.045396651
 20
1076.7070635665
 10
1068.2531784426
 20
1076.4859154333
 10
1068.5357044589
 20
1076.2846528996
 10
1068.8849876773
 20
1076.1090129126
 10
1069.2909549128
 20
1075.9640059877
 10
1069.7421024691
 20
1075.8537634719
 10
1070.2256153475
 20
1075.7814295102
  0
LINE
  5
1E1
330
1F
100
AcDbEntity
  8
0
  6
PHANTOM
 62
     8
100
AcDbLine
 10
1070.2256153475
 20
1075.7814295102
 30
0.0
 11
1070.2256153475
 21
960.435690682
 31
0.0
  0
LWPOLYLINE
  5
1E2
330
1F
100
AcDbEntity
  8
0
  6
PHANTOM
 62
     8
100
AcDbPolyline
 90
        9
 70
   128
 43
0.0
 10
1067.875583018
 20
959.0337037552
 10
1067.9183195483
 20
959.275326084
 10
1068.045396651
 20
959.5100566257
 10
1068.2531784426
 20
959.731204759
 10
1068.5357044589
 20
959.9324672926
 10
1068.8849876773
 20
960.1081072796
 10
1069.2909549128
 20
960.2531142045
 10
1069.7421024691
 20
960.3633567203
 10
1070.2256153475
 20
960.435690682
  0
SPLINE
  5
1E3
330
1F
100
AcDbEntity
  8
0
  6
PHANTOM
 62
     8
100
AcDbSpline
210
0.0
220
0.0
230
1.0
 70
     8
 71
     3
 72
    10
 73
     6
 74
     0
 42
0.00000001
 43
0.00000001
 12
1.0
 22
0.0
 32
0.0
 13
1.0
 23
0.0
 33
0.0
 40
0.0
 40
0.0
 40
0.0
 40
0.0
 40
0.1707023267248199
 40
0.5856954278492243
 40
1.0
 40
1.0
 40
1.0
 40
1.0
 10
1069.863278711956
 20
1138.666285525643
 30
0.0
 10
1069.856652829701
 20
1138.667962062219
 30
0.0
 10
1069.833918816544
 20
1138.673714413851
 30
0.0
 10
1070.144323360007
 20
1138.595170611379
 30
0.0
 10
1070.19853302099
 20
1138.565771833263
 30
0.0
 10
1070.225615347545
 20
1138.551084648453
 30
0.0
  0
SPLINE
  5
1E4
330
1F
100
AcDbEntity
  8
0
  6
PHANTOM
 62
     8
100
AcDbSpline
210
0.0
220
0.0
230
1.0
 70
     8
 71
     3
 72
    10
 73
     6
 74
     0
 42
0.00000001
 43
0.00000001
 12
1.0
 22
0.0
 32
0.0
 13
1.0
 23
0.0
 33
0.0
 40
0.0
 40
0.0
 40
0.0
 40
0.0
 40
0.4690549889717015
 40
0.816259989787423
 40
1.0
 40
1.0
 40
1.0
 40
1.0
 10
1070.225615347545
 20
897.6660355437626
 30
0.0
 10
1070.190199855364
 20
897.6485143674435
 30
0.0
 10
1070.12856902323
 20
897.6180236242689
 30
0.0
 10
1069.840446471942
 20
897.5450375694506
 30
0.0
 10
1069.857408719038
 20
897.5493442775866
 30
0.0
 10
1069.863278711956
 20
897.550834666573
 30
0.0
  0
LINE
  5
1E5
330
1F
100
AcDbEntity
  8
0
  6
PHANTOM
 62
     8
100
AcDbLine
 10
1070.2256153475
 20
955.3389012326
 30
0.0
 11
1070.2256153475
 21
897.6660355438
 31
0.0
  0
SPLINE
  5
1E6
330
1F
100
AcDbEntity
  8
0
  6
PHANTOM
 62
     8
100
AcDbSpline
210
0.0
220
0.0
230
1.0
 70
     8
 71
     3
 72
    16
 73
    12
 74
     0
 42
0.00000001
 43
0.00000001
 12
1.0
 22
0.0
 32
0.0
 13
1.0
 23
0.0
 33
0.0
 40
0.0
 40
0.0
 40
0.0
 40
0.0
 40
0.2500000000000021
 40
0.2500000000000021
 40
0.5000000000000042
 40
0.5000000000000042
 40
0.6250000000000058
 40
0.6250000000000058
 40
0.7500000000000072
 40
0.7500000000000072
 40
1.0
 40
1.0
 40
1.0
 40
1.0
 10
1070.225618892563
 20
960.435691274076
 30
0.0
 10
1070.225618892563
 20
960.002377883149
 30
0.0
 10
1070.146548385623
 20
959.570594938482
 30
0.0
 10
1069.947183698465
 20
958.7095587819119
 30
0.0
 10
1069.830913651461
 20
958.2800424413496
 30
0.0
 10
1069.8238863078
 20
957.6414958850443
 30
0.0
 10
1069.849425353984
 20
957.428415604919
 30
0.0
 10
1069.932594718532
 20
957.0102483315217
 30
0.0
 10
1069.987788515924
 20
956.8049680483135
 30
0.0
 10
1070.141839662737
 20
956.1874723170129
 30
0.0
 10
1070.225618892563
 20
955.7727087941198
 30
0.0
 10
1070.225618892563
 20
955.3389024121687
 30
0.0
  0
SPLINE
  5
1E7
330
1F
100
AcDbEntity
  8
0
  6
PHANTOM
 62
     8
100
AcDbSpline
210
0.0
220
0.0
230
1.0
 70
     8
 71
     3
 72
    16
 73
    12
 74
     0
 42
0.00000001
 43
0.00000001
 12
1.0
 22
0.0
 32
0.0
 13
1.0
 23
0.0
 33
0.0
 40
0.0
 40
0.0
 40
0.0
 40
0.0
 40
0.2500000000000008
 40
0.2500000000000008
 40
0.5000000000000016
 40
0.5000000000000016
 40
0.625000000000004
 40
0.625000000000004
 40
0.7500000000000063
 40
0.7500000000000063
 40
1.0
 40
1.0
 40
1.0
 40
1.0
 10
1070.225618892563
 20
1080.878217780046
 30
0.0
 10
1070.225618892563
 20
1080.456958755887
 30
0.0
 10
1070.146548385623
 20
1080.051534166886
 30
0.0
 10
1069.947183698465
 20
1079.246597621287
 30
0.0
 10
1069.830913651461
 20
1078.845962770137
 30
0.0
 10
1069.8238863078
 20
1078.20918261119
 30
0.0
 10
1069.849425353984
 20
1077.989742301465
 30
0.0
 10
1069.932594718532
 20
1077.550205443513
 30
0.0
 10
1069.987788515924
 20
1077.330475698544
 30
0.0
 10
1070.141839662737
 20
1076.669924858579
 30
0.0
 10
1070.225618892563
 20
1076.227648710686
 30
0.0
 10
1070.225618892563
 20
1075.781428918139
 30
0.0
  0
LINE
  5
1E8
330
1F
100
AcDbEntity
  8
0
  6
PHANTOM
 62
     8
100
AcDbLine
 10
1070.2256153475
 20
1138.5510846485
 30
0.0
 11
1070.2256153475
 21
1080.8782189597
 31
0.0
  0
LWPOLYLINE
  5
1E9
330
1F
100
AcDbEntity
  8
0
  6
PHANTOM
 62
     8
100
AcDbPolyline
 90
        9
 70
   128
 43
0.0
 10
1067.875583018
 20
1082.4041053165
 10
1067.9183195483
 20
1082.1411296237
 10
1068.045396651
 20
1081.8856566656
 10
1068.2531784426
 20
1081.6449656595
 10
1068.5357044589
 20
1081.4259111393
 10
1068.8849876773
 20
1081.234751593
 10
1069.2909549128
 20
1081.0769259442
 10
1069.7421024691
 20
1080.9569417942
 10
1070.2256153475
 20
1080.8782189597
  0
LWPOLYLINE
  5
1EA
330
1F
100
AcDbEntity
  8
0
  6
PHANTOM
 62
     8
100
AcDbPolyline
 90
        9
 70
   128
 43
0.0
 10
1067.875583018
 20
953.8130148757
 10
1067.9183195483
 20
954.0759905685
 10
1068.045396651
 20
954.3314635266
 10
1068.2531784426
 20
954.5721545328
 10
1068.5357044589
 20
954.7912090529
 10
1068.8849876773
 20
954.9823685993
 10
1069.2909549128
 20
955.140194248
 10
1069.7421024691
 20
955.260178398
 10
1070.2256153475
 20
955.3389012326
  0
ARC
  5
1EB
330
1F
100
AcDbEntity
  8
0
  6
PHANTOM
 62
     8
100
AcDbCircle
 10
1070.8750688605
 20
1141.4795286934
 30
0.0
 40
2.999595704377361
100
AcDbArc
 50
212.7671544705
 51
257.4956530908
  0
ARC
  5
1EC
330
1F
100
AcDbEntity
  8
0
  6
PHANTOM
 62
     8
100
AcDbCircle
 10
1070.8743611165
 20
894.7387130075
 30
0.0
 40
2.998347595596986
100
AcDbArc
 50
102.4957834623
 51
142.2116147046
  0
LINE
  5
1ED
330
1F
100
AcDbEntity
  8
0
  6
PHANTOM
 62
     8
100
AcDbLine
 10
1400.5427549731
 20
1018.1085600961
 30
0.0
 11
1400.5427549731
 21
1068.1085608412
 31
0.0
  0
LINE
  5
1EE
330
1F
100
AcDbEntity
  8
0
  6
PHANTOM
 62
     8
100
AcDbLine
 10
1400.5427549731
 20
968.108559351
 30
0.0
 11
1400.5427549731
 21
1018.1085600961
 31
0.0
  0
LINE
  5
1EF
330
1F
100
AcDbEntity
  8
0
  6
PHANTOM
 62
     8
100
AcDbLine
 10
803.4814785372
 20
1014.8585600291
 30
0.0
 11
803.4814785372
 21
906.5856620181
 31
0.0
  0
LINE
  5
1F0
330
1F
100
AcDbEntity
  8
0
  6
PHANTOM
 62
     8
100
AcDbLine
 10
803.4814785372
 20
1129.6314581741
 30
0.0
 11
803.4814785372
 21
1021.3585601632
 31
0.0
  0
LINE
  5
1F1
330
1F
100
AcDbEntity
  8
0
  6
PHANTOM
 62
     8
100
AcDbLine
 10
803.4814785372
 20
1179.0757610906
 30
0.0
 11
803.4814785372
 21
1134.2276542891
 31
0.0
  0
LINE
  5
1F2
330
1F
100
AcDbEntity
  8
0
  6
PHANTOM
 62
     8
100
AcDbLine
 10
803.4814785372
 20
901.9894659031
 30
0.0
 11
803.4814785372
 21
857.1413591016
 31
0.0
  0
LINE
  5
1F3
330
1F
100
AcDbEntity
  8
0
  6
PHANTOM
 62
     8
100
AcDbLine
 10
803.4814785372
 20
904.0875941027
 30
0.0
 11
800.4816363703
 21
904.0875941027
 31
0.0
  0
LINE
  5
1F4
330
1F
100
AcDbEntity
  8
0
  6
PHANTOM
 62
     8
100
AcDbLine
 10
803.4814785372
 20
1132.1295260895
 30
0.0
 11
800.4816363703
 21
1132.1295260895
 31
0.0
  0
LINE
  5
1F5
330
1F
100
AcDbEntity
  8
0
  6
PHANTOM
 62
     8
100
AcDbLine
 10
905.7846854579
 20
857.1085616458
 30
0.0
 11
905.7846854579
 21
1179.1085585464
 31
0.0
  0
LINE
  5
1F6
330
1F
100
AcDbEntity
  8
0
  6
PHANTOM
 62
     8
100
AcDbLine
 10
917.0322607409
 20
1177.8270586837
 30
0.0
 11
917.0322607409
 21
858.3900615085
 31
0.0
  0
LINE
  5
1F7
330
1F
100
AcDbEntity
  8
0
  6
PHANTOM
 62
     8
100
AcDbLine
 10
1039.4814799678
 20
1179.1085585464
 30
0.0
 11
1039.4814799678
 21
857.1085616458
 31
0.0
  0
LINE
  5
1F8
330
1F
100
AcDbEntity
  8
0
  6
PHANTOM
 62
     8
100
AcDbLine
 10
1048.4814833056
 20
857.1085616458
 30
0.0
 11
1048.4814833056
 21
1179.1085585464
 31
0.0
  0
LINE
  5
1F9
330
1F
100
AcDbEntity
  8
0
  6
PHANTOM
 62
     8
100
AcDbLine
 10
1030.3567241084
 20
884.5530732978
 30
0.0
 11
1030.3567241084
 21
1151.6640468944
 31
0.0
  0
LINE
  5
1FA
330
1F
100
AcDbEntity
  8
0
  6
PHANTOM
 62
     8
100
AcDbLine
 10
1056.4814995181
 20
1149.1085573543
 30
0.0
 11
1056.4814995181
 21
887.1085628379
 31
0.0
  0
LINE
  5
1FB
330
1F
100
AcDbEntity
  8
0
  6
PHANTOM
 62
     8
100
AcDbLine
 10
1516.4915363442
 20
1018.1085600961
 30
0.0
 11
1516.4915363442
 21
1037.5496766973
 31
0.0
  0
LINE
  5
1FC
330
1F
100
AcDbEntity
  8
0
  6
PHANTOM
 62
     8
100
AcDbLine
 10
1516.4915363442
 20
998.6674434949
 30
0.0
 11
1516.4915363442
 21
1018.1085600961
 31
0.0
  0
LINE
  5
1FD
330
1F
100
AcDbEntity
  8
0
  6
PHANTOM
 62
     8
100
AcDbLine
 10
1521.1123417269
 20
1037.008559655
 30
0.0
 11
1521.1123417269
 21
999.2085605372
 31
0.0
  0
ARC
  5
1FE
330
1F
100
AcDbEntity
  8
RIQUADRO
  6
CENTERX2
100
AcDbCircle
 10
1593.6472557093
 20
1018.1085600961
 30
0.0
 40
786.0000000000001
100
AcDbArc
 50
170.9270170568
 51
189.0729829432
  0
DIMENSION
  5
1FF
330
1F
100
AcDbEntity
  8
RIQUADRO
100
AcDbDimension
  2
_D
 10
1575.5882557093
 20
999.1085600961
 30
0.1
 11
1575.5882557093
 21
710.3746720552
 31
0.0
 70
   102
  1
<>
  3
SLDDIMSTYLE0
100
AcDbOrdinateDimension
 13
1575.5882557093
 23
999.1085600961
 33
0.1
 14
1575.5882557093
 24
721.887487464
 34
0.1
  0
DIMENSION
  5
20E
330
1F
100
AcDbEntity
  8
RIQUADRO
100
AcDbDimension
  2
_D_1
 10
1575.5882557093
 20
999.1085600961
 30
0.1
 11
1550.2702557093
 21
697.444989606
 31
0.0
 70
   102
  1
<>
  3
SLDDIMSTYLE1
100
AcDbOrdinateDimension
 13
1550.2702557093
 23
999.2085600961
 33
0.1
 14
1550.2702557093
 24
721.887487464
 34
0.1
  0
DIMENSION
  5
21E
330
1F
100
AcDbEntity
  8
RIQUADRO
100
AcDbDimension
  2
_D_2
 10
1575.5882557093
 20
999.1085600961
 30
0.1
 11
1521.1123440953
 21
697.444989606
 31
0.0
 70
   102
  1
<>
  3
SLDDIMSTYLE1
100
AcDbOrdinateDimension
 13
1521.1123440953
 23
999.2085600961
 33
0.1
 14
1521.1123440953
 24
721.887487464
 34
0.1
  0
DIMENSION
  5
226
330
1F
100
AcDbEntity
  8
RIQUADRO
100
AcDbDimension
  2
_D_3
 10
1575.5882557093
 20
999.1085600961
 30
0.1
 11
1402.5427508862
 21
687.0967148612
 31
0.0
 70
   102
  1
<>
  3
SLDDIMSTYLE2
100
AcDbOrdinateDimension
 13
1402.5427508862
 23
970.1085600961
 33
0.1
 14
1402.5427508862
 24
721.887487464
 34
0.1
  0
DIMENSION
  5
22F
330
1F
100
AcDbEntity
  8
RIQUADRO
100
AcDbDimension
  2
_D_4
 10
1575.5882557093
 20
999.1085600961
 30
0.1
 11
1069.7608433347
 21
687.0967148612
 31
0.0
 70
   102
  1
<>
  3
SLDDIMSTYLE2
100
AcDbOrdinateDimension
 13
1067.8755801893
 23
890.1561791437
 33
0.1
 14
1069.7608433347
 24
721.887487464
 34
0.1
  0
DIMENSION
  5
239
330
1F
100
AcDbEntity
  8
RIQUADRO
100
AcDbDimension
  2
_D_5
 10
1575.5882557093
 20
999.1085600961
 30
0.1
 11
1052.1832874793
 21
687.0967148612
 31
0.0
 70
   102
  1
<>
  3
SLDDIMSTYLE2
100
AcDbOrdinateDimension
 13
1051.481472117
 23
860.1085600961
 33
0.1
 14
1052.1832874793
 24
721.887487464
 34
0.1
  0
DIMENSION
  5
243
330
1F
100
AcDbEntity
  8
RIQUADRO
100
AcDbDimension
  2
_D_6
 10
1575.5882557093
 20
999.1085600961
 30
0.1
 11
1034.5962089716
 21
687.0967148612
 31
0.0
 70
   102
  1
<>
  3
SLDDIMSTYLE2
100
AcDbOrdinateDimension
 13
1036.481472117
 23
860.1085600961
 33
0.1
 14
1034.5962089716
 24
721.887487464
 34
0.1
  0
DIMENSION
  5
24D
330
1F
100
AcDbEntity
  8
RIQUADRO
100
AcDbDimension
  2
_D_7
 10
1575.5882557093
 20
999.1085600961
 30
0.1
 11
905.7846917019
 21
687.0967148612
 31
0.0
 70
   102
  1
<>
  3
SLDDIMSTYLE2
100
AcDbOrdinateDimension
 13
905.7846917019
 23
857.1085600961
 33
0.1
 14
905.7846917019
 24
721.887487464
 34
0.1
  0
DIMENSION
  5
255
330
1F
100
AcDbEntity
  8
RIQUADRO
100
AcDbDimension
  2
_D_8
 10
1575.5882557093
 20
999.1085600961
 30
0.1
 11
800.481472117
 21
687.0967148612
 31
0.0
 70
   102
  1
<>
  3
SLDDIMSTYLE2
100
AcDbOrdinateDimension
 13
800.481472117
 23
860.141985729
 33
0.1
 14
800.481472117
 24
721.887487464
 34
0.1
  0
DIMENSION
  5
25D
330
1F
100
AcDbEntity
  8
RIQUADRO
100
AcDbDimension
  2
_D_9
 10
1575.5882557093
 20
999.1085600961
 30
0.1
 11
1595.3638603577
 21
702.6078050148
 31
0.0
 70
   102
  1
<>
  3
SLDDIMSTYLE1
100
AcDbOrdinateDimension
 13
1580.1702557093
 23
1006.2085600961
 33
0.1
 14
1595.3638603577
 24
721.887487464
 34
0.1
  0
DIMENSION
  5
267
330
1F
100
AcDbEntity
  8
RIQUADRO
100
AcDbDimension
  2
_D_10
 10
800.481472117
 20
1244.3498707014
 30
0.0
 11
990.0919290158
 21
1244.3498707014
 31
0.0
 70
   160
  1
<>\PFrom lens to chassis edge\PW.D.- see the data sheet
  3
SLDDIMSTYLE3
100
AcDbAlignedDimension
 13
807.6472557093
 23
1018.1085600961
 33
0.0
 14
800.481472117
 24
1176.0751344632
 34
0.0
100
AcDbRotatedDimension
  0
DIMENSION
  5
276
330
1F
100
AcDbEntity
  8
RIQUADRO
100
AcDbDimension
  2
_D_11
 10
1684.7702146564
 20
1005.4085600961
 30
0.0
 11
1684.7702146564
 21
1094.2335158675
 31
0.0
 70
   160
  1
(%%c<>\PFiletto C,\P1/32 TPI)
  3
SLDDIMSTYLE4
100
AcDbAlignedDimension
 13
1579.3702557093
 23
1030.8085600961
 33
0.0
 14
1579.3702557093
 24
1005.4085600961
 34
0.0
 50
90.0
100
AcDbRotatedDimension
  0
DIMENSION
  5
287
330
1F
100
AcDbEntity
  8
RIQUADRO
100
AcDbDimension
  2
_D_12
 10
1534.0832263519
 20
999.2085600961
 30
0.0
 11
1534.0832263519
 21
1131.4888460636
 31
0.0
 70
   160
  1
%%c<>h8\PClamping diameter
  3
SLDDIMSTYLE5
100
AcDbAlignedDimension
 13
1521.1123440953
 23
1037.0085600961
 33
0.0
 14
1521.1123440953
 24
999.2085600961
 34
0.0
 50
90.0
100
AcDbRotatedDimension
  0
DIMENSION
  5
297
330
1F
100
AcDbEntity
  8
RIQUADRO
100
AcDbDimension
  2
_D_13
 10
1560.0675643551
 20
1036.9585600961
 30
0.0
 11
1560.0675643551
 21
1136.4157120632
 31
0.0
 70
   160
  1
%%c<>
  3
SLDDIMSTYLE4
100
AcDbAlignedDimension
 13
1567.6702557093
 23
999.2585600961
 33
0.0
 14
1567.6702557093
 24
1036.9585600961
 34
0.0
 50
90.0
100
AcDbRotatedDimension
  0
DIMENSION
  5
2A1
330
1F
100
AcDbEntity
  8
RIQUADRO
100
AcDbDimension
  2
_D_14
 10
1580.1702557093
 20
1315.0632987713
 30
0.0
 11
1146.122996043
 21
1315.0632987713
 31
0.0
 70
   160
  1
<>
  3
SLDDIMSTYLE4
100
AcDbAlignedDimension
 13
800.481472117
 23
1176.0751344632
 33
0.0
 14
1580.1702557093
 24
1030.0085600961
 34
0.0
100
AcDbRotatedDimension
  0
DIMENSION
  5
2AB
330
1F
100
AcDbEntity
  8
RIQUADRO
100
AcDbDimension
  2
_D_15
 10
1192.3777612931
 20
857.1085600961
 30
0.0
 11
1192.3777612931
 21
1004.8285763782
 31
0.0
 70
   160
  1
%%c<>\PClamping Diameter
  3
SLDDIMSTYLE6
100
AcDbAlignedDimension
 13
1048.481472117
 23
1179.1085600961
 33
0.0
 14
1048.481472117
 24
857.1085600961
 34
0.0
 50
90.0
100
AcDbRotatedDimension
  0
DIMENSION
  5
2BB
330
1F
100
AcDbEntity
  8
RIQUADRO
100
AcDbDimension
  2
_D_16
 10
768.3298197791
 20
857.1085600961
 30
0.0
 11
768.3298197791
 21
1005.4810491791
 31
0.0
 70
   160
  1
%%c<>
  3
SLDDIMSTYLE4
100
AcDbAlignedDimension
 13
806.481472117
 23
1179.1085600961
 33
0.0
 14
806.481472117
 24
857.1085600961
 34
0.0
 50
90.0
100
AcDbRotatedDimension
  0
CIRCLE
  5
2C6
330
1F
100
AcDbEntity
  8
0
  6
CONTINUOUS
 62
     7
100
AcDbCircle
 10
424.9442286559
 20
1018.1085600961
 30
0.0
 40
8.75
  0
CIRCLE
  5
2C7
330
1F
100
AcDbEntity
  8
0
  6
CONTINUOUS
 62
     7
100
AcDbCircle
 10
424.9442286559
 20
1028.1085600961
 30
0.0
 40
0.8999999999999773
  0
CIRCLE
  5
2C8
330
1F
100
AcDbEntity
  8
0
  6
CONTINUOUS
 62
     7
100
AcDbCircle
 10
424.9442286559
 20
1008.1085600961
 30
0.0
 40
0.8999999999999773
  0
LWPOLYLINE
  5
2C9
330
1F
100
AcDbEntity
  8
0
  6
CONTINUOUS
 62
     7
100
AcDbPolyline
 90
        3
 70
   128
 43
0.0
 10
424.045140378
 20
1028.0680603791
 10
424.4684094915
 20
1028.0972331274
 10
425.8433169338
 20
1028.0680603791
  0
LWPOLYLINE
  5
2CA
330
1F
100
AcDbEntity
  8
0
  6
CONTINUOUS
 62
     7
100
AcDbPolyline
 90
        3
 70
   128
 43
0.0
 10
425.8433169338
 20
1008.1490598131
 10
424.4684094915
 20
1008.1198870648
 10
424.045140378
 20
1008.1490598131
  0
CIRCLE
  5
2CB
330
1F
100
AcDbEntity
  8
0
  6
CONTINUOUS
 62
     7
100
AcDbCircle
 10
424.9442286559
 20
1018.1085600961
 30
0.0
 40
20.0
  0
CIRCLE
  5
2CC
330
1F
100
AcDbEntity
  8
0
  6
CONTINUOUS
 62
     7
100
AcDbCircle
 10
424.9442286559
 20
1018.1085600961
 30
0.0
 40
19.0
  0
CIRCLE
  5
2CD
330
1F
100
AcDbEntity
  8
0
  6
CONTINUOUS
 62
     7
100
AcDbCircle
 10
424.9442286559
 20
1018.1085600961
 30
0.0
 40
12.70000000000005
  0
CIRCLE
  5
2CE
330
1F
100
AcDbEntity
  8
0
  6
CONTINUOUS
 62
     7
100
AcDbCircle
 10
424.9442286559
 20
1018.1085600961
 30
0.0
 40
11.90000000000003
  0
CIRCLE
  5
2CF
330
1F
100
AcDbEntity
  8
0
  6
CONTINUOUS
 62
     7
100
AcDbCircle
 10
424.9442286559
 20
1018.1085600961
 30
0.0
 40
11.25
  0
ARC
  5
2D0
330
1F
100
AcDbEntity
  8
0
  6
CONTINUOUS
 62
     7
100
AcDbCircle
 10
534.0634295327
 20
955.1085600961
 30
0.0
 40
4.000000000000024
100
AcDbArc
 50
101.1019142916
 51
198.8980857084
  0
ARC
  5
2D1
330
1F
100
AcDbEntity
  8
0
  6
CONTINUOUS
 62
     7
100
AcDbCircle
 10
534.0634295327
 20
1081.1085600961
 30
0.0
 40
4.000000000000131
100
AcDbArc
 50
161.1019142916
 51
258.8980857084
  0
ARC
  5
2D2
330
1F
100
AcDbEntity
  8
0
  6
CONTINUOUS
 62
     7
100
AcDbCircle
 10
424.9442286559
 20
892.1085600961
 30
0.0
 40
4.000000000000068
100
AcDbArc
 50
41.1019142916
 51
138.8980857084
  0
ARC
  5
2D3
330
1F
100
AcDbEntity
  8
0
  6
CONTINUOUS
 62
     7
100
AcDbCircle
 10
424.9442286559
 20
1144.1085600961
 30
0.0
 40
3.999999999999887
100
AcDbArc
 50
221.1019142916
 51
318.8980857084
  0
ARC
  5
2D4
330
1F
100
AcDbEntity
  8
0
  6
CONTINUOUS
 62
     7
100
AcDbCircle
 10
315.8250277791
 20
1081.1085600961
 30
0.0
 40
4.000000000000077
100
AcDbArc
 50
281.1019142916
 51
18.8980857084
  0
ARC
  5
2D5
330
1F
100
AcDbEntity
  8
0
  6
CONTINUOUS
 62
     7
100
AcDbCircle
 10
315.8250277791
 20
955.1085600961
 30
0.0
 40
4.00000000000002
100
AcDbArc
 50
341.1019142916
 51
78.8980857084
  0
CIRCLE
  5
2D6
330
1F
100
AcDbEntity
  8
0
  6
CONTINUOUS
 62
     7
100
AcDbCircle
 10
424.9442286559
 20
1018.1085600961
 30
0.0
 40
130.9999999999976
  0
SPLINE
  5
2D7
330
1F
100
AcDbEntity
  8
0
  6
CONTINUOUS
 62
     7
100
AcDbSpline
210
0.0
220
0.0
230
1.0
 70
     8
 71
     3
 72
    30
 73
    26
 74
     0
 42
0.00000001
 43
0.00000001
 12
1.0
 22
0.0
 32
0.0
 13
1.0
 23
0.0
 33
0.0
 40
0.0
 40
0.0
 40
0.0
 40
0.0
 40
0.1250000000000048
 40
0.1250000000000048
 40
0.2500000000000095
 40
0.2500000000000095
 40
0.3125000000000096
 40
0.3125000000000096
 40
0.3750000000000097
 40
0.3750000000000097
 40
0.4375000000000097
 40
0.4375000000000097
 40
0.5000000000000097
 40
0.5000000000000097
 40
0.5625000000000095
 40
0.5625000000000095
 40
0.6250000000000095
 40
0.6250000000000095
 40
0.6875000000000094
 40
0.6875000000000094
 40
0.7500000000000094
 40
0.7500000000000094
 40
0.8750000000000048
 40
0.8750000000000048
 40
1.0
 40
1.0
 40
1.0
 40
1.0
 10
421.4530671562317
 20
890.1561791437296
 30
0.0
 10
421.6307856393343
 20
889.8383907913937
 30
0.0
 10
421.8447155362076
 20
889.5553720953351
 30
0.0
 10
422.342223231536
 20
889.0499136114648
 30
0.0
 10
422.6179226245724
 20
888.8360085438457
 30
0.0
 10
423.0683627621914
 20
888.5714072152992
 30
0.0
 10
423.2247923861206
 20
888.4928110265848
 30
0.0
 10
423.5443282254171
 20
888.357509416055
 30
0.0
 10
423.708341344351
 20
888.3002373158542
 30
0.0
 10
424.0462934011752
 20
888.2067076996466
 30
0.0
 10
424.2214631631351
 20
888.1702803250815
 30
0.0
 10
424.5783205861893
 20
888.1212616627158
 30
0.0
 10
424.7572560035461
 20
888.1089043370729
 30
0.0
 10
425.116170198423
 20
888.1082299760469
 30
0.0
 10
425.2975772891642
 20
888.1201316586254
 30
0.0
 10
425.6544732273554
 20
888.1680056546276
 30
0.0
 10
425.828461116089
 20
888.2035301235552
 30
0.0
 10
426.1688330112464
 20
888.2965435296361
 30
0.0
 10
426.336184106623
 20
888.3544778796157
 30
0.0
 10
426.6589692605206
 20
888.4905028931539
 30
0.0
 10
426.8141344466231
 20
888.5682846393868
 30
0.0
 10
427.2633824202921
 20
888.8310736019114
 30
0.0
 10
427.5432914654088
 20
889.047751412313
 30
0.0
 10
428.0374999453616
 20
889.5482183188519
 30
0.0
 10
428.257584172347
 20
889.8382343275293
 30
0.0
 10
428.4353901555751
 20
890.1561791437296
 30
0.0
  0
SPLINE
  5
2D8
330
1F
100
AcDbEntity
  8
0
  6
CONTINUOUS
 62
     7
100
AcDbSpline
210
0.0
220
0.0
230
1.0
 70
     8
 71
     3
 72
    30
 73
    26
 74
     0
 42
0.00000001
 43
0.00000001
 12
1.0
 22
0.0
 32
0.0
 13
1.0
 23
0.0
 33
0.0
 40
0.0
 40
0.0
 40
0.0
 40
0.0
 40
0.1250000000000018
 40
0.1250000000000018
 40
0.2500000000000037
 40
0.2500000000000037
 40
0.3125000000000026
 40
0.3125000000000026
 40
0.3750000000000015
 40
0.3750000000000015
 40
0.4375000000000004
 40
0.4375000000000004
 40
0.4999999999999993
 40
0.4999999999999993
 40
0.5624999999999982
 40
0.5624999999999982
 40
0.6249999999999971
 40
0.6249999999999971
 40
0.6874999999999961
 40
0.6874999999999961
 40
0.749999999999995
 40
0.749999999999995
 40
0.8749999999999974
 40
0.8749999999999974
 40
1.0
 40
1.0
 40
1.0
 40
1.0
 10
534.008660285531
 20
951.10893507249
 30
0.0
 10
534.372732313232
 20
951.103949617411
 30
0.0
 10
534.7247986422013
 20
951.147708994703
 30
0.0
 10
535.4112923774555
 20
951.3258340555004
 30
0.0
 10
535.73438929653
 20
951.4576441998682
 30
0.0
 10
536.188760837736
 20
951.7154361376572
 30
0.0
 10
536.335041945768
 20
951.8116100715273
 30
0.0
 10
536.611984497308
 20
952.0206854205127
 30
0.0
 10
536.7435901504767
 20
952.134088897963
 30
0.0
 10
536.9935652025309
 20
952.3799991563302
 30
0.0
 10
537.1126971152775
 20
952.5134869328797
 30
0.0
 10
537.3335772336727
 20
952.7980251955909
 30
0.0
 10
537.4337467002807
 20
952.9468091498371
 30
0.0
 10
537.613787811499
 20
953.2573007798663
 30
0.0
 10
537.694184197409
 20
953.4203547701641
 30
0.0
 10
537.8311720697859
 20
953.7533727171464
 30
0.0
 10
537.8874009216055
 20
953.9218128832042
 30
0.0
 10
537.9770348966255
 20
954.2630902941851
 30
0.0
 10
538.0105378254798
 20
954.4369877691223
 30
0.0
 10
538.0541292851544
 20
954.7845404191311
 30
0.0
 10
538.0643509100173
 20
954.9578082851953
 30
0.0
 10
538.0613929794714
 20
955.4782629242536
 30
0.0
 10
538.0136990137855
 20
955.8290101732746
 30
0.0
 10
537.8273861989459
 20
956.5072407249487
 30
0.0
 10
537.6862670814197
 20
956.8428472608292
 30
0.0
 10
537.4998217852027
 20
957.1558041673497
 30
0.0
  0
SPLINE
  5
2D9
330
1F
100
AcDbEntity
  8
0
  6
CONTINUOUS
 62
     7
100
AcDbSpline
210
0.0
220
0.0
230
1.0
 70
     8
 71
     3
 72
    30
 73
    26
 74
     0
 42
0.00000001
 43
0.00000001
 12
1.0
 22
0.0
 32
0.0
 13
1.0
 23
0.0
 33
0.0
 40
0.0
 40
0.0
 40
0.0
 40
0.0
 40
0.1250000000000016
 40
0.1250000000000016
 40
0.2500000000000032
 40
0.2500000000000032
 40
0.3125000000000039
 40
0.3125000000000039
 40
0.3750000000000048
 40
0.3750000000000048
 40
0.4375000000000056
 40
0.4375000000000056
 40
0.5000000000000063
 40
0.5000000000000063
 40
0.5625000000000071
 40
0.5625000000000071
 40
0.6250000000000079
 40
0.6250000000000079
 40
0.6875000000000087
 40
0.6875000000000087
 40
0.7500000000000095
 40
0.7500000000000095
 40
0.8750000000000048
 40
0.8750000000000048
 40
1.0
 40
1.0
 40
1.0
 40
1.0
 10
537.4998217852014
 20
1079.061316024869
 30
0.0
 10
537.6861753297995
 20
1079.374118922125
 30
0.0
 10
537.8243117618957
 20
1079.700896995476
 30
0.0
 10
538.0132978018216
 20
1080.384480540144
 30
0.0
 10
538.0606953278597
 20
1080.730195752131
 30
0.0
 10
538.0646267314467
 20
1081.252589018466
 30
0.0
 10
538.0544782155494
 20
1081.427359141051
 30
0.0
 10
538.011884927793
 20
1081.771736100566
 30
0.0
 10
537.9794774620278
 20
1081.942411678217
 30
0.0
 10
537.8915004572577
 20
1082.281851552792
 30
0.0
 10
537.8354626080444
 20
1082.451766703907
 30
0.0
 10
537.6994853033854
 20
1082.785323628983
 30
0.0
 10
537.6207193526368
 20
1082.946464908872
 30
0.0
 10
537.4418462689781
 20
1083.257630899928
 30
0.0
 10
537.3408355641468
 20
1083.408783207647
 30
0.0
 10
537.1209274983325
 20
1083.693927158627
 30
0.0
 10
537.0031684614183
 20
1083.826842855757
 30
0.0
 10
536.7524305412813
 20
1084.075106860657
 30
0.0
 10
536.6185823747588
 20
1084.191069985615
 30
0.0
 10
536.3393886805359
 20
1084.402597622086
 30
0.0
 10
536.1944451192962
 20
1084.498083741917
 30
0.0
 10
535.7422392150812
 20
1084.75574941845
 30
0.0
 10
535.4146362042787
 20
1084.88981885707
 30
0.0
 10
534.7341149094863
 20
1085.067582502205
 30
0.0
 10
534.3729115649746
 20
1085.113173029408
 30
0.0
 10
534.0086602855296
 20
1085.108185119728
 30
0.0
  0
SPLINE
  5
2DA
330
1F
100
AcDbEntity
  8
0
  6
CONTINUOUS
 62
     7
100
AcDbSpline
210
0.0
220
0.0
230
1.0
 70
     8
 71
     3
 72
    30
 73
    26
 74
     0
 42
0.00000001
 43
0.00000001
 12
1.0
 22
0.0
 32
0.0
 13
1.0
 23
0.0
 33
0.0
 40
0.0
 40
0.0
 40
0.0
 40
0.0
 40
0.1249999999999963
 40
0.1249999999999963
 40
0.2499999999999925
 40
0.2499999999999925
 40
0.3124999999999906
 40
0.3124999999999906
 40
0.3749999999999888
 40
0.3749999999999888
 40
0.4374999999999869
 40
0.4374999999999869
 40
0.499999999999985
 40
0.499999999999985
 40
0.5624999999999831
 40
0.5624999999999831
 40
0.6249999999999812
 40
0.6249999999999812
 40
0.6874999999999793
 40
0.6874999999999793
 40
0.7499999999999776
 40
0.7499999999999776
 40
0.8749999999999888
 40
0.8749999999999888
 40
1.0
 40
1.0
 40
1.0
 40
1.0
 10
428.4353901555742
 20
1146.060941048486
 30
0.0
 10
428.2576716724715
 20
1146.378729400822
 30
0.0
 10
428.0437417755982
 20
1146.661748096881
 30
0.0
 10
427.5462340802698
 20
1147.167206580751
 30
0.0
 10
427.2705346872335
 20
1147.38111164837
 30
0.0
 10
426.8200945496144
 20
1147.645712976917
 30
0.0
 10
426.6636649256852
 20
1147.724309165631
 30
0.0
 10
426.3441290863888
 20
1147.859610776161
 30
0.0
 10
426.1801159674548
 20
1147.916882876362
 30
0.0
 10
425.8421639106306
 20
1148.010412492569
 30
0.0
 10
425.6669941486707
 20
1148.046839867134
 30
0.0
 10
425.3101367256165
 20
1148.0958585295
 30
0.0
 10
425.1312013082598
 20
1148.108215855143
 30
0.0
 10
424.7722871133828
 20
1148.108890216169
 30
0.0
 10
424.5908800226416
 20
1148.096988533591
 30
0.0
 10
424.2339840844504
 20
1148.049114537588
 30
0.0
 10
424.0599961957168
 20
1148.013590068661
 30
0.0
 10
423.7196243005595
 20
1147.92057666258
 30
0.0
 10
423.5522732051829
 20
1147.8626423126
 30
0.0
 10
423.2294880512852
 20
1147.726617299062
 30
0.0
 10
423.0743228651827
 20
1147.648835552829
 30
0.0
 10
422.6250748915137
 20
1147.386046590305
 30
0.0
 10
422.345165846397
 20
1147.169368779903
 30
0.0
 10
421.8509573664443
 20
1146.668901873364
 30
0.0
 10
421.6308731394587
 20
1146.378885864687
 30
0.0
 10
421.4530671562307
 20
1146.060941048486
 30
0.0
  0
SPLINE
  5
2DB
330
1F
100
AcDbEntity
  8
0
  6
CONTINUOUS
 62
     7
100
AcDbSpline
210
0.0
220
0.0
230
1.0
 70
     8
 71
     3
 72
    30
 73
    26
 74
     0
 42
0.00000001
 43
0.00000001
 12
1.0
 22
0.0
 32
0.0
 13
1.0
 23
0.0
 33
0.0
 40
0.0
 40
0.0
 40
0.0
 40
0.0
 40
0.1250000000000003
 40
0.1250000000000003
 40
0.2500000000000006
 40
0.2500000000000006
 40
0.3124999999999996
 40
0.3124999999999996
 40
0.3749999999999986
 40
0.3749999999999986
 40
0.4374999999999976
 40
0.4374999999999976
 40
0.4999999999999967
 40
0.4999999999999967
 40
0.5624999999999957
 40
0.5624999999999957
 40
0.6249999999999947
 40
0.6249999999999947
 40
0.6874999999999938
 40
0.6874999999999938
 40
0.7499999999999928
 40
0.7499999999999928
 40
0.8749999999999963
 40
0.8749999999999963
 40
1.0
 40
1.0
 40
1.0
 40
1.0
 10
315.8797970262743
 20
1085.108185119727
 30
0.0
 10
315.5157249985734
 20
1085.113170574806
 30
0.0
 10
315.163658669604
 20
1085.069411197514
 30
0.0
 10
314.4771649343497
 20
1084.891286136716
 30
0.0
 10
314.1540680152752
 20
1084.759475992348
 30
0.0
 10
313.6996964740693
 20
1084.501684054559
 30
0.0
 10
313.5534153660374
 20
1084.40551012069
 30
0.0
 10
313.2764728144973
 20
1084.196434771704
 30
0.0
 10
313.1448671613285
 20
1084.083031294253
 30
0.0
 10
312.8948921092743
 20
1083.837121035887
 30
0.0
 10
312.7757601965279
 20
1083.703633259337
 30
0.0
 10
312.5548800781327
 20
1083.419094996626
 30
0.0
 10
312.4547106115247
 20
1083.270311042379
 30
0.0
 10
312.2746695003062
 20
1082.95981941235
 30
0.0
 10
312.1942731143964
 20
1082.796765422053
 30
0.0
 10
312.0572852420194
 20
1082.46374747507
 30
0.0
 10
312.0010563901999
 20
1082.295307309013
 30
0.0
 10
311.9114224151798
 20
1081.954029898031
 30
0.0
 10
311.8779194863255
 20
1081.780132423095
 30
0.0
 10
311.8343280266509
 20
1081.432579773086
 30
0.0
 10
311.824106401788
 20
1081.259311907022
 30
0.0
 10
311.8270643323339
 20
1080.738857267963
 30
0.0
 10
311.8747582980197
 20
1080.388110018942
 30
0.0
 10
312.0610711128595
 20
1079.709879467268
 30
0.0
 10
312.2021902303857
 20
1079.374272931388
 30
0.0
 10
312.3886355266026
 20
1079.061316024867
 30
0.0
  0
SPLINE
  5
2DC
330
1F
100
AcDbEntity
  8
0
  6
CONTINUOUS
 62
     7
100
AcDbSpline
210
0.0
220
0.0
230
1.0
 70
     8
 71
     3
 72
    30
 73
    26
 74
     0
 42
0.00000001
 43
0.00000001
 12
1.0
 22
0.0
 32
0.0
 13
1.0
 23
0.0
 33
0.0
 40
0.0
 40
0.0
 40
0.0
 40
0.0
 40
0.1249999999999955
 40
0.1249999999999955
 40
0.2499999999999911
 40
0.2499999999999911
 40
0.3124999999999912
 40
0.3124999999999912
 40
0.3749999999999912
 40
0.3749999999999912
 40
0.4374999999999913
 40
0.4374999999999913
 40
0.4999999999999915
 40
0.4999999999999915
 40
0.5624999999999916
 40
0.5624999999999916
 40
0.6249999999999917
 40
0.6249999999999917
 40
0.6874999999999918
 40
0.6874999999999918
 40
0.7499999999999918
 40
0.7499999999999918
 40
0.8749999999999959
 40
0.8749999999999959
 40
1.0
 40
1.0
 40
1.0
 40
1.0
 10
312.3886355266031
 20
957.1558041673482
 30
0.0
 10
312.2022819820048
 20
956.8430012700912
 30
0.0
 10
312.0641455499086
 20
956.5162231967408
 30
0.0
 10
311.8751595099829
 20
955.8326396520729
 30
0.0
 10
311.8277619839447
 20
955.486924440086
 30
0.0
 10
311.8238305803578
 20
954.9645311737505
 30
0.0
 10
311.8339790962551
 20
954.7897610511661
 30
0.0
 10
311.8765723840115
 20
954.4453840916508
 30
0.0
 10
311.9089798497766
 20
954.2747085139997
 30
0.0
 10
311.9969568545466
 20
953.9352686394249
 30
0.0
 10
312.0529947037601
 20
953.7653534883103
 30
0.0
 10
312.1889720084191
 20
953.4317965632335
 30
0.0
 10
312.2677379591677
 20
953.2706552833444
 30
0.0
 10
312.4466110428264
 20
952.959489292289
 30
0.0
 10
312.5476217476576
 20
952.8083369845697
 30
0.0
 10
312.7675298134719
 20
952.5231930335898
 30
0.0
 10
312.885288850386
 20
952.3902773364595
 30
0.0
 10
313.1360267705231
 20
952.1420133315595
 30
0.0
 10
313.2698749370455
 20
952.0260502066019
 30
0.0
 10
313.5490686312685
 20
951.8145225701311
 30
0.0
 10
313.6940121925081
 20
951.7190364502999
 30
0.0
 10
314.1462180967231
 20
951.4613707737661
 30
0.0
 10
314.4738211075257
 20
951.3273013351469
 30
0.0
 10
315.1543424023182
 20
951.1495376900116
 30
0.0
 10
315.5155457468298
 20
951.1039471628086
 30
0.0
 10
315.8797970262748
 20
951.1089350724884
 30
0.0
  0
ARC
  5
2DD
330
1F
100
AcDbEntity
  8
0
  6
CONTINUOUS
 62
     7
100
AcDbCircle
 10
534.0634295327
 20
1081.1085600961
 30
0.0
 40
4.000000000000131
100
AcDbArc
 50
258.8980857084
 51
329.2154638066
  0
ARC
  5
2DE
330
1F
100
AcDbEntity
  8
0
  6
CONTINUOUS
 62
     7
100
AcDbCircle
 10
534.0634295327
 20
955.1085600961
 30
0.0
 40
3.999999999999952
100
AcDbArc
 50
30.7845361934
 51
101.1019142916
  0
ARC
  5
2DF
330
1F
100
AcDbEntity
  8
0
  6
CONTINUOUS
 62
     7
100
AcDbCircle
 10
424.9442286559
 20
1144.1085600961
 30
0.0
 40
4.000000000000027
100
AcDbArc
 50
318.8980857084
 51
29.2154638066
  0
ARC
  5
2E0
330
1F
100
AcDbEntity
  8
0
  6
CONTINUOUS
 62
     7
100
AcDbCircle
 10
534.0634295327
 20
1081.1085600961
 30
0.0
 40
4.000000000000197
100
AcDbArc
 50
90.7845361934
 51
161.1019142916
  0
ARC
  5
2E1
330
1F
100
AcDbEntity
  8
0
  6
CONTINUOUS
 62
     7
100
AcDbCircle
 10
424.9442286559
 20
892.1085600961
 30
0.0
 40
4.000000000000068
100
AcDbArc
 50
330.7845361934
 51
41.1019142916
  0
ARC
  5
2E2
330
1F
100
AcDbEntity
  8
0
  6
CONTINUOUS
 62
     7
100
AcDbCircle
 10
534.0634295327
 20
955.1085600961
 30
0.0
 40
4.000000000000024
100
AcDbArc
 50
198.8980857084
 51
269.2154638066
  0
ARC
  5
2E3
330
1F
100
AcDbEntity
  8
0
  6
CONTINUOUS
 62
     7
100
AcDbCircle
 10
315.8250277791
 20
955.1085600961
 30
0.0
 40
3.999999999999968
100
AcDbArc
 50
270.7845361934
 51
341.1019142916
  0
ARC
  5
2E4
330
1F
100
AcDbEntity
  8
0
  6
CONTINUOUS
 62
     7
100
AcDbCircle
 10
424.9442286559
 20
892.1085600961
 30
0.0
 40
3.999999999999993
100
AcDbArc
 50
138.8980857084
 51
209.2154638066
  0
ARC
  5
2E5
330
1F
100
AcDbEntity
  8
0
  6
CONTINUOUS
 62
     7
100
AcDbCircle
 10
315.8250277791
 20
1081.1085600961
 30
0.0
 40
4.000000000000196
100
AcDbArc
 50
18.8980857084
 51
89.2154638066
  0
ARC
  5
2E6
330
1F
100
AcDbEntity
  8
0
  6
CONTINUOUS
 62
     7
100
AcDbCircle
 10
424.9442286559
 20
1144.1085600961
 30
0.0
 40
4.000000000000076
100
AcDbArc
 50
150.7845361934
 51
221.1019142916
  0
ARC
  5
2E7
330
1F
100
AcDbEntity
  8
0
  6
CONTINUOUS
 62
     7
100
AcDbCircle
 10
315.8250277791
 20
1081.1085600961
 30
0.0
 40
3.999999999999942
100
AcDbArc
 50
210.7845361934
 51
281.1019142916
  0
ARC
  5
2E8
330
1F
100
AcDbEntity
  8
0
  6
CONTINUOUS
 62
     7
100
AcDbCircle
 10
315.8250277791
 20
955.1085600961
 30
0.0
 40
4.00000000000002
100
AcDbArc
 50
78.8980857084
 51
149.2154638066
  0
CIRCLE
  5
2E9
330
1F
100
AcDbEntity
  8
0
  6
CONTINUOUS
 62
     7
100
AcDbCircle
 10
534.0634295327
 20
1081.1085600961
 30
0.0
 40
2.25
  0
CIRCLE
  5
2EA
330
1F
100
AcDbEntity
  8
0
  6
CONTINUOUS
 62
     7
100
AcDbCircle
 10
534.0634295327
 20
955.1085600961
 30
0.0
 40
2.249999999999886
  0
CIRCLE
  5
2EB
330
1F
100
AcDbEntity
  8
0
  6
CONTINUOUS
 62
     7
100
AcDbCircle
 10
424.9442286559
 20
892.1085600961
 30
0.0
 40
2.25
  0
CIRCLE
  5
2EC
330
1F
100
AcDbEntity
  8
0
  6
CONTINUOUS
 62
     7
100
AcDbCircle
 10
424.9442286559
 20
1144.1085600961
 30
0.0
 40
2.25
  0
CIRCLE
  5
2ED
330
1F
100
AcDbEntity
  8
0
  6
CONTINUOUS
 62
     7
100
AcDbCircle
 10
315.8250277791
 20
955.1085600961
 30
0.0
 40
2.249999999999943
  0
CIRCLE
  5
2EE
330
1F
100
AcDbEntity
  8
0
  6
CONTINUOUS
 62
     7
100
AcDbCircle
 10
315.8250277791
 20
1081.1085600961
 30
0.0
 40
2.25
  0
CIRCLE
  5
2EF
330
1F
100
AcDbEntity
  8
0
  6
CONTINUOUS
 62
     7
100
AcDbCircle
 10
424.9442286559
 20
1018.1085600961
 30
0.0
 40
50.0
  0
CIRCLE
  5
2F0
330
1F
100
AcDbEntity
  8
0
  6
CONTINUOUS
 62
     7
100
AcDbCircle
 10
424.9442286559
 20
1018.1085600961
 30
0.0
 40
46.5
  0
CIRCLE
  5
2F1
330
1F
100
AcDbEntity
  8
0
  6
CONTINUOUS
 62
     7
100
AcDbCircle
 10
424.9442286559
 20
892.1085600961
 30
0.0
 40
1.649999999999977
  0
CIRCLE
  5
2F2
330
1F
100
AcDbEntity
  8
0
  6
CONTINUOUS
 62
     7
100
AcDbCircle
 10
315.8250277791
 20
955.1085600961
 30
0.0
 40
1.649999999999977
  0
CIRCLE
  5
2F3
330
1F
100
AcDbEntity
  8
0
  6
CONTINUOUS
 62
     7
100
AcDbCircle
 10
424.9442286559
 20
1144.1085600961
 30
0.0
 40
1.649999999999977
  0
CIRCLE
  5
2F4
330
1F
100
AcDbEntity
  8
0
  6
CONTINUOUS
 62
     7
100
AcDbCircle
 10
534.0634295327
 20
955.1085600961
 30
0.0
 40
1.649999999999864
  0
CIRCLE
  5
2F5
330
1F
100
AcDbEntity
  8
0
  6
CONTINUOUS
 62
     7
100
AcDbCircle
 10
315.8250277791
 20
1081.1085600961
 30
0.0
 40
1.649999999999977
  0
CIRCLE
  5
2F6
330
1F
100
AcDbEntity
  8
0
  6
CONTINUOUS
 62
     7
100
AcDbCircle
 10
534.0634295327
 20
1081.1085600961
 30
0.0
 40
1.649999999999977
  0
CIRCLE
  5
2F7
330
1F
100
AcDbEntity
  8
0
  6
CONTINUOUS
 62
     7
100
AcDbCircle
 10
274.9442286559
 20
1018.1085600961
 30
0.0
 40
3.400000000000034
  0
CIRCLE
  5
2F8
330
1F
100
AcDbEntity
  8
0
  6
CONTINUOUS
 62
     7
100
AcDbCircle
 10
424.9442286559
 20
868.1085600961
 30
0.0
 40
3.399999999999977
  0
CIRCLE
  5
2F9
330
1F
100
AcDbEntity
  8
0
  6
CONTINUOUS
 62
     7
100
AcDbCircle
 10
574.9442286559
 20
1018.1085600961
 30
0.0
 40
3.399999999999977
  0
CIRCLE
  5
2FA
330
1F
100
AcDbEntity
  8
0
  6
CONTINUOUS
 62
     7
100
AcDbCircle
 10
424.9442286559
 20
1168.1085600961
 30
0.0
 40
3.399999999999977
  0
ARC
  5
2FB
330
1F
100
AcDbEntity
  8
0
  6
CONTINUOUS
 62
     7
100
AcDbCircle
 10
536.9066312407
 20
1117.9305036127
 30
0.0
 40
4.499999999999813
100
AcDbArc
 50
221.7191313209
 51
310.0
  0
ARC
  5
2FC
330
1F
100
AcDbEntity
  8
0
  6
CONTINUOUS
 62
     7
100
AcDbCircle
 10
536.9066312407
 20
1117.9305036127
 30
0.0
 40
4.500000000000051
100
AcDbArc
 50
310.0
 51
41.7191313209
  0
ARC
  5
2FD
330
1F
100
AcDbEntity
  8
0
  6
CONTINUOUS
 62
     7
100
AcDbCircle
 10
424.9442286559
 20
1018.1085600961
 30
0.0
 40
154.5000000000001
100
AcDbArc
 50
41.7191313209
 51
48.2808686791
  0
ARC
  5
2FE
330
1F
100
AcDbEntity
  8
0
  6
CONTINUOUS
 62
     7
100
AcDbCircle
 10
524.7661721725
 20
1130.0709626809
 30
0.0
 40
4.500000000000136
100
AcDbArc
 50
48.2808686791
 51
140.0
  0
ARC
  5
2FF
330
1F
100
AcDbEntity
  8
0
  6
CONTINUOUS
 62
     7
100
AcDbCircle
 10
524.7661721725
 20
1130.0709626809
 30
0.0
 40
4.50000000000006
100
AcDbArc
 50
140.0
 51
228.2808686791
  0
ARC
  5
300
330
1F
100
AcDbEntity
  8
0
  6
CONTINUOUS
 62
     7
100
AcDbCircle
 10
424.9442286559
 20
1018.1085600961
 30
0.0
 40
145.5000000000001
100
AcDbArc
 50
41.7191313209
 51
48.2808686791
  0
ARC
  5
301
330
1F
100
AcDbEntity
  8
0
  6
CONTINUOUS
 62
     7
100
AcDbCircle
 10
325.1222851393
 20
1130.0709626809
 30
0.0
 40
4.500000000000104
100
AcDbArc
 50
311.7191313209
 51
40.0
  0
ARC
  5
302
330
1F
100
AcDbEntity
  8
0
  6
CONTINUOUS
 62
     7
100
AcDbCircle
 10
325.1222851393
 20
1130.0709626809
 30
0.0
 40
4.500000000000136
100
AcDbArc
 50
40.0
 51
131.7191313209
  0
ARC
  5
303
330
1F
100
AcDbEntity
  8
0
  6
CONTINUOUS
 62
     7
100
AcDbCircle
 10
424.9442286559
 20
1018.1085600961
 30
0.0
 40
154.5000000000001
100
AcDbArc
 50
131.7191313209
 51
138.2808686791
  0
ARC
  5
304
330
1F
100
AcDbEntity
  8
0
  6
CONTINUOUS
 62
     7
100
AcDbCircle
 10
312.9818260711
 20
1117.9305036127
 30
0.0
 40
4.50000000000016
100
AcDbArc
 50
138.2808686791
 51
230.0
  0
ARC
  5
305
330
1F
100
AcDbEntity
  8
0
  6
CONTINUOUS
 62
     7
100
AcDbCircle
 10
312.9818260711
 20
1117.9305036127
 30
0.0
 40
4.500000000000009
100
AcDbArc
 50
230.0
 51
318.2808686791
  0
ARC
  5
306
330
1F
100
AcDbEntity
  8
0
  6
CONTINUOUS
 62
     7
100
AcDbCircle
 10
424.9442286559
 20
1018.1085600961
 30
0.0
 40
145.5000000000001
100
AcDbArc
 50
131.7191313209
 51
138.2808686791
  0
ARC
  5
307
330
1F
100
AcDbEntity
  8
0
  6
CONTINUOUS
 62
     7
100
AcDbCircle
 10
312.9818260711
 20
918.2866165795
 30
0.0
 40
4.500000000000084
100
AcDbArc
 50
41.7191313209
 51
130.0
  0
ARC
  5
308
330
1F
100
AcDbEntity
  8
0
  6
CONTINUOUS
 62
     7
100
AcDbCircle
 10
312.9818260711
 20
918.2866165795
 30
0.0
 40
4.499999999999988
100
AcDbArc
 50
130.0
 51
221.7191313209
  0
ARC
  5
309
330
1F
100
AcDbEntity
  8
0
  6
CONTINUOUS
 62
     7
100
AcDbCircle
 10
424.9442286559
 20
1018.1085600961
 30
0.0
 40
154.5
100
AcDbArc
 50
221.7191313209
 51
228.2808686791
  0
ARC
  5
30A
330
1F
100
AcDbEntity
  8
0
  6
CONTINUOUS
 62
     7
100
AcDbCircle
 10
325.1222851393
 20
906.1461575113
 30
0.0
 40
4.500000000000051
100
AcDbArc
 50
228.2808686791
 51
320.0
  0
ARC
  5
30B
330
1F
100
AcDbEntity
  8
0
  6
CONTINUOUS
 62
     7
100
AcDbCircle
 10
325.1222851393
 20
906.1461575113
 30
0.0
 40
4.500000000000075
100
AcDbArc
 50
320.0
 51
48.2808686791
  0
ARC
  5
30C
330
1F
100
AcDbEntity
  8
0
  6
CONTINUOUS
 62
     7
100
AcDbCircle
 10
424.9442286559
 20
1018.1085600961
 30
0.0
 40
145.5
100
AcDbArc
 50
221.7191313209
 51
228.2808686791
  0
ARC
  5
30D
330
1F
100
AcDbEntity
  8
0
  6
CONTINUOUS
 62
     7
100
AcDbCircle
 10
524.7661721725
 20
906.1461575113
 30
0.0
 40
4.500000000000126
100
AcDbArc
 50
131.7191313209
 51
220.0
  0
ARC
  5
30E
330
1F
100
AcDbEntity
  8
0
  6
CONTINUOUS
 62
     7
100
AcDbCircle
 10
524.7661721725
 20
906.1461575113
 30
0.0
 40
4.499999999999988
100
AcDbArc
 50
220.0
 51
311.7191313209
  0
ARC
  5
30F
330
1F
100
AcDbEntity
  8
0
  6
CONTINUOUS
 62
     7
100
AcDbCircle
 10
424.9442286559
 20
1018.1085600961
 30
0.0
 40
154.5
100
AcDbArc
 50
311.7191313209
 51
318.2808686791
  0
ARC
  5
310
330
1F
100
AcDbEntity
  8
0
  6
CONTINUOUS
 62
     7
100
AcDbCircle
 10
536.9066312407
 20
918.2866165795
 30
0.0
 40
4.500000000000051
100
AcDbArc
 50
318.2808686791
 51
50.0
  0
ARC
  5
311
330
1F
100
AcDbEntity
  8
0
  6
CONTINUOUS
 62
     7
100
AcDbCircle
 10
536.9066312407
 20
918.2866165795
 30
0.0
 40
4.499999999999988
100
AcDbArc
 50
50.0
 51
138.2808686791
  0
ARC
  5
312
330
1F
100
AcDbEntity
  8
0
  6
CONTINUOUS
 62
     7
100
AcDbCircle
 10
424.9442286559
 20
1018.1085600961
 30
0.0
 40
145.4999999999999
100
AcDbArc
 50
311.7191313209
 51
318.2808686791
  0
CIRCLE
  5
313
330
1F
100
AcDbEntity
  8
0
  6
CONTINUOUS
 62
     7
100
AcDbCircle
 10
424.9442286559
 20
1018.1085600961
 30
0.0
 40
160.9999999999935
  0
SPLINE
  5
314
330
1F
100
AcDbEntity
  8
0
  6
PHANTOM
 62
     8
100
AcDbSpline
210
0.0
220
0.0
230
1.0
 70
     8
 71
     3
 72
    16
 73
    12
 74
     0
 42
0.00000001
 43
0.00000001
 12
1.0
 22
0.0
 32
0.0
 13
1.0
 23
0.0
 33
0.0
 40
0.0
 40
0.0
 40
0.0
 40
0.0
 40
0.2500000000000025
 40
0.2500000000000025
 40
0.500000000000005
 40
0.500000000000005
 40
0.6250000000000066
 40
0.6250000000000066
 40
0.7500000000000082
 40
0.7500000000000082
 40
1.0
 40
1.0
 40
1.0
 40
1.0
 10
427.8868610773273
 20
1138.551086602078
 30
0.0
 10
427.3934734634354
 20
1138.563140968846
 30
0.0
 10
426.9101114685046
 20
1138.589499324512
 30
0.0
 10
425.9482616804448
 20
1138.645598935483
 30
0.0
 10
425.468973666441
 20
1138.674480424895
 30
0.0
 10
424.7326634440859
 20
1138.676246822254
 30
0.0
 10
424.4829475651058
 20
1138.669886792654
 30
0.0
 10
423.987751853986
 20
1138.648517208099
 30
0.0
 10
423.7423721998094
 20
1138.634067746338
 30
0.0
 10
423.0044916678525
 20
1138.591012637674
 30
0.0
 10
422.5096795832181
 20
1138.563500012674
 30
0.0
 10
422.0015962344776
 20
1138.551086602078
 30
0.0
  0
ARC
  5
315
330
1F
100
AcDbEntity
  8
0
  6
PHANTOM
 62
     8
100
AcDbCircle
 10
424.9442286559
 20
1018.1085600961
 30
0.0
 40
120.4784681040931
100
AcDbArc
 50
31.3995628339
 51
88.6004371661
  0
SPLINE
  5
316
330
1F
100
AcDbEntity
  8
0
  6
PHANTOM
 62
     8
100
AcDbSpline
210
0.0
220
0.0
230
1.0
 70
     8
 71
     3
 72
    16
 73
    12
 74
     0
 42
0.00000001
 43
0.00000001
 12
1.0
 22
0.0
 32
0.0
 13
1.0
 23
0.0
 33
0.0
 40
0.0
 40
0.0
 40
0.0
 40
0.0
 40
0.2500000000000026
 40
0.2500000000000026
 40
0.5000000000000052
 40
0.5000000000000052
 40
0.6250000000000068
 40
0.6250000000000068
 40
0.7500000000000083
 40
0.7500000000000083
 40
1.0
 40
1.0
 40
1.0
 40
1.0
 10
530.721832516765
 20
1075.781428918141
 30
0.0
 10
530.4855780976666
 20
1076.214742309068
 30
0.0
 10
530.2667241058099
 20
1076.646525253735
 30
0.0
 10
529.8343829000236
 20
1077.507561410305
 30
0.0
 10
529.6197509965511
 20
1077.937077750867
 30
0.0
 10
529.2531256303598
 20
1078.575624307173
 30
0.0
 10
529.1227597436675
 20
1078.788704587298
 30
0.0
 10
528.8566552850147
 20
1079.206871860695
 30
0.0
 10
528.7214518569702
 20
1079.412152143903
 30
0.0
 10
528.315224773126
 20
1080.029647875204
 30
0.0
 10
528.0439920986344
 20
1080.444411398097
 30
0.0
 10
527.77920009534
 20
1080.878217780048
 30
0.0
  0
ARC
  5
317
330
1F
100
AcDbEntity
  8
0
  6
PHANTOM
 62
     8
100
AcDbCircle
 10
424.9442286559
 20
1018.1085600961
 30
0.0
 40
120.4784681040929
100
AcDbArc
 50
331.3995628339
 51
28.6004371661
  0
SPLINE
  5
318
330
1F
100
AcDbEntity
  8
0
  6
PHANTOM
 62
     8
100
AcDbSpline
210
0.0
220
0.0
230
1.0
 70
     8
 71
     3
 72
    16
 73
    12
 74
     0
 42
0.00000001
 43
0.00000001
 12
1.0
 22
0.0
 32
0.0
 13
1.0
 23
0.0
 33
0.0
 40
0.0
 40
0.0
 40
0.0
 40
0.0
 40
0.2500000000000043
 40
0.2500000000000043
 40
0.5000000000000085
 40
0.5000000000000085
 40
0.6250000000000092
 40
0.6250000000000092
 40
0.7500000000000099
 40
0.7500000000000099
 40
1.0
 40
1.0
 40
1.0
 40
1.0
 10
527.7792000953413
 20
955.3389024121702
 30
0.0
 10
528.0363332901348
 20
955.7601614363292
 30
0.0
 10
528.300841293209
 20
956.1655860253302
 30
0.0
 10
528.8303498754825
 20
956.970522570929
 30
0.0
 10
529.0950059860139
 20
957.37115742208
 30
0.0
 10
529.4646908421778
 20
958.007937581026
 30
0.0
 10
529.5840408344654
 20
958.2273778907511
 30
0.0
 10
529.8131320869323
 20
958.6669147487034
 30
0.0
 10
529.9233083130646
 20
958.8866444936727
 30
0.0
 10
530.2549617611772
 20
959.5471953336375
 30
0.0
 10
530.47854117132
 20
959.9894714815301
 30
0.0
 10
530.7218325167661
 20
960.4356912740776
 30
0.0
  0
ARC
  5
319
330
1F
100
AcDbEntity
  8
0
  6
PHANTOM
 62
     8
100
AcDbCircle
 10
424.9442286559
 20
1018.1085600961
 30
0.0
 40
120.4784681040928
100
AcDbArc
 50
271.3995628339
 51
328.6004371661
  0
SPLINE
  5
31A
330
1F
100
AcDbEntity
  8
0
  6
PHANTOM
 62
     8
100
AcDbSpline
210
0.0
220
0.0
230
1.0
 70
     8
 71
     3
 72
    16
 73
    12
 74
     0
 42
0.00000001
 43
0.00000001
 12
1.0
 22
0.0
 32
0.0
 13
1.0
 23
0.0
 33
0.0
 40
0.0
 40
0.0
 40
0.0
 40
0.0
 40
0.2500000000000024
 40
0.2500000000000024
 40
0.500000000000005
 40
0.500000000000005
 40
0.6250000000000066
 40
0.6250000000000066
 40
0.7500000000000081
 40
0.7500000000000081
 40
1.0
 40
1.0
 40
1.0
 40
1.0
 10
422.0015962344784
 20
897.6660335901379
 30
0.0
 10
422.4949838483704
 20
897.6539792233698
 30
0.0
 10
422.9783458433012
 20
897.6276208677037
 30
0.0
 10
423.940195631361
 20
897.5715212567326
 30
0.0
 10
424.4194836453647
 20
897.542639767321
 30
0.0
 10
425.1557938677199
 20
897.5408733699618
 30
0.0
 10
425.4055097466999
 20
897.5472333995616
 30
0.0
 10
425.9007054578197
 20
897.5686029841166
 30
0.0
 10
426.1460851119963
 20
897.5830524458778
 30
0.0
 10
426.8839656439533
 20
897.6261075545419
 30
0.0
 10
427.3787777285876
 20
897.6536201795416
 30
0.0
 10
427.8868610773282
 20
897.666033590138
 30
0.0
  0
ARC
  5
31B
330
1F
100
AcDbEntity
  8
0
  6
PHANTOM
 62
     8
100
AcDbCircle
 10
424.9442286559
 20
1018.1085600961
 30
0.0
 40
120.4784681040929
100
AcDbArc
 50
211.3995628339
 51
268.6004371661
  0
SPLINE
  5
31C
330
1F
100
AcDbEntity
  8
0
  6
PHANTOM
 62
     8
100
AcDbSpline
210
0.0
220
0.0
230
1.0
 70
     8
 71
     3
 72
    16
 73
    12
 74
     0
 42
0.00000001
 43
0.00000001
 12
1.0
 22
0.0
 32
0.0
 13
1.0
 23
0.0
 33
0.0
 40
0.0
 40
0.0
 40
0.0
 40
0.0
 40
0.2500000000000021
 40
0.2500000000000021
 40
0.5000000000000042
 40
0.5000000000000042
 40
0.6250000000000058
 40
0.6250000000000058
 40
0.7500000000000072
 40
0.7500000000000072
 40
1.0
 40
1.0
 40
1.0
 40
1.0
 10
319.1666247950396
 20
960.435691274076
 30
0.0
 10
319.402879214138
 20
960.002377883149
 30
0.0
 10
319.6217332059946
 20
959.570594938482
 30
0.0
 10
320.0540744117809
 20
958.7095587819119
 30
0.0
 10
320.2687063152534
 20
958.2800424413496
 30
0.0
 10
320.6353316814447
 20
957.6414958850443
 30
0.0
 10
320.7656975681369
 20
957.428415604919
 30
0.0
 10
321.0318020267898
 20
957.0102483315217
 30
0.0
 10
321.1670054548342
 20
956.8049680483135
 30
0.0
 10
321.5732325386786
 20
956.1874723170129
 30
0.0
 10
321.8444652131701
 20
955.7727087941198
 30
0.0
 10
322.1092572164645
 20
955.3389024121687
 30
0.0
  0
ARC
  5
31D
330
1F
100
AcDbEntity
  8
0
  6
PHANTOM
 62
     8
100
AcDbCircle
 10
424.9442286559
 20
1018.1085600961
 30
0.0
 40
120.4784681040929
100
AcDbArc
 50
151.3995628339
 51
208.6004371661
  0
SPLINE
  5
31E
330
1F
100
AcDbEntity
  8
0
  6
PHANTOM
 62
     8
100
AcDbSpline
210
0.0
220
0.0
230
1.0
 70
     8
 71
     3
 72
    16
 73
    12
 74
     0
 42
0.00000001
 43
0.00000001
 12
1.0
 22
0.0
 32
0.0
 13
1.0
 23
0.0
 33
0.0
 40
0.0
 40
0.0
 40
0.0
 40
0.0
 40
0.2500000000000008
 40
0.2500000000000008
 40
0.5000000000000016
 40
0.5000000000000016
 40
0.625000000000004
 40
0.625000000000004
 40
0.7500000000000063
 40
0.7500000000000063
 40
1.0
 40
1.0
 40
1.0
 40
1.0
 10
322.1092572164641
 20
1080.878217780046
 30
0.0
 10
321.8521240216704
 20
1080.456958755887
 30
0.0
 10
321.5876160185963
 20
1080.051534166886
 30
0.0
 10
321.0581074363228
 20
1079.246597621287
 30
0.0
 10
320.7934513257915
 20
1078.845962770137
 30
0.0
 10
320.4237664696277
 20
1078.20918261119
 30
0.0
 10
320.3044164773399
 20
1077.989742301465
 30
0.0
 10
320.075325224873
 20
1077.550205443513
 30
0.0
 10
319.9651489987407
 20
1077.330475698544
 30
0.0
 10
319.6334955506281
 20
1076.669924858579
 30
0.0
 10
319.4099161404853
 20
1076.227648710686
 30
0.0
 10
319.1666247950392
 20
1075.781428918139
 30
0.0
  0
ARC
  5
31F
330
1F
100
AcDbEntity
  8
0
  6
PHANTOM
 62
     8
100
AcDbCircle
 10
424.9442286559
 20
1018.1085600961
 30
0.0
 40
120.4784681040931
100
AcDbArc
 50
91.3995628339
 51
148.6004371661
  0
LWPOLYLINE
  5
320
330
1F
100
AcDbEntity
  8
0
  6
PHANTOM
 62
     8
100
AcDbPolyline
 90
        9
 70
   128
 43
0.0
 10
530.721835024
 20
960.435690682
 10
530.8545000621
 20
960.3633567203
 10
531.0566939183
 20
960.2531142045
 10
531.3226498433
 20
960.1081072796
 10
531.6447905966
 20
959.9324672926
 10
532.0139296122
 20
959.731204759
 10
532.4195392199
 20
959.5100566257
 10
532.8500561186
 20
959.275326084
 10
533.2932092019
 20
959.0337037552
  0
LWPOLYLINE
  5
321
330
1F
100
AcDbEntity
  8
0
  6
PHANTOM
 62
     8
100
AcDbPolyline
 90
        9
 70
   128
 43
0.0
 10
527.7791984149
 20
955.3389012326
 10
527.9081754156
 20
955.260178398
 10
528.1047440835
 20
955.140194248
 10
528.3633090325
 20
954.9823685993
 10
528.6764867373
 20
954.7912090529
 10
529.0353514024
 20
954.5721545328
 10
529.429680831
 20
954.3314635266
 10
529.8482171961
 20
954.0759905685
 10
530.2790470191
 20
953.8130148757
  0
LWPOLYLINE
  5
322
330
1F
100
AcDbEntity
  8
0
  6
PHANTOM
 62
     8
100
AcDbPolyline
 90
        9
 70
   128
 43
0.0
 10
527.7791984149
 20
1080.8782189597
 10
527.9081754156
 20
1080.9569417942
 10
528.1047440835
 20
1081.0769259442
 10
528.3633090325
 20
1081.234751593
 10
528.6764867373
 20
1081.4259111393
 10
529.0353514024
 20
1081.6449656595
 10
529.429680831
 20
1081.8856566656
 10
529.8482171961
 20
1082.1411296237
 10
530.2790470191
 20
1082.4041053165
  0
LWPOLYLINE
  5
323
330
1F
100
AcDbEntity
  8
0
  6
PHANTOM
 62
     8
100
AcDbPolyline
 90
        9
 70
   128
 43
0.0
 10
530.721835024
 20
1075.7814295102
 10
530.8545000621
 20
1075.8537634719
 10
531.0566939183
 20
1075.9640059877
 10
531.3226498433
 20
1076.1090129126
 10
531.6447905966
 20
1076.2846528996
 10
532.0139296122
 20
1076.4859154333
 10
532.4195392199
 20
1076.7070635665
 10
532.8500561186
 20
1076.9417941082
 10
533.2932092019
 20
1077.183416437
  0
LWPOLYLINE
  5
324
330
1F
100
AcDbEntity
  8
0
  6
PHANTOM
 62
     8
100
AcDbPolyline
 90
        9
 70
   128
 43
0.0
 10
421.9300629806
 20
894.7381585348
 10
421.9423911304
 20
895.2427565564
 10
421.9543677059
 20
895.7329600561
 10
421.9656513773
 20
896.1947991956
 10
421.9759203729
 20
896.6151162494
 10
421.9848820244
 20
896.9819157828
 10
421.9922806837
 20
897.2847446311
 10
421.9979056392
 20
897.5149750222
 10
422.0015962378
 20
897.6660355438
  0
LWPOLYLINE
  5
325
330
1F
100
AcDbEntity
  8
0
  6
PHANTOM
 62
     8
100
AcDbPolyline
 90
        9
 70
   128
 43
0.0
 10
427.9583943312
 20
894.7381585348
 10
427.9460661814
 20
895.2427565564
 10
427.9340896059
 20
895.7329600561
 10
427.9228059345
 20
896.1947991956
 10
427.9125369389
 20
896.6151162494
 10
427.9035752874
 20
896.9819157828
 10
427.8961766281
 20
897.2847446311
 10
427.8905516726
 20
897.5149750222
 10
427.886861074
 20
897.6660355438
  0
LWPOLYLINE
  5
326
330
1F
100
AcDbEntity
  8
0
  6
PHANTOM
 62
     8
100
AcDbPolyline
 90
        9
 70
   128
 43
0.0
 10
422.0015962378
 20
1138.5510846485
 10
421.9979056392
 20
1138.7021451701
 10
421.9922806837
 20
1138.9323755611
 10
421.9848820244
 20
1139.2352044094
 10
421.9759203729
 20
1139.6020039428
 10
421.9656513773
 20
1140.0223209966
 10
421.9543677059
 20
1140.4841601361
 10
421.9423911304
 20
1140.9743636359
 10
421.9300629806
 20
1141.4789616574
  0
LWPOLYLINE
  5
327
330
1F
100
AcDbEntity
  8
0
  6
PHANTOM
 62
     8
100
AcDbPolyline
 90
        9
 70
   128
 43
0.0
 10
427.886861074
 20
1138.5510846485
 10
427.8905516726
 20
1138.7021451701
 10
427.8961766281
 20
1138.9323755611
 10
427.9035752874
 20
1139.2352044094
 10
427.9125369389
 20
1139.6020039428
 10
427.9228059345
 20
1140.0223209966
 10
427.9340896059
 20
1140.4841601361
 10
427.9460661814
 20
1140.9743636359
 10
427.9583943312
 20
1141.4789616574
  0
LWPOLYLINE
  5
328
330
1F
100
AcDbEntity
  8
0
  6
PHANTOM
 62
     8
100
AcDbPolyline
 90
        9
 70
   128
 43
0.0
 10
319.6094102927
 20
1082.4041053165
 10
320.0402401157
 20
1082.1411296237
 10
320.4587764808
 20
1081.8856566656
 10
320.8531059094
 20
1081.6449656595
 10
321.2119705745
 20
1081.4259111393
 10
321.5251482793
 20
1081.234751593
 10
321.7837132283
 20
1081.0769259442
 10
321.9802818962
 20
1080.9569417942
 10
322.1092588969
 20
1080.8782189597
  0
LWPOLYLINE
  5
329
330
1F
100
AcDbEntity
  8
0
  6
PHANTOM
 62
     8
100
AcDbPolyline
 90
        9
 70
   128
 43
0.0
 10
316.5952481099
 20
1077.183416437
 10
317.0384011932
 20
1076.9417941082
 10
317.4689180919
 20
1076.7070635665
 10
317.8745276996
 20
1076.4859154333
 10
318.2436667152
 20
1076.2846528996
 10
318.5658074685
 20
1076.1090129126
 10
318.8317633935
 20
1075.9640059877
 10
319.0339572497
 20
1075.8537634719
 10
319.1666222878
 20
1075.7814295102
  0
LWPOLYLINE
  5
32A
330
1F
100
AcDbEntity
  8
0
  6
PHANTOM
 62
     8
100
AcDbPolyline
 90
        9
 70
   128
 43
0.0
 10
316.5952481099
 20
959.0337037552
 10
317.0384011932
 20
959.275326084
 10
317.4689180919
 20
959.5100566257
 10
317.8745276996
 20
959.731204759
 10
318.2436667152
 20
959.9324672926
 10
318.5658074685
 20
960.1081072796
 10
318.8317633935
 20
960.2531142045
 10
319.0339572497
 20
960.3633567203
 10
319.1666222878
 20
960.435690682
  0
LWPOLYLINE
  5
32B
330
1F
100
AcDbEntity
  8
0
  6
PHANTOM
 62
     8
100
AcDbPolyline
 90
        9
 70
   128
 43
0.0
 10
319.6094102927
 20
953.8130148757
 10
320.0402401157
 20
954.0759905685
 10
320.4587764808
 20
954.3314635266
 10
320.8531059094
 20
954.5721545328
 10
321.2119705745
 20
954.7912090529
 10
321.5251482793
 20
954.9823685993
 10
321.7837132283
 20
955.140194248
 10
321.9802818962
 20
955.260178398
 10
322.1092588969
 20
955.3389012326
  0
ARC
  5
32C
330
1F
100
AcDbEntity
  8
0
  6
PHANTOM
 62
     8
100
AcDbCircle
 10
424.9442286559
 20
1018.1085600961
 30
0.0
 40
123.4072136226988
100
AcDbArc
 50
331.3995628339
 51
28.6004371661
  0
ARC
  5
32D
330
1F
100
AcDbEntity
  8
0
  6
PHANTOM
 62
     8
100
AcDbCircle
 10
424.9442286559
 20
1018.1085600961
 30
0.0
 40
123.4072136226989
100
AcDbArc
 50
271.3995628339
 51
328.6004371661
  0
ARC
  5
32E
330
1F
100
AcDbEntity
  8
0
  6
PHANTOM
 62
     8
100
AcDbCircle
 10
424.9442286559
 20
1018.1085600961
 30
0.0
 40
123.407213622699
100
AcDbArc
 50
31.3995628339
 51
88.6004371661
  0
ARC
  5
32F
330
1F
100
AcDbEntity
  8
0
  6
PHANTOM
 62
     8
100
AcDbCircle
 10
424.9442286559
 20
1018.1085600961
 30
0.0
 40
123.4072136226989
100
AcDbArc
 50
211.3995628339
 51
268.6004371661
  0
ARC
  5
330
330
1F
100
AcDbEntity
  8
0
  6
PHANTOM
 62
     8
100
AcDbCircle
 10
424.9442286559
 20
1018.1085600961
 30
0.0
 40
123.407213622699
100
AcDbArc
 50
91.3995628339
 51
148.6004371661
  0
ARC
  5
331
330
1F
100
AcDbEntity
  8
0
  6
PHANTOM
 62
     8
100
AcDbCircle
 10
424.9442286559
 20
1018.1085600961
 30
0.0
 40
123.407213622699
100
AcDbArc
 50
151.3995628339
 51
208.6004371661
  0
ARC
  5
332
330
1F
100
AcDbEntity
  8
0
  6
PHANTOM
 62
     8
100
AcDbCircle
 10
424.9442286559
 20
1018.1085600961
 30
0.0
 40
127.9999999999975
100
AcDbArc
 50
211.5629189717
 51
268.4370810283
  0
ARC
  5
333
330
1F
100
AcDbEntity
  8
0
  6
PHANTOM
 62
     8
100
AcDbCircle
 10
424.9442286559
 20
1018.1085600961
 30
0.0
 40
127.9999999999975
100
AcDbArc
 50
271.5629189717
 51
328.4370810283
  0
ARC
  5
334
330
1F
100
AcDbEntity
  8
0
  6
PHANTOM
 62
     8
100
AcDbCircle
 10
424.9442286559
 20
1018.1085600961
 30
0.0
 40
127.9999999999975
100
AcDbArc
 50
331.5629189717
 51
28.4370810283
  0
ARC
  5
335
330
1F
100
AcDbEntity
  8
0
  6
PHANTOM
 62
     8
100
AcDbCircle
 10
424.9442286559
 20
1018.1085600961
 30
0.0
 40
127.9999999999975
100
AcDbArc
 50
31.5629189717
 51
88.4370810283
  0
ARC
  5
336
330
1F
100
AcDbEntity
  8
0
  6
PHANTOM
 62
     8
100
AcDbCircle
 10
424.9442286559
 20
1018.1085600961
 30
0.0
 40
127.9999999999976
100
AcDbArc
 50
91.5629189717
 51
148.4370810283
  0
ARC
  5
337
330
1F
100
AcDbEntity
  8
0
  6
PHANTOM
 62
     8
100
AcDbCircle
 10
424.9442286559
 20
1018.1085600961
 30
0.0
 40
127.9999999999975
100
AcDbArc
 50
151.5629189717
 51
208.4370810283
  0
CIRCLE
  5
338
330
1F
100
AcDbEntity
  8
0
  6
PHANTOM
 62
     8
100
AcDbCircle
 10
424.9442286559
 20
1018.1085600961
 30
0.0
 40
48.0
  0
CIRCLE
  5
339
330
1F
100
AcDbEntity
  8
0
  6
PHANTOM
 62
     8
100
AcDbCircle
 10
424.9442286559
 20
1018.1085600961
 30
0.0
 40
135.9999999999944
  0
CIRCLE
  5
33A
330
1F
100
AcDbEntity
  8
0
  6
PHANTOM
 62
     8
100
AcDbCircle
 10
424.9442286559
 20
1018.1085600961
 30
0.0
 40
157.9999999999937
  0
LINE
  5
33B
330
1F
100
AcDbEntity
  8
RIQUADRO
100
AcDbLine
 10
424.9442286559
 20
1168.1085600961
 30
0.0
 11
424.9442286559
 21
1018.1085600961
 31
0.0
  0
LINE
  5
33C
330
1F
100
AcDbEntity
  8
RIQUADRO
100
AcDbLine
 10
424.9442286559
 20
1018.1085600961
 30
0.0
 11
534.1922263492
 21
1127.3565577894
 31
0.0
  0
LINE
  5
33D
330
1F
100
AcDbEntity
  8
RIQUADRO
100
AcDbLine
 10
424.9442286559
 20
1018.1085600961
 30
0.0
 11
539.7991754843
 21
1114.4833036187
 31
0.0
  0
CIRCLE
  5
33E
330
1F
100
AcDbEntity
  8
RIQUADRO
  6
CENTERX2
100
AcDbCircle
 10
424.9442286559
 20
1018.1085600961
 30
0.0
 40
149.9999999999981
  0
DIMENSION
  5
33F
330
1F
100
AcDbEntity
  8
RIQUADRO
100
AcDbDimension
  2
_D_17
 10
424.9442286559
 20
1018.1085600961
 30
0.0
 11
460.2158259723
 21
1098.2162344737
 31
0.0
 70
   162
  1
<>
  3
SLDDIMSTYLE7
100
AcDb2LineAngularDimension
 13
424.9442286559
 23
1018.1085600961
 33
0.0
 14
534.1922263492
 24
1127.3565577894
 34
0.0
 15
424.9442286559
 25
1168.1085600961
 35
0.0
 16
458.4401251251
 26
1098.9748076359
 36
0.0
  0
DIMENSION
  5
348
330
1F
100
AcDbEntity
  8
RIQUADRO
100
AcDbDimension
  2
_D_18
 10
424.9442286559
 20
1018.1085600961
 30
0.0
 11
490.8062866208
 21
1046.2758133522
 31
0.0
 70
   162
  1
<>
  3
SLDDIMSTYLE8
100
AcDb2LineAngularDimension
 13
539.7991754843
 23
1114.4833036187
 33
0.0
 14
424.9442286559
 24
1018.1085600961
 34
0.0
 15
534.1922263492
 25
1127.3565577894
 35
0.0
 16
477.7571948857
 26
1066.5027274448
 36
0.0
  0
DIMENSION
  5
353
330
1F
100
AcDbEntity
  8
RIQUADRO
100
AcDbDimension
  2
_D_19
 10
207.6334253954
 20
1168.1085600961
 30
0.0
 11
207.6334253954
 21
1027.8955091963
 31
0.0
 70
   160
  1
%%c<>
  3
SLDDIMSTYLE4
100
AcDbAlignedDimension
 13
424.9442286559
 23
868.1085600961
 33
0.0
 14
424.9442286559
 24
1168.1085600961
 34
0.0
 50
90.0
100
AcDbRotatedDimension
  0
DIMENSION
  5
35E
330
1F
100
AcDbEntity
  8
RIQUADRO
100
AcDbDimension
  2
_D_20
 10
428.3442286559
 20
1231.0447010129
 30
0.0
 11
459.6097525566
 21
1231.0447010129
 31
0.0
 70
   160
  1
M8\P4 holes
  3
SLDDIMSTYLE3
100
AcDbAlignedDimension
 13
421.5442286559
 23
1168.1085600961
 33
0.0
 14
428.3442286559
 24
1168.1085600961
 34
0.0
100
AcDbRotatedDimension
  0
DIMENSION
  5
36B
330
1F
100
AcDbEntity
  8
RIQUADRO
100
AcDbDimension
  2
_D_21
 10
538.0711649326
 20
1123.3347274151
 30
0.0
 11
560.3684222427
 21
1144.0747474819
 31
0.0
 70
   160
  1
<>
  3
SLDDIMSTYLE3
100
AcDbAlignedDimension
 13
531.4812463145
 23
1117.2050477655
 33
0.0
 14
538.0711649326
 24
1123.3347274151
 34
0.0
 50
42.9277449803
100
AcDbRotatedDimension
  0
DIMENSION
  5
375
330
1F
100
AcDbEntity
  8
RIQUADRO
100
AcDbDimension
  2
_D_22
 10
602.0571556101
 20
1176.7412837445
 30
0.0
 11
631.6020345749
 21
1147.1964047796
 31
0.0
 70
   160
  1
(<>)
  3
SLDDIMSTYLE3
100
AcDbAlignedDimension
 13
521.3189721785
 23
1132.9635069245
 33
0.0
 14
539.7991754843
 24
1114.4833036187
 34
0.0
 50
-45.0
100
AcDbRotatedDimension
  0
LINE
  5
383
330
1F
100
AcDbEntity
  8
0
  6
CONTINUOUS
 62
     7
100
AcDbLine
 10
1841.9187719979
 20
1127.5333374251
 30
0.0
 11
1841.9425244488
 21
1127.5098233927
 31
0.0
  0
LINE
  5
384
330
1F
100
AcDbEntity
  8
0
  6
CONTINUOUS
 62
     7
100
AcDbLine
 10
1797.9731689252
 20
1021.3583881013
 30
0.0
 11
1797.9397307195
 21
1021.3585601632
 31
0.0
  0
SPLINE
  5
385
330
1F
100
AcDbEntity
  8
0
  6
CONTINUOUS
 62
     7
100
AcDbSpline
210
0.0
220
0.0
230
1.0
 70
    24
 71
     3
 72
    12
 73
     8
 74
     0
 42
0.00000001
 43
0.00000001
 12
1.0
 22
0.0
 32
0.0
 13
1.0
 23
0.0
 33
0.0
 40
0.0
 40
0.0
 40
0.0
 40
0.0
 40
0.2162794218843327
 40
0.432561236687251
 40
0.6488173783587576
 40
0.8650435050611709
 40
1.0
 40
1.0
 40
1.0
 40
1.0
 10
1797.939730719499
 20
1021.358560163163
 30
0.0
 10
1797.602729985199
 20
1021.358560163163
 30
0.0
 10
1796.928724788018
 20
1021.358560163163
 30
0.0
 10
1796.035251469737
 20
1021.358560163163
 30
0.0
 10
1795.365042649957
 20
1021.358560163163
 30
0.0
 10
1795.019876565899
 20
1021.358560163163
 30
0.0
 10
1794.985678877571
 20
1021.358560163163
 30
0.0
 10
1794.972536996774
 20
1021.358560163163
 30
0.0
  0
ARC
  5
386
330
1F
100
AcDbEntity
  8
0
  6
CONTINUOUS
 62
     7
100
AcDbCircle
 10
1955.9397379913
 20
1018.1085600961
 30
0.0
 40
160.9999999999966
100
AcDbArc
 50
136.1566703865
 51
178.8433296135
  0
SPLINE
  5
387
330
1F
100
AcDbEntity
  8
0
  6
CONTINUOUS
 62
     7
100
AcDbSpline
210
0.0
220
0.0
230
1.0
 70
     8
 71
     3
 72
    12
 73
     8
 74
     0
 42
0.00000001
 43
0.00000001
 12
1.0
 22
0.0
 32
0.0
 13
1.0
 23
0.0
 33
0.0
 40
0.0
 40
0.0
 40
0.0
 40
0.0
 40
0.2161755114175297
 40
0.4323380369163389
 40
0.6485284695450286
 40
0.8647574890990573
 40
1.0
 40
1.0
 40
1.0
 40
1.0
 10
1839.820643798284
 20
1129.631458174073
 30
0.0
 10
1839.844093269843
 20
1129.608012719323
 30
0.0
 10
1839.890990804324
 20
1129.561123218221
 30
0.0
 10
1840.256687159037
 20
1129.195411315626
 30
0.0
 10
1840.794932193775
 20
1128.65717171828
 30
0.0
 10
1841.384099666432
 20
1128.067998819089
 30
0.0
 10
1841.77020338782
 20
1127.681902995954
 30
0.0
 10
1841.918771997861
 20
1127.533337425076
 30
0.0
  0
LINE
  5
388
330
1F
100
AcDbEntity
  8
0
  6
CONTINUOUS
 62
     7
100
AcDbLine
 10
1797.9397307195
 20
1014.8585600291
 30
0.0
 11
1797.9731689252
 21
1014.8587320909
 31
0.0
  0
LINE
  5
389
330
1F
100
AcDbEntity
  8
0
  6
CONTINUOUS
 62
     7
100
AcDbLine
 10
1841.9425244488
 20
908.7072967995
 30
0.0
 11
1841.9187719979
 21
908.6837827671
 31
0.0
  0
SPLINE
  5
38A
330
1F
100
AcDbEntity
  8
0
  6
CONTINUOUS
 62
     7
100
AcDbSpline
210
0.0
220
0.0
230
1.0
 70
     8
 71
     3
 72
    12
 73
     8
 74
     0
 42
0.00000001
 43
0.00000001
 12
1.0
 22
0.0
 32
0.0
 13
1.0
 23
0.0
 33
0.0
 40
0.0
 40
0.0
 40
0.0
 40
0.0
 40
0.2162814522957564
 40
0.4325618551197035
 40
0.648818473816001
 40
0.865044038223429
 40
1.0
 40
1.0
 40
1.0
 40
1.0
 10
1841.918771997861
 20
908.6837827671399
 30
0.0
 10
1841.680473391485
 20
908.4454841846137
 30
0.0
 10
1841.20387733504
 20
907.968888175868
 30
0.0
 10
1840.572096551843
 20
907.3371070349397
 30
0.0
 10
1840.098182658316
 20
906.8631945005808
 30
0.0
 10
1839.854113088135
 20
906.6191204884129
 30
0.0
 10
1839.829935161969
 20
906.5949503782196
 30
0.0
 10
1839.820643798284
 20
906.5856620181431
 30
0.0
  0
ARC
  5
38B
330
1F
100
AcDbEntity
  8
0
  6
CONTINUOUS
 62
     7
100
AcDbCircle
 10
1955.9397379913
 20
1018.1085600961
 30
0.0
 40
160.9999999999964
100
AcDbArc
 50
181.1566703865
 51
223.8433296136
  0
SPLINE
  5
38C
330
1F
100
AcDbEntity
  8
0
  6
CONTINUOUS
 62
     7
100
AcDbSpline
210
0.0
220
0.0
230
1.0
 70
    24
 71
     3
 72
    12
 73
     8
 74
     0
 42
0.00000001
 43
0.00000001
 12
1.0
 22
0.0
 32
0.0
 13
1.0
 23
0.0
 33
0.0
 40
0.0
 40
0.0
 40
0.0
 40
0.0
 40
0.2161758357064422
 40
0.4323401988522794
 40
0.6485292446046698
 40
0.8647584765139374
 40
1.0
 40
1.0
 40
1.0
 40
1.0
 10
1794.972536996774
 20
1014.858560029053
 30
0.0
 10
1795.005695398291
 20
1014.858560029053
 30
0.0
 10
1795.072010441591
 20
1014.858560029053
 30
0.0
 10
1795.589214983047
 20
1014.858560029053
 30
0.0
 10
1796.350390629408
 20
1014.858560029053
 30
0.0
 10
1797.1836020281
 20
1014.858560029053
 30
0.0
 10
1797.729627131376
 20
1014.858560029053
 30
0.0
 10
1797.939730719499
 20
1014.858560029053
 30
0.0
  0
LINE
  5
38D
330
1F
100
AcDbEntity
  8
0
  6
CONTINUOUS
 62
     7
100
AcDbLine
 10
1952.6897379242
 20
1176.1085673679
 30
0.0
 11
1952.6899099861
 21
1176.0751291622
 31
0.0
  0
LINE
  5
38E
330
1F
100
AcDbEntity
  8
0
  6
CONTINUOUS
 62
     7
100
AcDbLine
 10
1846.5384746947
 20
1132.1057736386
 30
0.0
 11
1846.5149606623
 21
1132.1295260895
 31
0.0
  0
SPLINE
  5
38F
330
1F
100
AcDbEntity
  8
0
  6
CONTINUOUS
 62
     7
100
AcDbSpline
210
0.0
220
0.0
230
1.0
 70
     8
 71
     3
 72
    12
 73
     8
 74
     0
 42
0.00000001
 43
0.00000001
 12
1.0
 22
0.0
 32
0.0
 13
1.0
 23
0.0
 33
0.0
 40
0.0
 40
0.0
 40
0.0
 40
0.0
 40
0.2162814522957564
 40
0.4325618551197035
 40
0.648818473816001
 40
0.865044038223429
 40
1.0
 40
1.0
 40
1.0
 40
1.0
 10
1846.514960662297
 20
1132.129526089512
 30
0.0
 10
1846.276662079772
 20
1132.367824695888
 30
0.0
 10
1845.800066071026
 20
1132.844420752334
 30
0.0
 10
1845.168284930097
 20
1133.47620153553
 30
0.0
 10
1844.694372395738
 20
1133.950115429058
 30
0.0
 10
1844.45029838357
 20
1134.194184999239
 30
0.0
 10
1844.426128273377
 20
1134.218362925404
 30
0.0
 10
1844.416839913301
 20
1134.22765428909
 30
0.0
  0
ARC
  5
390
330
1F
100
AcDbEntity
  8
0
  6
CONTINUOUS
 62
     7
100
AcDbCircle
 10
1955.9397379913
 20
1018.1085600961
 30
0.0
 40
160.9999999999966
100
AcDbArc
 50
91.1566703865
 51
133.8433296135
  0
SPLINE
  5
391
330
1F
100
AcDbEntity
  8
0
  6
CONTINUOUS
 62
     7
100
AcDbSpline
210
0.0
220
0.0
230
1.0
 70
    24
 71
     3
 72
    12
 73
     8
 74
     0
 42
0.00000001
 43
0.00000001
 12
1.0
 22
0.0
 32
0.0
 13
1.0
 23
0.0
 33
0.0
 40
0.0
 40
0.0
 40
0.0
 40
0.0
 40
0.2161758357064422
 40
0.4323401988522794
 40
0.6485292446046698
 40
0.8647584765139374
 40
1.0
 40
1.0
 40
1.0
 40
1.0
 10
1952.68973792421
 20
1179.0757610906
 30
0.0
 10
1952.68973792421
 20
1179.042602689083
 30
0.0
 10
1952.68973792421
 20
1178.976287645783
 30
0.0
 10
1952.68973792421
 20
1178.459083104326
 30
0.0
 10
1952.68973792421
 20
1177.697907457966
 30
0.0
 10
1952.68973792421
 20
1176.864696059273
 30
0.0
 10
1952.68973792421
 20
1176.318670955997
 30
0.0
 10
1952.68973792421
 20
1176.108567367875
 30
0.0
  0
LINE
  5
392
330
1F
100
AcDbEntity
  8
0
  6
CONTINUOUS
 62
     7
100
AcDbLine
 10
1846.5149606623
 20
904.0875941027
 30
0.0
 11
1846.5384746947
 21
904.1113465536
 31
0.0
  0
LINE
  5
393
330
1F
100
AcDbEntity
  8
0
  6
CONTINUOUS
 62
     7
100
AcDbLine
 10
1952.6899099861
 20
860.1419910301
 30
0.0
 11
1952.6897379242
 21
860.1085528243
 31
0.0
  0
SPLINE
  5
394
330
1F
100
AcDbEntity
  8
0
  6
CONTINUOUS
 62
     7
100
AcDbSpline
210
0.0
220
0.0
230
1.0
 70
    24
 71
     3
 72
    12
 73
     8
 74
     0
 42
0.00000001
 43
0.00000001
 12
1.0
 22
0.0
 32
0.0
 13
1.0
 23
0.0
 33
0.0
 40
0.0
 40
0.0
 40
0.0
 40
0.0
 40
0.2162794218843327
 40
0.432561236687251
 40
0.6488173783587576
 40
0.8650435050611709
 40
1.0
 40
1.0
 40
1.0
 40
1.0
 10
1952.68973792421
 20
860.1085528243412
 30
0.0
 10
1952.68973792421
 20
859.7715520900412
 30
0.0
 10
1952.68973792421
 20
859.0975468928601
 30
0.0
 10
1952.68973792421
 20
858.2040735745792
 30
0.0
 10
1952.68973792421
 20
857.533864754799
 30
0.0
 10
1952.68973792421
 20
857.1886986707412
 30
0.0
 10
1952.68973792421
 20
857.1545009824137
 30
0.0
 10
1952.68973792421
 20
857.1413591016163
 30
0.0
  0
ARC
  5
395
330
1F
100
AcDbEntity
  8
0
  6
CONTINUOUS
 62
     7
100
AcDbCircle
 10
1955.9397379913
 20
1018.1085600961
 30
0.0
 40
160.9999999999966
100
AcDbArc
 50
226.1566703865
 51
268.8433296136
  0
SPLINE
  5
396
330
1F
100
AcDbEntity
  8
0
  6
CONTINUOUS
 62
     7
100
AcDbSpline
210
0.0
220
0.0
230
1.0
 70
     8
 71
     3
 72
    12
 73
     8
 74
     0
 42
0.00000001
 43
0.00000001
 12
1.0
 22
0.0
 32
0.0
 13
1.0
 23
0.0
 33
0.0
 40
0.0
 40
0.0
 40
0.0
 40
0.0
 40
0.2161755114175297
 40
0.4323380369163389
 40
0.6485284695450286
 40
0.8647574890990573
 40
1.0
 40
1.0
 40
1.0
 40
1.0
 10
1844.416839913301
 20
901.9894659031262
 30
0.0
 10
1844.44028536805
 20
902.0129153746855
 30
0.0
 10
1844.487174869153
 20
902.0598129091663
 30
0.0
 10
1844.852886771748
 20
902.4255092638798
 30
0.0
 10
1845.391126369094
 20
902.963754298617
 30
0.0
 10
1845.980299268285
 20
903.5529217712749
 30
0.0
 10
1846.36639509142
 20
903.9390254926626
 30
0.0
 10
1846.514960662297
 20
904.0875941027035
 30
0.0
  0
LINE
  5
397
330
1F
100
AcDbEntity
  8
0
  6
CONTINUOUS
 62
     7
100
AcDbLine
 10
2065.3645153202
 20
1132.1295260895
 30
0.0
 11
2065.3410012879
 21
1132.1057736386
 31
0.0
  0
LINE
  5
398
330
1F
100
AcDbEntity
  8
0
  6
CONTINUOUS
 62
     7
100
AcDbLine
 10
1959.1895659965
 20
1176.0751291622
 30
0.0
 11
1959.1897380583
 21
1176.1085673679
 31
0.0
  0
ARC
  5
399
330
1F
100
AcDbEntity
  8
0
  6
CONTINUOUS
 62
     7
100
AcDbCircle
 10
1955.9397379913
 20
1018.1085600961
 30
0.0
 40
160.999999999997
100
AcDbArc
 50
46.1566703865
 51
88.8433296135
  0
SPLINE
  5
39A
330
1F
100
AcDbEntity
  8
0
  6
CONTINUOUS
 62
     7
100
AcDbSpline
210
0.0
220
0.0
230
1.0
 70
     8
 71
     3
 72
    12
 73
     8
 74
     0
 42
0.00000001
 43
0.00000001
 12
1.0
 22
0.0
 32
0.0
 13
1.0
 23
0.0
 33
0.0
 40
0.0
 40
0.0
 40
0.0
 40
0.0
 40
0.2161755114175297
 40
0.4323380369163389
 40
0.6485284695450286
 40
0.8647574890990573
 40
1.0
 40
1.0
 40
1.0
 40
1.0
 10
2067.46263606923
 20
1134.22765428909
 30
0.0
 10
2067.439190614481
 20
1134.204204817531
 30
0.0
 10
2067.392301113378
 20
1134.157307283049
 30
0.0
 10
2067.026589210784
 20
1133.791610928336
 30
0.0
 10
2066.488349613437
 20
1133.253365893599
 30
0.0
 10
2065.899176714246
 20
1132.664198420941
 30
0.0
 10
2065.513080891111
 20
1132.278094699553
 30
0.0
 10
2065.364515320234
 20
1132.129526089512
 30
0.0
  0
SPLINE
  5
39B
330
1F
100
AcDbEntity
  8
0
  6
CONTINUOUS
 62
     7
100
AcDbSpline
210
0.0
220
0.0
230
1.0
 70
    24
 71
     3
 72
    12
 73
     8
 74
     0
 42
0.00000001
 43
0.00000001
 12
1.0
 22
0.0
 32
0.0
 13
1.0
 23
0.0
 33
0.0
 40
0.0
 40
0.0
 40
0.0
 40
0.0
 40
0.2162794218843327
 40
0.432561236687251
 40
0.6488173783587576
 40
0.8650435050611709
 40
1.0
 40
1.0
 40
1.0
 40
1.0
 10
1959.189738058321
 20
1176.108567367875
 30
0.0
 10
1959.189738058321
 20
1176.445568102175
 30
0.0
 10
1959.189738058321
 20
1177.119573299356
 30
0.0
 10
1959.189738058321
 20
1178.013046617637
 30
0.0
 10
1959.189738058321
 20
1178.683255437417
 30
0.0
 10
1959.189738058321
 20
1179.028421521475
 30
0.0
 10
1959.189738058321
 20
1179.062619209802
 30
0.0
 10
1959.189738058321
 20
1179.0757610906
 30
0.0
  0
LINE
  5
39C
330
1F
100
AcDbEntity
  8
0
  6
CONTINUOUS
 62
     7
100
AcDbLine
 10
1959.1897380583
 20
860.1085528243
 30
0.0
 11
1959.1895659965
 21
860.1419910301
 31
0.0
  0
LINE
  5
39D
330
1F
100
AcDbEntity
  8
0
  6
CONTINUOUS
 62
     7
100
AcDbLine
 10
2065.3410012879
 20
904.1113465536
 30
0.0
 11
2065.3645153202
 21
904.0875941027
 31
0.0
  0
SPLINE
  5
39E
330
1F
100
AcDbEntity
  8
0
  6
CONTINUOUS
 62
     7
100
AcDbSpline
210
0.0
220
0.0
230
1.0
 70
     8
 71
     3
 72
    12
 73
     8
 74
     0
 42
0.00000001
 43
0.00000001
 12
1.0
 22
0.0
 32
0.0
 13
1.0
 23
0.0
 33
0.0
 40
0.0
 40
0.0
 40
0.0
 40
0.0
 40
0.2162814522957564
 40
0.4325618551197035
 40
0.648818473816001
 40
0.865044038223429
 40
1.0
 40
1.0
 40
1.0
 40
1.0
 10
2065.364515320234
 20
904.0875941027035
 30
0.0
 10
2065.602813902759
 20
903.8492954963276
 30
0.0
 10
2066.079409911506
 20
903.3726994398824
 30
0.0
 10
2066.711191052434
 20
902.7409186566855
 30
0.0
 10
2067.185103586793
 20
902.267004763158
 30
0.0
 10
2067.42917759896
 20
902.022935192977
 30
0.0
 10
2067.453347709154
 20
901.9987572668118
 30
0.0
 10
2067.46263606923
 20
901.9894659031262
 30
0.0
  0
ARC
  5
39F
330
1F
100
AcDbEntity
  8
0
  6
CONTINUOUS
 62
     7
100
AcDbCircle
 10
1955.9397379913
 20
1018.1085600961
 30
0.0
 40
160.9999999999966
100
AcDbArc
 50
271.1566703865
 51
313.8433296136
  0
SPLINE
  5
3A0
330
1F
100
AcDbEntity
  8
0
  6
CONTINUOUS
 62
     7
100
AcDbSpline
210
0.0
220
0.0
230
1.0
 70
    24
 71
     3
 72
    12
 73
     8
 74
     0
 42
0.00000001
 43
0.00000001
 12
1.0
 22
0.0
 32
0.0
 13
1.0
 23
0.0
 33
0.0
 40
0.0
 40
0.0
 40
0.0
 40
0.0
 40
0.2161758357064422
 40
0.4323401988522794
 40
0.6485292446046698
 40
0.8647584765139374
 40
1.0
 40
1.0
 40
1.0
 40
1.0
 10
1959.189738058321
 20
857.1413591016163
 30
0.0
 10
1959.189738058321
 20
857.1745175031331
 30
0.0
 10
1959.189738058321
 20
857.2408325464334
 30
0.0
 10
1959.189738058321
 20
857.7580370878898
 30
0.0
 10
1959.189738058321
 20
858.51921273425
 30
0.0
 10
1959.189738058321
 20
859.3524241329427
 30
0.0
 10
1959.189738058321
 20
859.8984492362188
 30
0.0
 10
1959.189738058321
 20
860.1085528243412
 30
0.0
  0
LINE
  5
3A1
330
1F
100
AcDbEntity
  8
0
  6
CONTINUOUS
 62
     7
100
AcDbLine
 10
2069.9607039847
 20
908.6837827671
 30
0.0
 11
2069.9369515337
 21
908.7072967995
 31
0.0
  0
LINE
  5
3A2
330
1F
100
AcDbEntity
  8
0
  6
CONTINUOUS
 62
     7
100
AcDbLine
 10
2113.9063070573
 20
1014.8587320909
 30
0.0
 11
2113.939745263
 21
1014.8585600291
 31
0.0
  0
SPLINE
  5
3A3
330
1F
100
AcDbEntity
  8
0
  6
CONTINUOUS
 62
     7
100
AcDbSpline
210
0.0
220
0.0
230
1.0
 70
    24
 71
     3
 72
    12
 73
     8
 74
     0
 42
0.00000001
 43
0.00000001
 12
1.0
 22
0.0
 32
0.0
 13
1.0
 23
0.0
 33
0.0
 40
0.0
 40
0.0
 40
0.0
 40
0.0
 40
0.2162794218843327
 40
0.432561236687251
 40
0.6488173783587576
 40
0.8650435050611709
 40
1.0
 40
1.0
 40
1.0
 40
1.0
 10
2113.939745263032
 20
1014.858560029053
 30
0.0
 10
2114.276745997332
 20
1014.858560029053
 30
0.0
 10
2114.950751194513
 20
1014.858560029053
 30
0.0
 10
2115.844224512794
 20
1014.858560029053
 30
0.0
 10
2116.514433332575
 20
1014.858560029053
 30
0.0
 10
2116.859599416632
 20
1014.858560029053
 30
0.0
 10
2116.89379710496
 20
1014.858560029053
 30
0.0
 10
2116.906938985757
 20
1014.858560029053
 30
0.0
  0
ARC
  5
3A4
330
1F
100
AcDbEntity
  8
0
  6
CONTINUOUS
 62
     7
100
AcDbCircle
 10
1955.9397379913
 20
1018.1085600961
 30
0.0
 40
160.9999999999968
100
AcDbArc
 50
316.1566703865
 51
358.8433296136
  0
SPLINE
  5
3A5
330
1F
100
AcDbEntity
  8
0
  6
CONTINUOUS
 62
     7
100
AcDbSpline
210
0.0
220
0.0
230
1.0
 70
     8
 71
     3
 72
    12
 73
     8
 74
     0
 42
0.00000001
 43
0.00000001
 12
1.0
 22
0.0
 32
0.0
 13
1.0
 23
0.0
 33
0.0
 40
0.0
 40
0.0
 40
0.0
 40
0.0
 40
0.2161755114175297
 40
0.4323380369163389
 40
0.6485284695450286
 40
0.8647574890990573
 40
1.0
 40
1.0
 40
1.0
 40
1.0
 10
2072.058832184247
 20
906.5856620181431
 30
0.0
 10
2072.035382712688
 20
906.6091074728924
 30
0.0
 10
2071.988485178207
 20
906.6559969739949
 30
0.0
 10
2071.622788823494
 20
907.0217088765902
 30
0.0
 10
2071.084543788756
 20
907.5599484739364
 30
0.0
 10
2070.495376316098
 20
908.1491213731272
 30
0.0
 10
2070.109272594711
 20
908.5352171962625
 30
0.0
 10
2069.96070398467
 20
908.6837827671399
 30
0.0
  0
LINE
  5
3A6
330
1F
100
AcDbEntity
  8
0
  6
CONTINUOUS
 62
     7
100
AcDbLine
 10
2113.939745263
 20
1021.3585601632
 30
0.0
 11
2113.9063070573
 21
1021.3583881013
 31
0.0
  0
LINE
  5
3A7
330
1F
100
AcDbEntity
  8
0
  6
CONTINUOUS
 62
     7
100
AcDbLine
 10
2069.9369515337
 20
1127.5098233927
 30
0.0
 11
2069.9607039847
 21
1127.5333374251
 31
0.0
  0
ARC
  5
3A8
330
1F
100
AcDbEntity
  8
0
  6
CONTINUOUS
 62
     7
100
AcDbCircle
 10
1955.9397379913
 20
1018.1085600961
 30
0.0
 40
160.9999999999968
100
AcDbArc
 50
1.1566703865
 51
43.8433296135
  0
SPLINE
  5
3A9
330
1F
100
AcDbEntity
  8
0
  6
CONTINUOUS
 62
     7
100
AcDbSpline
210
0.0
220
0.0
230
1.0
 70
    24
 71
     3
 72
    12
 73
     8
 74
     0
 42
0.00000001
 43
0.00000001
 12
1.0
 22
0.0
 32
0.0
 13
1.0
 23
0.0
 33
0.0
 40
0.0
 40
0.0
 40
0.0
 40
0.0
 40
0.2161758357064422
 40
0.4323401988522794
 40
0.6485292446046698
 40
0.8647584765139374
 40
1.0
 40
1.0
 40
1.0
 40
1.0
 10
2116.906938985757
 20
1021.358560163163
 30
0.0
 10
2116.87378058424
 20
1021.358560163163
 30
0.0
 10
2116.80746554094
 20
1021.358560163163
 30
0.0
 10
2116.290260999484
 20
1021.358560163163
 30
0.0
 10
2115.529085353124
 20
1021.358560163163
 30
0.0
 10
2114.695873954431
 20
1021.358560163163
 30
0.0
 10
2114.149848851155
 20
1021.358560163163
 30
0.0
 10
2113.939745263032
 20
1021.358560163163
 30
0.0
  0
SPLINE
  5
3AA
330
1F
100
AcDbEntity
  8
0
  6
CONTINUOUS
 62
     7
100
AcDbSpline
210
0.0
220
0.0
230
1.0
 70
     8
 71
     3
 72
    12
 73
     8
 74
     0
 42
0.00000001
 43
0.00000001
 12
1.0
 22
0.0
 32
0.0
 13
1.0
 23
0.0
 33
0.0
 40
0.0
 40
0.0
 40
0.0
 40
0.0
 40
0.2162814522957564
 40
0.4325618551197035
 40
0.648818473816001
 40
0.865044038223429
 40
1.0
 40
1.0
 40
1.0
 40
1.0
 10
2069.96070398467
 20
1127.533337425076
 30
0.0
 10
2070.199002591046
 20
1127.771636007602
 30
0.0
 10
2070.675598647491
 20
1128.248232016348
 30
0.0
 10
2071.307379430688
 20
1128.880013157276
 30
0.0
 10
2071.781293324216
 20
1129.353925691635
 30
0.0
 10
2072.025362894396
 20
1129.597999703803
 30
0.0
 10
2072.049540820562
 20
1129.622169813996
 30
0.0
 10
2072.058832184247
 20
1129.631458174073
 30
0.0
  0
CIRCLE
  5
3AB
330
1F
100
AcDbEntity
  8
0
  6
CONTINUOUS
 62
     7
100
AcDbCircle
 10
1955.9397379913
 20
1018.1085600961
 30
0.0
 40
152.4999999999969
  0
ARC
  5
3AC
330
1F
100
AcDbEntity
  8
0
  6
CONTINUOUS
 62
     7
100
AcDbCircle
 10
2113.9397379913
 20
1018.1085600961
 30
0.0
 40
3.250000000000019
100
AcDbArc
 50
90.5892866026
 51
269.4107133974
  0
ARC
  5
3AD
330
1F
100
AcDbEntity
  8
0
  6
CONTINUOUS
 62
     7
100
AcDbCircle
 10
2067.6626094187
 20
906.3856886686
 30
0.0
 40
3.250000000000276
100
AcDbArc
 50
45.5892866026
 51
224.4107133974
  0
ARC
  5
3AE
330
1F
100
AcDbEntity
  8
0
  6
CONTINUOUS
 62
     7
100
AcDbCircle
 10
2067.6626094187
 20
1129.8314315236
 30
0.0
 40
3.250000000000362
100
AcDbArc
 50
135.5892866026
 51
314.4107133974
  0
ARC
  5
3AF
330
1F
100
AcDbEntity
  8
0
  6
CONTINUOUS
 62
     7
100
AcDbCircle
 10
1955.9397379913
 20
860.1085600961
 30
0.0
 40
3.250000000000019
100
AcDbArc
 50
0.5892866026
 51
179.4107133974
  0
ARC
  5
3B0
330
1F
100
AcDbEntity
  8
0
  6
CONTINUOUS
 62
     7
100
AcDbCircle
 10
1955.9397379913
 20
1176.1085600961
 30
0.0
 40
3.250000000000019
100
AcDbArc
 50
180.5892866026
 51
359.4107133974
  0
ARC
  5
3B1
330
1F
100
AcDbEntity
  8
0
  6
CONTINUOUS
 62
     7
100
AcDbCircle
 10
1844.2168665638
 20
906.3856886686
 30
0.0
 40
3.250000000000031
100
AcDbArc
 50
315.5892866026
 51
134.4107133974
  0
ARC
  5
3B2
330
1F
100
AcDbEntity
  8
0
  6
CONTINUOUS
 62
     7
100
AcDbCircle
 10
1844.2168665638
 20
1129.8314315236
 30
0.0
 40
3.249999999999875
100
AcDbArc
 50
225.5892866026
 51
44.4107133974
  0
ARC
  5
3B3
330
1F
100
AcDbEntity
  8
0
  6
CONTINUOUS
 62
     7
100
AcDbCircle
 10
1797.9397379913
 20
1018.1085600961
 30
0.0
 40
3.250000000000016
100
AcDbArc
 50
270.5892866026
 51
89.4107133974
  0
ARC
  5
3B4
330
1F
100
AcDbEntity
  8
0
  6
CONTINUOUS
 62
     7
100
AcDbCircle
 10
1955.9397379913
 20
1018.1085600961
 30
0.0
 40
160.9999999999963
100
AcDbArc
 50
178.8433296135
 51
181.1566703865
  0
CIRCLE
  5
3B5
330
1F
100
AcDbEntity
  8
0
  6
CONTINUOUS
 62
     7
100
AcDbCircle
 10
1797.9397379913
 20
1018.1085600961
 30
0.0
 40
1.700000000000045
  0
CIRCLE
  5
3B6
330
1F
100
AcDbEntity
  8
0
  6
CONTINUOUS
 62
     7
100
AcDbCircle
 10
1844.2168665638
 20
1129.8314315236
 30
0.0
 40
1.700000000000045
  0
ARC
  5
3B7
330
1F
100
AcDbEntity
  8
0
  6
CONTINUOUS
 62
     7
100
AcDbCircle
 10
1955.9397379913
 20
1018.1085600961
 30
0.0
 40
160.9999999999966
100
AcDbArc
 50
133.8433296135
 51
136.1566703865
  0
CIRCLE
  5
3B8
330
1F
100
AcDbEntity
  8
0
  6
CONTINUOUS
 62
     7
100
AcDbCircle
 10
1844.2168665638
 20
906.3856886686
 30
0.0
 40
1.700000000000045
  0
ARC
  5
3B9
330
1F
100
AcDbEntity
  8
0
  6
CONTINUOUS
 62
     7
100
AcDbCircle
 10
1955.9397379913
 20
1018.1085600961
 30
0.0
 40
160.9999999999966
100
AcDbArc
 50
223.8433296136
 51
226.1566703865
  0
CIRCLE
  5
3BA
330
1F
100
AcDbEntity
  8
0
  6
CONTINUOUS
 62
     7
100
AcDbCircle
 10
1955.9397379913
 20
860.1085600961
 30
0.0
 40
1.700000000000045
  0
ARC
  5
3BB
330
1F
100
AcDbEntity
  8
0
  6
CONTINUOUS
 62
     7
100
AcDbCircle
 10
1955.9397379913
 20
1018.1085600961
 30
0.0
 40
160.9999999999966
100
AcDbArc
 50
268.8433296136
 51
271.1566703865
  0
CIRCLE
  5
3BC
330
1F
100
AcDbEntity
  8
0
  6
CONTINUOUS
 62
     7
100
AcDbCircle
 10
1955.9397379913
 20
1176.1085600961
 30
0.0
 40
1.700000000000045
  0
ARC
  5
3BD
330
1F
100
AcDbEntity
  8
0
  6
CONTINUOUS
 62
     7
100
AcDbCircle
 10
1955.9397379913
 20
1018.1085600961
 30
0.0
 40
160.9999999999964
100
AcDbArc
 50
88.8433296135
 51
91.1566703865
  0
CIRCLE
  5
3BE
330
1F
100
AcDbEntity
  8
0
  6
CONTINUOUS
 62
     7
100
AcDbCircle
 10
2067.6626094187
 20
1129.8314315236
 30
0.0
 40
1.699999999999363
  0
ARC
  5
3BF
330
1F
100
AcDbEntity
  8
0
  6
CONTINUOUS
 62
     7
100
AcDbCircle
 10
1955.9397379913
 20
1018.1085600961
 30
0.0
 40
160.999999999997
100
AcDbArc
 50
43.8433296135
 51
46.1566703865
  0
CIRCLE
  5
3C0
330
1F
100
AcDbEntity
  8
0
  6
CONTINUOUS
 62
     7
100
AcDbCircle
 10
2067.6626094187
 20
906.3856886686
 30
0.0
 40
1.699999999999818
  0
ARC
  5
3C1
330
1F
100
AcDbEntity
  8
0
  6
CONTINUOUS
 62
     7
100
AcDbCircle
 10
1955.9397379913
 20
1018.1085600961
 30
0.0
 40
160.9999999999966
100
AcDbArc
 50
313.8433296136
 51
316.1566703865
  0
CIRCLE
  5
3C2
330
1F
100
AcDbEntity
  8
0
  6
CONTINUOUS
 62
     7
100
AcDbCircle
 10
2113.9397379913
 20
1018.1085600961
 30
0.0
 40
1.699999999999818
  0
ARC
  5
3C3
330
1F
100
AcDbEntity
  8
0
  6
CONTINUOUS
 62
     7
100
AcDbCircle
 10
1955.9397379913
 20
1018.1085600961
 30
0.0
 40
160.9999999999968
100
AcDbArc
 50
358.8433296136
 51
1.1566703865
  0
CIRCLE
  5
3C4
330
1F
100
AcDbEntity
  8
0
  6
CONTINUOUS
 62
     7
100
AcDbCircle
 10
1844.2168665638
 20
1129.8314315236
 30
0.0
 40
1.25
  0
CIRCLE
  5
3C5
330
1F
100
AcDbEntity
  8
0
  6
CONTINUOUS
 62
     7
100
AcDbCircle
 10
1797.9397379913
 20
1018.1085600961
 30
0.0
 40
1.249999999999773
  0
CIRCLE
  5
3C6
330
1F
100
AcDbEntity
  8
0
  6
CONTINUOUS
 62
     7
100
AcDbCircle
 10
1844.2168665638
 20
906.3856886686
 30
0.0
 40
1.25
  0
CIRCLE
  5
3C7
330
1F
100
AcDbEntity
  8
0
  6
CONTINUOUS
 62
     7
100
AcDbCircle
 10
1955.9397379913
 20
860.1085600961
 30
0.0
 40
1.25
  0
CIRCLE
  5
3C8
330
1F
100
AcDbEntity
  8
0
  6
CONTINUOUS
 62
     7
100
AcDbCircle
 10
2067.6626094187
 20
906.3856886686
 30
0.0
 40
1.249999999999545
  0
CIRCLE
  5
3C9
330
1F
100
AcDbEntity
  8
0
  6
CONTINUOUS
 62
     7
100
AcDbCircle
 10
2113.9397379913
 20
1018.1085600961
 30
0.0
 40
1.249999999999545
  0
CIRCLE
  5
3CA
330
1F
100
AcDbEntity
  8
0
  6
CONTINUOUS
 62
     7
100
AcDbCircle
 10
2067.6626094187
 20
1129.8314315236
 30
0.0
 40
1.249999999999545
  0
CIRCLE
  5
3CB
330
1F
100
AcDbEntity
  8
0
  6
CONTINUOUS
 62
     7
100
AcDbCircle
 10
1955.9397379913
 20
1176.1085600961
 30
0.0
 40
1.25
  0
ARC
  5
3CC
330
1F
100
AcDbEntity
  8
0
  6
PHANTOM
 62
     8
100
AcDbCircle
 10
1955.9397379913
 20
1018.1085600961
 30
0.0
 40
157.9999999999967
100
AcDbArc
 50
136.178573205
 51
178.821426795
  0
ARC
  5
3CD
330
1F
100
AcDbEntity
  8
0
  6
PHANTOM
 62
     8
100
AcDbCircle
 10
1955.9397379913
 20
1018.1085600961
 30
0.0
 40
157.9999999999967
100
AcDbArc
 50
181.178573205
 51
223.821426795
  0
ARC
  5
3CE
330
1F
100
AcDbEntity
  8
0
  6
PHANTOM
 62
     8
100
AcDbCircle
 10
1955.9397379913
 20
1018.1085600961
 30
0.0
 40
157.9999999999968
100
AcDbArc
 50
91.178573205
 51
133.821426795
  0
ARC
  5
3CF
330
1F
100
AcDbEntity
  8
0
  6
PHANTOM
 62
     8
100
AcDbCircle
 10
1955.9397379913
 20
1018.1085600961
 30
0.0
 40
157.9999999999967
100
AcDbArc
 50
226.178573205
 51
268.821426795
  0
ARC
  5
3D0
330
1F
100
AcDbEntity
  8
0
  6
PHANTOM
 62
     8
100
AcDbCircle
 10
1955.9397379913
 20
1018.1085600961
 30
0.0
 40
157.9999999999968
100
AcDbArc
 50
46.178573205
 51
88.821426795
  0
ARC
  5
3D1
330
1F
100
AcDbEntity
  8
0
  6
PHANTOM
 62
     8
100
AcDbCircle
 10
1955.9397379913
 20
1018.1085600961
 30
0.0
 40
157.9999999999966
100
AcDbArc
 50
271.178573205
 51
313.821426795
  0
ARC
  5
3D2
330
1F
100
AcDbEntity
  8
0
  6
PHANTOM
 62
     8
100
AcDbCircle
 10
1955.9397379913
 20
1018.1085600961
 30
0.0
 40
157.9999999999969
100
AcDbArc
 50
316.178573205
 51
358.821426795
  0
ARC
  5
3D3
330
1F
100
AcDbEntity
  8
0
  6
PHANTOM
 62
     8
100
AcDbCircle
 10
1955.9397379913
 20
1018.1085600961
 30
0.0
 40
157.999999999997
100
AcDbArc
 50
1.178573205
 51
43.821426795
  0
DIMENSION
  5
3D4
330
1F
100
AcDbEntity
  8
RIQUADRO
100
AcDbDimension
  2
_D_23
 10
2089.7537267476
 20
1091.2527082772
 30
0.0
 11
1993.8406913987
 21
1038.8256421052
 31
0.0
 70
   163
  1
<>
  3
SLDDIMSTYLE9
100
AcDbDiametricDimension
 15
1822.125749235
 25
944.9644119151
 35
0.0
 40
0.0
  0
OLE2FRAME
  5
3DE
330
1F
100
AcDbEntity
  8
0
100
AcDbOle2Frame
 70
     2
  3
Picture (Device Independent Bitmap)
 10
1625.1223880597
 20
174.3880597015
 30
0.0
 11
1781.5880597015
 21
96.1552238806
 31
0.0
 71
     3
 72
     0
 90
    41600
310
80555CA74B537D649940CBD92DFC6ACC654000000000000000000688522C5AD6
310
9B40CBD92DFC6ACC654000000000000000000688522C5AD69B403AAE2430EF09
310
584000000000000000005CA74B537D6499403AAE2430EF095840000000000000
310
0000000000000100000000010000010000000100000000000100000000A20000
310
D0CF11E0A1B11AE1000000000000000000000000000000003E000300FEFF0900
310
0600000000000000000000000100000001000000000000000010000002000000
310
01000000FEFFFFFF0000000000000000FFFFFFFFFFFFFFFFFFFFFFFFFFFFFFFF
310
FFFFFFFFFFFFFFFFFFFFFFFFFFFFFFFFFFFFFFFFFFFFFFFFFFFFFFFFFFFFFFFF
310
FFFFFFFFFFFFFFFFFFFFFFFFFFFFFFFFFFFFFFFFFFFFFFFFFFFFFFFFFFFFFFFF
310
FFFFFFFFFFFFFFFFFFFFFFFFFFFFFFFFFFFFFFFFFFFFFFFFFFFFFFFFFFFFFFFF
310
FFFFFFFFFFFFFFFFFFFFFFFFFFFFFFFFFFFFFFFFFFFFFFFFFFFFFFFFFFFFFFFF
310
FFFFFFFFFFFFFFFFFFFFFFFFFFFFFFFFFFFFFFFFFFFFFFFFFFFFFFFFFFFFFFFF
310
FFFFFFFFFFFFFFFFFFFFFFFFFFFFFFFFFFFFFFFFFFFFFFFFFFFFFFFFFFFFFFFF
310
FFFFFFFFFFFFFFFFFFFFFFFFFFFFFFFFFFFFFFFFFFFFFFFFFFFFFFFFFFFFFFFF
310
FFFFFFFFFFFFFFFFFFFFFFFFFFFFFFFFFFFFFFFFFFFFFFFFFFFFFFFFFFFFFFFF
310
FFFFFFFFFFFFFFFFFFFFFFFFFFFFFFFFFFFFFFFFFFFFFFFFFFFFFFFFFFFFFFFF
310
FFFFFFFFFFFFFFFFFFFFFFFFFFFFFFFFFFFFFFFFFFFFFFFFFFFFFFFFFFFFFFFF
310
FFFFFFFFFFFFFFFFFFFFFFFFFFFFFFFFFFFFFFFFFFFFFFFFFFFFFFFFFFFFFFFF
310
FFFFFFFFFFFFFFFFFFFFFFFFFFFFFFFFFFFFFFFFFFFFFFFFFFFFFFFFFFFFFFFF
310
FFFFFFFFFFFFFFFFFFFFFFFFFFFFFFFFFFFFFFFFFFFFFFFFFFFFFFFFFFFFFFFF
310
FDFFFFFFFEFFFFFFFEFFFFFFFEFFFFFF05000000060000000700000008000000
310
090000000A0000000B0000000C0000000D0000000E0000000F00000010000000
310
1100000012000000130000001400000015000000160000001700000018000000
310
190000001A0000001B0000001C0000001D0000001E0000001F00000020000000
310
2100000022000000230000002400000025000000260000002700000028000000
310
290000002A0000002B0000002C0000002D0000002E0000002F00000030000000
310
3100000032000000330000003400000035000000360000003700000038000000
310
390000003A0000003B0000003C0000003D0000003E0000003F00000040000000
310
4100000042000000430000004400000045000000460000004700000048000000
310
490000004A0000004B0000004C0000004D0000004E0000004F000000FEFFFFFF
310
FFFFFFFFFFFFFFFFFFFFFFFFFFFFFFFFFFFFFFFFFFFFFFFFFFFFFFFFFFFFFFFF
310
FFFFFFFFFFFFFFFFFFFFFFFFFFFFFFFFFFFFFFFFFFFFFFFFFFFFFFFFFFFFFFFF
310
FFFFFFFFFFFFFFFFFFFFFFFFFFFFFFFFFFFFFFFFFFFFFFFFFFFFFFFFFFFFFFFF
310
FFFFFFFFFFFFFFFFFFFFFFFFFFFFFFFFFFFFFFFFFFFFFFFFFFFFFFFFFFFFFFFF
310
FFFFFFFFFFFFFFFFFFFFFFFFFFFFFFFFFFFFFFFFFFFFFFFFFFFFFFFFFFFFFFFF
310
FFFFFFFFFFFFFFFFFFFFFFFFFFFFFFFFFFFFFFFFFFFFFFFFFFFFFFFFFFFFFFFF
310
52006F006F007400200045006E00740072007900000000000000000000000000
310
0000000000000000000000000000000000000000000000000000000000000000
310
16000500FFFFFFFFFFFFFFFF020000001603000000000000C000000000000046
310
000000000000000000000000005D3E3E493FCE0103000000C000000000000000
310
01004F006C006500000000000000000000000000000000000000000000000000
310
0000000000000000000000000000000000000000000000000000000000000000
310
0A000200FFFFFFFFFFFFFFFFFFFFFFFF00000000000000000000000000000000
310
0000000000000000000000000000000000000000000000001400000000000000
310
010043006F006D0070004F0062006A0000000000000000000000000000000000
310
0000000000000000000000000000000000000000000000000000000000000000
310
120002010100000003000000FFFFFFFF00000000000000000000000000000000
310
0000000000000000000000000000000000000000010000006B00000000000000
310
43004F004E00540045004E005400530000000000000000000000000000000000
310
0000000000000000000000000000000000000000000000000000000000000000
310
12000200FFFFFFFFFFFFFFFFFFFFFFFF00000000000000000000000000000000
310
000000000000000000000000000000000000000004000000D696000000000000
310
FEFFFFFF02000000FEFFFFFFFFFFFFFFFFFFFFFFFFFFFFFFFFFFFFFFFFFFFFFF
310
FFFFFFFFFFFFFFFFFFFFFFFFFFFFFFFFFFFFFFFFFFFFFFFFFFFFFFFFFFFFFFFF
310
FFFFFFFFFFFFFFFFFFFFFFFFFFFFFFFFFFFFFFFFFFFFFFFFFFFFFFFFFFFFFFFF
310
FFFFFFFFFFFFFFFFFFFFFFFFFFFFFFFFFFFFFFFFFFFFFFFFFFFFFFFFFFFFFFFF
310
FFFFFFFFFFFFFFFFFFFFFFFFFFFFFFFFFFFFFFFFFFFFFFFFFFFFFFFFFFFFFFFF
310
FFFFFFFFFFFFFFFFFFFFFFFFFFFFFFFFFFFFFFFFFFFFFFFFFFFFFFFFFFFFFFFF
310
FFFFFFFFFFFFFFFFFFFFFFFFFFFFFFFFFFFFFFFFFFFFFFFFFFFFFFFFFFFFFFFF
310
FFFFFFFFFFFFFFFFFFFFFFFFFFFFFFFFFFFFFFFFFFFFFFFFFFFFFFFFFFFFFFFF
310
FFFFFFFFFFFFFFFFFFFFFFFFFFFFFFFFFFFFFFFFFFFFFFFFFFFFFFFFFFFFFFFF
310
FFFFFFFFFFFFFFFFFFFFFFFFFFFFFFFFFFFFFFFFFFFFFFFFFFFFFFFFFFFFFFFF
310
FFFFFFFFFFFFFFFFFFFFFFFFFFFFFFFFFFFFFFFFFFFFFFFFFFFFFFFFFFFFFFFF
310
FFFFFFFFFFFFFFFFFFFFFFFFFFFFFFFFFFFFFFFFFFFFFFFFFFFFFFFFFFFFFFFF
310
FFFFFFFFFFFFFFFFFFFFFFFFFFFFFFFFFFFFFFFFFFFFFFFFFFFFFFFFFFFFFFFF
310
FFFFFFFFFFFFFFFFFFFFFFFFFFFFFFFFFFFFFFFFFFFFFFFFFFFFFFFFFFFFFFFF
310
FFFFFFFFFFFFFFFFFFFFFFFFFFFFFFFFFFFFFFFFFFFFFFFFFFFFFFFFFFFFFFFF
310
FFFFFFFFFFFFFFFFFFFFFFFFFFFFFFFFFFFFFFFFFFFFFFFFFFFFFFFFFFFFFFFF
310
0100000200000000000000000000000000000000000000000000000000000000
310
0000000000000000000000000000000000000000000000000000000000000000
310
0100FEFF030A0000FFFFFFFF1603000000000000C00000000000004625000000
310
496D6D6167696E6520284269746D61702044657669636520496E646570656E64
310
656E742900FFFFFFFF080000000A00000053746174696344696200F439B27100
310
0000000000000000000000000000000000000000000000000000000000000000
310
0000000000000000000000000000000000000000000000000000000000000000
310
0000000000000000000000000000000000000000000000000000000000000000
310
0000000000000000000000000000000000000000000000000000000000000000
310
0000000000000000000000000000000000000000000000000000000000000000
310
0000000000000000000000000000000000000000000000000000000000000000
310
0000000000000000000000000000000000000000000000000000000000000000
310
0000000000000000000000000000000000000000000000000000000000000000
310
0000000000000000000000000000000000000000000000000000000000000000
310
0000000000000000000000000000000000000000000000000000000000000000
310
0000000000000000000000000000000000000000000000000000000000000000
310
424DD69600000000000036000000280000009E00000051000000010018000000
310
00000000000074120000741200000000000000000000FFFFFFFFFFFFFFFFFFFF
310
FFFFFFFFFFFFFFFFFFFFFFFFFFFFFFFFFFFFFFFFFFFFFFFFFFFFFFFFFFFFFFFF
310
FFFFFFFFFFFFFFFFFFFFFFFFFFFFFFFFFFFFFFFFFFFFFFFFFFFFFFFFFFFFFFFF
310
FFFFFFFFFFFFFFFFFFFFFFFFFFFFFFFFFFFFFFFFFFFFFFFFFFFCFCFCFFFFFFFE
310
FEFEFEFEFEEAEAEADBDBDBFFFFFFFFFFFFFFFFFFFFFFFFFFFFFFFFFFFFFFFFFF
310
FFFFFFFFFFFFFFFFFFFFFFFFFFFFFFFFFFFFFFFFFFFFFFFFFFFFFFFFFFFFFFFF
310
FFFFFFFFFFFFFFFFFFFFFFFFFFFFFFFFFFFFFFFFFFFFFFFFFFFFFFFFFFFFFFFF
310
FFFFFFFFFFFFFFFFFFFFFFFFFFFEFFFFFFFFFFFEFCFDFBFFFFFEFEFCFB989695
310
2826252A28279E9E9EFFFFFFFEFEFEFEFEFEFEFEFEFFFFFFFDFDFDFFFFFFFFFF
310
FFFFFFFFFFFFFFFFFFFFFFFFFFFFFFFFFFFFFFFFFFFFFFFFFFFFFFFFFFFFFFFF
310
FFFFFFFFFFFFFFFFFFFFFFFFFFFFFFFFFFFFFFFFFFFFFFFFFFFFFFFFFFFFFFFF
310
FFFFFFFFFFFFFFFFFFFFFFFFFFFFFFFFFFFFFFFFFFFFFFFFFFFFFFFFFFFFFEFE
310
FEFEFEFEC0C0C0323232212121787878FEFEFEFFFFFFFBFBFBFEFEFEFFFFFFFF
310
FFFFFFFFFFFEFEFEFFFFFFFFFFFFFFFFFFFFFFFFFFFFFFFFFFFFFFFFFFFFFFFF
310
FFFFFFFFFFFFFFFFFFFFFFFFFFFFFFFFFFFFFFFFFFFFFFFFFFFFFFFFFFFFFFFF
310
FFFFFFFFFFFFFFFFFFFFFFFFFFFFFFFF0000FFFFFFF9F9F9FFFFFFFFFFFFEFEF
310
EFFFFFFFF8F8F8FFFFFFFFFFFFF6F6F6FFFFFFFFFFFFFCFCFCFFFFFFFFFFFFF5
310
F5F5FFFFFFE1E1E1FFFFFFFFFFFFF7F7F7FFFFFFF5F5F5FFFFFFF6F6F6FFFFFF
310
F5F5F5FDFDFDFFFFFFF4F4F4FFFFFFFAFAFAFFFFFFF2F2F2FFFFFFFFFFFFF9F9
310
F9BFBFBF5D5D5DFFFFFFFDFDFDFEFEFEFFFFFFFFFFFFF8F8F8FFFFFFFFFFFFFD
310
FDFDFEFEFEF9F9F9FFFFFFFDFDFDFFFFFFFFFFFFF0F0F0FFFFFFFFFFFFFFFFFF
310
FBFBFBF7F7F7FAFAFAFCFCFCFFFFFFFEFEFEFAFCFCFDFFFFFDFFFFFDFFFFFFFF
310
FEF0F1EFFEFCFBFEFDF9FFFFFEFAF9F5FFFEFAFFFFFC64615C383530DBD8D3D1
310
CECA1B1918949494FFFFFFF9F9F9FDFDFDFFFFFFFDFDFDF7F7F7FFFFFFFFFFFF
310
FCFCFCFFFFFFEFEFEFFFFFFFFFFFFFF6F6F6FFFFFFFAFAFAF7F7F7FFFFFFF2F2
310
F2FFFFFFFBFBFBFFFFFFFAFAFAFFFFFFFCFCFCFFFFFFFDFDFDFFFFFFF2F2F2FF
310
FFFFFFFFFFFAFAFAFFFFFFF2F2F2FFFFFFFFFFFFF5F5F5FFFFFFFDFDFDBABABA
310
000000C8C8C8DDDDDD4A4A4A404040FFFFFFFBFBFBFFFFFFFFFFFFFDFDFDFFFF
310
FFFFFFFFF5F5F5FFFFFFF8F8F8FBFBFBFFFFFFFAFAFAF3F3F3FFFFFFFCFCFCFB
310
FBFBFDFDFDFFFFFFF0F0F0FFFFFFFFFFFFFCFCFCFFFFFFFBFBFBFFFFFFFFFFFF
310
F2F2F2FDFDFDFEFEFEFFFFFF0000FFFFFFFBFBFBFFFFFFFFFFFFFFFFFFFDFDFD
310
FFFFFFFCFCFCFFFFFFFFFFFFFAFAFAFFFFFFFFFFFFFCFCFCFFFFFFFFFFFFF8F8
310
F8FAFAFAFFFFFFF9F9F9FFFFFFFAFAFAFFFFFFFEFEFEFFFFFFECECECFFFFFFFD
310
FDFDFEFEFEFAFAFAF5F5F5FFFFFFF4F4F4FFFFFFFFFFFFF6F6F6FEFEFEBBBBBB
310
646464FFFFFFFFFFFFFFFFFFEBEBEBFFFFFFFCFCFCFFFFFFF6F6F6FDFDFDFFFF
310
FFF6F6F6F4F4F4FFFFFFF5F5F5FFFFFFFDFDFDFEFEFEF6F6F6FAFAFAFDFDFDFF
310
FFFFFFFFFFF3F3F3FFFFFFFCFCFCFAFCFCFDFFFFF4F6F6F6F8F8F2F3F1FFFFFE
310
FFFFFCFFFEFAFFFFFCFFFEFAFFFFFCFFFFFB494641EAE8E0FFFFFBFCF9F4F2F0
310
EF141414FAFAFAF4F4F4FFFFFFEFEFEFFFFFFFFFFFFFF6F6F6E8E8E8FFFFFFF3
310
F3F3FFFFFFFFFFFFEEEEEEFFFFFFFFFFFFF1F1F1FFFFFFFFFFFFFBFBFBFFFFFF
310
FFFFFFF1F1F1FBFBFBEEEEEEFFFFFFF7F7F7F5F5F5FFFFFFFFFFFFFBFBFBF1F1
310
F1FFFFFFF5F5F5FFFFFFF3F3F3FEFEFEFBFBFBFFFFFFFEFEFE484848D9D9D9FF
310
FFFFFEFEFEF0F0F0393939D6D6D6FFFFFFFAFAFAFFFFFFFCFCFCF9F9F9FFFFFF
310
FFFFFFFAFAFAFFFFFFFAFAFAF6F6F6FFFFFFFFFFFFFCFCFCF8F8F8FFFFFFF8F8
310
F8FFFFFFFDFDFDEDEDEDF7F7F7F8F8F8F3F3F3FFFFFFF7F7F7FAFAFAFBFBFBFE
310
FEFEFEFEFEEEEEEE0000FBFBFBFFFFFFB2B2B2E7E7E7FFFFFFFDFDFD9E9E9EF9
310
F9F9F9F9F9FFFFFFFEFEFEA2A2A2FDFDFDF6F6F6FBFBFBA9A9A9F6F6F6FFFFFF
310
FFFFFFF7F7F7A2A2A2FEFEFEFBFBFBEDEDEDC3C3C3FFFFFFF7F7F79F9F9FF2F2
310
F2FFFFFFFFFFFFCECECE5656563232328E8E8EFFFFFFFFFFFFADADAD969696D1
310
D1D13B3B3B2A2A2A9A9A9AFFFFFFFCFCFCFDFDFDB3B3B3E2E2E2F4F4F4FFFFFF
310
E6E6E64F4F4F2222227B7B7BFFFFFFF9F9F9FFFFFFF7F7F7FFFFFFFFFFFFEAEA
310
EAF4F4F4D3D3D34242424647458D8E8CFFFFFEFFFFFED5D6D4B2B3B1F4F5F3FF
310
FFFEF5F6F4B5B6B4C5C6C4F4F3EFFFFFFCC2C2BC3B3834555450FCFDFB5B5B5B
310
D5D5D5D1D1D1BBBBBBF8F8F8989898F2F2F2FFFFFFFFFFFFE6E6E69F9F9FF1F1
310
F1FFFFFFD3D3D33C3C3C272727989898FFFFFFFCFCFCFEFEFEEAEAEAA9A9A938
310
3838444444CACACAF9F9F9F0F0F0BCBCBCD3D3D3F2F2F2D0D0D0BBBBBBF6F6F6
310
9D9D9DFFFFFFF5F5F5FEFEFEDDDDDDAFAFAFFFFFFFE9E9E9E2E2E24242423D3D
310
3DD8D8D8959595929292FDFDFD999999E9E9E9FFFFFFEDEDEDF8F8F86666662B
310
2B2B656565FFFFFFECECECFFFFFFF4F4F4CFCFCF3838382A2A2AA5A5A5F7F7F7
310
F1F1F1E2E2E2BDBDBDFEFEFEFFFFFFF2F2F2B7B7B7D4D4D4FFFFFFFFFFFFF3F3
310
F39898980000F6F6F6FFFFFF3B3B3BABABABF5F5F5FFFFFF0A0A0AEDEDEDFBFB
310
FBFBFBFBFEFEFE151515E3E3E3FDFDFDDBDBDB111111FFFFFFFFFFFFFFFFFFEB
310
EBEB090909FFFFFFF0F0F0B6B6B63D3D3DEFEFEFFFFFFF202020F0F0F0FAFAFA
310
CACACA0000009A9A9AB6B6B62E2E2E707070F4F4F4C2C2C2343434141414B0B0
310
B0D1D1D12626264E4E4EFCFCFCFFFFFF2B2B2BDDDDDDFFFFFFE5E5E508080872
310
7272D9D9D9626262313131FDFDFDFCFCFCFFFFFFE6E6E6FFFFFFFFFFFFB5B5B5
310
171717ACACACB3B4B22122206E6F6DF8F9F7A2A3A17F807EF1F2F0FFFFFEFFFF
310
FE787977B7B8B6FFFFFE797A7820211FC6C7C59394921313133F3F3FCACACACA
310
CACA666666FFFFFF2C2C2CFFFFFFFEFEFEFEFEFEBBBBBB5B5B5BFFFFFFD1D1D1
310
080808B5B5B5C9C9C92F2F2F626262DDDDDDFFFFFF8B8B8B2F2F2FC7C7C7AAAA
310
AA040404ACACACFFFFFF616161B5B5B5FDFDFD9393938A8A8ADEDEDE444444FC
310
FCFCFBFBFBFFFFFFC1C1C1575757EBEBEBDADADA000000919191B0B0B0272727
310
6969696F6F6FFFFFFF383838C9C9C9F8F8F8FCFCFC000000828282C2C2C25F5F
310
5F1C1C1CFFFFFFFBFBFBC5C5C50B0B0BA9A9A9C8C8C81B1B1B8A8A8AFFFFFF94
310
94946A6A6AFBFBFBFFFFFFFFFFFF797979ADADADFFFFFFFFFFFFF1F1F14C4C4C
310
0000FEFEFEFBFBFB111111717171FEFEFED8D8D8000000ACACACFFFFFFFEFEFE
310
D4D4D4040404A4A4A4FFFFFF9B9B9B000000DFDFDFFDFDFDFFFFFFA9A9A90000
310
00DCDCDCFAFAFA686868030303FFFFFFF2F2F2919191FFFFFFF2F2F2121212F4
310
F4F4FAFAFAFFFFFFFFFFFF1D1D1DE0E0E0CBCBCB080808C9C9C9FEFEFEF2F2F2
310
FDFDFD2C2C2CC6C6C6FFFFFF3F3F3FE8E8E8F8F8F83E3E3EB1B1B1FFFFFFFFFF
310
FFEFEFEF3B3B3BABABABFFFFFFFFFFFFFFFFFFFFFFFFFBFBFB1E1E1EE4E4E4FF
310
FFFFFFFFFEFFFFFE050604EEEFED969795868785FDFFFFFDFFFFFDFFFF6F7171
310
B1B3B3E9EBEB0C0E0EFAFCFCFDFFFFFDFFFFDDDDDD040404DBDBDBB3B3B36B6B
310
6BFFFFFF363636F8F8F8F9F9F9FFFFFFE0E0E04C4C4CECECEC2A2A2ADADADAFD
310
FDFDFAFAFAFFFFFF151515DDDDDDD6D6D61E1E1EFFFFFFF5F5F5FFFFFFDDDDDD
310
121212FFFFFF5A5A5AB1B1B1FFFFFF9E9E9E848484F2F2F2333333FFFFFFF7F7
310
F7FEFEFEC9C9C9606060FFFFFF020202DADADAFFFFFFFFFFFFFFFFFF0303038A
310
8A8AEAEAEAB4B4B4D5D5D5FAFAFA6A6A6AA0A0A0F9F9F9FFFFFFFFFFFF5A5A5A
310
858585F7F7F7000000DFDFDFFFFFFFE9E9E9FFFFFF0B0B0BE6E6E6C0C0C08A8A
310
8AF0F0F0FFFFFFFAFAFA737373A9A9A9FFFFFFFFFFFFFCFCFC4242420000FFFF
310
FFC1C1C1575757555555FFFFFF8787877E7E7E525252FFFFFFFFFFFF8787877C
310
7C7C646464FFFFFF5B5B5B7F7F7F8F8F8FFFFFFFFDFDFD5050508A8A8A969696
310
FFFFFF3D3D3D656565BCBCBCFFFFFFF3F3F3FFFFFFE0E0E0323232E4E4E4F6F6
310
F6FBFBFBEFEFEF9F9F9F7E7E7EC1C1C1303030FFFFFFFCFCFCFFFFFFFFFFFF9E
310
9E9E585858FFFFFF565656C6C6C6F8F8F8232323FFFFFFF7F7F7F8F8F8FFFFFF
310
E0E0E0464646FAFAFAEFEFEFFFFFFFFFFFFFBBBBBB676767FFFFFFFFFFFFF5F6
310
F4F6F7F5FFFFFEFCFDFBB6B7B56D6E6CFDFFFFE3E5E5FDFFFF717675BFC3C477
310
7B7C8F9394E8ECEDFBFFFFF9FDFEFDFFFF1C1C1CD2D2D2C6C6C6727272FAFAFA
310
323232FCFCFCFFFFFFF4F4F4CACACA797979EBEBEB535353FFFFFFFEFEFEFAFA
310
FAFFFFFFEFEFEFFBFBFB939393959595FFFFFFFFFFFFFFFFFFF3F3F3EBEBEBF7
310
F7F7636363D6D6D6E8E8E8A6A6A6868686FCFCFC383838FFFFFFFAFAFAFFFFFF
310
CECECE6D6D6DE4E4E43E3E3EFFFFFFF5F5F5F3F3F3F6F6F68888886F6F6FFFFF
310
FFFBFBFBFFFFFFF6F6F6070707FFFFFFE8E8E8FFFFFFF6F6F6E7E7E7F9F9F9D0
310
D0D0484848FFFFFFF6F6F6FFFFFFF2F2F27A7A7AA2A2A2A1A1A1848484FEFEFE
310
F8F8F8FFFFFF7E7E7EB3B3B3FEFEFEFFFFFFFFFFFF4040400000FEFEFE6F6F6F
310
C0C0C05E5E5EECECEC535353E5E5E5343434F0F0F0FFFFFF4A4A4AE3E3E34F4F
310
4FEFEFEF434343EFEFEF464646FFFFFFF0F0F02C2C2CF9F9F9595959E6E6E657
310
5757C4C4C4757575F3F3F3FFFFFFF5F5F5B7B7B7696969FFFFFFFFFFFFFFFFFF
310
FFFFFFB3B3B3575757DADADA565656FBFBFBFFFFFFE6E6E6FFFFFFC5C5C54545
310
45FFFFFF4C4C4CDEDEDEE8E8E82E2E2EFCFCFCFFFFFFFFFFFFFFFFFFDCDCDC2D
310
2D2DE2E2E23737370B0B0B828282BFBFBF3131315F5F5F5959596162605C5D5B
310
686967B2B3B1B5B7B77E8080F3F5F5FDFFFFF0F4F5747879BCBFC3515659BCC1
310
C4FAFFFFEDF2F5FAFFFFF8FAFB858585ABABABB7B7B76B6B6BFFFFFF323232FF
310
FFFFFFFFFFF9F9F9D9D9D9474747C9C9C91E1E1E5B5B5B6E6E6E636363565656
310
7777778F8F8F6060605050505D5D5D5353535959595F5F5F676767E1E1E16767
310
67B8B8B8FFFFFFA0A0A0828282EEEEEE383838FDFDFDFFFFFFFFFFFFC5C5C561
310
6161AEAEAE707070FEFEFEFFFFFFFFFFFFEEEEEEC9C9C9656565EFEFEFFCFCFC
310
F1F1F1FFFFFF373737FFFFFFFFFFFFFDFDFDFFFFFFFFFFFFFEFEFE8F8F8F6D6D
310
6DFFFFFFF2F2F2F4F4F4F6F6F6D8D8D8606060C6C6C6838383FFFFFFFFFFFFF0
310
F0F0787878B7B7B7FBFBFBFFFFFFFCFCFC3535350000FBFBFB383838FFFFFF74
310
7474C0C0C0515151F7F7F74F4F4FDDDDDDF4F4F4343434F6F6F65A5A5AD1D1D1
310
4B4B4BFFFFFF272727FBFBFBE8E8E83A3A3AFFFFFF3C3C3CB4B4B4898989F9F9
310
F9292929FFFFFFEEEEEEFFFFFFB1B1B1535353FEFEFEFEFEFEE8E8E8FFFFFFC0
310
C0C05D5D5DBEBEBE626262FDFDFDF8F8F8FFFFFFFFFFFFC4C4C4595959F2F2F2
310
545454D7D7D7EDEDED2E2E2EFFFFFFF7F7F7FFFFFFF6F6F6F3F3F3313131FFFF
310
FFBEBEBED2D2D2E9E9E9ABABAB3B3B3BCDCDCDB4B4B4B8B9B7CDCECC6D6E6C77
310
7876BBBDBD717373FDFFFFF6F8F8FBFFFF5D6162CED2D362676AA6ABAEEFF4F7
310
FAFFFFEDF2F5FDFFFF444444CFCFCFC2C2C27F7F7FEDEDED2F2F2FF7F7F7F0F0
310
F0FFFFFFCBCBCB5B5B5BDFDFDF333333D1D1D1B5B5B5ABABABC4C4C47C7C7C5A
310
5A5A868686828282B5B5B5BCBCBCB4B4B4CDCDCD373737C3C3C3707070C5C5C5
310
FFFFFF969696888888EFEFEF474747F6F6F6FFFFFFFFFFFFC6C6C6707070C3C3
310
C3636363FCFCFCFCFCFCF8F8F8FDFDFDACACAC5E5E5EFFFFFFFFFFFFF5F5F5ED
310
EDED292929FEFEFEFDFDFDFFFFFFF8F8F8FFFFFFFCFCFCB1B1B1717171F9F9F9
310
F8F8F8FFFFFFFFFFFFAAAAAA797979C0C0C07A7A7AF5F5F5FFFFFFFFFFFF7171
310
71B8B8B8FAFAFAFFFFFFFFFFFF3C3C3C0000FBFBFB2A2A2AFFFFFFCACACA2B2B
310
2B6E6E6EFEFEFE9393938F8F8FDADADA555555FDFDFDA0A0A02D2D2DA4A4A4FF
310
FFFF595959CACACA818181A0A0A0FFFFFF6868682F2F2FDEDEDEF9F9F93D3D3D
310
D7D7D7FFFFFFFEFEFEF5F5F5252525F7F7F7FFFFFFFFFFFFFAFAFA6E6E6EA0A0
310
A0C7C7C7000000FFFFFFFFFFFFF7F7F7FFFFFF4949499F9F9FFFFFFF484848DC
310
DCDCFCFCFC262626E5E5E5FFFFFFF7F7F7FFFFFF999999626262FFFFFFFCFCFC
310
FFFFFFFEFEFEE2E2E2121212FFFFFFFFFFFFFBFCFAFFFFFE545553BABBB9BEC0
310
C0525454F5F7F7FDFFFFF9FBFB585A5AD1D3D3ACB0B155595AF5F9FAF3F7F8FB
310
FFFFFDFFFF000000DADADAB9B9B9787878FCFCFC232323F6F6F6FFFFFFFDFDFD
310
BDBDBD595959FBFBFB1D1D1DF7F7F7FFFFFFFFFFFFF4F4F4585858A9A9A9ADAD
310
AD5F5F5FF4F4F4FFFFFFF8F8F8FFFFFF212121ECECEC5F5F5FB8B8B8FAFAFAA3
310
A3A3888888F1F1F1191919FFFFFFFEFEFEFFFFFFA5A5A57D7D7DF0F0F01C1C1C
310
FEFEFEFBFBFBFCFCFCFFFFFF4646467A7A7AFFFFFFF5F5F5FFFFFFFFFFFF2F2F
310
2FDADADAFFFFFFFDFDFDFFFFFFB7B7B7AAAAAAF1F1F1202020FBFBFBFDFDFDFF
310
FFFFFFFFFF4E4E4EB9B9B9C1C1C15A5A5AF3F3F3FFFFFFFFFFFF555555878787
310
FFFFFFFBFBFBFCFCFC41414100009D9D9D888888FFFFFFFFFFFF080808B5B5B5
310
EFEFEFE1E1E1555555686868C4C4C4FDFDFDE3E3E3000000DDDDDDF8F8F8ABAB
310
AB7979793E3E3EE5E5E5FFFFFFB3B3B30B0B0BF2F2F2FFFFFF626262BFBFBFFF
310
FFFFEEEEEEFBFBFB606060636363FEFEFEF8F8F8CCCCCC050505F1F1F1DCDCDC
310
060606494949FCFCFCFFFFFF989898171717FFFFFFFFFFFF585858C5C5C5FFFF
310
FF858585484848F6F6F6FFFFFFDCDCDC151515EEEEEEECECECFFFFFFF8F8F8FF
310
FFFFFFFFFF555555797979FFFFFFFFFFFEB1B2B00F100EF7F8F6C1C3C3000000
310
DBDDDDF0F2F2DDDFDF050604EFF0EEF4F5F30A0C0CC0C2C2FDFFFFF1F3F36B6B
310
6B0A0A0AC5C5C5D5D5D5616161FFFFFF0000008B8B8BFFFFFFFFFFFF282828C0
310
C0C0FFFFFF525252696969F2F2F2EFEFEFD4D4D40E0E0EFFFFFFFFFFFF171717
310
D9D9D9EDEDEDFAFAFA747474323232FFFFFF6C6C6C1C1C1CEFEFEFA0A0A08B8B
310
8BFEFEFE0202029B9B9BFFFFFFF3F3F31E1E1ED3D3D3FFFFFF343434696969FF
310
FFFFEEEEEEAFAFAF000000777777F2F2F2FFFFFFEEEEEEFAFAFAC1C1C1161616
310
FFFFFFF9F9F9E8E8E8050505D3D3D3F4F4F45353537B7B7BFAFAFAFBFBFBA8A8
310
A8282828FFFFFFA0A0A0000000E7E7E7F2F2F2DBDBDB000000393939E1E1E1F5
310
F5F5BBBBBB3131310000787878BABABAEFEFEFF9F9F9505050E7E7E7F3F3F3FF
310
FFFF2B2B2B3D3D3DEEEEEEFFFFFFFEFEFE434343FFFFFFFFFFFFDCDCDC464646
310
4B4B4BF3F3F3FFFFFFDDDDDD505050FFFFFFFBFBFBC4C4C4515151F9F9F9FFFF
310
FFF9F9F9FFFFFF4242420707072B2B2B050505EFEFEFFFFFFFB8B8B882828266
310
66660000001B1B1B282828ECECECFFFFFF0D0D0D0101010101018C8C8CFFFFFF
310
646464050505353535090909B3B3B3F1F1F1FDFDFDFFFFFFFFFFFFF1F1F1FFFF
310
FFEAEAEA4747471E1E1E1D1F1F1E2020CACCCCFDFFFFAFB0AE5D5E5C2E2F2D15
310
1614070806B3B2AEFFFFFCFDFCF8EFEEEA201F1B0B08032B2A26575856818181
310
BBBBBBB6B6B67B7B7BE6E6E65A5A5A595959151515000000686868FFFFFFE4E4
310
E4FAFAFA6060601A1A1A212121020202D0D0D0F3F3F3F8F8F8DBDBDB0B0B0B26
310
2626212121323232F7F7F7FBFBFB7979795B5B5B404040B7B7B7878787F7F7F7
310
434343555555131313000000888888F0F0F0FEFEFEFFFFFF4949490404042D2D
310
2D242424C3C3C3767676FDFDFDFFFFFFFDFDFDFFFFFFFAFAFA94949404040429
310
2929000000B6B6B6FFFFFFFFFFFFFFFFFF2828281F1F1F202020191919EFEFEF
310
FFFFFFC6C6C65A5A5A1D1D1D1313130D0D0DBBBBBBBBBBBB0F0F0F0E0E0E0505
310
05F5F5F50000F1F1F1FEFEFEFFFFFFFBFBFBF0F0F0FFFFFFFFFFFFFFFFFFFFFF
310
FFF6F6F6F6F6F6F0F0F0FFFFFFF1F1F1FFFFFFF7F7F7FEFEFEE3E3E3FDFDFDF1
310
F1F1FFFFFFFFFFFFFBFBFBF4F4F4FFFFFFFAFAFAF8F8F8FFFFFFF6F6F6FFFFFF
310
FFFFFFFFFFFFDDDDDDC2C2C2FFFFFFF5F5F5FFFFFFFFFFFFE7E7E7FDFDFDEBEB
310
EBE0E0E0FAFAFAEFEFEFFFFFFFFFFFFF4E4E4EE1E1E1FFFFFFF4F4F4FBFBFBE3
310
E3E3C6C6C6EDEDEDFFFFFFFFFFFFFFFFFFF4F4F4FFFFFFFFFFFFF0F0F0FFFFFF
310
FCFCFCDBDBDBD0D2D2F8FAFAFDFFFFFDFFFFF0F1EFFFFFFEFFFFFEDDDCD8FFFF
310
FCF1EEE9FFFFF9F5F2EAFFFFF9FFFFF8DCD7CEEFECE4FFFFFEFFFFFFFFFFFFFD
310
FDFDF7F7F7FFFFFFFFFFFFECECECE7E7E7FFFFFFFDFDFDF1F1F1FFFFFFFFFFFF
310
FFFFFFCBCBCBD0D0D0FFFFFFFFFFFFFDFDFDFFFFFFFFFFFFFFFFFFD5D5D5CDCD
310
CDFFFFFFF4F4F4FFFFFFEDEDEDFCFCFCF2F2F2FCFCFCFAFAFAF7F7F7FFFFFFF7
310
F7F7E1E1E1F5F5F5F8F8F8FFFFFFF3F3F3FFFFFFFFFFFFDBDBDBEAEAEAEEEEEE
310
F5F5F5F8F8F8FFFFFFEBEBEBF5F5F5F1F1F1FFFFFFFBFBFBFFFFFFBDBDBDFFFF
310
FFF0F0F0F5F5F5FEFEFEF5F5F5FFFFFFD0D0D0CBCBCBFAFAFAFDFDFDF1F1F1FB
310
FBFBFBFBFBFFFFFFE8E8E8F8F8F8FFFFFFFFFFFFE5E5E5DFDFDFFFFFFFF3F3F3
310
0000FFFFFFFCFCFCFAFAFAFFFFFFFFFFFFF5F5F5F7F7F7FAFAFAE5E5E5FFFFFF
310
FFFFFFF8F8F8FFFFFFFFFFFFECECECFFFFFFFFFFFFFFFFFFFFFFFFFFFFFFF8F8
310
F8EBEBEBF9F9F9FFFFFFFFFFFFFFFFFFF0F0F0F7F7F7FFFFFFF9F9F9E7E7E7FF
310
FFFFF8F8F8FFFFFFFDFDFDF2F2F2FFFFFFFFFFFFF0F0F0FFFFFFFFFFFFF6F6F6
310
FFFFFFFFFFFFF6F6F6FFFFFF323232D4D4D4FBFBFBE6E6E6FFFFFFFFFFFFFAFA
310
FAF3F3F3FFFFFFECECECFFFFFFF0F0F0F5F5F5FFFFFFFFFFFFFEFEFEFDFDFDFF
310
FFFFF7F9FAFAFEFFECF1F0EEF0F0FFFFFEFFFFFEF9F8F4FFFFFBFFFEF6FFFEF5
310
FFFEF3FFFFF7FFF7EAFFF8EBFFFFF5FAF4E9FFFEFAF1F1F1FBFBFBB8B8B87979
310
79FFFFFFF5F5F5FFFFFFFFFFFFECECECFFFFFFF6F6F6FBFBFBF4F4F4ECECECFF
310
FFFFFDFDFDF1F1F1FEFEFEFBFBFBFDFDFDFFFFFFF4F4F4FEFEFEFFFFFFFFFFFF
310
F2F2F2FFFFFFFFFFFFF5F5F5FFFFFFA4A4A47D7D7DFFFFFFF7F7F7FFFFFFFDFD
310
FDFFFFFFEAEAEAFFFFFFFAFAFAFFFFFFEEEEEEFFFFFFEEEEEEFFFFFFFFFFFFFF
310
FFFFFFFFFFFFFFFFFFFFFFF9F9F9F6F6F6FAFAFAF7F7F7FFFFFFFCFCFCFFFFFF
310
F2F2F2FFFFFFFFFFFFF7F7F7FAFAFAFFFFFFFFFFFFFFFFFFFAFAFAF9F9F9F9F9
310
F9FAFAFAEAEAEAFFFFFFEDEDEDF6F6F6FFFFFFFFFFFFF6F6F6FFFFFF0000F8F8
310
F8F4F4F4F2F2F2FFFFFFFDFDFDFFFFFFFFFFFFFFFFFFFFFFFFFAFAFAFFFFFFED
310
EDEDFBFBFBFFFFFFF7F7F7FFFFFFF3F3F3FFFFFFFFFFFFF1F1F1FEFEFEFFFFFF
310
FFFFFFFFFFFFFFFFFFFAFAFAFFFFFFFFFFFFFFFFFFFFFFFFFFFFFFFFFFFFFFFF
310
FFFCFCFCFFFFFFFFFFFFF4F4F4F8F8F8FEFEFEF2F2F2FDFDFDFFFFFFF9F9F9F7
310
F7F7FCFCFCFFFFFF898989D5D5D5FCFCFCFFFFFFF7F7F7FBFBFBFFFFFFFFFFFF
310
FFFFFFF9F9F9FEFEFEFFFFFFFFFFFFF6F6F6EBEBEBFFFFFFF5F5F5FDFFFFFBFF
310
FFFBFFFFFBFFFFFBFFFFF1F2F0F5F4F0FFFFFAFFFEF6FFFBF2FFFFF7FFFFF5F4
310
EBDDFFFFF4FFFFF2FFFFEFFFFFF5FFFFFCFFFFFFFFFFFFB8B8B8787878FFFFFF
310
FFFFFFFEFEFEFBFBFBFFFFFFFFFFFFFCFCFCFFFFFFFFFFFFFCFCFCFFFFFFFCFC
310
FCFFFFFFFCFCFCFFFFFFFFFFFFFBFBFBFFFFFFFAFAFAF5F5F5FFFFFFFFFFFFEB
310
EBEBFFFFFFFFFFFFF3F3F3ADADADA1A1A1F8F8F8FFFFFFFFFFFFDFDFDFFFFFFF
310
FFFFFFFFFFFFFFFFFFF4F4F4FFFFFFF7F7F7FFFFFFF9F9F9FFFFFFE8E8E8F7F7
310
F7F1F1F1F1F1F1FFFFFFFFFFFFF2F2F2FFFFFFF9F9F9ECECECFFFFFFFFFFFFE5
310
E5E5FFFFFFFFFFFFF4F4F4FFFFFFF3F3F3FCFCFCFFFFFFFFFFFFFFFFFFFFFFFF
310
F7F7F7FEFEFEFFFFFFFCFCFCF4F4F4FAFAFAF7F7F7FFFFFF0000FFFFFFFDFDFD
310
FFFFFFFEFEFEFBFBFBF8F8F8FFFFFFEFEFEFF9F9F9F1F1F1FFFFFFFFFFFFFAFA
310
FAF6F6F6F7F7F7FFFFFFFFFFFFF3F3F3FEFEFEF4F4F4FFFFFFF4F4F4F4F4F4FB
310
FBFBFFFFFFF6F6F6FFFFFFFFFFFFEEEEEEFBFBFBFFFFFFF9F9F9FFFFFFFEFEFE
310
EEEEEEF8F8F8F7F7F7FFFFFFF8F8F8FFFFFFFBFBFBFFFFFFFFFFFFFFFFFFFFFF
310
FFF9F9F9EFEFEFFFFFFFFCFCFCFAFAFAFFFFFFFEFEFEFFFFFFF3F3F3FDFDFDFF
310
FFFFFFFFFFF5F5F5FBFBFBFFFFFFF7F7F7FFFFFFF4F4F4FDFFFFFBFFFFE6EBEC
310
F1F5F6FBFFFFFDFEFCFFFFFCFFFFFBFDFAF2E5DFD4D5CDC0CDC4B6E5DBCAD2C6
310
B4FFFFEFF4E6D3FFFCEEFFFFFAF8F8F8F0F0F0FFFFFFFFFFFFF5F5F5FEFEFEF5
310
F5F5FFFFFFFFFFFFF4F4F4FFFFFFFFFFFFF8F8F8FFFFFFF5F5F5FFFFFFFFFFFF
310
F5F5F5FFFFFFFFFFFFF2F2F2FFFFFFFFFFFFFFFFFFE5E5E5FFFFFFFFFFFFE7E7
310
E7FFFFFFFFFFFFFFFFFFFFFFFFE6E6E6FEFEFEFFFFFFFFFFFFFFFFFFF3F3F3FD
310
FDFDF8F8F8F2F2F2FFFFFFFFFFFFFFFFFFFFFFFFFFFFFFFFFFFFFDFDFDFFFFFF
310
FFFFFFEFEFEFFFFFFFFBFBFBEEEEEEFEFEFEFFFFFFEDEDEDFFFFFFFFFFFFEEEE
310
EEFFFFFFFBFBFBFFFFFFFFFFFFFFFFFFF7F7F7FFFFFFFFFFFFFBFBFBFEFEFEFE
310
FEFEFAFAFAFFFFFFF9F9F9F5F5F5FFFFFFFFFFFF0000FFFFFFF7F7F7FFFFFFFF
310
FFFFFEFEFEFFFFFFFFFFFFFFFFFFFFFFFFFFFFFFFFFFFFEBEBEBFFFFFFFFFFFF
310
FFFFFFF8F8F8F5F5F5FFFFFFF8F8F8FFFFFFFFFFFFF0F0F0FFFFFFFDFDFDFFFF
310
FFFFFFFFF5F5F5FFFFFFFFFFFFF6F6F6FFFFFFF9F9F9F8F8F8FCFCFCFFFFFFFE
310
FEFEFFFFFFF9F9F9FFFFFFF7F7F7FFFFFFFAFAFAF7F7F7FFFFFFFFFFFFFFFFFF
310
FFFFFFFCFCFCFFFFFFFEFEFEFFFFFFF5F5F5FFFFFFF2F2F2FFFFFFF5F5F5F3F3
310
F3FFFFFFFEFEFEF4F4F4FFFFFFF2F2F2FCFCFCFDFFFFF1F5F6FBFFFFF7FBFCFB
310
FFFFFAFCFCF0F1EFFFFFFBFFFFF7F5ECDED0C4B2D2C4AEE0CFB5DCC9AED2BDA1
310
EFD9BDD9C5ACDDD0C0FFF7EDFFFFF6FFFAF3FFFFFBFFFFFCF8F6F5FFFFFFF8FA
310
FBFBFDFEFDFFFFFDFFFFEEF0F0FDFFFFF5F6F4FFFFFEFDFFFFFDFFFFFBFDFDFD
310
FFFFFCFEFEFBFBFBFEFEFEFFFFFFF7F7F7FFFFFFFEFEFEFDFDFDFFFFFFF9F9F9
310
FFFFFFF2F2F2F7F7F7FFFFFFFDFDFDFFFFFFF0F0F0FFFFFFFFFFFFFFFFFFFCFC
310
FCFFFFFFF6F6F6F5F5F5FEFEFEFCFCFCFFFFFFFBFBFBFFFFFFE9E9E9FFFFFFFF
310
FFFFF8F8F8FFFFFFFFFFFFFFFFFFF6F6F6FFFFFFF4F4F4FFFFFFFAFAFAFFFFFF
310
FFFFFFFAFAFAFFFFFFF2F2F2FFFFFFFFFFFFF6F6F6FEFEFEFFFFFFFFFFFFFBFB
310
FBF8F8F8FFFFFFFFFFFFF1F1F1F9F9F90000FDFDFDFFFFFFFFFFFFFFFFFFFCFC
310
FCFCFCFCFFFFFFFFFFFFFFFFFFFFFFFFFFFFFFFFFFFFFFFFFFFFFFFFFFFFFFFF
310
FFFFF5F5F5FFFFFFEBEBEBBABABACBCBCBD6D6D6BABABAD6D6D6D2D2D2CBCBCB
310
CECECED0D0D0CACACACCCCCCD1D1D1CDCDCDCCCCCCCECECEC5C5C5FFFFFFFBFB
310
FBFDFDFDFFFFFFFBFBFBFFFFFFFFFFFFFFFFFFFFFFFFFFFFFFFFFFFFFFFFFFFF
310
FFFFFFFFFFFFFFFFFFFFFFFFFFFFFFFFFFFFFFFFFFFFFFFFFFFFF2F2F2FEFEFE
310
FFFFFFFFFFFFFFFFFFFFFFFFFEFEFEF8F8F8FDFFFFFAFCFCF1F6F7F2F7FAF9FE
310
FFFBFFFFFFFFFCFFFCF1F7E9D6DEC9AEE5CAA8ECCDA6EDCBA0EFCCA0EBC69AF0
310
CCA4F6D3B1E1C3A6DFC4AAFDE8D3FFFFF4FFFFF8FBF6F3FAF9FBEFF4F7F1F7FC
310
F5FBFFF7FEFFFAFFFFFBFFFEFDFFFCFCFFFBF1F6F4FBFFFFF9FEFDF2F7F6F7FC
310
FBFBFDFDF9FBFBFCFEFEFCFCFCFCFCFCFEFCFCFFFDFDFFFDFDFFFDFDFFFDFEFF
310
FEFEFDFDFDFDFDFDFDFDFDFDFDFDFDFDFDFDFDFDFDFDFDFDFDFDFDFDFDFDFDFD
310
FDFDFDFDFDFDFDFDFDFDFDFDFDFDFDFDFDFDFEFEFEFDFDFDFCFCFCFCFCFCFCFC
310
FCFCFCFCFDFDFDFEFEFEFDFDFDFDFDFDFDFDFDFDFDFDFDFDFDFDFDFDFDFDFDFD
310
FDFDFBFBFBFCFCFCFCFCFCFDFDFDFDFDFDFEFEFEFEFEFEFEFEFEFFFFFFF3F3F3
310
FFFFFFFAFAFAF8F8F8FDFDFD0000FBFBFBFDFDFDFFFFFFFFFFFFFFFFFFFFFFFF
310
FEFEFEFDFDFDFFFFFFFFFFFFFFFFFFFFFFFFFFFFFFFFFFFFFFFFFFFFFFFFFFFF
310
FFFDFDFDEAEAEA8F8F8F8080807A7A7A8D8D8D8585858282827E7E7E83838386
310
86868080808282828585857F7F7F8585858585858F8F8FF7F7F7FBFBFBFDFDFD
310
FFFFFFFFFFFFFFFFFFFFFFFFFFFFFFFFFFFFFFFFFFFFFFFFFFFFFFFFFFFFFFFF
310
FFFFFFFFFFFFFFFFFFFFFFFFFFFFFFFFFFFFFFFFFFFFFFFFFFFFFFFFFAFAFAF6
310
F6F6FBFBFBFFFFFFFFFFFFFFFFFFF5F6F4FCFEFEFAFFFFF8FFFFF7FDFFF4F7FB
310
FDFBFAFFFFF7F6E7D4DFC7A9E7C7A3F0CB9FF2C99CF4CA9BECC293F1C79AE9BE
310
93FDD4ADF4CFADDABC9FDDC5B1F3E3D6FFFCF5FFFFFEFBFFFFF6FDFFEDF3F8F2
310
F9FCF7FFFEF7FEFBF9FFFAFBFFFCFBFFFEFAFFFFF2F8F7F5FBFAFBFFFFFBFFFF
310
FDFFFFF2F4F4FEFEFEFEFEFEFFFFFFFFFFFFFFFEFFFFFEFFFFFEFFFFFFFFFFFF
310
FFFFFFFFFFFFFFFFFFFFFFFFFFFFFFFFFFFFFFFFFFFFFEFEFEFEFEFEFEFEFEFE
310
FEFEFEFEFEFEFEFEFEFEFEFEFEFEFFFFFFFFFFFFFFFFFFFEFEFEFEFEFEFFFFFF
310
FFFFFFFFFFFFFCFCFCFCFCFCFCFCFCFCFCFCFCFCFCFCFCFCFCFCFCFCFCFCFEFE
310
FEFEFEFEFEFEFEFFFFFFFFFFFFFFFFFFFFFFFFFFFFFFF6F6F6F1F1F1FFFFFFFF
310
FFFFFFFFFFFEFEFE0000FFFFFFFEFEFEFEFEFEFFFFFFFFFFFFFFFFFFFEFEFEFC
310
FCFCFFFFFFFFFFFFFFFFFFFFFFFFFFFFFFFFFFFFFFFFFFFFFFFFF9F9F9FFFFFF
310
EBEBEBCBCBCB7070708484849494948080808989898686868D8D8D9292928D8D
310
8D8E8E8E9090908989898F8F8F878787919191FFFFFFFFFFFFFFFFFFFAFAFAFA
310
FAFAFFFFFFFFFFFFFFFFFFFFFFFFFFFFFFFFFFFFFFFFFFFFFFFFFFFFFFFFFFFF
310
FFFFFFFFFFFFFFFFFFFFFFFFFFFFFFFFFFFFFBFBFBFEFEFEFFFFFFFFFFFFFFFF
310
FFF8F8F8F6F6F6F9F9F9FFFFFEFFFFFEF6FAFBF0F5F8EEF4F9F6F9FDFFFFFEFF
310
FFF8FAECDADFCAAFE3C7A5E9C8A1EDC9A1F6D3A8F4D0A8FCD5AEEDC399FAD0A6
310
F4CEABE8C9AAE3CAB0DFCBB9DED2C6E8E0D9FEFBF7FBFCFAFAFCFCFAFFFEFBFF
310
FEFBFFFCFDFFFBFAFFFBFBFFFEF7FDFCFBFFFFFBFFFFFBFFFFEAEFEEFDFFFFFD
310
FFFFFDFDFDFDFDFDFFFDFDFFFDFDFFFDFDFFFDFDFFFBFCFEFCFCFFFDFDFDFDFD
310
FDFDFDFDFDFDFDFDFDFDFDFDFDFDFDFDFDFDFDFDFDFDFDFDFDFDFDFDFDFDFDFD
310
FDFDFDFDFDFDFDFDFDFDFDFDFDFDFDFDFDFDFDFDFDFDFDFDFDFDFDFDFDFDFDFD
310
FDFDFFFFFFFFFFFFFFFFFFFFFFFFFFFFFFFFFFFFFFFFFFFFFFFFFCFCFCFCFCFC
310
FCFCFCFDFDFDFDFDFDFDFDFDFEFEFEFEFEFEFFFFFFFFFFFFFDFDFDFFFFFFFAFA
310
FAFAFAFA0000FFFFFFFFFFFFFFFFFFFEFEFEFCFCFCFDFDFDFFFFFFFFFFFFFFFF
310
FFFFFFFFFFFFFFFFFFFFFFFFFFFFFFFFFFFFFFFFFFFFF6F6F6FFFFFFFAFAFAFF
310
FFFF9E9E9E8A8A8A8C8C8C8181818282827F7F7F8585858A8A8A858585878787
310
8A8A8A848484909090898989929292FFFFFFFFFFFFFDFDFDFDFDFDFFFFFFFFFF
310
FFFFFFFFFFFFFFFFFFFFFFFFFFFFFFFFFFFFFFFFFFFFFFFFFFFFFFFFFFFFFFFF
310
FFFFFFFFFFFFFFFFFFFFFFFFFFFFFDFDFDFCFCFCFFFFFFFFFFFFFFFFFFFDFDFD
310
FFFFFFFFFFFEFCFBF7F8F9F7F6FAFBFAFFFFF8FEFFFAFFFFFFFFFFFFFDF6F0E3
310
D5DAC8B1E3CBAFE9CCADEACBAAEBCCABDEBF9EDEBE9BFED7B0F4CBA4E6C19BE8
310
C8A5EBCEB3D8C2A9D0BEADDBD0C2E8E2D7FFFEF6FFFFFBFFFFFCFDFEFAFDFFFC
310
FDFFFCF5FBF6F9FEFCE9EFEEF4F9F8F6FBFAFBFFFFFBFFFFF4F6F6F4F6F6FFFF
310
FFFFFFFFFFFFFFFFFFFFFFFEFEFFFEFEFFFDFEFFFEFEFEFEFEFEFEFEFEFEFEFE
310
FEFEFEFEFEFEFEFEFEFEFEFEFEFEFFFFFFFFFFFFFFFFFFFFFFFFFFFFFFFFFFFF
310
FFFFFFFFFFFFFEFEFEFEFEFEFFFFFFFFFFFFFFFFFFFFFFFFFEFEFEFEFEFEFDFD
310
FDFDFDFDFDFDFDFDFDFDFDFDFDFDFDFDFDFDFDFDFDFDFEFEFEFEFEFEFEFEFEFE
310
FEFEFEFEFEFFFFFFFFFFFFFFFFFFF7F7F7FFFFFFF4F4F4FFFFFFFFFFFFFEFEFE
310
0000F8F8F8FEFEFEFFFFFFFFFFFFFEFEFEFCFCFCFFFFFFFFFFFFFFFFFFFFFFFF
310
FFFFFFFFFFFFFFFFFFFFFFFFFFFFFFFFFFFFFFFFFFF9F9F9FFFFFFF5F5F5DDDD
310
DD7575758585858888888989898383838888888B8B8B8686868A8A8A8F8F8F8A
310
8A8A818181878787929292F7F7F7F7F7F7FAFAFAFFFFFFFFFFFFFFFFFFFFFFFF
310
FFFFFFFFFFFFFFFFFFFFFFFFFFFFFFFFFFFFFFFFFFFFFFFFFFFFFFFFFFFFFFFF
310
FFFFFFFFFFFFFFFFFFFFFFFFFFFFFFFFFAFAFAFEFEFEFFFFFFFFFFFFF8F8F8F4
310
F5F3FFFFFBFFFFFCFDFFFFFAFFFFF2F8FDEEF2F7F3F5F6FFFBF8F6ECE2DDCDBC
310
DEC9B3DBC3ABD9C1A9E5CDB5E4CDB7F0D5BBE1BE9CF1CCA6EDC9A5E1C19EE3C6
310
A7E5CAAFE0CAB1DECDB8D7CBB9E6DDCFF7F1E6FDFAF2FFFFF9FFFFFCFDFFFCFA
310
FFFDFBFFFFFBFFFFFBFFFFF5FAF9F4F6F6FDFFFFEDEFEFFDFFFFFFFFFFFFFFFF
310
FFFFFFFFFFFFFFFFFFFFFFFFFFFFFFFFFFFFFFFFFFFFFFFFFFFFFFFFFFFFFFFF
310
FFFFFFFFFFFFFFFFFFFFFFFFFFFFFFFFFFFFFFFFFFFFFFFFFFFFFFFFFFFFFFFF
310
FFFFFFFFFFFFFFFFFFFFFFFFFFFFFFFFFFFFFFFFFFFFFFFFFFFFFFFFFFFFFFFF
310
FFFFFFFFFFFFFFFFFFFFFFFFFFFFFFFFFFFFFFFFFFFFFFFFFFFFFFFFFFFFFFFF
310
FFFFFFFFFFFFFFFFFFFFFFFFFFFFFFFFFBFBFBFFFFFFFEFEFEF8F8F80000E2E2
310
E2EDEDEDFBFBFBFFFFFFFFFFFFFFFFFFFDFDFDFCFCFCFFFFFFFFFFFFFFFFFFFF
310
FFFFFFFFFFFFFFFFFFFFFFFFFFFFFFFFFFF4F4F4FAFAFAFDFDFDFFFFFFA1A1A1
310
8A8A8A9696968989898282828686868888888282828686868C8C8C8888888585
310
859090909F9F9FFFFFFFFDFDFDFCFCFCFEFEFEF9F9F9FFFFFFFFFFFFFFFFFFFF
310
FFFFFFFFFFFFFFFFFFFFFFFFFFFFFFFFFFFFFFFFFFFFFFFFFFFFFFFFFFFFFFFF
310
FFFFFFFFFFFFFAFAFAFFFFFFFFFFFFFFFFFFFEFEFEFFFFFFFFFFFFFFFFFEFFFC
310
F8FEFDF9FAFCFCF4F7FBECF0F5E1E5EAD8DADBD5D3D2C0B9B0B9ADA1D2C2B2DD
310
CBBAE1CFBEE7D7C7DFCFC2E5D1BFE8CCAEEFCFACEBCAA9EACBAAF0D3B4E7CDAF
310
D7C1A5D3BFA6D5C7B1CBBFADDBD3C6FFFBF2FFFFFBF2F3EFDDE2E0DDE3E2D4D9
310
D8DDE2E1E6EBEAE2E7E6DCDEDEECEEEEEAECECC5C7C7C9C9C9C9C9C9C9C9C9CA
310
CACACCCACACDCBCBCDCBCBCDCBCBCACACACACACACACACACACACACACACACACACA
310
CACACACACACAC8C8C8C8C8C8C8C8C8C8C8C8C8C8C8C8C8C8C8C8C8C8C8C8C8C8
310
C8C9C9C9CBCBCBCCCCCCCCCCCCCBCBCBC9C9C9C8C8C8CCCCCCCCCCCCCCCCCCCC
310
CCCCCCCCCCCCCCCCCCCCCCCCCCCCCBCBCBCBCBCBCBCBCBCACACACACACACACACA
310
C9C9C9C9C9C9CBCBCBBFBFBFF4F4F4FAFAFAFCFCFCF6F6F60000D3D3D3D9D9D9
310
E4E4E4F3F3F3FEFEFEFFFFFFFFFFFFFBFBFBFFFFFFFFFFFFFFFFFFFFFFFFFFFF
310
FFFFFFFFFFFFFFFFFFFFFFFFFFFFFFFFF5F5F5FFFFFFFAFAFADEDEDE8C8C8C7E
310
7E7E8A8A8A8585858A8A8A8C8C8C8787878989898D8D8D8787877E7E7E808080
310
8F8F8FFFFFFFFFFFFFFEFEFEFFFFFFFFFFFFFFFFFFFFFFFFFFFFFFFFFFFFFFFF
310
FFFFFFFFFFFFFFFFFFFFFFFFFFFFFFFFFFFFFFFFFFFFFFFFFFFFFFFFFFFFFFFF
310
FFFFFCFCFCFFFFFFFFFFFFF7F7F7F8F8F8FFFFFFFFFFFFF7F5F4CAC7C295928D
310
4849470E1213000004000004000307060606100C070B02000F0300190D01372B
310
2172675FA49B97D0C4BAE2CAB6E8CDB3E0C5AADEC3A8E3C8ADDFC7ABDCC5ABE3
310
CFB6DAC9B4D6CAB8E4DCCFFDF8EFFFFFFCF7F9F9ECF1F2ECF4F4F2F6F7E6E8E8
310
DDDFDFEDEFEFE5E7E7D2D4D4FDFFFF4D4F4F4242424242424343434444444545
310
4546464647474748484845454545454545454545454545454545454545454545
310
4545434343434343434343434343434343434343434343434343434343444444
310
4646464747474747474646464444444343433D3D3D3D3D3D3D3D3D3D3D3D3D3D
310
3D3D3D3D3D3D3D3D3D3D46464646464645454545454545454544444444444444
310
4444383838434343DEDEDEFFFFFFFFFFFFFEFEFE0000D0D0D0CCCCCCCFCFCFDE
310
DEDEF4F4F4FFFFFFFFFFFFFFFFFFFFFFFFFFFFFFFFFFFFFFFFFFFFFFFFFFFFFF
310
FFFFFFFFFFFFFFFFFFF6F6F6FFFFFFF7F7F7FEFEFEFFFFFFBFBFBF8686868A8A
310
8A8686868C8C8C9090908A8A8A8A8A8A8C8C8C8484849C9C9C8B8B8B909090FF
310
FFFFFFFFFFF9F9F9F9F9F9FFFFFFFFFFFFFFFFFFFFFFFFFFFFFFFFFFFFFFFFFF
310
FFFFFFFFFFFFFFFFFFFFFFFFFFFFFFFFFFFFFFFFFFFFFFFFFFFFFFFFFFFFFFFF
310
FFFDFDFDFAFAFAFFFFFFFFFFFFDFDFDF7373730D0B0A04010004010000010000
310
010200030801050A0003070101010D0805090100170E05120900090100080300
310
0601020F08056A5A4DC6B2A0F5E1CFE2CDB8D8C3ADE9D4BEEFDAC4E0CFBAFFFF
310
F0FFFFF0DFD6CC88857D3E3F3D1B1F20060C110000040000010000000001010A
310
0C0C000000080A0AFDFFFF595B5B4B4B4B4B4B4B4C4C4C4E4E4E505050515151
310
5252525353534F4F4F4F4F4F4F4F4F4F4F4F4F4F4F4F4F4F4F4F4F4F4F4F5151
310
515151515151515151515151515151515151515151514C4C4C4E4E4E50505051
310
51515151515050504E4E4E4C4C4C545454545454545454545454545454545454
310
5454545454545050505050505050504F4F4F4E4E4E4E4E4E4D4D4D4D4D4D4545
310
45404040F3F3F3FCFCFCFDFDFDEEEEEE0000D9D9D9D9D9D9D2D2D2CACACACFCF
310
CFE3E3E3F8F8F8FFFFFFFAFAFAFFFFFFFFFFFFFCFCFCF8F8F8FBFBFBFFFFFFFF
310
FFFFFFFFFFF8F8F8FFFFFFFFFFFFEFEFEFFFFFFFF8F8F89C9C9C858585858585
310
8484849292928181817F7F7F9A9A9A7C7C7C878787888888949494FFFFFFFFFF
310
FFFDFDFDFEFEFEFEFEFEFFFFFFFFFFFFFFFFFFFFFFFFFFFFFFFFFFFFFFFFFFFF
310
FFFFFFFFFFF6F6F6FFFFFFFBFBFBFFFFFFFAFAFAFFFFFFF7F7F7FDFDFDFAFAFA
310
FEFEFEDFDFDF5C5C5C0000000C0C0C0200000401000E0B06070806090D0E050A
310
0D00010605080C030303060100070100160E0719110A0500000D08090A0B0F00
310
0001130A060C0200675B4FCDC0B2CCBDADFFF0E0FFFAE8EADDCD695E502D241A
310
07020007060200020200000300070E0000050408090000000606060606060D0D
310
0D040404EFEFEF6969694C4E4E4D4F4F4F51515153535153534F51514D4F4F4C
310
4E4E5454545252525050505151515252525353535353535252524E4E4E4F4F4F
310
5151515353535353535151514F4F4F4E4E4E4F4F4F5050505050505151515151
310
515252525252525353535454545454545454545454545252525151514F4F4F4E
310
4E4E5454545353535252525151515151515252525353535454545151513D3D3D
310
ECECECFFFFFFF8F8F8FFFFFF0000CCCCCCD8D8D8DCDCDCD1D1D1C7C7C7CFCFCF
310
E4E4E4F5F5F5FFFFFFFFFFFFFAFAFAF8F8F8FEFEFEFFFFFFFFFFFFFBFBFBFFFF
310
FFF7F7F7FFFFFFFFFFFFF7F7F7FFFFFFFFFFFFCBCBCB8181818686867C7C7C86
310
86868787878989897777778F8F8F878787888888949494FFFFFFFFFFFFFDFDFD
310
FEFEFEFEFEFEFFFFFFFFFFFFFFFFFFFFFFFFFFFFFFFFFFFFFFFFFFFFFFFFFCFC
310
FCFFFFFFF8F8F8F4F4F4FBFBFBFFFFFFF6F6F6FFFFFFFFFFFFF5F5F583838301
310
01010000001010100909090806050D0A050B0803000100000203000407000003
310
0204050200000B0702170F080901000901000904010A07090000042021250200
310
001B16130701006A625BFFFFF8D0C7BE4E453B0F06000902000701000703000E
310
0D0906080801060903090E000005090B0C0404040A0A0A000000000000000000
310
FFFFFF626262494B4B4B4D4D4C4E4E4E50504E50504C4E4E4B4D4D494B4B5151
310
514F4F4F4E4E4E4E4E4E4F4F4F5050505050504F4F4F4B4B4B4D4D4D4E4E4E50
310
50505050504E4E4E4D4D4D4B4B4B515151515151515151515151525252525252
310
5252525252525050505151515151515151515050504F4F4F4D4D4D4D4D4D5050
310
504F4F4F4F4F4F4E4E4E4E4E4E4F4F4F4F4F4F5050504545453E3E3EEBEBEBFF
310
FFFFFEFEFEFFFFFF0000D2D2D2D4D4D4D2D2D2CFCFCFCFCFCFD3D3D3D5D5D5D4
310
D4D4E8E8E8F5F5F5FFFFFFFFFFFFFDFDFDFDFDFDFFFFFFFFFFFFFFFFFFF9F9F9
310
FEFEFEFFFFFFFDFDFDFFFFFFFFFFFFFAFAFAA7A7A78181818585858585858F8F
310
8F8B8B8B767676979797878787888888949494FFFFFFFFFFFFFDFDFDFEFEFEFE
310
FEFEFFFFFFFFFFFFFFFFFFFFFFFFFFFFFFFFFFFFFFFFFFFFFFFFFAFAFAFCFCFC
310
FFFFFFF7F7F7FFFFFFF6F6F6FFFFFFFFFFFFD0D0D02323230000000808080707
310
070202020000000405030504001615110A0C0C0105060000030001051010100B
310
08040701001D140A170D030B020017110C040000121115000004000203030303
310
CCCCCCEEECEB5B57560501000E0906050000181511100D090704000200000001
310
000303030608080A0A0A0303030200000A08080200000B0B0B0B0B0BFFFFFF5E
310
5E5E4B4D4D4C4E4E4D4F4F4E50504C51504B504F4A4F4E4B4D4D525252505050
310
4E4E4E4E4E4E5050505151515151515050504D4D4D4E4E4E4F4F4F5050505050
310
504F4F4F4E4E4E4D4D4D5050505050505050505050505050504F4F4F4F4F4F4F
310
4F4F4F4F4F5050505151515151515151515050505050504F4F4F4E4E4E4E4E4E
310
4F4F4F4F4F4F4F4F4F4F4F4F4E4E4E4E4E4E4C4C4C4E4E4EE3E3E3FEFEFEF9F9
310
F9FDFDFD0000D9D9D9D3D3D3CECECED0D0D0D8D8D8D9D9D9D1D1D1C7C7C7CDCD
310
CDE1E1E1F8F8F8FFFFFFFEFEFEFAFAFAFCFCFCFFFFFFFFFFFFFFFFFFFDFDFDFE
310
FEFEFFFFFFFBFBFBFDFDFDFFFFFFE7E7E78383838E8E8E8B8B8B8D8D8D7D7D7D
310
939393878787878787888888949494FFFFFFFFFFFFFDFDFDFEFEFEFEFEFEFFFF
310
FFFFFFFFFFFFFFFFFFFFFFFFFFFFFFFFFFFFFFFFFFFFFDFDFDF5F5F5FFFFFFFB
310
FBFBFFFFFFFFFFFFF7F7F7A7A7A7030303020202121212080808000000020202
310
0000000F100E0001000001000001001317181B2023242829757674C4C0BBAAA1
310
97887C7061544633271B130902070000161113030206101115F7FBFCBEC0C111
310
13140000011416170000010808080402020200000502000E0B071F1B16322C25
310
3E3831544E49605C5B5755555A5858514F4F585858525252EEEEEE5757573F41
310
413F41414042424143433F44433E43423D42413D424143454543434341414141
310
4141434343444444444444434343414141414141424242434343434343424242
310
4141414141414343434343434242424141414141414040404040404040404141
310
414141414343434343434444444444444444444343433F3F3F40404041414142
310
42424242424141414040403F3F3F3A3A3A4C4C4CD2D2D2FDFDFDFFFFFFFFFFFF
310
0000CFCFCFD4D4D4D9D9D9D9D9D9D3D3D3CFCFCFD1D1D1D6D6D6D1D1D1CFCFCF
310
D6D6D6E8E8E8FDFDFDFFFFFFFFFFFFF6F6F6FAFAFAFFFFFFFFFFFFFAFAFAFFFF
310
FFFFFFFFFBFBFBFFFFFFFFFFFFADADAD7F7F7F8989898282827B7B7B9696967D
310
7D7D878787888888949494FFFFFFFFFFFFFDFDFDFEFEFEFEFEFEFFFFFFFFFFFF
310
FFFFFFFFFFFFFFFFFFFFFFFFFFFFFFFFFFFFFEFEFEFFFFFFF3F3F3FBFBFBFEFE
310
FEFFFFFF8D8D8D12121202020200000000000000000007070700000009090902
310
02021C1D1B4043414E53524A4F503D40445B5D5EBEBCBBFFFFF9FAF1E4E5D6C6
310
E8D8C7F6E6D5BDAFA38A81780700003C3738FFFFFF8688890000010004050000
310
03000003000003040509000000393736A39F9AE1DAD1FEF5E8FFFFF2FFFFF1FF
310
FFF4FFFAF5FFFEFFFFFFFFFFFFFFFEFCFCF7F5F5FFFFFFD7D7D7E2E4E4E3E5E5
310
E1E6E5E1E6E5E1E6E5E1E6E5E0E6E5E0E5E4E6E8E8E6E6E6E4E4E4E4E4E4E6E6
310
E6E7E7E7E6E6E6E5E5E5E4E4E4E5E5E5E5E5E5E5E5E5E5E5E5E5E5E5E5E5E5E4
310
E4E4E9E9E9E9E9E9E8E8E8E8E8E8E7E7E7E6E6E6E6E6E6E6E6E6E3E3E3E4E4E4
310
E5E5E5E6E6E6E7E7E7E7E7E7E7E7E7E7E7E7E2E2E2E3E3E3E4E4E4E5E5E5E5E5
310
E5E4E4E4E3E3E3E2E2E2F0F0F0DFDFDFFFFFFFFCFCFCF4F4F4F8F8F80000D3D3
310
D3D1D1D1D2D2D2D5D5D5D5D5D5D3D3D3D4D4D4D7D7D7D6D6D6CECECECBCBCBD6
310
D6D6E7E7E7F4F4F4FAFAFAFDFDFDF7F7F7FFFFFFFFFFFFFBFBFBFFFFFFFFFFFF
310
FFFFFFFAFAFAFFFFFFF2F2F28383838787878080808F8F8F8080808B8B8B8787
310
87888888949494FFFFFFFFFFFFFDFDFDFEFEFEFEFEFEFFFFFFFFFFFFFFFFFFFF
310
FFFFFFFFFFFFFFFFFFFFFFFFFFFFFFFFFFFBFBFBFFFFFFFFFFFFFFFFFF878787
310
1717170000000000002626260909090000000909090000001414143232324A4D
310
4B4E53523E434451565795989CE5E7E7FFFFFCFFFFF8F5E8D8D9CAB7CCB9A4D9
310
C6B1DECEBEC9BBAFF0E6DFFFFCF7757372020301020404000001080D1005090E
310
070B1026292DDDDFE0E4E1DDFFFFF8EEE3D5D0BFACE4D0B7E3CBAFD5C0AAD8CE
310
C7E9E4E5FFFEFEFFFFFFFFFEFEFFFFFFF5F5F5FFFFFFFDFFFFFDFFFFFBFFFFFB
310
FFFFFBFFFFFBFFFFFAFFFFFBFFFFFDFFFFFFFFFFFEFEFEFEFEFEFFFFFFFFFFFF
310
FFFFFFFFFFFFFFFFFFFFFFFFFFFFFFFFFFFFFFFFFFFFFFFFFFFFFFFFFFFFFFFF
310
FFFFFFFFFFFFFFFFFFFFFFFFFFFFFFFFFFFFFFFFFFFFFDFDFDFEFEFEFFFFFFFF
310
FFFFFFFFFFFFFFFFFFFFFFFFFFFFFDFDFDFEFEFEFEFEFEFFFFFFFFFFFFFEFEFE
310
FEFEFEFDFDFDF2F2F2F0F0F0FEFEFEFFFFFFFFFFFFFFFFFF0000DCDCDCD1D1D1
310
CACACAD1D1D1D9D9D9D9D9D9D3D3D3D0D0D0D3D3D3D0D0D0D0D0D0D1D1D1D2D2
310
D2D7D7D7E8E8E8FAFAFAFBFBFBFEFEFEFFFFFFFFFFFFFFFFFFFFFFFFFFFFFFFC
310
FCFCF8F8F8FFFFFFBDBDBD8C8C8C8585859595957E7E7E949494878787888888
310
949494FFFFFFFFFFFFFDFDFDFEFEFEFEFEFEFFFFFFFFFFFFFFFFFFFFFFFFFFFF
310
FFFFFFFFFFFFFFFFFFFFFFFFFFECECECFFFFFFFFFFFFB5B5B512121200000014
310
14141515150000000000000C0C0C060606242424545454515151404242636867
310
A5AAABF9FEFFFBFFFFEEEEEEF4F0EBFFFFF7E8DAC8DFCCB7DEC8AFD7C2ACE4D0
310
BECDBDADFFFDF3736A6105010008070300010004060600000400000491979EFA
310
FEFF848484716D68BBB1A7DCCCBBD7C0A6F0D4B5ECCCA8D9BFA1CCC2B8D9D4D5
310
F8F3F4FFFEFFFBF9F9FCFAFAF0F0F0FFFFFFFCFEFEFBFDFDF9FEFDF8FDFCF7FD
310
FCF8FEFDF8FEFDFAFFFEFDFFFFFDFDFDFBFBFBFBFBFBFDFDFDFEFEFEFEFEFEFD
310
FDFDFEFEFEFDFDFDFDFDFDFCFCFCFCFCFCFDFDFDFDFDFDFEFEFEFAFAFAFAFAFA
310
FBFBFBFBFBFBFBFBFBFBFBFBFCFCFCFCFCFCFCFCFCFCFCFCFDFDFDFEFEFEFEFE
310
FEFEFEFEFDFDFDFDFDFDFDFDFDFDFDFDFCFCFCFCFCFCFCFCFCFCFCFCFDFDFDFD
310
FDFDFFFFFFFFFFFFFBFBFBFCFCFCFEFEFEFBFBFB0000D7D4D6D8D5D7DDDADCDD
310
DADCD3D2D4CBCACCCFCED0D7D9DAD6D8D9C9CDCEC2C5C9C6CBCCCCD1D4D0D5D6
310
D2D9DCD9DEDFFDFFFFFAFBF9FDFEFCFFFFFEFCFDFBFAFBF9FFFFFEFFFFFEFEFC
310
FBFFFFFEFFFFFE918F8E888685878584918F8E8A8B89878787888888949494FF
310
FFFFFFFFFFFDFDFDFEFEFEFEFEFEFFFFFFFFFFFFFFFFFFFFFFFFFFFFFFFFFFFF
310
FFFFFFFFFFFFFFFFFFFFFDFDF3F1F1F4F2F20301010C090B0603050200010200
310
010F0C0E0F0D0D0200003331304F4D4C3E3C3B646563C3C5C5F4F8F9FBFFFFF6
310
FAFBF3F5F5FFFFFEFFFFF9FCF3E6F2E3D3D6C5B2D9C6B1D8C5B0D4C2B1FFFFF4
310
867A700C05000906010506020F0D0C020000191416E0DCE1DDDBE126272B0D0F
310
10020100746F66DCD2C1DFCBB2DFC2A3E5C09AF5D4B3D6C3B4D5C9C3F0E8E1FF
310
FEF9FFFFFCFFFEFDFFFFFFF5F7F8FCFEFFFCFEFFFBFDFEFBFDFEFBFDFDF9FEFD
310
FAFFFEFAFFFEFFFFFFFDFDFDFCFCFCFCFCFCFDFDFDFEFEFEFEFEFEFDFDFDFEFE
310
FEFEFEFEFDFDFDFDFDFDFDFDFDFDFDFDFEFEFEFEFEFEFDFDFDFDFDFDFEFEFEFE
310
FEFEFFFFFFFFFFFFFFFFFFFFFFFFFDFDFDFDFDFDFEFEFEFEFEFEFEFEFEFEFEFE
310
FDFDFDFCFCFCFFFFFFFEFEFEFDFDFDFCFCFCFCFCFCFDFDFDFEFEFEFFFFFFF6F6
310
F6FFFFFFF5F5F5FCFCFCFFFFFFFDFDFD0000DFD4DCDBD3DAD9D0DAD8D0DAD8D3
310
DCD8D5DED6D5DED2D5DDD5DBE2CFD9E0CBD6DEC6D4DAC3D3DAC0D3D8BFD2D9C5
310
D4D7D4D9D8F0EFEBFFFFFCFFFFFBFEFDF9FFFFFCFFFFFCFFFFFCFFFFFBF1F1EB
310
FFFFFBF7F4EF787570918E898E8C8482827C8C8D8B898C8A939694FCFFFDFFFF
310
FEFDFEFCFFFFFFFFFFFFFBF9F9FFFFFFFFFEFFFFFBFDFFFAFCFFFEFFFFFEFFFF
310
F9FAFFFEFFFFF9F9FFFEFF322A2B0E05080700030A000610060C0900050C0208
310
090003292121534C498D8782DED8D3FFFCF8FDFFFFFBFFFFFDFFFFFFFFFFFFFF
310
FEFFFFFBFFFFF8FFFFF7F4E9DBC8BDAFD8CBBDCEC3B5FFFBEEBDB4AA11090202
310
0200000605000707110F0F0B0000F2DFE2D8C3C618090D080207000003081212
310
000200888C81E7DDCBDFC5ADEDC5A8F4C8ABE8C7ADE5CDB7DDCCB9FFFFF2FFFF
310
F8FEFDF9FDFFFFFAFDFFFDFDFFFDFCFFFFFDFFFFFDFFFFFEFFFFFFFFFFFFFEFF
310
FFFEFFFFFFFFFFFFFFFFFFFFFFFFFFFFFFFFFFFFFFFFFFFFFFFFFFFFFFFFFFFF
310
FFFFFFFFFFFFFFFFFFFFFFFFFFFFFFFFFFFFFFFFFFFFFFFFFFFFFFFFFFFFFFFF
310
FFFFFFFFFFFFFFFFFFFFFFFFFFFFFFFFFFFFFFFFFFFFFFFFFFFFFFFFFFFFFFFF
310
FFFFFFFFFFFFFFFFFFFFFFFFFFFFFFFFFFFFFFFFFFFFFFFFFFFFFFFFFFFFFFFF
310
FFFFFFFFFFFFFFFFFFFFFFFF0000D9D5DBD9D5DBD9D5DBD8D6DCD8D6DCD4D2D8
310
CCCDD1C6C9CDCCD1D4CED3D6CFD6D9D1D8DBCED8D8C9D5D5C5D1D1C5D0CECED1
310
CFCECFCDE2E3DFFFFFFCFFFFFCFCFDF9F8F7F3FFFFFBFFFFFBFFFFFAFFFFFBF5
310
F5EFC8C5C07B787394928A8686808A8B87888B89939694FCFFFDFFFFFEFDFEFC
310
FFFFFFFFFFFFFFFFFFFDFBFBFFFDFFFFFEFFFFFBFDF7F2F4FEF7FAFFFEFFF3EE
310
EDFFFFFE8A85840A05061A13160701060B0409040003050004211B20221C1D92
310
8E8DFAF5F2F6F4ECFFFFF9FFFFFBFDFFFFFBFFFFFFFEFFFFFFFEFFFFFCFFFFF9
310
FFFFF8FFFFF7F3E9DFC9C0B6C6BDB3E2DBD2F8F1E82620190501000F100C0410
310
10000101040000F4E2E3FFFBFB2102051300000B0003010609000103000F0E2C
310
3630C3BDB0DFC7B3F0C6AFEFBFA3EFC8A8EDCEAFE1CAB0FFF5DFFFFFF4FCFDF4
310
FCFEFEFBFEFFFDFCFFFFFBFFFFFCFFFFFCFFFFFDFFFFFEFFFFFFFEFFFFFEFFFF
310
FFFFFFFFFFFFFFFFFFFFFFFFFFFFFFFFFFFFFFFFFFFFFFFFFFFFFFFFFFFFFFFF
310
FFFFFFFFFFFFFFFFFFFFFFFFFFFFFFFFFFFFFFFFFFFFFFFFFFFFFFFFFFFFFFFF
310
FFFFFFFFFFFFFFFFFFFFFFFFFFFFFFFFFFFFFFFFFFFFFFFFFFFFFFFFFFFFFFFF
310
FFFFFFFFFFFFFFFFFFFFFFFFFFFFFFFFFFFFFFFFFFFFFFFFFFFFFFFFFFFFFFFF
310
FFFFFFFFFFFFFFFF0000C5D2D0C5D2D0C9D4D2CDD6D3D2D9D6D4D8D3D4D6D0D5
310
D3CBDAD8CEDDD7CCDED4CAE1D3C7E3D3C6E4D4C7E7D7C7E3D7CBD3D0CCCDCFCF
310
CFD1D1D8DADAEAECECFAFCFCFFFFFFFDFDFDFFFFFEFFFFFEFFFFFEF5F6F4FFFF
310
FE8A8B89848583929391888987898A88949593FEFFFDFFFFFEFEFFFDFFFFFFFF
310
FFFFF3F3F3FFFFFFFFFFFFFFFFFFFFFEFEFFFFFFFFFEFFFEFFFDFDFFFCF8FFF9
310
0F151000020004090700040303070800000106090D2B3031FAFFFEFAFFFEDDE3
310
DEFAFFF9FBFFF9F5FCF5FBFFFFFBFFFFFFFEFFFFFFFEFFFFFCFFFFFBFFFFF9FF
310
FFF8EDE4DBCCC3BACEC5BCFFFFF8706A630501000F0B06030400000200000400
310
BCB3AFFFFDF8D9BAB7A98A892E161616090B000001000305000201000802635D
310
52F7E1CFEBC2ACF6C7ACF1C8A8F0CDACE2C7ACEEDEC7FFFFF2FDFBF1FCFDFBFD
310
FFFFFDFDFFFFFCFFFFFCFFFFFCFFFFFDFFFFFFFFFFFFFEFFFFFEFFFFFFFFFFFF
310
FFFFFFFFFFFFFFFFFFFFFFFFFFFFFFFFFFFFFFFFFFFFFFFFFFFFFFFFFFFFFFFF
310
FFFFFFFFFFFFFFFFFFFFFFFFFFFFFFFFFFFFFFFFFFFFFFFFFFFFFFFFFFFFFFFF
310
FFFFFFFFFFFFFFFFFFFFFFFFFFFFFFFFFFFFFFFFFFFFFFFFFFFFFFFFFFFFFFFF
310
FFFFFFFFFFFFFFFFFFFFFFFFFFFFFFFFFFFFFFFFFFFFFFFFFFFFFFFFFFFFFFFF
310
FFFFFFFF0000C9DACFC5D6CBC0D1C6C2D0C5C7D3C7CED6CBD6DACFDBDAD0DEDA
310
CFE2D9CFE4D8CEE5D6CDE8D6CBEBD7CCEDD9CEE9D9D2DBD7D6D6DADBCBCED2BE
310
C2C3CACDD1E9EDEEFDFEFFFBFDFEFDFFFFFDFFFFFDFFFFFAFCFDFBFDFEC9CBCC
310
787A7B979999868785878886939492FEFFFDFFFFFEFEFFFDFFFFFFFFFFFFFFFF
310
FFFCFCFCF2F2F2FBFBFBFFFFFFFFFFFFFAFAFAF7FAF8EBF6EE7D8B8000040004
310
100A000300000502000A08000303000A0AF6FFFFF4FFFCEEF9F6F6FFFCDFECE4
310
F6FFF9F5FFF8FAFFFFFBFEFFFDFFFFFFFFFFFFFFFEFFFFFCFFFFF9FFFFF9E9E1
310
DAC7BFB8F6EEE7D9D3CC050100100D0915120E020100070B05606157FDF1E7E6
310
D0C5E8C7BEF4D2CC664B471203010000000C1616000200000A04100A00D6C1B2
310
EEC9B5F5C7AFF1C5A6F1CBABE4C8AAE0CCB3FFFFF2FFFCF1FCFBF7FFFFFFFFFD
310
FFFFFCFFFFFCFFFFFDFFFFFDFFFFFFFFFDFFFFFBFFFEFFFFFFFFFFFFFFFFFFFF
310
FFFFFFFFFFFFFFFFFFFFFFFFFFFFFFFFFFFFFFFFFFFFFFFFFFFFFFFFFFFFFFFF
310
FFFFFFFFFFFFFFFFFFFFFFFFFFFFFFFFFFFFFFFFFFFFFFFFFFFFFFFFFFFFFFFF
310
FFFFFFFFFFFFFFFFFFFFFFFFFFFFFFFFFFFFFFFFFFFFFFFFFFFFFFFFFFFFFFFF
310
FFFFFFFFFFFFFFFFFFFFFFFFFFFFFFFFFFFFFFFFFFFFFFFFFFFFFFFFFFFFFFFF
310
0000E6F2DCDEEBD5D5E1CDCEDAC8CCD6C6CAD2C7C9D1C7C9CFCAC9CECCCDD1D2
310
D2D5D9D7D9E1D8D9E3D6D7E1D2D2DECFD0DAD4D7DCCCCFD3CFD2D7D8DBDFD4D7
310
DCCBCED2D6D9DEEBEEF2F4F7FBFAFDFFFBFEFFFBFEFFEFF2F6F4F7FB9A9DA183
310
8788838585878886939492FEFFFDFFFFFEFEFFFDFDFFFEFDFFFEF0F3F1FDFFFE
310
FDFFFEFAFDFBF9FCFAFDFFFEFAFDFBE2E8E36A756B000C0100050005120A0005
310
00000906000B08000200A5B0AEF0FBF9F0FBF8E9F4F1F6FFFCF6FFFBF6FFFBF7
310
FFFBFAFFFFFBFEFFFDFFFFFFFFFFFFFFFEFFFFFCFFFFFCFFFFFBE8E2DDC9C5C0
310
FFFFFB5A55520F0C08120E0D0400000D0A05040400FFFFF2ECDCCBD4BAAAEDCA
310
BCE8C6B9DABFB5100000050400091110000705000400070200665548FDDBCBE8
310
BEA7F0C4A5F3CAA9EACBACDAC5AAFFFCEAFFFFF3FDFAF5FFFDFCFFFDFFFFFDFF
310
FFFDFFFFFDFFFFFEFFFDFFFFFAFFFFFAFFFEFDFFFFFFFFFFFFFFFFFFFFFFFFFF
310
FFFFFFFFFFFFFFFFFFFFFFFFFFFFFFFFFFFFFFFFFFFFFFFFFFFFFFFFFFFFFFFF
310
FFFFFFFFFFFFFFFFFFFFFFFFFFFFFFFFFFFFFFFFFFFFFFFFFFFFFFFFFFFFFFFF
310
FFFFFFFFFFFFFFFFFFFFFFFFFFFFFFFFFFFFFFFFFFFFFFFFFFFFFFFFFFFFFFFF
310
FFFFFFFFFFFFFFFFFFFFFFFFFFFFFFFFFFFFFFFFFFFFFFFFFFFFFFFF0000FAFF
310
EFF7FDECF2F9EAEEF5E8E9EFE4E0E8DED7DED9D2D9D6CBD3D3C8CFD2C2CAD1BD
310
C6CFBEC7D1C1CAD7C7D0DDCCD5DFC8CBD3D2D3D7DBDCE0DADBDFD0D1D5C7C8CC
310
CBCBD1D5D6DAE4E4EAF9F9FFF9F9FFFDFDFFFDFDFFF6F9FEDBDEE37E81858385
310
85878886939492FFFFFEFFFFFEFDFEFCFCFFFDFBFEFCFDFFFEFAFFFDF4F9F7FB
310
FFFEFBFFFEF7FCFA9CA19F3C433E1F27200004000109020003000C130E000401
310
0209061F2524FAFFFFECF2F1FAFFFFFAFFFFEDF4F1F2F9F6F1F8F3FAFFFEFBFF
310
FFFBFEFFFDFFFFFDFFFFFFFFFFFFFFFEFFFFFEFFFFFCE4E1DDDDDAD6EDEAE615
310
13120D09080200000B0908050200837F6DFFFFEDD6C1ABF7DAC5EAC7B3EBCAB7
310
EED3C59281780501000001000008070006030D0A021E0E02E8CBBCF0CBB5F2C6
310
A7F4CAA7EDCBADDBC4AAFCEDDAFFFFF4FFFCF4FDFCF8FFFEFFFFFDFFFFFDFFFF
310
FEFFFDFFFFFAFFFFF8FFFFF8FFFEFDFFFFFFFFFFFFFFFFFFFFFFFFFFFFFFFFFF
310
FFFFFFFFFFFFFFFFFFFFFFFFFFFFFFFFFFFFFFFFFFFFFFFFFFFFFFFFFFFFFFFF
310
FFFFFFFFFFFFFFFFFFFFFFFFFFFFFFFFFFFFFFFFFFFFFFFFFFFFFFFFFFFFFFFF
310
FFFFFFFFFFFFFFFFFFFFFFFFFFFFFFFFFFFFFFFFFFFFFFFFFFFFFFFFFFFFFFFF
310
FFFFFFFFFFFFFFFFFFFFFFFFFFFFFFFFFFFFFFFFFFFFFFFF0000FEFDFFFFFEFF
310
FFFEFFFFFEFFFFFEFFFCFEFFF6F8F9F0F5F4E9EEEDE0E5E3D4D9D7C8CFCAC4CB
310
C6C6D1C9CDD8D0D5DCD7C8C8C8DBD8DADCD9DBCCC9CBC9C6C8D7D4D6D8D7DBCD
310
CCCED8D7DBE1E0E4F0EFF3FCFBFFFFFEFFFBFCFFFDFEFFAFB0B4868686878787
310
949494FFFFFFFDFFFEFBFEFCFAFDFBF9FCFAFAFFFBF4FAF5FBFFFCFAFFFCAFB6
310
B1454C472C332E545A552E2F2B1A17120F0C080400000E0A090500010500019A
310
9597FAF5F7FFFBFDFFFBFDFFFCFEFFFCFEFFFEFFFFFEFFFEFBFDFFFEFFFDFEFF
310
FDFFFFFDFFFFFFFFFFFFFFFFFFFFFFFFFFFEE1DFDEF1EFEE9A98971111110200
310
00000000191919090600FFF5E3F4E5CBD5BCA2F3D5BAD8B49CE6C4ADE5C9B8CE
310
BDB0120C050105000002000308060805001509009B8377FDDCC9F4CAADF3C8A7
310
EBC9ABDEC5ABE9D8C3FFFFF4FFFDF4FFFCF7FFFFFFFFFEFFFFFEFFFFFEFFFBFF
310
FFF8FFFFF6FFFFF6FFFFFBFFFFFFFFFFFFFFFFFFFFFFFFFFFFFFFFFFFFFFFFFF
310
FFFFFFFFFFFFFFFFFFFFFFFFFFFFFFFFFFFFFFFFFFFFFFFFFFFFFFFFFFFFFFFF
310
FFFFFFFFFFFFFFFFFFFFFFFFFFFFFFFFFFFFFFFFFFFFFFFFFFFFFFFFFFFFFFFF
310
FFFFFFFFFFFFFFFFFFFFFFFFFFFFFFFFFFFFFFFFFFFFFFFFFFFFFFFFFFFFFFFF
310
FFFFFFFFFFFFFFFFFFFFFFFFFFFFFFFFFFFFFFFF0000FFFDF9FFFEF9FFFCF7FF
310
FCF7FFFFF8FFFFF8FFFFF8FFFFF7FFFFF7FFFFF7FFFFF4FBFEEFF0F5E6E2E9DA
310
D6DDCED0D4C8D2CFCACCC5C2CEC6C6DBD6D5E5DDDDDDD8D7D7D2D1D8D3D4D6D1
310
D2C6C1C2E9E4E6F1ECEEF4F1F3FFFEFFFFFDFFF1EEF0868686888888959595FF
310
FFFFFDFFFEFAFDFBF9FCFAF8FBF9F2F8F3FBFFFCEAF0EB7C837E323934555D56
310
B2B9B4F4FAF53632310500000E0607110B0C070001110A0D070001FFFDFFFFFC
310
FFFFFDFFFBF1F7FFFDFFFFFCFFF8F0F7FFFBFFFFFCFFFFFDFFFDFFFFFDFFFFFD
310
FFFFFFFFFFFFFFFFFFFFFFFFFFFFE6E6E6F7F7F7545454030303090909080808
310
010101312E26FFFFF0D9C6ABF2D7BCE1C3A6E8C5ABEECCB4E9CEBAE6D5C83932
310
290F100C0D1210000100110E09110800513E36F2D6C5F5CEB2F0C7A7E7C7AADE
310
C5ABD8C9B6FFFFF4FFFEF5FFFDF8FFFFFEFFFFFFFFFEFFFDFFFFFBFFFFF8FFFF
310
F4FFFFF6FFFFFBFFFFFFFFFFFFFFFFFFFFFFFFFFFFFFFFFFFFFFFFFFFFFFFFFF
310
FFFFFFFFFFFFFFFFFFFFFFFFFFFFFFFFFFFFFFFFFFFFFFFFFFFFFFFFFFFFFFFF
310
FFFFFFFFFFFFFFFFFFFFFFFFFFFFFFFFFFFFFFFFFFFFFFFFFFFFFFFFFFFFFFFF
310
FFFFFFFFFFFFFFFFFFFFFFFFFFFFFFFFFFFFFFFFFFFFFFFFFFFFFFFFFFFFFFFF
310
FFFFFFFFFFFFFFFFFFFFFFFFFFFFFFFF0000A96C40A66A40B27A51D19D75F1C0
310
9AFFD8B5FFECCCFFFDE0FFFFE5FFFFEBFFFFEFFFFFEFFFFFF2FFFFF5FFFFF7FF
310
FFF8FFF8EFF2E7DFDFD3CDD4CAC3D5C9C3D8CEC7D9CFC8D5CCC8D2C9C5DAD1CD
310
D6CFCCD1CAC7E3DBDBFFFBFBFFFFFEFFFBFABCBABA858585939393FEFEFEFDFF
310
FEF8FBF9FDFFFCFBFFFAFBFFFAB0B4AF31352F4E554EC9D0C9F9FFF7F5FCF5EC
310
F0EB040202040003171015040003171015090308453E43FFFAFFFCF4FBFFFBFF
310
FFFCFFFFFBFFFFFAFFFFFBFFFFFAFFFDF6FDFFFEFFFFFFFFFFFFFFFEFEFEFEFE
310
FEFEFEFEFBFDFEFBFDFEE3E5E6FDFFFF0B0D0E0608090000010403050B0B0B81
310
7E76FFF5E2E7D4B9D9C1A5E7CBADECCEB1E0C2A9DEC5B1E7D7C7857E75020100
310
0C0E0E000101020100120C0522120BDDC6B7E3BFA7FBD4B8ECCEB3DAC3ADDACC
310
B9F2EBDCFEF9F0FFFFFBFFFFFCFFFFFFFFFFFFFFFFFFFBFFFFF8FFFFF4FFFFF6
310
FFFEFBFFFFFFFFFFFFFFFFFFFFFFFFFFFFFFFFFFFFFFFFFFFFFFFFFFFFFFFFFF
310
FFFFFFFFFFFFFFFFFFFFFFFFFFFFFFFFFFFFFFFFFFFFFFFFFFFFFFFFFFFFFFFF
310
FFFFFFFFFFFFFFFFFFFFFFFFFFFFFFFFFFFFFFFFFFFFFFFFFFFFFFFFFFFFFFFF
310
FFFFFDFDFDFDFDFDFDFDFDFDFDFDFDFDFDFDFDFDFDFDFDFDFDFDFFFFFFFFFFFF
310
FFFFFFFFFFFFFFFFFFFFFFFF0000C78C5AAD7240915928844E1F7B491B75481D
310
7A4F287F593681603F8F7355A58E74BDAB94D9C8B5F0E2D0FCF0DEFEF4E3FFFC
310
EEFFFFF3FFFFF5FFFFF5FFFDF1FAEEE4EADED4DDD2CADED3CBD9CFC8DBD1CADF
310
D6D2DFD6D2E3DAD6F4EDEAFFFFFCFFFFFF7575758F8F8FFFFFFFEDF0EEEEF1EF
310
FDFFFCE8ECE75C605B797B75BABCB6FFFFF9F3F8EFF7FCF3FDFFF9C4C8C20C0B
310
0D050309010005000003000003000003939294FFFEFFF9F8FAFCFBFFFBFAFEF6
310
F5F9F7F6FAFEFCFFFFFDFFFFFEFFFFFFFFFFFFFCFFFFFEFFFEFDFDFDFDFCFCFC
310
FBFAFCF8FAFBE1E3E4E1E3E407090A010304080709070707020202C4C0BBF3E6
310
D6E1CFB8D6C1A6DFC7ABE3C8ADDAC1A7D8C3AEDFD0C0AAA39A0A0703080A0A0B
310
0D0E090706060200160C05C9B8ABE0C1ACE6C4ACDCC1ACD4C1ACD1C7B6FFFDF0
310
F8F6ECFFFFFBFFFFFCFFFFFEFFFFFFFFFFFFFBFFFFF8FFFEF6FFFEF6FFFEFBFF
310
FFFFFFFFFFFFFFFFFFFFFFFFFFFFFFFFFFFFFFFFFFFFFFFFFFFFFFFFFFFFFFFF
310
FFFFFFFFFFFFFFFFFFFFFFFFFFFFFFFFFFFFFFFFFFFFFFFFFFFFFFFFFFFFFFFF
310
FFFFFFFFFFFFFFFFFFFFFFFFFFFFFFFFFFFFFFFFFFFFFFFFFFFFFFFFFFFFFFFF
310
FFFFFFFFFFFFFFFFFFFFFFFFFFFFFFFFFFFFFFFFFFFFFFFFFFFFFFFFFEFEFEFD
310
FDFDFDFDFDFDFDFD0000FFFFE9FFFDE1FFFBE0FFFEE2FFF6DAFBE0C5EBCFB1E4
310
C6A9BA9A7DB49275A47F63936C508961458C62458F654888654B816B598F8070
310
AE9E91CBBEB0E4D7C9F8ECE0FFFFF3FFFFF7F4EAE0F8EFE6F6EDE4E5DBD4CCC4
310
BDC3BBB4D2C9C5E2DDDAFFFFFFD1D3D48B8D8DF2F4F4FFFFFEFFFFFE9798946B
310
6C68E0E2DCF0F0EAFFFFFBFFFFF9F7F8EFFEFFF5FFFFF68C8E88000102000409
310
0000030C1414000202000201D7E0DDF0F9F6F8FFFEF8FFFEF8FFFEF8FFFEF8FF
310
FEF8FFFFF7FFFEF6FBFAF9F8F4FEFAF5FFFCF9FFFFFCFFFFFEFFFFFFFFFEFFFF
310
FEFFFDFFFFCCCECF060809000001010101000000020000EEEAE5E8DCD0E1D1C0
310
DDCAB5E0CBB5E0CCB3DDC8B2D9CAB7DBD0C2B3ABA4221E1D0000010000010200
310
0004010019130EA69A8EEBD2C2E1C8B4D8C4B2D5C8B8C8C2B5FFFFF5F3F3EDFF
310
FFFBFFFCFBFFFCFBFFFBFCFEFCFCFAFDFBF7FEFBF5FEFBF5FEFBFAFCFCFCFCFC
310
FCFCFCFCFCFCFCFCFCFCFCFCFCFCFCFCFCFCFCFCFCFCFCFCFCFCFCFCFCFCFCFC
310
FCFCFCFCFCFCFCFCFCFCFCFCFCFCFCFCFCFCFCFCFCFCFCFCFCFCFCFCFCFCFCFC
310
FCFCFBFBFBFBFBFBFBFBFBFBFBFBFBFBFBFBFBFBFBFBFBFBFBFBFDFDFDFDFDFD
310
FDFDFDFDFDFDFDFDFDFDFDFDFDFDFDFDFDFDFFFFFFFFFFFFFFFFFFFFFFFFFFFF
310
FFFFFFFF0000FFFFF5FFFFF3FFFFF3FFFFF4FFFFF4FFFFF2FFFDEBFFFCE9FFFF
310
F0FFFFEEFFFFEEFFFEEAFFF9E6FFF9E4FFF7E2FFF4E0FFF0DEF5E6D6E0D3C3C4
310
B7A9A89D8F988C80948B7E978D83B5ACA2B4ADA4C0B8B1D4CEC7EAE4DFF1EBE6
310
E9E3DEDDDAD6DADADAF3F5F6939595FDFFFFD8D9D7969795EDEEEAFFFFFCFCFC
310
F6FFFFF9FFFFF9FCFAF0FFFFF6FFFFF7FFFFF57C7A7200010000020200010004
310
0D0A000200000400F9FFF8F2FEF2F3FDF1F2FFF1F6FFF4F5FFF5F9FFF7F8FFF8
310
F9FFF8FAFFF6FFFFF8FFFFF9FFFFF9FFFFFAFFFDF9FAF8F7F7F5F5F3F2F4FCFB
310
FDA6A8A90000010000000F0F0F12100F151312E5E1DCFFFFF6FFFFF4FFFFF2FF
310
FDEBFFFBE8FFFDEAFFFDEDFFFCF2FFFFFBE9E5E4F3F2F4FFFEFFFFFEFFFCFAF9
310
E7E3DEFFFDF4FFF6E9FFFDEEFFFFF4FFFFF5F7F6ECF6F8F2FFFFFCF9FAF8FFFF
310
FEFFFFFEFFFEFFFFFFFEFFFFFEFDFFFCFAFFFCFAFFFCFDFFFEFFFFFFFFFFFFFF
310
FFFFFFFFFFFFFFFFFFFFFFFFFFFFFFFFFFFFFFFFFFFFFFFFFFFFFFFFFFFFFFFF
310
FFFFFFFFFFFFFFFFFFFFFFFFFFFFFFFFFFFFFFFFFFFFFFFFFFFFFFFFFFFFFFFF
310
FFFFFFFFFFFFFFFFFFFFFFFFFFFFFFFFFFFFFFFFFFFFFFFFFFFFFFFFFFFFFFFF
310
FFFFFFFFFFFFFFFFFFFFFFFFFFFFFCFCFCFCFCFCFEFEFEFFFFFFFFFFFFFFFFFF
310
0000FAFFF7F7FFF4F0FAEEEEF6EBF1F6EDF5F8EFFCFCF6FFFFFCF5F0EDFCF4F4
310
FFF8F9FFF7FAFFF8FCFFFBFFFFFBFFFFF9FAFFFEF4FFFFF1FFFFF2FFFFF3FFFF
310
F4FFFFF7FFFFF7FFFFF8FFFCF5F8F5EDF4F0EBF1EEE9E4E1DDD1D0CCD0CECDDA
310
DBD9E2E4E5E3E7E8E8EDECC2C4C4E0E1DFEFF0EEECEBE7F8F5F1FFFFFBFEF8F1
310
FFFFF9FFFFF8FFF6EDFFFFF7FFFFF7766F66110D080D0C080A08000E0F050909
310
000E1102F6F8E5FFFFF0FFFFF0FFFFF0FFFFEAF9FFE6FBFEE8FBFFEAFFFFEFFF
310
FFF2FFFFF2FFFFF5FFFFF8FFFFF9FFFFFBFFFFFCFFFFFFFFFFFFFFFFFFA1A1A1
310
040404090909020000040100040100443F3C3A3532443D3A474037433A304239
310
2B463D2F463E313E3930403D393B39393A393D31303435343644424140403A40
310
3D354A3F3750453D39342B33312930342E3A403BE7ECEAF9FBFBFDFDFDFFFCFD
310
FFFDFCFFFDFCFFFDFCFDFEFAF9FFFAF9FFFAFAFDFBFCFCFCFCFCFCFCFCFCFCFC
310
FCFCFCFCFCFCFCFCFCFCFDFDFDFDFDFDFDFDFDFDFDFDFDFDFDFDFDFDFDFDFDFD
310
FDFDFDFDFDFDFDFDFDFDFDFDFDFDFDFDFDFDFDFDFDFDFDFDFDFDFCFCFCFCFCFC
310
FCFCFCFCFCFCFCFCFCFCFCFCFCFCFCFCFCFCF9F9F9F9F9F9F9F9F9F9F9F9F9F9
310
F9F9F9F9F9F9F9F9F9F9F9F9F9FAFAFAFCFCFCFDFDFDFDFDFDFDFDFD0000F2FB
310
F1F5FEF4FAFFFBFAFFFBFAFFFCFAFFFEFAFFFFF9FFFEFAFFFFFAFFFFF8FEFFEF
310
F5FCF0F2FCF6F8FFFAFCFFFDFDFFFFFFF9FFFFF5FFFFF7FFFFF7FFFFF8FFFFF8
310
FFFCF4F8F5F0F1F0ECFFFFFCFFFFFEF5F8F6F7F9F9FBFFFFFBFFFFF5F9FACED2
310
D3D2D6D7A6ABAAEDF2F1E3E4E2D1CFCEEBE8E4D5D1CCCEC8C3CAC2BBC5BCB3B0
310
A69CC2B8AECFC3B9DDCFC372635A3828212A1A131E1004140700180C00352A14
310
F6ECD4FFFFEAFFFFE2FFFEDDFFFFDEFFFFE5FFFFE7FFFFE9FFFFE9FFFFEBFFFA
310
E8FFF9ECFFF9EFFFF9F0FEF8F1FDF9F4FCF8F7FBF9F9FFFFFFA0A0A00707070E
310
0C0B0805010805001B17120E0B070200010605070A08070705000705000B0900
310
0B090005020006040305020408070B0403070302040607050303000604000701
310
00110D08020100000300020B08000200E7EFEEF5FAF9FBFBFBFFFAFBFFFBFAFF
310
FAFAFFFCF8FDFCF8F9FDF7F9FDF8FAFBF9FAFAFAFAFAFAFAFAFAFAFAFAFAFAFA
310
FAFAFAFAFAFAFBFBFBFBFBFBFBFBFBFBFBFBFBFBFBFBFBFBFBFBFBFBFBFBFBFB
310
FBFBFBFBFBFBFBFBFBFBFBFBFBFBFBFBFBFBFBFBFBFBFBFBFBFBFBFBFBFBFBFB
310
FBFBFBFBFBFBFBFBFBFBFBFBFBFBF9F9F9F9F9F9F9F9F9F9F9F9F9F9F9F9F9F9
310
F9F9F9F9F9F9FEFEFEFFFFFFFFFFFFFFFFFFFFFFFFFFFFFF0000FFFFFEFFFFFE
310
FFFFFEF9FCFAF7FAF8F8FBF9F8FEF9F8FFFAECF3EEF2FCF6F6FFFBF6FFFBF4FF
310
FBF4FFFBF1FFF8EDF8F0FFFFF9FFFFF6FFFEF6FFFFF8FFFFFBFFFFFBFFFFFCFF
310
FFFEFDFFFFFBFFFFFAFFFFF6FDFFF8FEFFECF5F9BBC3CA868C91BBC0C3F9FEFF
310
ACB1B0D3D8D7F6F7F5F8F6F5C6C3BFCAC6C1CFC6C2F9EFE8FFFDF5EFE3D9FFF5
310
ECEEE0D4E5D5C98973687A5B5288645A997668A07F6C83634C73553ACAAD8EA6
310
8A68E9CEA9E9CFA7F3D9B1FFECC4FFFCD4FFFFDBFFFFDDFFFFE3FFFFEEFFFFF4
310
FFFFF5FFFFF6FFFEF7FFFFFAFFFFFEFFFFFEFCFCFC9F9F9F0E0C0B0301000401
310
00050100110B0604000002020802040C01050601040204060008090008080205
310
04000707070000030B090F0B0A0E09080A070806000200050500090706090909
310
000100000706000806000808EEF8F8FAFFFFFFFFFFFFFEFFFFFEFEFFFEFEFFFF
310
FCFFFFFCFFFFFBFFFFFCFFFFFEFFFFFFFFFFFFFFFFFFFFFFFFFFFFFFFFFFFFFF
310
FFFFFFFFFFFFFFFFFFFFFFFFFFFFFFFFFFFFFFFFFFFFFFFFFFFFFFFFFFFFFFFF
310
FFFFFFFFFFFFFFFFFFFFFFFFFFFFFFFFFFFFFFFFFFFFFFFFFFFFFFFFFFFFFFFF
310
FFFFFFFFFFFFFFFFFFFFFFFFFFFFFFFFFFFFFFFFFFFFFFFFFFFFFFFFFFFFFFFF
310
FFFFFAFAFAFBFBFBFEFEFEFFFFFFFFFFFFFFFFFF0000FDF8F9FDFBFBFFFDFDFD
310
FBFBFBFCFAFCFDFBFBFFFAF9FFFAFAFFFBFAFFFBF6FFF7EFFDF1EFFDF1F6FFF8
310
F4FFF8F8FFF8FFFFF9FFFFFBFFFFFBFFFEFAFCFDF9FBFCFAF9FBFBFAFCFCFBFF
310
FFEFF4F5FAFFFFF8FFFFB0B6BB5F686C8C9299F7FDFFFAFFFFAAAEAFB5BAB9B2
310
B4B4FFFFFEF2F0EFFFFCFBE3DEDBDFD9D4C3BAB6DDD3CCD7CEC5DFD4CCF6E9E1
310
FFFBF36C59511C00002400002D0A004726173D1D0A65462FDBBDA4B19479967A
310
5C8367487156346B502E6C5031705435775B3C7D63459E866AA28B71AE987FBD
310
A990D0BEA7E4D3BEF5E4CFFDEEDBFFF2DFBAA69448352047321D59442E4E3A21
310
4D39204C392449392D43342B43342445372148391F4B3A1F4A391F4A38214837
310
24402E1D4D3A2B412F1E43321F5240294534194C391E543E254A351F44331E53
310
46303D34203B321EF9EEDAF8E9D6FEEBD6FFEBD5FFEBD5FFEBD5FFEBD6FEEBD6
310
FAEBD8F9EBD8FAECD9FAECD9FAECD9FAECD9FAECD9FAECD9FAECD9FAECD9F9EB
310
D8F9EBD8F9EBD8F9EBD8F9EBD8F9EBD8F9EBD8F9EBD8FAEBD8FAEBD8FAEBD8FA
310
EBD8FAEBD8FAEBD8FAEBD8FAEBD8FCEDDAFCEDDAFCEDDAFCEDDAFCEDDAFCEDDA
310
FCEDDAFCEDDAF9EBD8F9EBD8F9EBD9F9EBD9F9EBD9F7EBD9F7EADAF5EADCF6ED
310
E0F8EFE5F9F4EBFCF8F3FFFCF8FFFFFB0000FFFFFFFFFFFFFFFFFFFFFFFFFFFF
310
FFFFFFFFFFFFFEFDFFFEFDFFFEFBFEFCFAFDFBF8FEF9F6FCF7F5FBF6F9FFFAFD
310
FFFCFCFDFBFFFFFEFFFFFEFFFFFEFDFEFCFDFDFDFDFDFDFAFAFAF8FAFAFDFFFF
310
A9ABAC4C4E4F565859D8DCDDFDFFFFF9FBFCD1D3D4AFB1B1B2B4B4B0B0B0EBEB
310
EBFFFFFFFFFEFEFFFDFCE3E1E0D9D5D4CBC7C6D5D2CEC7C4C0DBD6D3DFDAD769
310
625F0F0603160A080B00001207030F05000C0300FFFEF5FFFFF8FFFFF6FFFFF6
310
FFFFF7FFF7EDEEE5DBCDC4BACFC6BC9A8674A7825C9E7041885F2E7F5723754D
310
186D460F7B4F199061298C571E925B22975D229F652A905A1E9360229867298D
310
5D2385501DA069368F581F8F581BAA702F894F0DA16A27955F1E885516936224
310
92602495642695602197621F99611A985D15A3601B9D5A15A26523965C1BA067
310
298F581B965F22935A1C995C1C985B1B985B1B935A1D8E582189592586582885
310
5A27845C22865D1F865D1F865D1F865D1F865D1F865D1F865D1F845B1D845B1D
310
845B1D845B1D845B1D845B1D845B1D845B1D865A1D8A5D208C5F228B5E21885B
310
1E86591C895C1F8B5E21895C1F885B1E86591C86591C86591C86591C885B1E88
310
5C21855A21855A218458228259228258238059257D59297B5A2D73562F685131
310
F8E7CDFFFFF1FFF7EDFFFFF80000FFFFFFFFFFFFFFFFFFFFFFFFFFFFFFFFFFFF
310
FFFFFFFFFFFFFFFFFFFDFDFDFDFDFDFFFFFFFFFFFFFFFFFFFAFAFAF8F8F8FEFE
310
FEFEFEFEFAFAFAF8F8F8FFFFFFFFFFFFFDFDFDEEEEEE9D9D9D393939444444B0
310
B0B0FFFFFFFDFDFDF5F5F5F4F4F4BFBFBFACACACADADADB1B1B1D0D0D0FEFEFE
310
FCFCFCFEFEFEF7F7F7EFEFEFDADADAD9D9D9C4C4C4CDCDCDD6D6D67C7C7C0000
310
000E0E0E080808080808050505030303C6C6C6EEEEEEFFFFFFFDFDFDFFFFFFFB
310
FBFBFFFFFFF0F0F0FFFFFFFFFFF7FFFFE5FFFFD6FFFDD1FFF6C8FFDFADE3BD87
310
CCA36CC79860D29B62DBA1669C5D23A4682CAB74379562248B5C1FD7A569DCA3
310
6CC3864EDA9B5EE0A05FDB9A55DC9C55DA9C56D29954DDA766C89556D2A163B8
310
8547D7A361E0A966CE924CE3A45AE8A255E6A053E19F58D29551D59858CF9658
310
D59C5ED29A59D69C5AD59B59D39C59CF9A5BC9995FC59964C09868BF9A68C39B
310
61C59C5DC59C5EC59C5DC59C5EC59C5DC59C5EC59C5DC59C5EC59C5DC59C5EC5
310
9C5DC59C5EC59C5DC59C5EC59C5DC6995CC79B5CCA9B5EC89C5DC99A5DC69A5B
310
C99A5DC89C5DD0A164CDA162CE9F62CB9F60CD9E61CCA061CFA063CEA164C79A
310
5DC79A5DC79A5DC79A5DC69A5FC3985FBE9661B89464B7976CA78D69FFEDD2FF
310
FFF1FCF6EBFFFFF90000FFFFFFFFFFFFFFFFFFFFFFFFFFFFFFFFFFFFFFFFFFFF
310
FFFFF6F6F6FFFFFFFFFFFFF3F3F3F5F5F5FFFFFFFFFFFFFBFBFBFFFFFFFDFDFD
310
FDFDFDFFFFFFFFFFFFD7D7D78787874040403A3A3A8D8D8DF2F2F2F7F7F7F8F8
310
F8FDFDFDFDFDFDC0C0C0B2B2B2AFAFAFB0B0B0B8B8B8B6B6B6F6F6F6FFFFFFFF
310
FFFFFFFFFFFFFFFFF1F1F1E9E9E9D2D2D2CCCCCCD4D4D4A0A0A0060606000000
310
0808080909090000000A0A0A8C8C8CD2D2D2CFCFCFCFCFCFE1E1E1E6E6E6FFFF
310
FFFEFEFEF7F7F7FFFFFEFFFFFBFFFFF9FFFFF7FFFEF1FFFEEFFFFFECFFFFEDFF
310
FFEEFFFAE4FFEDD53415002203001E0400210B00201000DFCBB2FFF1D8FFE1C7
310
FFE8C8FFEBC8FFDDB7FFEAC4FFF3CFFFE6C4A28C70634F366B58435F4C37705B
310
45695238654A2FEED2AFFFE8BDFFF0C3FFE7BFF7E1BEF4E2C3FFFCE0FFFFEAFF
310
FFEAFFFFE9FFFFE9FFFFE9FFFFEAFFFFEEFFFFF1FFFFF5FFFFF4FFFFEEFFFFEB
310
FFFFEDFFFFEBFFFFEDFFFFEBFFFFEDFFFFEBFFFFEDFFFFEBFFFFEDFFFFEBFFFF
310
EDFFFFEBFFFFEDFFFFEBFFFFEDFFFFEBFFFFEDFFFFEBFFFFEDFFFFEBFFFFEDFF
310
FFEBFFFFECFFFFEAFFFFEBFFFFE8FFFFEAFFFFE9FFFFECFFFFEAFFFFE9FFFFE7
310
FFFFE6FFFFE6FFFFE6FFFFE6FFFFE4FFFFE5FFFEE7FBEFDDFFFFF5FFFFF9F8FA
310
FAFAFFFF0000FFFFFFFFFFFFFFFFFFFFFFFFFFFFFFFFFFFFFFFFFFFFFFFFFFFF
310
FFF9F9F9FCFCFCFFFFFFFFFFFFF1F1F1F1F1F1FFFFFFFFFFFFFFFFFFFAFAFAC3
310
C3C37373733C3C3C3C3C3C555555C5C5C5F5F5F5FFFFFFFFFFFFFDFDFDFFFFFF
310
D8D8D8ACACACB2B2B2B2B2B2B9B9B9B6B6B6ABABABE5E5E5FFFFFFF9F9F9F9F9
310
F9FFFFFFFDFDFDFBFBFBEBEBEBDADADADADADAC2C2C20B0B0B00000009090900
310
0000010101080808434343DEDEDED2D2D2C5C5C5D5D5D5C5C5C5CACACADFDFDF
310
DADADADCDDE1F0EFF9F4F6FFF6FBFFF4FCFFF5FEFFF6FFFFFAFFFEF9FAF8E8E0
310
E0FFFEFC382B291B0F0D1008081F1D1C000100999691FEECE5E1C9BDE5CCBCD8
310
BEADE2C9B5DEC9B4D5C5B4E9DDD136302902000000000108090D000001040000
310
1B1411E7DBD1D9C5ACE9D4B8D4C6B0CFC7B6CBC9BFF6F8F2FDFFFEFBFFFEFCFF
310
FBFBFFFAFAFEF8F8FEF9F5FDFCF1FDFFEFFDFFF2FEFFF8FEFDF9FEFCFBFEFCF9
310
FEFCFBFEFCF9FEFCFBFEFCF9FEFCFBFEFCF9FEFCFBFEFCF9FEFCFBFEFCF9FEFC
310
FBFEFCFBFEFCFFFFFEFEFFFDFCFDFBFDFEFCFFFFFEFFFFFEFFFFFEFCFDFBFFFF
310
FEFFFFFEFFFFFEFFFFFEFFFFFEFFFFFEFFFFFEFFFFFEFFFFFCFFFFFBFFFFF9FF
310
FFF8FFFFF6FFFFF3FFFFF2FFFFF2FFFFF7FFFFF9F7F6F2FDFFFFEFF5FAF6FEFF
310
0000FFFFFFFFFFFFFFFFFFFFFFFFFFFFFFFFFFFFFFFFFFFFFFFFFFFFFFFFFFFF
310
FEFEFEF6F6F6FDFDFDFFFFFFFFFFFFFFFFFFFCFCFCA7A7A76565655454544141
310
413D3D3D8F8F8FFCFCFCF4F4F4FFFFFFFDFDFDF9F9F9F9F9F9EFEFEFB7B7B7B0
310
B0B0B2B2B2AEAEAEB9B9B9ACACACADADADCFCFCFFFFFFFF3F3F3F6F6F6FFFFFF
310
FFFFFFFFFFFFFEFEFEEFEFEFEAEAEAE1E1E11F1F1F1010100C0C0C0000001313
310
13000000010101D9D9D9E6E6E6CACACAE0E0E0D8D8D8B8B8B8CACACACFCFCFD3
310
D4D8C4C6D1CED4E1DBE3F0E3EDF7E8F5FDF0FFFFF6FFFFFAFFFFD8D7D9FBF6F8
310
716A6D040001000003070C0F0000043D4241FFFFF9C5AFA3E0C9BAD3BCACE4CE
310
BCD7C5B4BFB3A7CAC4BD00000000020700000800000800020D00000854545AD7
310
CCC8E4C5B0F7D2B8DFC1AED7C1B6D5C6C4FFF6F9FFFAFFF9F4FDFFFAFFFFFAFF
310
FFFBFFFFFAFFFEFAFFFDFAFFF9F9FFF9FBFFF6FCFFF4FDFFF6FCFFF4FDFFF6FC
310
FFF4FDFFF6FCFFF4FDFFF8FEFFF6FFFFF8FEFFF6FFFFF8FEFFF6FFFFF8FEFFF8
310
FEFFF8FEFFF6FCFFF4FAFFF5FBFFF8FEFFF8FEFFF7FDFFF4FAFFF8FEFFF8FEFF
310
F8FEFFF8FEFFF8FEFFF8FEFFF8FEFFF6FEFFF3FCFFF0FCFFF1FBFFF1FBFFF5FB
310
FFF9FDFEFDFFFFFFFFFEF2F3F1FBFEFCEAECEDFAFFFFF1F7FCF4FAFF0000FFFF
310
FFFFFFFFFFFFFFFFFFFFFFFFFFFFFFFFFFFFFFFFFFFFF4F4F4FFFFFFFFFFFFF8
310
F8F8FDFDFDFFFFFFE4E4E4ACACAC5151515B5B5B4848483737376D6D6DD4D4D4
310
FFFFFFFFFFFFFFFFFFFEFEFEF6F6F6F3F3F3FFFFFFC2C2C29F9F9FB4B4B4B4B4
310
B4ADADADB6B6B6ACACACB6B6B6C0C0C0FAFAFAFAFAFAFFFFFFFFFFFFFEFEFEFF
310
FFFFFFFFFFFDFDFDFAFAFAF6F6F67E7E7E0000000000000F0F0F040404000000
310
0303036D6D6DEAEAEAC8C8C8CFCFCFE4E4E4D0D0D0D3D3D3CACACAC5C4C6D4D4
310
DACFD1D9C6CCD1BDC6C9BAC6C8C8D2D2E3E9E8F9FCFAE9E5E4EAE5E4D7CFCF07
310
0102090909000001091215000100F5E6DDF5DECEDCC4B2E5CDB9E0C8B4D9C5B3
310
F3E6D6615B5002000002050911141C0000070E10180000049C9799DECDC4F0C9
310
ADFCCFAEEAC4ACE1C4B5E8D4CFFFF7F9FCF4FBEAE2ECF1E9F3F1E9F0F1EAEFF2
310
E9ECF2E9ECF1EAEFF0E9F0EFEBF1EAEBEFE7ECEFE8EBEFE7ECEFE8EBEFE7ECEF
310
E8EBEFE7ECEFE7EAEEE6EBEEE7EAEEE6EBEEE7EAEEE6EBEEE7EAEEE6EBEEE6EB
310
EEE5EAEDE4E9ECE4E9ECE6EBEEE6EBEEE5EAEDE4E9ECE2E7EAE3E8EBE3E8EBE4
310
E9ECE4E9ECE3E8EBE3E8EBDEE6EDD9E8F8D5E7F8D6E6F6D9E7F3DEE7F0E1EAEE
310
E7ECEFE9EDEEE6E8E8F4F5F3F7F8F6FDFFFFFDFFFFF6FBFA0000FFFFFFFFFFFF
310
FFFFFFFFFFFFFFFFFFFFFFFFFFFFFFFFFFFFFFFFFFF5F5F5FAFAFAFFFFFFE3E3
310
E39191915454544545454F4F4F3232324A4A4AA7A7A7F9F9F9FFFFFFFAFAFAF0
310
F0F0F1F1F1FEFEFEFFFFFFF2F2F2D7D7D7AFAFAFBABABAC0C0C0B4B4B4B5B5B5
310
AEAEAEB7B7B7B6B6B6B4B4B4E5E5E5FFFFFFFFFFFFFAFAFAFEFEFEFFFFFFFBFB
310
FBFFFFFFFFFFFFFBFBFBE2E2E20B0B0B00000013131300000003030314141407
310
0707C8C8C8DFDFDFC6C6C6C9C9C9CECECEDEDEDED7D7D7DAD8D7D8D2CDDAD2CB
310
D9D7CDD9D9CDD5D5C9DADACCF3F0E1FFFFF4ECE1D3D0C3B5FFEFE22D1F130D04
310
000703001B1C12070400755F4DFFFFEAEACDB2E8CCAEDCC0A2E6CEB2DAC6AD13
310
0400160D000A0300161009070100110800190B00D4C1B2F2D7BDF2C99CF5C895
310
EBC79FE3C9ABF9E7D6FFF8EFF3F0ECD4D2D2CDCBCBCCCBC7CFCBC6D0CBC2D0CB
310
C2D1CCC3D1CCC3D2CDC4D1CBC4D1CBC4D3CBC4D1CBC4D3CBC4D1CBC4D3CBC4D1
310
CBC4D0C8C1CEC8C1D0C8C1CEC8C1D0C8C1CEC8C1D0C8C1CEC8C1CDCAC2CECBC3
310
CFCCC4CECBC3CDCAC2CCC9C1CDCAC2CFCCC4D0CDC5D1CEC6D2CFC7D3D0C8D3D0
310
C8D2CFC7D1CEC6CBCCCABDC6CFBBC7D3BFC9D3C3CBD2C7CCCFC8CACACAC8C7CB
310
C8C3CCC9C1D2CDC4F2EDE4FFFBF2FFFFF6FFFEF40000FFFFFFFFFFFFFFFFFFFF
310
FFFFFFFFFFFFFFFFFFFFFFFFFFFFFCFCFCFFFFFFDBDBDB838383454545404040
310
4D4D4D4D4D4D3A3A3A878787E1E1E1FFFFFFFFFFFFF7F7F7FBFBFBFFFFFFFFFF
310
FFF8F8F8F8F8F8F9F9F9B0B0B0AEAEAEB3B3B3A9A9A9B0B0B0BABABAA3A3A3BE
310
BEBEACACACA6A6A6CCCCCCFFFFFFFFFFFFF2F2F2FFFFFFFFFFFFF8F8F8FFFFFF
310
FFFFFFF6F6F6FFFFFF5B5B5B0A0A0A0000000A0A0A0000000000000505055353
310
53E4E4E4E4E4E4CACACACACACAD9D9D9D0D0D0DDD9D8E0D8D1DED5CBDDD7CCDB
310
D8CAD0D0C0CDCDBBE9E5D3FFFFF1F8ECDAD9CBB9FFFFF278685B170E01100A00
310
0606000F0C00140400F7DFCBFFEFD9D9C2A8DBC4AAFEE9CE57452E180A00170C
310
00140B000C0300190D0113030076604EFFE5CDDDBD9AFDD5A1F4CC97F1D1A6E6
310
D1B1FFF7E3F9F7ECE6EAE5BEC4C3CBD1D0CBD1CCCED1C8D0D1C7D2D2C6D3D2C4
310
D4D3C5D5D3C8D8D1C8DAD1C8DAD1C8DAD1C8DAD1C8DAD1C8DAD1C8DAD1C8DED5
310
CCDED5CCDED5CCDED5CCDED5CCDED5CCDED5CCDCD5CCD6D1C8D8D3CADBD6CDD9
310
D4CBD6D1C8D5D0C7D7D2C9DAD5CCD0CBC2D1CCC3D3CEC5D3CEC5D3CEC5D3CEC5
310
D1CCC3CDCAC5CBCFD0CBD1D6D1D6D9D7D9D9D8D9D7D7D4CFD2CFC7D0CBC2E1DB
310
D0D8D0C3FFFDF0FFFFF2FFFFF5FFFFF40000F5F5F5FFFFFFFAFAFAFFFFFFFFFF
310
FFF9F9F9FFFFFFFFFFFFCECECE8181814343433B3B3B4747474D4D4D50505052
310
5252CDCDCDF4F4F4FFFFFFFDFDFDFFFFFFFFFFFFF7F7F7FEFEFEF4F4F4FFFFFF
310
F6F6F6C2C2C2AFAFAFB1B1B1B2B2B2B9B9B9B0B0B0ADADADB5B5B5B1B1B1B8B8
310
B8AEAEAEB4B4B4FFFFFFFFFFFFF8F8F8FEFEFEFFFFFFFDFDFDFCFCFCFFFFFFFF
310
FFFFFFFFFFE3E3E30404040909090404040000000B0B0B000000010101949494
310
D9D9D9DADADAD4D4D4E5E5E5D4D4D4C6C4C4D8D4D3DCD9D5D8D7D3D3D5CFDFE4
310
DBCCD2C7EBECE2FEFDF3FDF6EDC4BBB2F2E6E0FDF3EC110D0802020000060100
310
060114100F2E2724FEF6EFDED5CCDED5C8958C7F090300140F060B08000A0601
310
110B04130A00130200DCC4B0DCC1A7E5C4A3F0CDA1EACB9EE2CCA9DFD3BBFFFF
310
F7FBFFFEC0CBCFC8D6DCCAD8DECBD7DBCED8D8D1D8D5D3D9D4D4DBD4D5DCD5D8
310
DCD7D6D4D3D8D6D6D6D4D4D2D0D0D3D1D1D8D6D6DBD9D9D9D7D7D9D7D7D9D7D7
310
D9D7D7D9D7D7D9D7D7D9D7D7D9D7D7D9D7D7D1D1D1D2D4D4D6D8D8D6D8D8D3D5
310
D5CFD1D1CBCDCDC9CBCBD1D3D3D3D5D5D3D5D5D2D4D4D3D5D5D5D7D7D6D8D8D7
310
D8D6D5D4D0D6D5D1DAD7D2D9D6D1D9D6CEDAD5CCDED8CDDFD9CED6CEC1D6CEC1
310
FFFAEDFFFFF4FFFFF8FFFEF50000FFFFFFFAFAFAF7F7F7FFFFFFF8F8F8F9F9F9
310
CBCBCB4C4C4C3F3F3F4343434B4B4B5757574F4F4F4545458A8A8AFBFBFBEAEA
310
EAFFFFFFFFFFFFF9F9F9FFFFFFFFFFFFFBFBFBFFFFFFFFFFFFFBFBFBDCDCDCB7
310
B7B7ADADADB1B1B1B2B2B2B2B2B2B3B3B3AFAFAFB2B2B2AEAEAEB8B8B8B1B1B1
310
B0B0B0EBEBEBFFFFFFFBFBFBFFFFFFFFFFFFFDFDFDFDFDFDFFFFFFFFFFFFFEFE
310
FEFBFBFB7474740000000D0D0D000000191919080808000000181818B0B0B0D9
310
D9D9CFCFCFBDBDBDDADADACFCFCFD4D3D5DEDDDFD7DBDCC9CFCEC9D2CFB8BFBA
310
E2E8E3FFFFFBDBD7D2D3CDC8CDC4C1F0E9E6656362030604000201030D0D0000
310
06000007787B80FEFDFFA5A3A20F0E0A1617130001000002000001000E0B070B
310
02006B5B4BFFEED8DDBFA4FAD9B8EBCAA3EBCDAAE1CCB1F7EADAFFFFFCE1E6E9
310
C0C9D2C5D1DDCAD4DEC9D2DBCBD1D6CCD1D2CDD2D1CFD4D3D1D6D5D3D7D8CFD2
310
D6D2D5D9D3D3D9CDD0D4CFCFD5D1D4D8D5D5DBD1D4D8D0D0D6CED1D5D0D0D6CE
310
D1D5D0D0D6CED1D5D0D0D6CED1D5CBCFD4CCD3D6D1D5DAD1D8DBD2D6DBD0D7DA
310
D3D7DCD1D8DBD0D4D9CFD6D9D1D5DACED5D8D0D4D9CFD6D9D0D4D9D1D5D6D1D0
310
CCD6D3CBD9D6CED9D6CEDAD7CFDAD7CFDDDAD2DFDCD4D0CDC5D0CDC5FBF8F3FE
310
FDF9FFFFFEFCFDFB0000F2F2F2FFFFFFFFFFFFF5F5F5A7A7A74F4F4F44444457
310
57575454545151514C4C4C3E3E3E636363D2D2D2FFFFFFFDFDFDFFFFFFFFFFFF
310
FEFEFEF9F9F9FFFFFFFFFFFFFDFDFDFFFFFFFFFFFFE1E1E1BEBEBEB0B0B0AEAE
310
AEB3B3B3B5B5B5ADADADB3B3B3B2B2B2B1B1B1ACACACB7B7B7B3B3B3ACACACCD
310
CDCDFFFFFFFFFFFFFFFFFFFFFFFFFDFDFDFFFFFFFFFFFFFFFFFFFDFDFDFCFCFC
310
FFFFFF1B1B1B0C0C0C0D0D0D000000080808040404000000030303ADADADEBEB
310
EBCFCFCFBABABADFDEE0C7C6CACCCCD2CACED3C9D0D3DDE5E4CFD8D5EEF3F1FF
310
FFFCF6F1EEC9C2BFCDC4C1EFE8E5F3EFEE131614090F0E000205010A1700010F
310
0000087A8087FAFFFF2E32330000010C111200000101030313100C30271ED9C7
310
B6D2B8A0F2D0B2E2BD9BEDC7A7ECC9AFE5C9B8FFFEF6FFFDFFD5CED5CBC9D5C8
310
C8D6D7D5E1D7D4DDD7D3D8D7D2D4D8D1D4D8D3D5DAD4D9D8D7DBCFD2D7D1D5DA
310
D1D3DBCDD1D6CED0D8D0D4D9D0D2DACCD0D5CED0D8CDD1D6CED0D8CDD1D6CED0
310
D8CDD1D6CED0D8CDD1D6D1D7DED0D9DDD2D8DFCED7DBCED4DBCBD4D8CFD5DCCE
310
D7DBD1D7DECED7DBCFD5DCCDD6DACED4DBCBD4D8CCD2D9CED3D6D0D1CFD4D3CF
310
D4D5D3D5D6D4D5D6D4D3D5D5D5D7D7D5D9DAC7CCCFC6CBCEF0F6FBF2FAFFF4FD
310
FFF0FAFF0000FFFFFFE6E6E69393934D4D4D4242424848484747474545455252
310
524343434D4D4DA4A4A4FFFFFFFFFFFFECECECFFFFFFFFFFFFFFFFFFFCFCFCFE
310
FEFEFFFFFFFFFFFFFDFDFDFEFEFEFAFAFAC7C7C7AFAFAFB5B5B5B2B2B2B3B3B3
310
B6B6B6AFAFAFAFAFAFB5B5B5B2B2B2AFAFAFB6B6B6B4B4B4ACACACB8B8B8F7F7
310
F7FFFFFFFFFFFFFCFCFCFEFEFEFFFFFFFEFEFEFEFEFEFFFFFFFFFFFFF0F0F0E2
310
E2E20606060000001010100000000707070000000303030A0A0A959595EDEDED
310
D6D6D6DCDBDDD2CED3DDDCE0D9DADEC7CBCCC6CDCAB7BDB8E5E7E1FFFFFBEAE2
310
DBCDC1BBCABEB8BEB2ACFFFFF9D4D0CB00020000020100000701091600000700
310
00047F8384FBFFFF686D6C0001000C10110404040D0904B4AAA0E2CEBCE0C5AA
310
FEDBB9ECC7A5EDCBAEE2C6AEF1D8C8FFFFF7FFF9F9D7D1D6D2CFD8CCC9D2DAD6
310
DBDCD7D9DDD8D7DCD7D4DCD7D6DBD6D7D9D6D8D6D5D9D0D1D5D4D5D9D4D5D9D1
310
D2D6D0D1D5D2D3D7D1D2D6CDCED2D5D6DAD5D6DAD5D6DAD5D6DAD5D6DAD5D6DA
310
D5D6DAD3D6DAD3D6DAD3D8DBD3D8DBD0D5D8CDD2D5CBD0D3CCD1D4CDD2D5D2D7
310
DAD0D5D8CFD4D7D1D6D9D0D5D8CED3D6CED3D6D0D4D5D2D4D4D3D5D5D4D6D6D1
310
D5D6D0D4D5CED3D6CDD3D8CCD4DBC1CAD3C0C9D2EAF4FEECF8FFEFFCFFECF9FF
310
00009696964545453131314545454B4B4B5D5D5D6363634C4C4C3F3F3F797979
310
DCDCDCFFFFFFFCFCFCFFFFFFFFFFFFF2F2F2FEFEFEFBFBFBFDFDFDFFFFFFFFFF
310
FFFFFFFFFFFFFFFBFBFBD9D9D9B4B4B4AEAEAEBDBDBDB5B5B5AFAFAFB4B4B4B3
310
B3B3ABABABB6B6B6B5B5B5B3B3B3B4B4B4B1B1B1B1B1B1B1B1B1E7E7E7FEFEFE
310
FFFFFFFAFAFAFFFFFFFFFFFFFDFDFDFFFFFFFFFFFFFAFAFAFFFFFFFFFFFFACAC
310
AC0000000404041111110404040303030C0C0C0505050000005B5B5BEFEFEFC9
310
C7C7D7D1D2E2DDDCDFDCD8D4D4CEE1E2D9D7D6CCFCF6EBFFFFF5F6E6D9E6D3C4
310
E2CDBEE3D0C1E3D3C3F8EBDD7F786917150B0402010000000806051D1A150705
310
0027251DFFFFF9E2E2DC23221E0401008D867DDED1C3E9D2BCD9BB9EE9C3A0EC
310
CAA6DFCBACD9CEB3FFFCE8FFFFF3DFE2D9CFD5D0CAD1CECED5D0CDD5CBD1D7CC
310
D6DBCCD8DDCED6DDD0D0D9CFCBD5CFCBD2CDD3D4D0DAD7D2DAD7D2D7D4CFD7D4
310
CFD9D6D1D7D4CFD4D1CCDBD8D3DBD8D3DBD8D3DBD8D3DBD8D3DBD8D3DBD8D3DB
310
D8D3D0CDC8D3D0CBD7D4CFD9D6D1D9D6D1D8D5D0D9D6D1DAD7D2D9D6D1D5D2CD
310
D6D3CEDAD7D2DBD8D3D7D4CFD7D4CFDAD9D5D2D4D4D2D6D7D3D7D8D1D6D9CFD4
310
D7CBD1D6CCD2D7CCD4DBC2CBD4C1CAD3EAF4FEEEF8FFF1FDFFEDF9FF00006464
310
644C4C4C5959595D5D5D4E4E4E474747414141434343BEBEBEF8F8F8FFFFFFFD
310
FDFDFFFFFFFFFFFFF9F9F9FFFFFFFFFFFFFBFBFBFEFEFEFDFDFDFBFBFBFFFFFF
310
FFFFFFEEEEEEB9B9B9AEAEAEB2B2B2BBBBBBB4B4B4ACACACAFAFAFB3B3B3ACAC
310
ACB6B6B6B3B3B3B7B7B7B3B3B3AEAEAEB7B7B7B1B1B1D0D0D0F7F7F7FFFFFFF9
310
F9F9FFFFFFFFFFFFFBFBFBFFFFFFF2F2F2FFFFFFFFFFFFF5F5F5FFFFFFB2B2B2
310
0000000000000000000E0E0E0000000303030000000E0E0E111111A2A0A0DBD5
310
D6E7DFDFDEDAD9CDCDC7D9D7CFCFCDC3F5EFE4FFFEF0F0E0D0D7C3B2DBC4B4CE
310
B7A7E9D5C4F3E3D2FFFFF2776F62100D050B08030502000702000B0700110F04
310
04020095958FFFFFFCE4E3DFE1DDD8D7CDC3D1BDABF2D7BDE8C5A4EBCEAFD4C7
310
ADDED9C4FFFFF2F5F7EBC5CAC1C4CCC5C2CAC3D0D8CECDD4C7D2D8C7D8DBCBD9
310
DFCED5DED1D0DBD1C9D7D1C9D4D1D4D6D0DBD9D1DCD8D3D7D5CDD8D4CFDAD8D0
310
DBD7D2D7D5CDD7D3CED6D4CCD7D3CED6D4CCD7D3CED6D4CCD7D3CED6D4CCD4D0
310
CBD6D4CCDBD7D2DBD9D1DBD7D2D9D7CFDAD6D1D9D7CFDAD6D1D3D1C9D5D1CCDA
310
D8D0DCD8D3D6D4CCD8D4CFDDDAD5D1D2D0D1D3D3D3D5D5D1D5D6D0D4D5D0D4D5
310
D1D6D9D3D8DBC8CDD0C7CCCFF1F6F9F4F9FCFAFFFFF6FBFE00006565654C4C4C
310
4C4C4C515151515151484848808080FFFFFFFBFBFBF8F8F8FFFFFFFFFFFFF5F5
310
F5FCFCFCFFFFFFF9F9F9FFFFFFFCFCFCFFFFFFFDFDFDF9F9F9FFFFFFF4F4F4CB
310
CBCBACACACB5B5B5B4B4B4B1B1B1B3B3B3B1B1B1AFAFAFB3B3B3B2B2B2B5B5B5
310
ACACACB6B6B6B2B2B2ABABABBABABAB0B0B0B9B9B9EFEFEFFFFFFFF9F9F9FFFF
310
FFFFFFFFFAFAFAFFFFFFFCFCFCFFFFFFFCFCFCFFFFFFFFFFFFF7F7F7ACACAC06
310
06060A0A0A0000000808080606060B0B0B0000001414140000012A262C76747A
310
C1C1C7DDE1E2EBEDEDD4D5D1F6F3EEFFFFF9FFFFF7DAC8BDF2DED3E9D5CACFBD
310
B27E7064423A2DFFFFF7928F870401001411090D0B010403000F1007070B060B
310
11100B1215858B90E6E9EDF9F7F6FFFFF9DFCEC1EFD6C2D4BCA8E5D8CAF4EDE4
310
FFFFFBF7F4F0DBD9D9D7D7D7DBD9D8D9D6D1D7D2C9DBD5CADAD6CBDAD8CED8D8
310
D2D3D8D7D0D7DACFD5DAD1D5D6D5D8D6D6D6D6D1D4D2D3D3D3D5D8D6D9D9D9D5
310
D8D6D2D2D2D0D3D1D2D2D2D0D3D1D2D2D2D0D3D1D2D2D2D0D3D1D7D7D7D6D9D7
310
D9D9D9D5D8D6D4D4D4D0D3D1D3D3D3D2D5D3D7D7D7CED1CFD0D0D0D5D8D6D7D7
310
D7CFD2D0D1D1D1D8D9D7D4D3CFD7D4CFD9D6D1D7D6D2D6D5D1D6D5D1DAD7D2DB
310
D8D3D2CFCAD1CEC6FBF8F0FFFBF2FFFFF8FFFDF400006B6B6B4D4D4D50505042
310
4242646464CDCDCDFFFFFFFFFFFFFFFFFFFEFEFEF9F9F9FFFFFFFFFFFFFFFFFF
310
F9F9F9FFFFFFFBFBFBFAFAFAFFFFFFFFFFFFFDFDFDFFFFFFE5E5E5A7A7A7AEAE
310
AEBFBFBFB6B6B6A8A8A8B4B4B4B9B9B9B2B2B2B3B3B3B9B9B9B4B4B4A6A6A6B5
310
B5B5B2B2B2AAAAAABCBCBCAEAEAEABABABEAEAEAFFFFFFF9F9F9FFFFFFFFFFFF
310
F9F9F9FFFFFFFEFEFEFDFDFDFEFEFEF4F4F4FFFFFFFFFFFFF1F1F1BFBFBF0202
310
020808080404040303030000000D0D0D0000000403050000040200060000050B
310
0E12414546555A597D7E7C84817D766F6C5F54505347411C100A1208010E0600
310
0D0A02232119FEFBF6CBC8C3050200040200171711000200080D0C0000030004
310
0B000710090F162A2D327B7677D0C7C4EFDFD8FFFCF5FFF9F5FFFFFCFAF5F4FF
310
FDFEFFFEFFFBF8FAFFFAFBE1DCD9D6CDC9D6CEC7D5CDC6D3CDC8D2CECDD0CFD1
310
CED2D7D0D3DBD2D5D9D4D8D9D4D6D7CED2D3D1D3D4D4D8D9D9DBDCD5D9DAD5D7
310
D8D3D7D8D5D7D8D3D7D8D5D7D8D3D7D8D5D7D8D3D7D8D0D2D3CFD3D4D0D2D3CE
310
D2D3CFD1D2D0D4D5D7D9DAD8DCDDD7D9DACDD1D2CFD1D2D4D8D9D5D7D8CBCFD0
310
CCCECFD3D5D5D8D7D3DBD8D3DBD8D3DAD7D2D7D4CFD6D3CED7D4CCD8D5CDD5CF
310
C8D3CEC5FFF9EEFFFCF1FFFFF5FFFEF100006868683A3A3A474747A7A7A7F7F7
310
F7FFFFFFF9F9F9FFFFFFFFFFFFFFFFFFFFFFFFFFFFFFFFFFFFFFFFFFFFFFFFFF
310
FFFFFFFFFFFFFFFFF6F6F6FFFFFFFFFFFFEDEDEDB8B8B8B1B1B1B7B7B7B6B6B6
310
B4B4B4B2B2B2B1B1B1B0B0B0B0B0B0B0B0B0B2B2B2B2B2B2B2B2B2B2B2B2B2B2
310
B2B2B2B2B2B2B2B2B2B2B3B3B3BABABAFFFFFFF9F9F9FFFFFFFFFFFFF4F4F4FF
310
FFFFFFFFFFFFFFFFFFFFFFFFFFFFFFFFFFFFFFFFFFFFFFFFFFFFD5D5D5313131
310
0000000808080606060000000A0A0A040404110D0C0B07060402010101010305
310
0504090803070801050600000100010201030403050606080804090800040200
310
0100000100DDDEDCF3F4F24D4E4C09090904060600000102070A00020A01040C
310
00020C00000700000506040A07060A060305020000100E0D100E0E0A08080C0C
310
0C060606F8F6F6E0DEDDDAD6D5DAD6D5DBD7D6D9D7D6D8D6D6D5D5D5D1D3D4D0
310
D2D3CED0D1D0D2D2D3D3D3CFD1D1CFCFCFCED0D0D4D4D4D6D8D8D4D4D4D4D6D6
310
D8D8D8D7D9D9D8D8D8D4D6D6D3D3D3CFD1D1D9D9D9D5D7D7D4D4D4D0D2D2D2D2
310
D2D2D4D4D7D7D7D7D9D9D2D2D2D2D4D4D7D7D7D7D9D9D9D9D9D5D7D7D4D4D4D2
310
D2D2D3D4D2D5D3D2D5D3D2D6D4D3D7D5D4D8D6D5D8D6D5D8D6D5D1CFCECFCECA
310
FCF9F5FFFDF9FFFFFCFFFCF80000575757878787CBCBCBFCFCFCFFFFFFFEFEFE
310
F8F8F8FAFAFAFFFFFFFFFFFFFFFFFFFFFFFFFFFFFFFFFFFFFFFFFFFFFFFFFFFF
310
FFF5F5F5FFFFFFF7F7F7FFFFFFC5C5C5B8B8B8B0B0B0B3B3B3B3B3B3B2B2B2B2
310
B2B2B2B2B2B2B2B2B3B3B3B3B3B3B2B2B2B2B2B2B2B2B2B2B2B2B2B2B2B2B2B2
310
B2B2B2B2B2B2B1B1B1B8B8B8F5F5F5FEFEFEFFFFFFFFFFFFF7F7F7FFFFFFFFFF
310
FFFFFFFFFFFFFFFFFFFFFFFFFFFFFFFFFFFFFFFFFFFFF4F4F4FFFFFF8B8B8B00
310
00000202021313130000000806050401000401000C09050D0C08060606000100
310
000001000003070E11060D1004090C000304000001000403060B0A0D100E1411
310
0D0501007A7671FEFBF7B8B5B12F2D2C0705050D0C0E00000300000400000601
310
030B03050D02040C00020C00020A0406070D0D0D0505050101010C0C0C040404
310
F7F7F7D3D3D3D5D5D5D6D6D6D8D8D8D9D9D9DADADAD8D8D8D7D7D7D5D5D5D5D5
310
D5D7D7D7D9D9D9D9D9D9D8D8D8D7D7D7D8D8D8D9D9D9D5D5D5D5D5D5D6D6D6D7
310
D7D7D8D8D8D8D8D8D9D9D9D9D9D9D7D7D7D6D6D6D5D5D5D3D3D3D3D3D3D5D5D5
310
D6D6D6D7D7D7D1D1D1D3D3D3D5D5D5D7D7D7D7D7D7D5D5D5D3D3D3D1D1D1D4D4
310
D4D4D4D4D4D4D4D4D4D4D4D4D4D4D4D4D3D3D3D3D3D3CACACAC8C8C8F3F3F3F7
310
F7F7FFFFFFFCFCFC0000BEBEBEEBEBEBFFFFFFFFFFFFF6F6F6F7F7F7FFFFFFFF
310
FFFFFFFFFFFFFFFFFFFFFFFFFFFFFFFFFFFFFFFFFFFFFFFFFFFFFEFEFEFDFDFD
310
FFFFFFFFFFFFDADADAB8B8B8AEAEAEB9B9B9B0B0B0B0B0B0B0B0B0B1B1B1B2B2
310
B2B3B3B3B5B5B5B6B6B6B2B2B2B2B2B2B2B2B2B2B2B2B2B2B2B2B2B2B2B2B2B2
310
B2B2B0B0B0B4B4B4DBDBDBFFFFFFFEFEFEFEFEFEFEFEFEFCFCFCFFFFFFFFFFFF
310
FFFFFFFFFFFFFFFFFFFFFFFFFFFFFFFFFFFFFFFFFFDADADAF9F9F9E0E0E04848
310
48000000101010060705090804090804090804070602030303020404050A090A
310
0E0F0000010000000808080A08070403000401000502000A050012060026190B
310
7F7264D0C4B8F6EAE0FFFFF8CAC0B9362D29120B080C07060B06070B080A0403
310
07000003000003090A0E050406050505000000000000080808030303FFFFFFDF
310
DFDFCCCCCCCFCFCFD2D2D2D4D4D4D5D5D5D4D4D4D2D2D2D1D1D1D2D2D2D2D2D2
310
D3D3D3D5D5D5D6D6D6D5D5D5D2D2D2CFCFCFD2D2D2D1D1D1D0D0D0D0D0D0D0D0
310
D0D2D2D2D4D4D4D5D5D5D4D4D4D3D3D3D3D3D3D3D3D3D3D3D3D3D3D3D3D3D3D4
310
D4D4CFCFCFD0D0D0D2D2D2D4D4D4D4D4D4D2D2D2D0D0D0CFCFCFD9D9D9D9D9D9
310
D8D8D8D8D8D8D7D7D7D6D6D6D5D5D5D5D5D5D5D5D5D1D1D1F8F8F8FAFAFAFFFF
310
FFFCFCFC0000FFFFFFFFFFFFFFFFFFFFFFFFFFFFFFFEFEFEFBFBFBF9F9F9FFFF
310
FFFFFFFFFFFFFFFFFFFFFFFFFFFFFFFFFFFFFFFFFFFFFFFFFFFFFFFFFDFDFDFA
310
FAFAB7B7B7B2B2B2AFAFAFBBBBBBB0B0B0B0B0B0B0B0B0B0B0B0B1B1B1B3B3B3
310
B4B4B4B5B5B5B2B2B2B2B2B2B2B2B2B2B2B2B2B2B2B2B2B2B2B2B2B2B2B2B0B0
310
B0B4B4B4C2C2C2FFFFFFFDFDFDFDFDFDFFFFFFF8F8F8FFFFFFFFFFFFFFFFFFFF
310
FFFFFFFFFFFFFFFFFFFFFFFFFFFFFEFEFEFFFFFFFFFFFFFFFFFFFFFFFFCECECE
310
6060600202020809070001000201000001000506040608080000000001000F0D
310
0C0C09050903000901000B0200120900281D0F3E2E1DBCA58FD7BFA7E1C9B3E3
310
CBB7E5CFBDE0CCBBF6E6D6FFFFF5F2E6DC9C928B3E35310F0805050000050001
310
030101040202030303060606070707020202090909000000EDEDEDD0D0D0CECE
310
CED1D1D1D4D4D4D7D7D7D7D7D7D6D6D6D3D3D3D1D1D1D4D4D4D2D2D2D1D1D1D2
310
D2D2D5D5D5D4D4D4D1D1D1CDCDCDD6D6D6D5D5D5D4D4D4D3D3D3D2D2D2D2D2D2
310
D2D2D2D2D2D2D4D4D4D5D5D5D6D6D6D7D7D7D7D7D7D6D6D6D5D5D5D4D4D4D2D2
310
D2D3D3D3D5D5D5D6D6D6D6D6D6D5D5D5D3D3D3D2D2D2CCCCCCCCCCCCCCCCCCCB
310
CBCBCBCBCBCACACACACACACACACAD7D7D7D2D2D2F9F9F9FCFCFCFFFFFFFDFDFD
310
0000FEFEFEF6F6F6F8F8F8FFFFFFFFFFFFFCFCFCFBFBFBFFFFFFFFFFFFFFFFFF
310
FFFFFFFFFFFFFFFFFFFFFFFFFFFFFFFFFFFFFFFFFFF6F6F6FBFBFBC7C7C7B1B1
310
B1A2A2A2BEBEBEAFAFAFB2B2B2B1B1B1B1B1B1B0B0B0B1B1B1B1B1B1B2B2B2B3
310
B3B3B2B2B2B2B2B2B2B2B2B2B2B2B2B2B2B2B2B2B2B2B2B2B2B2B1B1B1B5B5B5
310
B3B3B3F7F7F7FDFDFDFEFEFEFFFFFFF8F8F8FFFFFFFFFFFFFFFFFFFFFFFFFFFF
310
FFFFFFFFFFFFFFFFFFFFFFFFFFF6F6F6EFEFEFFAFAFAFFFFFFFFFFFFFBFBFBFF
310
FFFFA6A7A5797C7A40413F1314120001000001000705040C07040701000B0200
310
1E120847372A786655A99381D4BCA8F4D9BFEECCAEF1CCAAF3D0AFF2D0B2E7C9
310
AEE1C3AADABFAAD0BBA6EEDBCCF9E9DCFFFEF4FFFEF5D9D0CC968F8C6964615C
310
58573937372D2D2D2828282121212E2E2E2F2F2FECECECD7D7D7CBCBCBCCCCCC
310
CFCFCFD0D0D0D0D0D0CDCDCDCACACAC8C8C8CFCFCFCBCBCBC8C8C8C7C7C7CACA
310
CACBCBCBCACACAC7C7C7CCCCCCCDCDCDCFCFCFCFCFCFCFCFCFCDCDCDCACACAC9
310
C9C9C8C8C8C9C9C9CBCBCBCCCCCCCCCCCCCBCBCBC9C9C9C8C8C8C9C9C9C9C9C9
310
CBCBCBCBCBCBCBCBCBCBCBCBC9C9C9C9C9C9D0D0D0D0D0D0D0D0D0D1D1D1D1D1
310
D1D2D2D2D2D2D2D2D2D2CBCBCBC7C7C7F0F0F0F6F6F6FFFFFFFFFFFF0000F9F9
310
F9FFFFFFFFFFFFFAFAFAF5F5F5FBFBFBFFFFFFFFFFFFFFFFFFFFFFFFFFFFFFFF
310
FFFFFFFFFFFFFFFFFFFFFFFFFFFFFFFFFFF4F4F4DDDDDDB6B6B6A9A9A9B1B1B1
310
BCBCBCAFAFAFB3B3B3B3B3B3B1B1B1B0B0B0B0B0B0B0B0B0B0B0B0B0B0B0B2B2
310
B2B2B2B2B2B2B2B2B2B2B2B2B2B2B2B2B2B2B2B2B2B2B2B2B2B6B6B6AEAEAEE0
310
E0E0FDFDFDFFFFFFFFFFFFFBFBFBFFFFFFFFFFFFFFFFFFFFFFFFFFFFFFFFFFFF
310
FFFFFFFFFFFFF8F8F8FBFBFBFFFFFFFFFFFFFCFCFCFDFDFDFFFFFFF5F5F5FDFF
310
FFFDFFFEFAFDFBF0F3F1E6E7E5DEDCDBDCD7D4DED5D1D4C9C1D1C1B5D5C2B3E9
310
D1BFF5DAC5F4D6BDEFCEB4EECBAAFBCFAAF9CCA6F8CCA7EFC5A2E7C0A0F3CFB1
310
F5D7BCE2C8B0E5CDBBD6C3B4D7CABCECE2D8FFFAF3FFFFFBFFFCF9FBF7F6F5F3
310
F3F3F3F3FFFFFFFFFFFFFFFFFFE0E0E0FFFFFFD1D1D1DADADADADADADBDBDBDB
310
DBDBDADADAD8D8D8D7D7D7D5D5D5DCDCDCD9D9D9D6D6D6D5D5D5D6D6D6D8D8D8
310
D9D9D9D9D9D9D4D4D4D6D6D6D9D9D9DCDCDCDDDDDDDBDBDBD9D9D9D8D8D8D6D6
310
D6D7D7D7D8D8D8D9D9D9D9D9D9D8D8D8D7D7D7D6D6D6D7D7D7D7D7D7D8D8D8D8
310
D8D8D8D8D8D8D8D8D7D7D7D7D7D7D2D2D2D2D2D2D3D3D3D3D3D3D4D4D4D5D5D5
310
D6D6D6D6D6D6DCDCDCD4D4D4F7F7F7F8F8F8FFFFFFFFFFFF0000FAFAFAFFFFFF
310
FFFFFFFFFFFFFFFFFFFFFFFFFFFFFFF0F0F0FFFFFFFFFFFFFFFFFFFFFFFFFFFF
310
FFFFFFFFFFFFFFFFFFFFFFFFFFEEEEEEB7B7B7B9B9B9A9A9A9C2C2C2AEAEAEB5
310
B5B5B3B3B3B2B2B2B1B1B1B0B0B0B0B0B0B0B0B0B0B0B0B0B0B0B2B2B2B2B2B2
310
B2B2B2B2B2B2B2B2B2B2B2B2B2B2B2B2B2B2B0B0B0B7B7B7AFAFAFC5C5C5FBFB
310
FBFFFFFFFDFDFDFFFFFFFFFFFFFFFFFFFFFFFFFFFFFFFFFFFFFFFFFFFFFFFFFF
310
FFFFFFFFFFF5F5F5F9F9F9FDFDFDEDEDEDF5F5F5FFFFFFFDFFFFEBF0EFF3F8F7
310
FBFFFFFDFFFFFFFFFEFFFFFBFFFFFBFFFFF8F5E7DBE4D1C2D9C0ACDEBFA8E5C4
310
AAE9C3A5ECC3A2F4C8A3F4C39BFFD0A6FAC9A1F4C7A1FBD1AEECC5A5DFBDA0EE
310
D0B7D3BBA7DCCAB9ECDED2FBF2E8FFFCF5FFFFFAFFFFFCFFFFFEFFFFFFFFFFFF
310
FBFBFBF7F7F7FDFDFDFFFFFFFFFFFFFFFFFFFDFDFDFDFDFDFDFDFDFCFCFCFCFC
310
FCFCFCFCFCFCFCFDFDFDFBFBFBFCFCFCFDFDFDFDFDFDFCFCFCFCFCFCFDFDFDFF
310
FFFFF9F9F9FAFAFAFCFCFCFEFEFEFEFEFEFEFEFEFEFEFEFDFDFDFEFEFEFEFEFE
310
FFFFFFFFFFFFFFFFFFFFFFFFFEFEFEFEFEFEFDFDFDFEFEFEFEFEFEFEFEFEFEFE
310
FEFEFEFEFEFEFEFDFDFDFFFFFFFFFFFFFFFFFFFFFFFFFFFFFFFFFFFFFFFFFFFF
310
FFFFFDFDFDEEEEEEFFFFFFFEFEFEFFFFFFFCFCFC0000FFFFFFFFFFFFFAFAFAFA
310
FAFAFDFDFDFFFFFFFFFFFFFFFFFFFFFFFFFFFFFFFFFFFFFFFFFFFFFFFFFFFFFF
310
FFFFFFFFFFFFFBFBFBD3D3D3B0B0B0A1A1A1C3C3C3B0B0B0ABABABB1B1B1B1B1
310
B1B1B1B1B0B0B0B0B0B0B0B0B0B0B0B0B1B1B1B2B2B2B2B2B2B2B2B2B2B2B2B2
310
B2B2B2B2B2B2B2B2B2B2B2B2B2B2AFAFAFB6B6B6B2B2B2B3B3B3F9F9F9FEFEFE
310
F8F8F8FFFFFFFFFFFFFFFFFFFFFFFFFFFFFFFFFFFFFFFFFFFFFFFFFFFFFFF9F9
310
F9FDFDFDFFFFFFFFFFFFFFFFFFFEFEFEFDFDFDFDFFFFFBFFFFFAFFFFF7FCFBFA
310
FCFCFFFFFEFFFFFCFFFDF9FFFBF1EFDED1E2CCBADEC1ACE6C5ABF0CAACF0C7A6
310
F3C6A1F9CAA4F8C59DFFCDA5FFCEA8F5C8A3F0C5A4F0CAACEAC9AFE0C4ACE4CE
310
BCF4E4D4FFF9EFFFFEF7FFFCF7FCFAF9FBFBFBFAFCFCF6F6F6FCFCFCFFFFFFFF
310
FFFFF8F8F8FFFFFFEDEDEDFEFEFEFFFFFFFFFFFFFEFEFEFEFEFEFFFFFFFFFFFF
310
FFFFFFFFFFFFF9F9F9FDFDFDFFFFFFFFFFFFFFFFFFFEFEFEFFFFFFFFFFFFFFFF
310
FFFFFFFFFFFFFFFFFFFFFEFEFEFEFEFEFFFFFFFFFFFFFFFFFFFFFFFFFFFFFFFF
310
FFFFFFFFFFFFFFFFFFFFFFFFFFFFFEFEFEFEFEFEFEFEFEFEFEFEFEFEFEFEFEFE
310
FEFEFEFEFEFEFFFFFFFEFEFEFEFEFEFDFDFDFCFCFCFCFCFCFBFBFBFBFBFBFFFF
310
FFF5F5F5FFFFFFFBFBFBFFFFFFFBFBFB0000FFFFFFFFFFFFFFFFFFFFFFFFFFFF
310
FFFFFFFFFFFFFFFFFFFFFFFFFFFFFFFFFFFFFFFFFFFFFFFFFFFFFFFFFFFFFFFF
310
FFFFDDDDDDC6C6C6B7B7B7BCBCBCC4C4C4C2C2C2BDBDBDBDBDBDC0C0C0C0C0C0
310
C0C0C0C0C0C0C0C0C0C0C0C0C0C0C0C0C0C0C0C0C0C0C0C0C0C0C0C0C0C0C0C0
310
C0C0C0C0C0C0C0C0C0C0C1C1C1BFBFBFBBBBBBC0C0C0DADADAF8F8F8FFFFFFFB
310
FBFBFFFFFFFFFFFFFFFFFFFFFFFFFFFFFFFFFFFFFFFFFFFFFFFFFFFFFFFFFFFF
310
FFFFFFFFFFFFFFFFFFFFFFFFFFFFFFFDFFFFFAFFFFFAFFFFFBFFFFFDFFFFFFFF
310
FEFFFFFCFFFFF9FFFFF7F2E1D4DDC7B5E4C8B0E6C6A9EDC6A6FBD1AEFBCCA6FC
310
CDA7F3C6A1F7CAA8FACFAEF5CEAEEFCAAEE8C9B0E5CAB5E4CEBCFFFAEDFFFBF1
310
FFFDF6FFFFFBFFFFFFFBFFFFF9FEFFF8FDFEFDFFFFFFFFFFFFFFFFFFFFFFFFFF
310
FFFFFFFFFFFFFFFFFFFFFFFFFFFFFFFFFFFFFFFFFFFFFFFFFFFFFFFFFFFFFFFF
310
FFFFFFFFFFFFFFFFFFFFFFFFFFFFFFFFFFFFFFFFFFFFFFFFFFFFFFFFFFFFFFFF
310
FFFFFFFFFFFFFFFFFFFFFFFFFFFFFFFFFFFFFFFFFFFFFFFFFFFFFFFFFFFFFFFF
310
FFFFFFFFFFFFFFFFFFFFFFFFFFFFFFFFFFFFFFFFFFFFFFFFFFFFFFFFFFFFFFFF
310
FFFFFFFFFFFFFFFFFFFFFFFFFFFFFFFFFFFFFFFFFFFFFFFFFFFFFFFFFFFFFFFF
310
FFFFFFFFFFFFFFFFFFFFFFFF0000FFFFFFFFFFFFFFFFFFFFFFFFFFFFFFFFFFFF
310
FFFFFFFFFFFFFFFFFFFFFFFFFFFFFFFFFFFFFFFFFFFFFFFFFFFFFFFFFFFFFFFF
310
FFF9F9F9F4F4F4FBFBFBFFFFFFFBFBFBFAFAFAFEFEFEFBFBFBFBFBFBFBFBFBFB
310
FBFBFBFBFBFBFBFBFBFBFBFBFBFBFBFBFBFBFBFBFBFBFBFBFBFBFBFBFBFBFBFB
310
FBFBFBFBFBFBFDFDFDFEFEFEF8F8F8F2F2F2F8F8F8FFFFFFFFFFFFFEFEFEFFFF
310
FFFFFFFFFFFFFFFFFFFFFFFFFFFFFFFFFFFFFFFFFFFFFFFFFFFFFFFFFFFFFFFF
310
FFFFFFFFFFFFFFFFFFFFFFFDFFFFFAFFFFFAFFFFFBFFFFFDFFFFFFFFFEFFFFFC
310
FFFFF9FFFFF7FCECDFE3CDBBE6CCB4E7C9AEEAC4A4F0C8A5EDC19CF1C5A0F7D0
310
B0EFCAAEE5C2A8DDBBA3DCBFAAEAD1BDFEEAD9FFFCEFFFFAF0FFFBF4FFFDF9FE
310
FEFEFBFEFFFAFEFFF5FEFFF6FCFFFDFFFFFFFFFFFFFFFFFFFFFFFFFFFFFFFFFF
310
FFFFFFFFFFFFFFFFFFFFFFFFFFFFFFFFFFFFFFFFFFFFFFFFFFFFFFFFFFFFFFFF
310
FFFFFFFFFFFFFFFFFFFFFFFFFFFFFFFFFFFFFFFFFFFFFFFFFFFFFFFFFFFFFFFF
310
FFFFFFFFFFFFFFFFFFFFFFFFFFFFFFFFFFFFFFFFFFFFFFFFFFFFFFFFFFFFFFFF
310
FFFFFFFFFFFFFFFFFFFFFFFFFFFFFFFFFFFFFFFFFFFFFFFFFFFFFFFFFFFFFFFF
310
FFFFFFFFFFFFFFFFFFFFFFFFFFFFFFFFFFFFFFFFFFFFFFFFFFFFFFFFFFFFFFFF
310
FFFFFFFFFFFFFFFF0000FFFFFFFFFFFFFFFFFFFFFFFFFFFFFFFFFFFFFFFFFFFF
310
FFFFFFFFFFFFFFFFFFFFFFFFFFFFFFFFFFFFFFFFFFFFFFFFFFFFFFFFFFFCFCFC
310
FFFFFFFFFFFFFFFFFFFFFFFFFFFFFFFFFFFFFFFFFFFFFFFFFFFFFFFFFFFFFFFF
310
FFFFFFFFFFFFFFFFFFFFFFFFFFFFFFFFFFFFFFFFFFFFFFFFFFFFFFFFFFFFFFFF
310
FFFFFFFFFFFFFFFFFFFFFFFEFEFEF9F9F9FBFBFBFBFBFBF7F7F7FFFFFFFFFFFF
310
FFFFFFFFFFFFFFFFFFFFFFFFFFFFFFFFFFFFFFFFFFFFFFFFFFFFFFFFFFFFFFFF
310
FFFFFFFFFFFFFFFDFFFFFBFFFFFBFFFFFBFFFFFDFFFFFFFFFEFFFFFCFFFFFBFF
310
FFF8F1E3D7D5C3B2DCC4B0E6CAB2E8CAADF2CFAEF2CDABFAD7B6E0C2A9DFC4B0
310
E1C7B6E4CDBDECD7C8F8E7DAFFF9F0FFFFF8FFF9F5FFFBFAFDFDFDFAFDFFFAFE
310
FFF6FEFFF5FDFFF6FCFFFDFFFFFFFFFFFFFFFFFFFFFFFFFFFFFFFFFFFFFFFFFF
310
FFFFFFFFFFFFFFFFFFFFFFFFFFFFFFFFFFFFFFFFFFFFFFFFFFFFFFFFFFFFFFFF
310
FFFFFFFFFFFFFFFFFFFFFFFFFFFFFFFFFFFFFFFFFFFFFFFFFFFFFFFFFFFFFFFF
310
FFFFFFFFFFFFFFFFFFFFFFFFFFFFFFFFFFFFFFFFFFFFFFFFFFFFFFFFFFFFFFFF
310
FFFFFFFFFFFFFFFFFFFFFFFFFFFFFFFFFFFFFFFFFFFFFFFFFFFFFFFFFFFFFFFF
310
FFFFFFFFFFFFFFFFFFFFFFFFFFFFFFFFFFFFFFFFFFFFFFFFFFFFFFFFFFFFFFFF
310
FFFFFFFF0000FFFFFFFFFFFFFFFFFFFFFFFFFFFFFFFFFFFFFFFFFFFFFFFFFFFF
310
FFFFFFFFFFFFFFFFFFFFFFFFFFFFFFFFFFFFFFFFFFFFF8F8F8F8F8F8FCFCFCFF
310
FFFFFCFCFCF6F6F6F6F6F6FCFCFCFCFCFCFCFCFCFCFCFCFCFCFCFCFCFCFCFCFC
310
FCFCFCFCFCFCFCFCFCFCFCFCFCFCFCFCFCFCFCFCFCFCFCFCFCFCFCFCFCFCF5F5
310
F5FDFDFDFFFFFFFDFDFDFBFBFBFFFFFFFFFFFFFFFFFFFFFFFFFFFFFFFFFFFFFF
310
FFFFFFFFFFFFFFFFFFFFFFFFFFFFFFFFFFFFFFFFFFFFFFFFFFFFFFFFFFFFFFFF
310
FFFFFFFFFFFFFDFFFFFBFFFFFBFFFFFDFFFFFFFFFEFFFFFEFFFFFCFFFFF9F3EA
310
E0D3C6B8D8C6B5DFCAB5DDC5ADDEC3A8DDC0A1E6CBB0D8C4B2E1D1C4F5E5D9FF
310
F4EBFFFCF4FFFDF6FFFBF4FEF8F3FFFBFAFCFCFCFBFDFEF9FEFFF8FEFFF8FEFF
310
F5FDFFF6FCFFFDFFFFFFFFFFFFFFFFFFFFFFFFFFFFFFFFFFFFFFFFFFFFFFFFFF
310
FFFFFFFFFFFFFFFFFFFFFFFFFFFFFFFFFFFFFFFFFFFFFFFFFFFFFFFFFFFFFFFF
310
FFFFFFFFFFFFFFFFFFFFFFFFFFFFFFFFFFFFFFFFFFFFFFFFFFFFFFFFFFFFFFFF
310
FFFFFFFFFFFFFFFFFFFFFFFFFFFFFFFFFFFFFFFFFFFFFFFFFFFFFFFFFFFFFFFF
310
FFFFFFFFFFFFFFFFFFFFFFFFFFFFFFFFFFFFFFFFFFFFFFFFFFFFFFFFFFFFFFFF
310
FFFFFFFFFFFFFFFFFFFFFFFFFFFFFFFFFFFFFFFFFFFFFFFFFFFFFFFFFFFFFFFF
310
0000FFFFFFFFFFFFFFFFFFFFFFFFFFFFFFFFFFFFFFFFFFFFFFFFFFFFFFFFFFFF
310
FFFFFFFFFFFFFFFFFFFFFFFFFFFFFFFFFFFFFFFFFFFFFFFFFFFFFFFFFFFFFFFF
310
FFFEFEFEFDFDFDFFFFFFFFFFFFFFFFFFFFFFFFFFFFFFFFFFFFFFFFFFFFFFFFFF
310
FFFFFFFFFFFFFFFFFFFFFFFFFFFFFFFFFFFFFFFFFFFFFFFFFFFFFEFEFEFFFFFF
310
FFFFFFFEFEFEFFFFFFFFFFFFFFFFFFFFFFFFFFFFFFFFFFFFFFFFFFFFFFFFFFFF
310
FFFFFFFFFFFFFFFFFFFFFFFFFFFFFFFFFFFFFFFFFFFFFFFFFFFFFFFFFFFFFFFF
310
FFFFFDFFFFFDFFFFFDFFFFFDFFFFFFFFFFFFFFFEFFFFFCFFFFFBE8E2DBCCC3B9
310
D3C7BBDBCCBCDBCAB7DECCB5DECAB1E5D4BFF6EDE0F8F2EBFFFBF4FFFFFBFFFF
310
FBFFFFFCFFFFFCFFFEFDFCFDFBFBFDFDF9FEFDFAFEFFF9FEFFF9FEFFF9FEFFFA
310
FEFFFDFFFFFFFFFFFFFFFFFFFFFFFFFFFFFFFFFFFFFFFFFFFFFFFFFFFFFFFFFF
310
FFFFFFFFFFFFFFFFFFFFFFFFFFFFFFFFFFFFFFFFFFFFFFFFFFFFFFFFFFFFFFFF
310
FFFFFFFFFFFFFFFFFFFFFFFFFFFFFFFFFFFFFFFFFFFFFFFFFFFFFFFFFFFFFFFF
310
FFFFFFFFFFFFFFFFFFFFFFFFFFFFFFFFFFFFFFFFFFFFFFFFFFFFFFFFFFFFFFFF
310
FFFFFFFFFFFFFFFFFFFFFFFFFFFFFFFFFFFFFFFFFFFFFFFFFFFFFFFFFFFFFFFF
310
FFFFFFFFFFFFFFFFFFFFFFFFFFFFFFFFFFFFFFFFFFFFFFFFFFFFFFFF0000FFFF
310
FFFFFFFFFFFFFFFFFFFFFFFFFFFFFFFFFFFFFFFFFFFFFFFFFFFFFFFFFFFFFFFF
310
FFFFFFFFFFFFFFFFFFFFFFFFFFFFFFFFFFFDFDFDFAFAFAFAFAFAFDFDFDFFFFFF
310
FEFEFEFDFDFDFDFDFDFDFDFDFDFDFDFDFDFDFDFDFDFDFDFDFDFDFDFDFDFDFDFD
310
FDFDFDFDFDFDFDFDFDFDFDFDFDFDFDFDFDFDFDFDFDFDFFFFFFFDFDFDFAFAFAF9
310
F9F9FCFCFCFEFEFEFDFDFDFAFAFAFFFFFFFFFFFFFFFFFFFFFFFFFFFFFFFFFFFF
310
FFFFFFFFFFFFFFFFFFFFFFFFFFFFFFFFFFFFFFFFFFFFFFFFFFFFFFFFFFFFFFFF
310
FEFDFFFEFDFFFFFDFFFFFFFFFFFFFFFFFFFFFEFFFFFCEAE7E2D6D3CBE5DED5EE
310
E6D9F4EAD9FFF6E4FFF7E4FFFFEFFFFFF9FFFFFEFFFFFEFEFFFDFEFFFDFEFFFD
310
FFFFFEFDFFFEFCFEFEFCFEFEFCFEFEFCFEFEFCFEFEFCFEFEFCFEFEFCFEFEFFFF
310
FFFFFFFFFFFFFFFFFFFFFFFFFFFFFFFFFFFFFFFFFFFFFFFFFFFFFFFFFFFFFFFF
310
FFFFFFFFFFFFFFFFFFFFFFFFFFFFFFFFFFFFFFFFFFFFFFFFFFFFFFFFFFFFFFFF
310
FFFFFFFFFFFFFFFFFFFFFFFFFFFFFFFFFFFFFFFFFFFFFFFFFFFFFFFFFFFFFFFF
310
FFFFFFFFFFFFFFFFFFFFFFFFFFFFFFFFFFFFFFFFFFFFFFFFFFFFFFFFFFFFFFFF
310
FFFFFFFFFFFFFFFFFFFFFFFFFFFFFFFFFFFFFFFFFFFFFFFFFFFFFFFFFFFFFFFF
310
FFFFFFFFFFFFFFFFFFFFFFFFFFFFFFFFFFFFFFFFFFFFFFFF0000FFFFFFFFFFFF
310
FFFFFFFFFFFFFFFFFFFFFFFFFFFFFFFFFFFFFFFFFFFFFFFFFFFFFFFFFFFFFFFF
310
FFFFFFFFFFFFFFFFFFFFFFFFFFFEFEFEFDFDFDFDFDFDFEFEFEFFFFFFFFFFFFFF
310
FFFFFFFFFFFFFFFFFFFFFFFFFFFFFFFFFFFFFFFFFFFFFFFFFFFFFFFFFFFFFFFF
310
FFFFFFFFFFFFFFFFFFFFFFFFFFFFFFFFFFFFFFFFFFFFFFFFFEFEFEFFFFFFFFFF
310
FFFFFFFFFFFFFFFFFFFFFFFFFFFFFFFFFFFFFFFFFFFFFFFFFFFFFFFFFFFFFFFF
310
FFFFFFFFFFFFFFFFFFFFFFFFFFFFFFFFFFFFFFFFFFFFFFFFFFFFFFFFFEFFFFFC
310
FFFFFEFFFFFEFDFFFFFDFFFFFDFFFFFFFFFEFFFFFEFAF9F5FFFFFBFFFFF5FFFC
310
F1FFFFF4FFFFF2FFFFF5F9FDF8F7FDFCF7FDFCF8FEFDFAFFFEF9FEFDF7FCFAF7
310
FAF8FDFFFEFFFFFEFEFFFDFEFFFBFFFFFBFFFFFBFFFFFBFFFFFCFFFFFFFFFFFF
310
FFFFFFFFFFFFFFFFFFFFFFFFFFFFFFFFFFFFFFFFFFFFFFFFFFFFFFFFFFFFFFFF
310
FFFFFFFFFFFFFFFFFFFFFFFFFFFFFFFFFFFFFFFFFFFFFFFFFFFFFFFFFFFFFFFF
310
FFFFFFFFFFFFFFFFFFFFFFFFFFFFFFFFFFFFFFFFFFFFFFFFFFFFFFFFFFFFFFFF
310
FFFFFFFFFFFFFFFFFFFFFFFFFFFFFFFFFFFFFFFFFFFFFFFFFFFFFFFFFFFFFFFF
310
FFFFFFFFFFFFFFFFFFFFFFFFFFFFFFFFFFFFFFFFFFFFFFFFFFFFFFFFFFFFFFFF
310
FFFFFFFFFFFFFFFFFFFFFFFFFFFFFFFFFFFFFFFF0000FFFFFFFFFFFFFFFFFFFF
310
FFFFFFFFFFFFFFFFFFFFFFFFFFFFFFFFFFFFFFFFFFFFFFFFFFFFFFFFFFFFFFFF
310
FFFFFFFFFFFFFCFCFCFFFFFFFFFFFFFFFFFFFDFDFDFDFDFDFDFDFDFCFCFCFFFF
310
FFFFFFFFFFFFFFFFFFFFFFFFFFFFFFFFFFFFFFFFFFFFFFFFFFFFFFFFFFFFFFFF
310
FFFFFFFFFFFFFFFFFFFFFFFFFFFFFAFAFAFBFBFBFEFEFEFFFFFFFFFFFFFCFCFC
310
FCFCFCFDFDFDFFFFFFFFFFFFFFFFFFFFFFFFFFFFFFFFFFFFFFFFFFFFFFFFFFFF
310
FFFFFFFFFFFFFFFFFFFFFFFFFFFFFFFFFFFFFFFFFFFEFFFFFEFFFFFCFFFFFEFF
310
FFFEFDFFFFFDFFFFFDFFFFFDFFFFFAFDFBF2F6F1FFFFFCFAFBF2FAF8EEFFFFF5
310
FFFFF5FEFEF2FAFFFEF5FFFFF6FEFEF6FEFEFAFFFFFAFFFFFBFFFEFBFFFEFFFF
310
FEFFFFFEFFFFFBFFFFFBFFFFFAFFFFFAFFFFFBFFFFFCFFFFFEFFFFFFFFFFFFFF
310
FFFFFFFFFFFFFFFFFFFFFFFFFFFFFFFFFFFFFFFFFFFFFFFFFFFFFFFFFFFFFFFF
310
FFFFFFFFFFFFFFFFFFFFFFFFFFFFFFFFFFFFFFFFFFFFFFFFFFFFFFFFFFFFFFFF
310
FFFFFFFFFFFFFFFFFFFFFFFFFFFFFFFFFFFFFFFFFFFFFFFFFFFFFFFFFFFFFFFF
310
FFFFFFFFFFFFFFFFFFFFFFFFFFFFFFFFFFFFFFFFFFFFFFFFFFFFFFFFFFFFFFFF
310
FFFFFFFFFFFFFFFFFFFFFFFFFFFFFFFFFFFFFFFFFFFFFFFFFFFFFFFFFFFFFFFF
310
FFFFFFFFFFFFFFFFFFFFFFFFFFFFFFFF00000000000000000000000000000000
310
0000000000000000000000000000000000000000000000000000000000000000
310
0000000000000000000000000000000000000000000000000000000000000000
310
0000000000000000000000000000000000000000000000000000000000000000
310
0000000000000000000000000000000000000000000000000000000000000000
310
0000000000000000000000000000000000000000000000000000000000000000
310
0000000000000000000000000000000000000000000000000000000000000000
310
0000000000000000000000000000000000000000000000000000000000000000
310
0000000000000000000000000000000000000000000000000000000000000000
310
0000000000000000000000000000000000000000000000000000000000000000
  1
OLE
  0
ENDSEC
  0
SECTION
  2
OBJECTS
  0
DICTIONARY
  5
C
330
0
100
AcDbDictionary
  3
ACAD_GROUP
350
D
  3
ACAD_MLINESTYLE
350
17
  0
DICTIONARY
  5
D
102
{ACAD_REACTORS
330
C
102
}
330
C
100
AcDbDictionary
  0
DICTIONARY
  5
17
102
{ACAD_REACTORS
330
C
102
}
330
C
100
AcDbDictionary
  3
STANDARD
350
18
  0
MLINESTYLE
  5
18
102
{ACAD_REACTORS
330
17
102
}
330
17
100
AcDbMlineStyle
  2
Standard
 70
     0
  3

 62
   256
 51
90.0
 52
90.0
 71
     2
 49
0.5
 62
   256
  6
BYLAYER
 49
-0.5
 62
   256
  6
BYLAYER
  0
ENDSEC
  0
EOF
